  0
SECTION
  2
HEADER
  9
$ACADVER
  1
AC1009
  9
$INSBASE
 10
402.590624
 20
-1.041018
 30
0.0
  9
$EXTMIN
 10
141.430093
 20
19.228457
 30
0.0
  9
$EXTMAX
 10
232.531377
 20
228.428457
 30
0.0
  9
$LIMMIN
 10
-407.970438
 20
-367.832444
  9
$LIMMAX
 10
429.804077
 20
234.370848
  9
$ORTHOMODE
 70
     1
  9
$REGENMODE
 70
     1
  9
$FILLMODE
 70
     1
  9
$QTEXTMODE
 70
     0
  9
$MIRRTEXT
 70
     1
  9
$DRAGMODE
 70
     2
  9
$LTSCALE
 40
10.0
  9
$OSMODE
 70
    33
  9
$ATTMODE
 70
     1
  9
$TEXTSIZE
 40
6.0
  9
$TRACEWID
 40
1.0
  9
$TEXTSTYLE
  7
ROMANS
  9
$CLAYER
  8
ALPHA
  9
$CELTYPE
  6
BYLAYER
  9
$CECOLOR
 62
   256
  9
$DIMSCALE
 40
1.0
  9
$DIMASZ
 40
5.0
  9
$DIMEXO
 40
2.0
  9
$DIMDLI
 40
0.38
  9
$DIMRND
 40
0.0
  9
$DIMDLE
 40
0.0
  9
$DIMEXE
 40
2.5
  9
$DIMTP
 40
0.0
  9
$DIMTM
 40
0.0
  9
$DIMTXT
 40
2.5
  9
$DIMCEN
 40
0.0
  9
$DIMTSZ
 40
0.0
  9
$DIMTOL
 70
     0
  9
$DIMLIM
 70
     0
  9
$DIMTIH
 70
     1
  9
$DIMTOH
 70
     1
  9
$DIMSE1
 70
     0
  9
$DIMSE2
 70
     0
  9
$DIMTAD
 70
     1
  9
$DIMZIN
 70
    12
  9
$DIMBLK
  1
OPEN30
  9
$DIMASO
 70
     1
  9
$DIMSHO
 70
     1
  9
$DIMPOST
  1

  9
$DIMAPOST
  1

  9
$DIMALT
 70
     0
  9
$DIMALTD
 70
     2
  9
$DIMALTF
 40
25.4
  9
$DIMLFAC
 40
1.0
  9
$DIMTOFL
 70
     0
  9
$DIMTVP
 40
0.0
  9
$DIMTIX
 70
     0
  9
$DIMSOXD
 70
     0
  9
$DIMSAH
 70
     0
  9
$DIMBLK1
  1

  9
$DIMBLK2
  1

  9
$DIMSTYLE
  2
SC_DEFAUT
  9
$DIMCLRD
 70
     0
  9
$DIMCLRE
 70
     0
  9
$DIMCLRT
 70
     0
  9
$DIMTFAC
 40
1.0
  9
$DIMGAP
 40
2.0
  9
$LUNITS
 70
     2
  9
$LUPREC
 70
     1
  9
$SKETCHINC
 40
0.1
  9
$FILLETRAD
 40
0.0
  9
$AUNITS
 70
     0
  9
$AUPREC
 70
     0
  9
$MENU
  1
acad
  9
$ELEVATION
 40
0.0
  9
$PELEVATION
 40
0.0
  9
$THICKNESS
 40
0.0
  9
$LIMCHECK
 70
     0
  9
$BLIPMODE
 70
     0
  9
$CHAMFERA
 40
0.0
  9
$CHAMFERB
 40
0.0
  9
$SKPOLY
 70
     0
  9
$TDCREATE
 40
2450373.687919
  9
$TDUPDATE
 40
2452839.602753
  9
$TDINDWG
 40
1.73881
  9
$TDUSRTIMER
 40
1.73881
  9
$USRTIMER
 70
     1
  9
$ANGBASE
 50
0.0
  9
$ANGDIR
 70
     0
  9
$PDMODE
 70
    32
  9
$PDSIZE
 40
0.0
  9
$PLINEWID
 40
0.0
  9
$COORDS
 70
     1
  9
$SPLFRAME
 70
     0
  9
$SPLINETYPE
 70
     6
  9
$SPLINESEGS
 70
     8
  9
$ATTDIA
 70
     0
  9
$ATTREQ
 70
     1
  9
$HANDLING
 70
     1
  9
$HANDSEED
  5
1415C
  9
$SURFTAB1
 70
     6
  9
$SURFTAB2
 70
     6
  9
$SURFTYPE
 70
     6
  9
$SURFU
 70
     6
  9
$SURFV
 70
     6
  9
$UCSNAME
  2

  9
$UCSORG
 10
0.0
 20
0.0
 30
0.0
  9
$UCSXDIR
 10
1.0
 20
0.0
 30
0.0
  9
$UCSYDIR
 10
0.0
 20
1.0
 30
0.0
  9
$PUCSNAME
  2

  9
$PUCSORG
 10
0.0
 20
0.0
 30
0.0
  9
$PUCSXDIR
 10
1.0
 20
0.0
 30
0.0
  9
$PUCSYDIR
 10
0.0
 20
1.0
 30
0.0
  9
$USERI1
 70
     0
  9
$USERI2
 70
     0
  9
$USERI3
 70
     0
  9
$USERI4
 70
     0
  9
$USERI5
 70
     0
  9
$USERR1
 40
0.0
  9
$USERR2
 40
0.0
  9
$USERR3
 40
0.0
  9
$USERR4
 40
0.0
  9
$USERR5
 40
0.0
  9
$WORLDVIEW
 70
     1
  9
$SHADEDGE
 70
     3
  9
$SHADEDIF
 70
    70
  9
$TILEMODE
 70
     1
  9
$MAXACTVP
 70
    16
  9
$PLIMCHECK
 70
     0
  9
$PEXTMIN
 10
-1.452248
 20
-0.437698
 30
0.0
  9
$PEXTMAX
 10
12.749749
 20
8.310198
 30
0.0
  9
$PLIMMIN
 10
0.0
 20
0.0
  9
$PLIMMAX
 10
12.0
 20
9.0
  9
$UNITMODE
 70
     0
  9
$VISRETAIN
 70
     0
  9
$PLINEGEN
 70
     0
  9
$PSLTSCALE
 70
     0
  0
ENDSEC
  0
SECTION
  2
TABLES
  0
TABLE
  2
VPORT
 70
     2
  0
VPORT
  2
*ACTIVE
 70
     0
 10
0.0
 20
0.0
 11
1.0
 21
1.0
 12
186.976537
 22
123.823872
 13
0.0
 23
0.0
 14
1.0
 24
1.0
 15
10.0
 25
10.0
 16
0.0
 26
0.0
 36
1.0
 17
0.0
 27
0.0
 37
0.0
 40
211.068282
 41
1.56
 42
50.0
 43
0.0
 44
0.0
 50
0.0
 51
0.0
 71
     0
 72
   100
 73
     1
 74
     0
 75
     0
 76
     0
 77
     0
 78
     0
  0
ENDTAB
  0
TABLE
  2
LTYPE
 70
     2
  0
LTYPE
  2
CONTINUOUS
 70
     0
  3
Solid line
 72
    65
 73
     0
 40
0.0
  0
LTYPE
  2
AXES2
 70
     0
  3
___ _ ___ _ ___ _ ___ _ ___ _ ___ _ ___ _ ___ _
 72
    65
 73
     4
 40
1.125
 49
0.75
 49
-0.125
 49
0.125
 49
-0.125
  0
ENDTAB
  0
TABLE
  2
LAYER
 70
     5
  0
LAYER
  2
0
 70
     0
 62
   255
  6
CONTINUOUS
  0
LAYER
  2
COTATION1
 70
     0
 62
     2
  6
CONTINUOUS
  0
LAYER
  2
AXE
 70
     0
 62
    80
  6
AXES2
  0
LAYER
  2
DEFPOINTS
 70
     0
 62
     7
  6
CONTINUOUS
  0
LAYER
  2
ALPHA
 70
     0
 62
   254
  6
CONTINUOUS
  0
ENDTAB
  0
TABLE
  2
STYLE
 70
     2
  0
STYLE
  2
ROMANS
 70
     0
 40
0.0
 41
1.0
 50
0.0
 71
     0
 42
6.0
  3
romans
  4

  0
STYLE
  2
STANDARD
 70
     0
 40
0.2
 41
1.0
 50
0.0
 71
     0
 42
0.2
  3
txt
  4

  0
ENDTAB
  0
TABLE
  2
VIEW
 70
     0
  0
ENDTAB
  0
TABLE
  2
UCS
 70
     0
  0
ENDTAB
  0
TABLE
  2
APPID
 70
     1
  0
APPID
  2
ACAD
 70
     0
  0
ENDTAB
  0
TABLE
  2
DIMSTYLE
 70
     1
  0
DIMSTYLE
  2
SC_DEFAUT
 70
     0
  3

  4

  5
OPEN30
  6

  7

 40
1.0
 41
5.0
 42
2.0
 43
0.38
 44
2.5
 45
0.0
 46
0.0
 47
0.0
 48
0.0
140
2.5
141
0.0
142
0.0
143
25.4
144
1.0
145
0.0
146
1.0
147
2.0
 71
     0
 72
     0
 73
     1
 74
     1
 75
     0
 76
     0
 77
     1
 78
    12
170
     0
171
     2
172
     0
173
     0
174
     0
175
     0
176
     0
177
     0
178
     0
  0
ENDTAB
  0
ENDSEC
  0
SECTION
  2
BLOCKS
  0
BLOCK
  8
0
  2
$MODEL_SPACE
 70
     0
 10
0.0
 20
0.0
 30
0.0
  3
$MODEL_SPACE
  1

  0
ENDBLK
  5
1414B
  8
0
  0
BLOCK
 67
     1
  8
0
  2
$PAPER_SPACE
 70
     0
 10
0.0
 20
0.0
 30
0.0
  3
$PAPER_SPACE
  1

  0
ENDBLK
  5
14149
 67
     1
  8
0
  0
BLOCK
  8
0
  2
COTE
 70
     0
 10
0.0
 20
0.0
 30
0.0
  3
COTE
  1

  0
ENDBLK
  5
F
  8
0
  0
BLOCK
  8
0
  2
FOND
 70
     0
 10
0.0
 20
0.0
 30
0.0
  3
FOND
  1

  0
ENDBLK
  5
75
  8
0
  0
BLOCK
  8
0
  2
_OPEN30
 70
     0
 10
0.0
 20
0.0
 30
0.0
  3
_OPEN30
  1

  0
LINE
  5
4B05
  8
COTATION1
 62
     0
 10
-1.0
 20
0.267949
 30
0.0
 11
0.0
 21
0.0
 31
0.0
1001
ACAD
1000
RTLwPs
1070
   158
  0
LINE
  5
4B06
  8
COTATION1
 62
     0
 10
0.0
 20
0.0
 30
0.0
 11
-1.0
 21
-0.267949
 31
0.0
1001
ACAD
1000
RTLwPs
1070
   158
  0
LINE
  5
4B07
  8
COTATION1
 62
     0
 10
0.0
 20
0.0
 30
0.0
 11
-1.0
 21
0.0
 31
0.0
1001
ACAD
1000
RTLwPs
1070
   158
  0
ENDBLK
  5
4B09
  8
0
  0
BLOCK
  8
0
  2
*D3
 70
     1
 10
0.0
 20
0.0
 30
0.0
  3
*D3
  1

  0
LINE
  5
140AB
  8
COTATION1
 62
     0
 10
168.168189
 20
188.928457
 30
0.0
 11
226.63852
 21
188.928457
 31
0.0
1001
ACAD
1000
RTLwPs
1070
   158
  0
LINE
  5
140AC
  8
COTATION1
 62
     0
 10
203.518189
 20
67.728457
 30
0.0
 11
226.63852
 21
67.728457
 31
0.0
1001
ACAD
1000
RTLwPs
1070
   158
  0
LINE
  5
140AD
  8
COTATION1
 62
     0
 10
224.13852
 20
183.928457
 30
0.0
 11
224.13852
 21
131.578457
 31
0.0
1001
ACAD
1000
RTLwPs
1070
   158
  0
LINE
  5
140AE
  8
COTATION1
 62
     0
 10
224.13852
 20
72.728457
 30
0.0
 11
224.13852
 21
125.078457
 31
0.0
1001
ACAD
1000
RTLwPs
1070
   158
  0
INSERT
  5
140AF
  8
COTATION1
 62
     0
  2
_OPEN30
 10
224.13852
 20
188.928457
 30
0.0
 41
5.0
 42
5.0
 43
5.0
 50
90.0
1001
ACAD
1000
RTLwPs
1070
   158
  0
INSERT
  5
140B0
  8
COTATION1
 62
     0
  2
_OPEN30
 10
224.13852
 20
67.728457
 30
0.0
 41
5.0
 42
5.0
 43
5.0
 50
270.0
1001
ACAD
1000
RTLwPs
1070
   158
  0
TEXT
  5
140B1
  8
COTATION1
 62
     0
 10
215.031377
 20
127.078457
 30
0.0
 40
2.5
  1
108...157
1001
ACAD
1000
MTEXTBEGIN
1070
    73
1070
     1
1070
    44
1040
1.0
1070
    74
1070
     0
1000
MTEXTEND
  0
POINT
  5
140B2
  8
DEFPOINTS
 62
     0
 10
166.168189
 20
188.928457
 30
0.0
  0
POINT
  5
140B3
  8
DEFPOINTS
 62
     0
 10
201.518189
 20
67.728457
 30
0.0
  0
POINT
  5
140B4
  8
DEFPOINTS
 62
     0
 10
224.13852
 20
67.728457
 30
0.0
  0
ENDBLK
  5
FAFF
  8
0
  0
BLOCK
  8
0
  2
*D4
 70
     1
 10
0.0
 20
0.0
 30
0.0
  3
*D4
  1

  0
LINE
  5
FB95
  8
COTATION1
 62
     0
 10
176.518189
 20
112.728457
 30
0.0
 11
176.518189
 21
39.228457
 31
0.0
1001
ACAD
1000
RTLwPs
1070
   158
  0
LINE
  5
FB96
  8
COTATION1
 62
     0
 10
201.518189
 20
65.728457
 30
0.0
 11
201.518189
 21
39.228457
 31
0.0
1001
ACAD
1000
RTLwPs
1070
   158
  0
LINE
  5
FB97
  8
COTATION1
 62
     0
 10
181.518189
 20
41.728457
 30
0.0
 11
196.518189
 21
41.728457
 31
0.0
1001
ACAD
1000
RTLwPs
1070
   158
  0
INSERT
  5
FB98
  8
COTATION1
 62
     0
  2
_OPEN30
 10
176.518189
 20
41.728457
 30
0.0
 41
5.0
 42
5.0
 43
5.0
 50
180.0
1001
ACAD
1000
RTLwPs
1070
   158
  0
INSERT
  5
FB99
  8
COTATION1
 62
     0
  2
_OPEN30
 10
201.518189
 20
41.728457
 30
0.0
 41
5.0
 42
5.0
 43
5.0
1001
ACAD
1000
RTLwPs
1070
   158
  0
TEXT
  5
FB9A
  8
COTATION1
 62
     0
 10
186.637236
 20
43.728457
 30
0.0
 40
2.5
  1
25
1001
ACAD
1000
MTEXTBEGIN
1070
    73
1070
     1
1070
    44
1040
1.0
1070
    74
1070
     0
1000
MTEXTEND
1000
MTEXTBEGIN
1070
    73
1070
     1
1070
    44
1040
1.0
1070
    74
1070
     0
1000
MTEXTEND
1000
MTEXTBEGIN
1070
    73
1070
     1
1070
    44
1040
1.0
1070
    74
1070
     0
1000
MTEXTEND
1000
MTEXTBEGIN
1070
    73
1070
     1
1070
    44
1040
1.0
1070
    74
1070
     0
1000
MTEXTEND
1000
MTEXTBEGIN
1070
    73
1070
     1
1070
    44
1040
1.0
1070
    74
1070
     0
1000
MTEXTEND
1000
MTEXTBEGIN
1070
    73
1070
     1
1070
    44
1040
1.0
1070
    74
1070
     0
1000
MTEXTEND
1000
MTEXTBEGIN
1070
    73
1070
     1
1070
    44
1040
1.0
1070
    74
1070
     0
1000
MTEXTEND
1000
MTEXTBEGIN
1070
    73
1070
     1
1070
    44
1040
1.0
1070
    74
1070
     0
1000
MTEXTEND
1000
MTEXTBEGIN
1070
    73
1070
     1
1070
    44
1040
1.0
1070
    74
1070
     0
1000
MTEXTEND
1000
MTEXTBEGIN
1070
    73
1070
     1
1070
    44
1040
1.0
1070
    74
1070
     0
1000
MTEXTEND
1000
MTEXTBEGIN
1070
    73
1070
     1
1070
    44
1040
1.0
1070
    74
1070
     0
1000
MTEXTEND
1000
MTEXTBEGIN
1070
    73
1070
     1
1070
    44
1040
1.0
1070
    74
1070
     0
1000
MTEXTEND
  0
POINT
  5
FB9B
  8
DEFPOINTS
 62
     0
 10
176.518189
 20
114.728457
 30
0.0
  0
POINT
  5
FB9C
  8
DEFPOINTS
 62
     0
 10
201.518189
 20
67.728457
 30
0.0
  0
POINT
  5
FB9D
  8
DEFPOINTS
 62
     0
 10
201.518189
 20
41.728457
 30
0.0
  0
ENDBLK
  5
FB6D
  8
0
  0
BLOCK
  8
0
  2
*D5
 70
     1
 10
0.0
 20
0.0
 30
0.0
  3
*D5
  1

  0
LINE
  5
FBB0
  8
COTATION1
 62
     0
 10
171.518189
 20
65.728457
 30
0.0
 11
171.518189
 21
29.228457
 31
0.0
1001
ACAD
1000
RTLwPs
1070
   158
  0
LINE
  5
FBB1
  8
COTATION1
 62
     0
 10
201.518189
 20
65.728457
 30
0.0
 11
201.518189
 21
29.228457
 31
0.0
1001
ACAD
1000
RTLwPs
1070
   158
  0
LINE
  5
FBB2
  8
COTATION1
 62
     0
 10
176.518189
 20
31.728457
 30
0.0
 11
196.518189
 21
31.728457
 31
0.0
1001
ACAD
1000
RTLwPs
1070
   158
  0
INSERT
  5
FBB3
  8
COTATION1
 62
     0
  2
_OPEN30
 10
171.518189
 20
31.728457
 30
0.0
 41
5.0
 42
5.0
 43
5.0
 50
180.0
1001
ACAD
1000
RTLwPs
1070
   158
  0
INSERT
  5
FBB4
  8
COTATION1
 62
     0
  2
_OPEN30
 10
201.518189
 20
31.728457
 30
0.0
 41
5.0
 42
5.0
 43
5.0
1001
ACAD
1000
RTLwPs
1070
   158
  0
TEXT
  5
FBB5
  8
COTATION1
 62
     0
 10
184.137236
 20
33.728457
 30
0.0
 40
2.5
  1
30
1001
ACAD
1000
MTEXTBEGIN
1070
    73
1070
     1
1070
    44
1040
1.0
1070
    74
1070
     0
1000
MTEXTEND
1000
MTEXTBEGIN
1070
    73
1070
     1
1070
    44
1040
1.0
1070
    74
1070
     0
1000
MTEXTEND
1000
MTEXTBEGIN
1070
    73
1070
     1
1070
    44
1040
1.0
1070
    74
1070
     0
1000
MTEXTEND
1000
MTEXTBEGIN
1070
    73
1070
     1
1070
    44
1040
1.0
1070
    74
1070
     0
1000
MTEXTEND
1000
MTEXTBEGIN
1070
    73
1070
     1
1070
    44
1040
1.0
1070
    74
1070
     0
1000
MTEXTEND
1000
MTEXTBEGIN
1070
    73
1070
     1
1070
    44
1040
1.0
1070
    74
1070
     0
1000
MTEXTEND
1000
MTEXTBEGIN
1070
    73
1070
     1
1070
    44
1040
1.0
1070
    74
1070
     0
1000
MTEXTEND
1000
MTEXTBEGIN
1070
    73
1070
     1
1070
    44
1040
1.0
1070
    74
1070
     0
1000
MTEXTEND
1000
MTEXTBEGIN
1070
    73
1070
     1
1070
    44
1040
1.0
1070
    74
1070
     0
1000
MTEXTEND
1000
MTEXTBEGIN
1070
    73
1070
     1
1070
    44
1040
1.0
1070
    74
1070
     0
1000
MTEXTEND
1000
MTEXTBEGIN
1070
    73
1070
     1
1070
    44
1040
1.0
1070
    74
1070
     0
1000
MTEXTEND
1000
MTEXTBEGIN
1070
    73
1070
     1
1070
    44
1040
1.0
1070
    74
1070
     0
1000
MTEXTEND
  0
POINT
  5
FBB6
  8
DEFPOINTS
 62
     0
 10
171.518189
 20
67.728457
 30
0.0
  0
POINT
  5
FBB7
  8
DEFPOINTS
 62
     0
 10
201.518189
 20
67.728457
 30
0.0
  0
POINT
  5
FBB8
  8
DEFPOINTS
 62
     0
 10
201.518189
 20
31.728457
 30
0.0
  0
ENDBLK
  5
FB79
  8
0
  0
BLOCK
  8
0
  2
*D6
 70
     1
 10
0.0
 20
0.0
 30
0.0
  3
*D6
  1

  0
LINE
  5
140B5
  8
COTATION1
 62
     0
 10
160.668189
 20
190.928457
 30
0.0
 11
160.668189
 21
206.428457
 31
0.0
1001
ACAD
1000
RTLwPs
1070
   158
  0
LINE
  5
140B6
  8
COTATION1
 62
     0
 10
166.168189
 20
190.928457
 30
0.0
 11
166.168189
 21
206.428457
 31
0.0
1001
ACAD
1000
RTLwPs
1070
   158
  0
LINE
  5
140B7
  8
COTATION1
 62
     0
 10
171.168189
 20
203.928457
 30
0.0
 11
176.168189
 21
203.928457
 31
0.0
1001
ACAD
1000
RTLwPs
1070
   158
  0
LINE
  5
140B8
  8
COTATION1
 62
     0
 10
155.668189
 20
203.928457
 30
0.0
 11
141.430093
 21
203.928457
 31
0.0
1001
ACAD
1000
RTLwPs
1070
   158
  0
INSERT
  5
140B9
  8
COTATION1
 62
     0
  2
_OPEN30
 10
166.168189
 20
203.928457
 30
0.0
 41
5.0
 42
5.0
 43
5.0
 50
180.0
1001
ACAD
1000
RTLwPs
1070
   158
  0
INSERT
  5
140BA
  8
COTATION1
 62
     0
  2
_OPEN30
 10
160.668189
 20
203.928457
 30
0.0
 41
5.0
 42
5.0
 43
5.0
1001
ACAD
1000
RTLwPs
1070
   158
  0
TEXT
  5
140BB
  8
COTATION1
 62
     0
 10
143.072951
 20
205.928457
 30
0.0
 40
2.5
  1
5.5
1001
ACAD
1000
MTEXTBEGIN
1070
    73
1070
     1
1070
    44
1040
1.0
1070
    74
1070
     0
1000
MTEXTEND
  0
POINT
  5
140BC
  8
DEFPOINTS
 62
     0
 10
160.668189
 20
188.928457
 30
0.0
  0
POINT
  5
140BD
  8
DEFPOINTS
 62
     0
 10
166.168189
 20
188.928457
 30
0.0
  0
POINT
  5
140BE
  8
DEFPOINTS
 62
     0
 10
166.168189
 20
203.928457
 30
0.0
  0
ENDBLK
  5
10D96
  8
0
  0
BLOCK
  8
0
  2
*D7
 70
     1
 10
0.0
 20
0.0
 30
0.0
  3
*D7
  1

  0
LINE
  5
140C8
  8
COTATION1
 62
     0
 10
159.218189
 20
183.950052
 30
0.0
 11
159.218189
 21
226.428457
 31
0.0
1001
ACAD
1000
RTLwPs
1070
   158
  0
LINE
  5
140C9
  8
COTATION1
 62
     0
 10
201.518189
 20
151.578457
 30
0.0
 11
201.518189
 21
226.428457
 31
0.0
1001
ACAD
1000
RTLwPs
1070
   158
  0
LINE
  5
140CA
  8
COTATION1
 62
     0
 10
164.218189
 20
223.928457
 30
0.0
 11
196.518189
 21
223.928457
 31
0.0
1001
ACAD
1000
RTLwPs
1070
   158
  0
INSERT
  5
140CB
  8
COTATION1
 62
     0
  2
_OPEN30
 10
159.218189
 20
223.928457
 30
0.0
 41
5.0
 42
5.0
 43
5.0
 50
180.0
1001
ACAD
1000
RTLwPs
1070
   158
  0
INSERT
  5
140CC
  8
COTATION1
 62
     0
  2
_OPEN30
 10
201.518189
 20
223.928457
 30
0.0
 41
5.0
 42
5.0
 43
5.0
1001
ACAD
1000
RTLwPs
1070
   158
  0
TEXT
  5
140CD
  8
COTATION1
 62
     0
 10
177.451522
 20
225.928457
 30
0.0
 40
2.5
  1
42.3
1001
ACAD
1000
MTEXTBEGIN
1070
    73
1070
     1
1070
    44
1040
1.0
1070
    74
1070
     0
1000
MTEXTEND
  0
POINT
  5
140CE
  8
DEFPOINTS
 62
     0
 10
159.218189
 20
181.950052
 30
0.0
  0
POINT
  5
140CF
  8
DEFPOINTS
 62
     0
 10
201.518189
 20
149.578457
 30
0.0
  0
POINT
  5
140D0
  8
DEFPOINTS
 62
     0
 10
201.518189
 20
223.928457
 30
0.0
  0
ENDBLK
  5
12AAD
  8
0
  0
BLOCK
  8
0
  2
*D8
 70
     1
 10
0.0
 20
0.0
 30
0.0
  3
*D8
  1

  0
LINE
  5
140BF
  8
COTATION1
 62
     0
 10
163.418189
 20
195.928457
 30
0.0
 11
163.418189
 21
216.428457
 31
0.0
1001
ACAD
1000
RTLwPs
1070
   158
  0
LINE
  5
140C0
  8
COTATION1
 62
     0
 10
201.518189
 20
151.578457
 30
0.0
 11
201.518189
 21
216.428457
 31
0.0
1001
ACAD
1000
RTLwPs
1070
   158
  0
LINE
  5
140C1
  8
COTATION1
 62
     0
 10
168.418189
 20
213.928457
 30
0.0
 11
196.518189
 21
213.928457
 31
0.0
1001
ACAD
1000
RTLwPs
1070
   158
  0
INSERT
  5
140C2
  8
COTATION1
 62
     0
  2
_OPEN30
 10
163.418189
 20
213.928457
 30
0.0
 41
5.0
 42
5.0
 43
5.0
 50
180.0
1001
ACAD
1000
RTLwPs
1070
   158
  0
INSERT
  5
140C3
  8
COTATION1
 62
     0
  2
_OPEN30
 10
201.518189
 20
213.928457
 30
0.0
 41
5.0
 42
5.0
 43
5.0
1001
ACAD
1000
RTLwPs
1070
   158
  0
TEXT
  5
140C4
  8
COTATION1
 62
     0
 10
178.658665
 20
215.928457
 30
0.0
 40
2.5
  1
38.1
1001
ACAD
1000
MTEXTBEGIN
1070
    73
1070
     1
1070
    44
1040
1.0
1070
    74
1070
     0
1000
MTEXTEND
  0
POINT
  5
140C5
  8
DEFPOINTS
 62
     0
 10
163.418189
 20
193.928457
 30
0.0
  0
POINT
  5
140C6
  8
DEFPOINTS
 62
     0
 10
201.518189
 20
149.578457
 30
0.0
  0
POINT
  5
140C7
  8
DEFPOINTS
 62
     0
 10
201.518189
 20
213.928457
 30
0.0
  0
ENDBLK
  5
12AEB
  8
0
  0
BLOCK
  8
0
  2
*D9
 70
     1
 10
0.0
 20
0.0
 30
0.0
  3
*D9
  1

  0
LINE
  5
13AE1
  8
COTATION1
 62
     0
 10
161.818189
 20
138.83625
 30
0.0
 11
161.818189
 21
19.228457
 31
0.0
1001
ACAD
1000
RTLwPs
1070
   158
  0
LINE
  5
13AE2
  8
COTATION1
 62
     0
 10
201.518189
 20
55.728457
 30
0.0
 11
201.518189
 21
19.228457
 31
0.0
1001
ACAD
1000
RTLwPs
1070
   158
  0
LINE
  5
13AE3
  8
COTATION1
 62
     0
 10
166.818189
 20
21.728457
 30
0.0
 11
196.518189
 21
21.728457
 31
0.0
1001
ACAD
1000
RTLwPs
1070
   158
  0
INSERT
  5
13AE4
  8
COTATION1
 62
     0
  2
_OPEN30
 10
161.818189
 20
21.728457
 30
0.0
 41
5.0
 42
5.0
 43
5.0
 50
180.0
1001
ACAD
1000
RTLwPs
1070
   158
  0
INSERT
  5
13AE5
  8
COTATION1
 62
     0
  2
_OPEN30
 10
201.518189
 20
21.728457
 30
0.0
 41
5.0
 42
5.0
 43
5.0
1001
ACAD
1000
RTLwPs
1070
   158
  0
TEXT
  5
13AE6
  8
COTATION1
 62
     0
 10
177.501522
 20
23.728457
 30
0.0
 40
2.5
  1
39.7
1001
ACAD
1000
MTEXTBEGIN
1070
    73
1070
     1
1070
    44
1040
1.0
1070
    74
1070
     0
1000
MTEXTEND
1000
MTEXTBEGIN
1070
    73
1070
     1
1070
    44
1040
1.0
1070
    74
1070
     0
1000
MTEXTEND
1000
MTEXTBEGIN
1070
    73
1070
     1
1070
    44
1040
1.0
1070
    74
1070
     0
1000
MTEXTEND
  0
POINT
  5
13AE7
  8
DEFPOINTS
 62
     0
 10
161.818189
 20
140.83625
 30
0.0
  0
POINT
  5
13AE8
  8
DEFPOINTS
 62
     0
 10
201.518189
 20
57.728457
 30
0.0
  0
POINT
  5
13AE9
  8
DEFPOINTS
 62
     0
 10
201.518189
 20
21.728457
 30
0.0
  0
ENDBLK
  5
12B30
  8
0
  0
ENDSEC
  0
SECTION
  2
ENTITIES
  0
INSERT
  5
A
  8
0
  2
COTE
 10
0.0
 20
0.0
 30
0.0
  0
INSERT
  5
17
  8
0
  2
COTE
 10
284.010391
 20
6.373258
 30
0.0
  0
INSERT
  5
72
  8
0
  2
FOND
 10
0.0
 20
0.0
 30
0.0
  0
LINE
  5
FA20
  8
ALPHA
 10
171.518189
 20
67.728457
 30
0.0
 11
201.518189
 21
67.728457
 31
0.0
  0
LINE
  5
FA21
  8
ALPHA
 10
201.518189
 20
67.728457
 30
0.0
 11
201.518189
 21
149.578457
 31
0.0
  0
LINE
  5
FA23
  8
ALPHA
 10
171.518189
 20
67.728457
 30
0.0
 11
171.518189
 21
114.728457
 31
0.0
  0
LINE
  5
FA26
  8
ALPHA
 10
176.518189
 20
114.728457
 30
0.0
 11
176.518189
 21
149.578457
 31
0.0
  0
LINE
  5
FA30
  8
ALPHA
 10
176.518189
 20
132.228457
 30
0.0
 11
183.518189
 21
132.228457
 31
0.0
  0
LINE
  5
FA32
  8
ALPHA
 10
183.518189
 20
132.228457
 30
0.0
 11
183.518189
 21
128.228457
 31
0.0
  0
LINE
  5
FA35
  8
ALPHA
 10
201.518189
 20
132.228457
 30
0.0
 11
194.518189
 21
132.228457
 31
0.0
  0
LINE
  5
FA37
  8
ALPHA
 10
194.518189
 20
132.228457
 30
0.0
 11
194.518189
 21
128.228457
 31
0.0
  0
LINE
  5
FA38
  8
ALPHA
 10
175.218189
 20
128.228457
 30
0.0
 11
201.518189
 21
128.228457
 31
0.0
  0
LINE
  5
FA39
  8
ALPHA
 10
175.218189
 20
69.728457
 30
0.0
 11
175.218189
 21
128.228457
 31
0.0
  0
LINE
  5
FA3A
  8
ALPHA
 10
171.518189
 20
114.728457
 30
0.0
 11
176.518189
 21
114.728457
 31
0.0
  0
LINE
  5
FA3B
  8
ALPHA
 10
171.518189
 20
69.728457
 30
0.0
 11
175.218189
 21
69.728457
 31
0.0
  0
ARC
  5
FA8D
  8
ALPHA
 10
202.0589
 20
115.533979
 30
0.0
 40
30.551333
 50
157.335498
 51
181.510846
  0
ARC
  5
FA8E
  8
ALPHA
 10
175.251909
 20
126.727707
 30
0.0
 40
1.501129
 50
91.287148
 51
157.32246
  0
DIMENSION
  5
FAE0
  8
COTATION1
  2
*D3
 10
224.13852
 20
67.728457
 30
0.0
 11
224.13852
 21
128.328457
 31
0.0
  1
108...157
 13
166.168189
 23
188.928457
 33
0.0
 14
201.518189
 24
67.728457
 34
0.0
 50
90.0
  0
LINE
  5
FAE4
  8
AXE
 10
189.018189
 20
154.578457
 30
0.0
 11
189.018189
 21
51.728457
 31
0.0
  0
TEXT
  5
FAE5
  8
AXE
 10
181.541998
 20
51.728457
 30
0.0
 40
8.0
  1
Y
 72
     2
 11
188.018189
 21
51.728457
 31
0.0
  0
LINE
  5
FB2B
  8
AXE
 10
160.760223
 20
102.728457
 30
0.0
 11
214.018189
 21
102.728457
 31
0.0
  0
TEXT
  5
FB2C
  8
AXE
 10
207.541998
 20
103.728457
 30
0.0
 40
8.0
  1
Z
 72
     2
 11
214.018189
 21
103.728457
 31
0.0
  0
DIMENSION
  5
FB60
  8
COTATION1
  2
*D5
 10
201.518189
 20
31.728457
 30
0.0
 11
186.518189
 21
34.978457
 31
0.0
 13
171.518189
 23
67.728457
 33
0.0
 14
201.518189
 24
67.728457
 34
0.0
  0
DIMENSION
  5
FB61
  8
COTATION1
  2
*D4
 10
201.518189
 20
41.728457
 30
0.0
 11
189.018189
 21
44.978457
 31
0.0
 13
176.518189
 23
114.728457
 33
0.0
 14
201.518189
 24
67.728457
 34
0.0
  0
DIMENSION
  5
10D89
  8
COTATION1
  2
*D6
 10
166.168189
 20
203.928457
 30
0.0
 11
146.049141
 21
203.928457
 31
0.0
 70
   128
 13
160.668189
 23
188.928457
 33
0.0
 14
166.168189
 24
188.928457
 34
0.0
  0
LINE
  5
123D3
  8
ALPHA
 10
160.668189
 20
188.928457
 30
0.0
 11
166.168189
 21
188.928457
 31
0.0
  0
LINE
  5
12834
  8
AXE
 10
163.418189
 20
164.928457
 30
0.0
 11
163.418189
 21
193.928457
 31
0.0
  0
LINE
  5
12835
  8
ALPHA
 10
160.668189
 20
169.928457
 30
0.0
 11
160.668189
 21
188.928457
 31
0.0
  0
LINE
  5
12836
  8
ALPHA
 10
166.868189
 20
97.928457
 30
0.0
 11
166.868189
 21
184.928457
 31
0.0
  0
LINE
  5
12837
  8
ALPHA
 10
160.668189
 20
169.928457
 30
0.0
 11
166.168189
 21
169.928457
 31
0.0
  0
LINE
  5
1288A
  8
ALPHA
 10
201.518189
 20
149.578457
 30
0.0
 11
171.233226
 21
149.578457
 31
0.0
  0
LINE
  5
1288B
  8
ALPHA
 10
176.518189
 20
131.078457
 30
0.0
 11
171.233226
 21
131.078457
 31
0.0
  0
LINE
  5
128EC
  8
ALPHA
 10
169.168189
 20
97.928457
 30
0.0
 11
169.168189
 21
184.928457
 31
0.0
  0
LINE
  5
1293F
  8
ALPHA
 10
160.071746
 20
183.428457
 30
0.0
 11
160.668189
 21
183.428457
 31
0.0
  0
LINE
  5
12941
  8
ALPHA
 10
159.218189
 20
179.428457
 30
0.0
 11
159.218189
 21
181.950052
 31
0.0
  0
LINE
  5
12942
  8
ALPHA
 10
159.218189
 20
181.950052
 30
0.0
 11
160.071746
 21
183.428457
 31
0.0
  0
LINE
  5
12944
  8
ALPHA
 10
160.071746
 20
183.428457
 30
0.0
 11
160.071746
 21
179.428457
 31
0.0
  0
LINE
  5
12945
  8
ALPHA
 10
160.071746
 20
175.428457
 30
0.0
 11
160.071746
 21
179.428457
 31
0.0
  0
LINE
  5
12946
  8
ALPHA
 10
159.218189
 20
176.906862
 30
0.0
 11
160.071746
 21
175.428457
 31
0.0
  0
LINE
  5
12947
  8
ALPHA
 10
160.071746
 20
175.428457
 30
0.0
 11
160.668189
 21
175.428457
 31
0.0
  0
LINE
  5
12948
  8
ALPHA
 10
159.218189
 20
179.428457
 30
0.0
 11
159.218189
 21
176.906862
 31
0.0
  0
DIMENSION
  5
12AA0
  8
COTATION1
  2
*D7
 10
201.518189
 20
223.928457
 30
0.0
 11
181.618189
 21
223.928457
 31
0.0
 70
   128
 13
159.218189
 23
181.950052
 33
0.0
 14
201.518189
 24
149.578457
 34
0.0
  0
DIMENSION
  5
12ADF
  8
COTATION1
  2
*D8
 10
201.518189
 20
213.928457
 30
0.0
 11
182.468189
 21
213.928457
 31
0.0
 70
   128
 13
163.418189
 23
193.928457
 33
0.0
 14
201.518189
 24
149.578457
 34
0.0
  0
DIMENSION
  5
12B24
  8
COTATION1
  2
*D9
 10
201.518189
 20
21.728457
 30
0.0
 11
181.668189
 21
24.978457
 31
0.0
 13
161.818189
 23
140.83625
 33
0.0
 14
201.518189
 24
57.728457
 34
0.0
  0
LINE
  5
136D1
  8
ALPHA
 10
166.868189
 20
97.928457
 30
0.0
 11
169.168189
 21
97.928457
 31
0.0
  0
POLYLINE
  5
13A66
  8
ALPHA
 66
     1
 10
0.0
 20
0.0
 30
0.0
 70
   128
  0
VERTEX
  5
14151
  8
ALPHA
 10
162.514221
 20
139.838881
 30
0.0
  0
VERTEX
  5
14152
  8
ALPHA
 10
161.834887
 20
139.840399
 30
0.0
  0
VERTEX
  5
14153
  8
ALPHA
 10
162.33101
 20
137.861412
 30
0.0
  0
VERTEX
  5
14154
  8
ALPHA
 10
163.403807
 20
136.190971
 30
0.0
  0
SEQEND
  5
14155
  8
ALPHA
  0
LINE
  5
13A69
  8
ALPHA
 10
162.514221
 20
140.818033
 30
0.0
 11
162.514221
 21
139.838881
 31
0.0
  0
LINE
  5
13A6A
  8
ALPHA
 10
161.818189
 20
140.83625
 30
0.0
 11
162.514221
 21
140.818033
 31
0.0
  0
POLYLINE
  5
13A6B
  8
ALPHA
 66
     1
 10
0.0
 20
0.0
 30
0.0
 70
   128
  0
VERTEX
  5
14156
  8
ALPHA
 10
165.000053
 20
144.472015
 30
0.0
  0
VERTEX
  5
14157
  8
ALPHA
 10
163.412916
 20
144.478088
 30
0.0
  0
VERTEX
  5
14158
  8
ALPHA
 10
162.329207
 20
142.811442
 30
0.0
  0
VERTEX
  5
14159
  8
ALPHA
 10
161.818189
 20
140.83625
 30
0.0
  0
SEQEND
  5
1415A
  8
ALPHA
  0
LINE
  5
13A6E
  8
ALPHA
 10
171.233226
 20
131.078457
 30
0.0
 11
171.233226
 21
149.578457
 31
0.0
  0
LINE
  5
13A6F
  8
ALPHA
 10
169.168189
 20
132.158989
 30
0.0
 11
169.168189
 21
148.425056
 31
0.0
  0
LINE
  5
13A74
  8
ALPHA
 10
171.233226
 20
132.158989
 30
0.0
 11
169.168189
 21
132.158989
 31
0.0
  0
LINE
  5
13A75
  8
ALPHA
 10
163.418986
 20
136.186416
 30
0.0
 11
163.418986
 21
144.472014
 31
0.0
  0
LINE
  5
13A76
  8
ALPHA
 10
165.979206
 20
147.483855
 30
0.0
 11
165.979206
 21
144.169921
 31
0.0
  0
LINE
  5
13A77
  8
ALPHA
 10
165.020547
 20
134.287319
 30
0.0
 11
165.020547
 21
146.372631
 31
0.0
  0
LINE
  5
13A78
  8
ALPHA
 10
165.642196
 20
136.524946
 30
0.0
 11
166.868189
 21
136.524946
 31
0.0
  0
LINE
  5
13A79
  8
ALPHA
 10
171.233226
 20
144.13956
 30
0.0
 11
169.168189
 21
144.13956
 31
0.0
  0
LINE
  5
13A7A
  8
ALPHA
 10
165.642196
 20
144.13956
 30
0.0
 11
165.642196
 21
136.524946
 31
0.0
  0
LINE
  5
13A7B
  8
ALPHA
 10
165.979206
 20
133.174575
 30
0.0
 11
165.020547
 21
134.287319
 31
0.0
  0
LINE
  5
13A7C
  8
ALPHA
 10
165.979206
 20
136.524946
 30
0.0
 11
165.979206
 21
133.174575
 31
0.0
  0
LINE
  5
13A7D
  8
ALPHA
 10
166.808068
 20
133.174575
 30
0.0
 11
165.979206
 21
133.174575
 31
0.0
  0
LINE
  5
13A7E
  8
ALPHA
 10
171.233226
 20
136.524946
 30
0.0
 11
171.233226
 21
144.13956
 31
0.0
  0
LINE
  5
13A7F
  8
ALPHA
 10
169.168189
 20
135.357554
 30
0.0
 11
171.233226
 21
135.357554
 31
0.0
  0
LINE
  5
13A80
  8
ALPHA
 10
169.168189
 20
133.853151
 30
0.0
 11
171.233226
 21
133.853151
 31
0.0
  0
LINE
  5
13A81
  8
ALPHA
 10
165.020547
 20
146.372631
 30
0.0
 11
165.979206
 21
147.483855
 31
0.0
  0
LINE
  5
13A82
  8
ALPHA
 10
165.979206
 20
147.483855
 30
0.0
 11
166.808068
 21
147.483855
 31
0.0
  0
LINE
  5
13A83
  8
ALPHA
 10
169.168189
 20
146.730898
 30
0.0
 11
171.233226
 21
146.730898
 31
0.0
  0
LINE
  5
13A84
  8
ALPHA
 10
169.168189
 20
148.425056
 30
0.0
 11
171.233226
 21
148.425056
 31
0.0
  0
LINE
  5
13A85
  8
ALPHA
 10
169.168189
 20
145.22346
 30
0.0
 11
171.233226
 21
145.22346
 31
0.0
  0
LINE
  5
13A91
  8
ALPHA
 10
166.168189
 20
188.928457
 30
0.0
 11
166.168189
 21
169.928457
 31
0.0
  0
LINE
  5
13A93
  8
ALPHA
 10
166.168189
 20
183.178457
 30
0.0
 11
166.868189
 21
183.178457
 31
0.0
  0
LINE
  5
13A94
  8
ALPHA
 10
166.168189
 20
175.678457
 30
0.0
 11
166.868189
 21
175.678457
 31
0.0
  0
LINE
  5
13A95
  8
ALPHA
 10
166.868189
 20
184.928457
 30
0.0
 11
169.168189
 21
184.928457
 31
0.0
  0
LINE
  5
13A96
  8
ALPHA
 10
171.039204
 20
181.165124
 30
0.0
 11
171.039204
 21
177.691791
 31
0.0
  0
LINE
  5
13A98
  8
ALPHA
 10
170.482832
 20
177.286467
 30
0.0
 11
170.482832
 21
181.578035
 31
0.0
  0
LINE
  5
13A99
  8
ALPHA
 10
171.039204
 20
177.691791
 30
0.0
 11
170.481316
 21
177.286467
 31
0.0
  0
LINE
  5
13A9A
  8
ALPHA
 10
170.481316
 20
177.286467
 30
0.0
 11
169.168189
 21
177.286467
 31
0.0
  0
LINE
  5
13A9B
  8
ALPHA
 10
170.481316
 20
181.578035
 30
0.0
 11
171.039204
 21
181.165124
 31
0.0
  0
LINE
  5
13A9C
  8
ALPHA
 10
169.168189
 20
181.578035
 30
0.0
 11
170.481316
 21
181.578035
 31
0.0
  0
LINE
  5
13AEA
  8
ALPHA
 10
166.868189
 20
144.13956
 30
0.0
 11
165.642196
 21
144.13956
 31
0.0
  0
LINE
  5
13AEB
  8
ALPHA
 10
169.168189
 20
136.524946
 30
0.0
 11
171.233226
 21
136.524946
 31
0.0
  0
LINE
  5
13AEC
  8
ALPHA
 10
163.418986
 20
136.186416
 30
0.0
 11
165.020547
 21
136.186416
 31
0.0
  0
VIEWPORT
  5
494D
 67
     1
  8
0
 10
4.995325
 20
6.556512
 30
0.0
 40
22.70986
 41
13.988421
 68
    -1
 69
     1
1001
ACAD
1000
MVIEW
1002
{
1070
    16
1010
0.0
1020
0.0
1030
0.0
1010
0.0
1020
0.0
1030
1.0
1040
0.0
1040
13.988421
1040
4.995325
1040
6.556512
1040
50.0
1040
0.0
1040
0.0
1070
     0
1070
   100
1070
     1
1070
     1
1070
     0
1070
     0
1070
     0
1070
     0
1040
0.0
1040
0.0
1040
0.0
1040
10.0
1040
10.0
1040
10.0
1040
10.0
1070
     0
1002
{
1002
}
1002
}
  0
ENDSEC
  0
EOF
