  0
SECTION
  2
HEADER
  9
$ACADVER
  1
AC1012
  9
$DWGCODEPAGE
  3
ANSI_1252
  9
$INSBASE
 10
0.0
 20
0.0
 30
0.0
  9
$EXTMIN
 10
161.024042
 20
-31.152698
 30
-0.001526
  9
$EXTMAX
 10
616.068231
 20
123.113232
 30
0.0
  9
$LIMMIN
 10
19.077216
 20
43.616976
  9
$LIMMAX
 10
194.084622
 20
146.65737
  9
$ORTHOMODE
 70
     1
  9
$REGENMODE
 70
     1
  9
$FILLMODE
 70
     1
  9
$QTEXTMODE
 70
     0
  9
$MIRRTEXT
 70
     1
  9
$DRAGMODE
 70
     2
  9
$LTSCALE
 40
10.0
  9
$OSMODE
 70
    39
  9
$ATTMODE
 70
     1
  9
$TEXTSIZE
 40
0.2
  9
$TRACEWID
 40
0.05
  9
$TEXTSTYLE
  7
STANDARD
  9
$CLAYER
  8
ALPHA
  9
$CELTYPE
  6
CONTINUOUS
  9
$CECOLOR
 62
   256
  9
$CELTSCALE
 40
1.0
  9
$DELOBJ
 70
     1
  9
$DISPSILH
 70
     0
  9
$DIMSCALE
 40
1.0
  9
$DIMASZ
 40
0.18
  9
$DIMEXO
 40
0.0625
  9
$DIMDLI
 40
0.38
  9
$DIMRND
 40
0.0
  9
$DIMDLE
 40
0.0
  9
$DIMEXE
 40
0.18
  9
$DIMTP
 40
0.0
  9
$DIMTM
 40
0.0
  9
$DIMTXT
 40
0.18
  9
$DIMCEN
 40
0.09
  9
$DIMTSZ
 40
0.0
  9
$DIMTOL
 70
     0
  9
$DIMLIM
 70
     0
  9
$DIMTIH
 70
     1
  9
$DIMTOH
 70
     1
  9
$DIMSE1
 70
     0
  9
$DIMSE2
 70
     0
  9
$DIMTAD
 70
     0
  9
$DIMZIN
 70
     0
  9
$DIMBLK
  1

  9
$DIMASO
 70
     1
  9
$DIMSHO
 70
     1
  9
$DIMPOST
  1

  9
$DIMAPOST
  1

  9
$DIMALT
 70
     0
  9
$DIMALTD
 70
     2
  9
$DIMALTF
 40
25.4
  9
$DIMLFAC
 40
1.0
  9
$DIMTOFL
 70
     0
  9
$DIMTVP
 40
0.0
  9
$DIMTIX
 70
     0
  9
$DIMSOXD
 70
     0
  9
$DIMSAH
 70
     0
  9
$DIMBLK1
  1

  9
$DIMBLK2
  1

  9
$DIMSTYLE
  2
STANDARD
  9
$DIMCLRD
 70
     0
  9
$DIMCLRE
 70
     0
  9
$DIMCLRT
 70
     0
  9
$DIMTFAC
 40
1.0
  9
$DIMGAP
 40
0.09
  9
$DIMJUST
 70
     0
  9
$DIMSD1
 70
     0
  9
$DIMSD2
 70
     0
  9
$DIMTOLJ
 70
     1
  9
$DIMTZIN
 70
     0
  9
$DIMALTZ
 70
     0
  9
$DIMALTTZ
 70
     0
  9
$DIMFIT
 70
     3
  9
$DIMUPT
 70
     0
  9
$DIMUNIT
 70
     2
  9
$DIMDEC
 70
     4
  9
$DIMTDEC
 70
     4
  9
$DIMALTU
 70
     2
  9
$DIMALTTD
 70
     2
  9
$DIMTXSTY
  7
STANDARD
  9
$DIMAUNIT
 70
     0
  9
$LUNITS
 70
     2
  9
$LUPREC
 70
     4
  9
$SKETCHINC
 40
0.1
  9
$FILLETRAD
 40
0.0
  9
$AUNITS
 70
     0
  9
$AUPREC
 70
     0
  9
$MENU
  1
acad
  9
$ELEVATION
 40
0.0
  9
$PELEVATION
 40
0.0
  9
$THICKNESS
 40
0.0
  9
$LIMCHECK
 70
     0
  9
$BLIPMODE
 70
     0
  9
$CHAMFERA
 40
0.0
  9
$CHAMFERB
 40
0.0
  9
$CHAMFERC
 40
0.0
  9
$CHAMFERD
 40
0.0
  9
$SKPOLY
 70
     0
  9
$TDCREATE
 40
2453634.371764132
  9
$TDUPDATE
 40
2453689.694832291
  9
$TDINDWG
 40
0.4436573380
  9
$TDUSRTIMER
 40
0.4436562500
  9
$USRTIMER
 70
     1
  9
$ANGBASE
 50
0.0
  9
$ANGDIR
 70
     0
  9
$PDMODE
 70
     0
  9
$PDSIZE
 40
0.0
  9
$PLINEWID
 40
0.0
  9
$COORDS
 70
     0
  9
$SPLFRAME
 70
     0
  9
$SPLINETYPE
 70
     6
  9
$SPLINESEGS
 70
     8
  9
$ATTDIA
 70
     0
  9
$ATTREQ
 70
     1
  9
$HANDLING
 70
     1
  9
$HANDSEED
  5
2F06
  9
$SURFTAB1
 70
     6
  9
$SURFTAB2
 70
     6
  9
$SURFTYPE
 70
     6
  9
$SURFU
 70
     6
  9
$SURFV
 70
     6
  9
$UCSNAME
  2

  9
$UCSORG
 10
0.0
 20
0.0
 30
0.0
  9
$UCSXDIR
 10
1.0
 20
0.0
 30
0.0
  9
$UCSYDIR
 10
0.0
 20
1.0
 30
0.0
  9
$PUCSNAME
  2

  9
$PUCSORG
 10
0.0
 20
0.0
 30
0.0
  9
$PUCSXDIR
 10
1.0
 20
0.0
 30
0.0
  9
$PUCSYDIR
 10
0.0
 20
1.0
 30
0.0
  9
$USERI1
 70
     0
  9
$USERI2
 70
     0
  9
$USERI3
 70
     0
  9
$USERI4
 70
     0
  9
$USERI5
 70
     0
  9
$USERR1
 40
0.0
  9
$USERR2
 40
0.0
  9
$USERR3
 40
0.0
  9
$USERR4
 40
0.0
  9
$USERR5
 40
0.0
  9
$WORLDVIEW
 70
     1
  9
$SHADEDGE
 70
     3
  9
$SHADEDIF
 70
    70
  9
$TILEMODE
 70
     1
  9
$MAXACTVP
 70
    16
  9
$PINSBASE
 10
0.0
 20
0.0
 30
0.0
  9
$PLIMCHECK
 70
     0
  9
$PEXTMIN
 10
1.000000E+20
 20
1.000000E+20
 30
1.000000E+20
  9
$PEXTMAX
 10
-1.000000E+20
 20
-1.000000E+20
 30
-1.000000E+20
  9
$PLIMMIN
 10
0.0
 20
0.0
  9
$PLIMMAX
 10
12.0
 20
9.0
  9
$UNITMODE
 70
     0
  9
$VISRETAIN
 70
     0
  9
$PLINEGEN
 70
     1
  9
$PSLTSCALE
 70
     0
  9
$TREEDEPTH
 70
  3020
  9
$PICKSTYLE
 70
     1
  9
$CMLSTYLE
  2
STANDARD
  9
$CMLJUST
 70
     0
  9
$CMLSCALE
 40
1.0
  9
$SAVEIMAGES
 70
     0
  0
ENDSEC
  0
SECTION
  2
CLASSES
  0
CLASS
  1
LWPOLYLINE
  2
AcDbPolyline
  3
"AutoCAD"
 90
    32768
280
     0
281
     1
  0
CLASS
  1
IMAGE
  2
AcDbRasterImage
  3
ISM
 90
    32895
280
     0
281
     1
  0
CLASS
  1
OLE2FRAME
  2
AcDbOle2Frame
  3
""
 90
    32768
280
     0
281
     1
  0
CLASS
  1
HATCH
  2
AcDbHatch
  3
"ACAD_SEDONA"
 90
    32768
280
     0
281
     1
  0
CLASS
  1
DICTIONARYVAR
  2
AcDbDictionaryVar
  3
"AutoCAD"
 90
    32768
280
     0
281
     0
  0
CLASS
  1
RASTERVARIABLES
  2
AcDbRasterVariables
  3
ISM
 90
    32768
280
     0
281
     0
  0
CLASS
  1
IMAGEDEF
  2
AcDbRasterImageDef
  3
ISM
 90
    32768
280
     0
281
     0
  0
CLASS
  1
IMAGEDEF_REACTOR
  2
AcDbRasterImageDefReactor
  3
ISM
 90
    32769
280
     0
281
     0
  0
CLASS
  1
SPATIAL_FILTER
  2
AcDbSpatialFilter
  3
"Acad"
 90
    32768
280
     0
281
     0
  0
CLASS
  1
XRECORD
  2
AcDbXrecord
  3
"<Built In>"
 90
    32768
280
     0
281
     0
  0
CLASS
  1
SORTENTSTABLE
  2
AcDbSortentsTable
  3
"AutoCAD"
 90
    32768
280
     0
281
     0
  0
CLASS
  1
LAYER_INDEX
  2
AcDbLayerIndex
  3
"Acad"
 90
    32768
280
     0
281
     0
  0
CLASS
  1
SPATIAL_INDEX
  2
AcDbSpatialIndex
  3
"Acad"
 90
    32768
280
     0
281
     0
  0
CLASS
  1
OBJECT_PTR
  2
CAseDLPNTableRecord
  3
"ASE-LPNTableRecord"
 90
    32769
280
     0
281
     0
  0
CLASS
  1
LAYOUT
  2
AcDbLayout
  3
AutoCAD 2000
 90
    32768
280
     0
281
     0
  0
CLASS
  1
PLOTSETTINGS
  2
AcDbPlotSettings
  3
AutoCAD 2000
 90
    32768
280
     0
281
     0
  0
CLASS
  1
ACDBDICTIONARYWDFLT
  2
AcDbDictionaryWithDefault
  3
AutoCAD 2000
 90
    32768
280
     0
281
     0
  0
CLASS
  1
ACDBPLACEHOLDER
  2
AcDbPlaceHolder
  3
AutoCAD 2000
 90
    32768
280
     0
281
     0
  0
CLASS
  1
VBA_PROJECT
  2
AcDbVbaProject
  3
acad
 90
    32768
280
     0
281
     0
  0
CLASS
  1
WIPEOUT
  2
AcDbWipeout
  3
"WipeOut|Product Desc: Object Enabler for WipeOut entity^I^I^I^I^I^I|Company: Autodesk, Inc.^I^I^I^I^I^I|WEB Address: www.autodesk.com"
 90
    32895
280
     0
281
     1
  0
CLASS
  1
WIPEOUTVARIABLES
  2
AcDbWipeoutVariables
  3
"WipeOut|Product Desc:     WipeOut Dbx Application|Company:          Autodesk, Inc.|WEB Address:      www.autodesk.com"
 90
    32768
280
     0
281
     0
  0
CLASS
  1
RTEXT
  2
RText
  3
RText|AutoCAD Express Tool|expresstools@autodesk.com
 90
    32768
280
     0
281
     1
  0
CLASS
  1
ARCALIGNEDTEXT
  2
AcDbArcAlignedText
  3
ATEXT|AutoCAD Express Tool|expresstools@autodesk.com
 90
    32768
280
     0
281
     1
  0
CLASS
  1
TABLESTYLE
  2
AcDbTableStyle
  3
ObjectDBX Classes
 90
    34815
280
     0
281
     0
  0
CLASS
  1
ACAD_PROXY_OBJECT_WRAPPER
  2
AcDbProxyObjectWrapper
  3
AutoCAD 2000
 90
    32768
280
     0
281
     0
  0
CLASS
  1
LONG_TRANSACTION
  2
AcDbLongTransaction
  3
AutoCAD 2000
 90
    32768
280
     0
281
     0
  0
CLASS
  1
LWPOLYLINE
  2
AcDbPolyline
  3
"AutoCAD"
 90
    32768
280
     0
281
     1
  0
CLASS
  1
HATCH
  2
AcDbHatch
  3
"ACAD_SEDONA"
 90
    32768
280
     0
281
     1
  0
CLASS
  1
XRECORD
  2
AcDbXrecord
  3
"<Built In>"
 90
    32768
280
     0
281
     0
  0
ENDSEC
  0
SECTION
  2
TABLES
  0
TABLE
  2
VPORT
  5
7
100
AcDbSymbolTable
 70
     2
  0
VPORT
  5
2F05
100
AcDbSymbolTableRecord
100
AcDbViewportTableRecord
  2
*ACTIVE
 70
     0
 10
0.0
 20
0.0
 11
1.0
 21
1.0
 12
388.546136
 22
45.980267
 13
0.0
 23
0.0
 14
1.0
 24
1.0
 15
0.0
 25
0.0
 16
0.0
 26
0.0
 36
1.0
 17
0.0
 27
0.0
 37
0.0
 40
273.582974
 41
1.673611
 42
50.0
 43
0.0
 44
0.0
 50
0.0
 51
0.0
 71
     0
 72
   100
 73
     1
 74
     2
 75
     0
 76
     0
 77
     0
 78
     0
  0
ENDTAB
  0
TABLE
  2
LTYPE
  5
4
100
AcDbSymbolTable
 70
     2
  0
LTYPE
  5
11
102
{ACAD_XDICTIONARY
360
2EC0
102
}
100
AcDbSymbolTableRecord
100
AcDbLinetypeTableRecord
  2
BYBLOCK
 70
     0
  3

 72
    65
 73
     0
 40
0.0
  0
LTYPE
  5
12
102
{ACAD_XDICTIONARY
360
2EC2
102
}
100
AcDbSymbolTableRecord
100
AcDbLinetypeTableRecord
  2
BYLAYER
 70
     0
  3

 72
    65
 73
     0
 40
0.0
  0
LTYPE
  5
13
102
{ACAD_XDICTIONARY
360
2EC4
102
}
100
AcDbSymbolTableRecord
100
AcDbLinetypeTableRecord
  2
CONTINUOUS
 70
     0
  3
Solid line
 72
    65
 73
     0
 40
0.0
  0
LTYPE
  5
725
100
AcDbSymbolTableRecord
100
AcDbLinetypeTableRecord
  2
AXES2
 70
     0
  3
___ _ ___ _ ___ _ ___ _ ___ _ ___ _ ___ _ ___ _
 72
    65
 73
     4
 40
1.125
 49
0.75
 74
     0
 49
-0.125
 74
     0
 49
0.125
 74
     0
 49
-0.125
 74
     0
  0
ENDTAB
  0
TABLE
  2
LAYER
  5
2
102
{ACAD_XDICTIONARY
360
26F0
102
}
100
AcDbSymbolTable
 70
     6
  0
LAYER
  5
14
100
AcDbSymbolTableRecord
100
AcDbLayerTableRecord
  2
0
 70
     0
 62
     7
  6
CONTINUOUS
  0
LAYER
  5
6EC
102
{ACAD_XDICTIONARY
360
2EBC
102
}
100
AcDbSymbolTableRecord
100
AcDbLayerTableRecord
  2
DEFPOINTS
 70
     0
 62
     7
  6
CONTINUOUS
  0
LAYER
  5
727
100
AcDbSymbolTableRecord
100
AcDbLayerTableRecord
  2
COTATION1
 70
     0
 62
     2
  6
CONTINUOUS
  0
LAYER
  5
728
100
AcDbSymbolTableRecord
100
AcDbLayerTableRecord
  2
AXE
 70
     0
 62
    80
  6
AXES2
  0
LAYER
  5
729
100
AcDbSymbolTableRecord
100
AcDbLayerTableRecord
  2
ALPHA
 70
     0
 62
   254
  6
CONTINUOUS
  0
LAYER
  5
26EE
102
{ACAD_XDICTIONARY
360
2EBE
102
}
100
AcDbSymbolTableRecord
100
AcDbLayerTableRecord
  2
TEXTE
 70
     0
 62
   132
  6
CONTINUOUS
1001
ACAECLAYERSTANDARD
1000

1000

  0
ENDTAB
  0
TABLE
  2
STYLE
  5
3
100
AcDbSymbolTable
 70
     2
  0
STYLE
  5
17
102
{ACAD_XDICTIONARY
360
2EC8
102
}
100
AcDbSymbolTableRecord
100
AcDbTextStyleTableRecord
  2
STANDARD
 70
     0
 40
0.0
 41
1.0
 50
0.0
 71
     0
 42
0.0
  3
txt
  4

  0
STYLE
  5
72B
100
AcDbSymbolTableRecord
100
AcDbTextStyleTableRecord
  2
ROMANS
 70
     0
 40
0.0
 41
1.0
 50
0.0
 71
     0
 42
6.0
  3
romans
  4

  0
ENDTAB
  0
TABLE
  2
VIEW
  5
5
100
AcDbSymbolTable
 70
     0
  0
ENDTAB
  0
TABLE
  2
UCS
  5
6
100
AcDbSymbolTable
 70
     0
  0
ENDTAB
  0
TABLE
  2
APPID
  5
8
100
AcDbSymbolTable
 70
     2
  0
APPID
  5
16
100
AcDbSymbolTableRecord
100
AcDbRegAppTableRecord
  2
ACAD
 70
     0
  0
APPID
  5
26EF
102
{ACAD_XDICTIONARY
360
2EC6
102
}
100
AcDbSymbolTableRecord
100
AcDbRegAppTableRecord
  2
ACAECLAYERSTANDARD
 70
     0
  0
ENDTAB
  0
TABLE
  2
DIMSTYLE
  5
9
100
AcDbSymbolTable
 70
     2
  0
DIMSTYLE
105
18
102
{ACAD_XDICTIONARY
360
2EBA
102
}
100
AcDbSymbolTableRecord
100
AcDbDimStyleTableRecord
  2
STANDARD
 70
     0
  3

  4

  5

  6

  7

 40
1.0
 41
0.18
 42
0.0625
 43
0.38
 44
0.18
 45
0.0
 46
0.0
 47
0.0
 48
0.0
140
0.18
141
0.09
142
0.0
143
25.4
144
1.0
145
0.0
146
1.0
147
0.09
 71
     0
 72
     0
 73
     1
 74
     1
 75
     0
 76
     0
 77
     0
 78
     0
170
     0
171
     2
172
     0
173
     0
174
     0
175
     0
176
     0
177
     0
178
     0
270
     2
271
     4
272
     4
273
     2
274
     2
340
17
275
     0
280
     0
281
     0
282
     0
283
     1
284
     0
285
     0
286
     0
287
     3
288
     0
  0
DIMSTYLE
105
72C
102
{ACAD_XDICTIONARY
360
2EF8
102
}
102
{ACAD_REACTORS
330
21DC
330
2402
330
2620
330
29EC
330
29FD
330
29FE
330
29FF
330
2A00
330
2AF9
330
2B0E
330
2BA4
102
}
100
AcDbSymbolTableRecord
100
AcDbDimStyleTableRecord
  2
SC_DEFAUT
 70
     0
  3

  4

  5
OPEN30
  6

  7

 40
1.0
 41
5.0
 42
2.0
 43
0.38
 44
2.5
 45
0.0
 46
0.0
 47
0.0
 48
0.0
140
2.5
141
0.0
142
0.0
143
25.4
144
1.0
145
0.0
146
1.0
147
2.0
 71
     0
 72
     0
 73
     1
 74
     1
 75
     0
 76
     0
 77
     1
 78
    12
170
     0
171
     2
172
     0
173
     0
174
     0
175
     0
176
     0
177
     0
178
     0
270
     2
271
     1
272
     1
273
     2
274
     2
340
72B
275
     0
280
     0
281
     0
282
     0
283
     1
284
    12
285
    12
286
    12
287
     5
288
     0
  0
ENDTAB
  0
TABLE
  2
BLOCK_RECORD
  5
1
100
AcDbSymbolTable
 70
    12
  0
BLOCK_RECORD
  5
A
102
{ACAD_XDICTIONARY
360
7D7
102
}
100
AcDbSymbolTableRecord
100
AcDbBlockTableRecord
  2
*MODEL_SPACE
  0
BLOCK_RECORD
  5
B
102
{ACAD_XDICTIONARY
360
2EEE
102
}
100
AcDbSymbolTableRecord
100
AcDbBlockTableRecord
  2
*PAPER_SPACE
  0
BLOCK_RECORD
  5
6FA
100
AcDbSymbolTableRecord
100
AcDbBlockTableRecord
  2
_OPEN30
  0
BLOCK_RECORD
  5
21DF
100
AcDbSymbolTableRecord
100
AcDbBlockTableRecord
  2
*D1
  0
BLOCK_RECORD
  5
2403
100
AcDbSymbolTableRecord
100
AcDbBlockTableRecord
  2
*D2
  0
BLOCK_RECORD
  5
2621
100
AcDbSymbolTableRecord
100
AcDbBlockTableRecord
  2
*D3
  0
BLOCK_RECORD
  5
2A01
100
AcDbSymbolTableRecord
100
AcDbBlockTableRecord
  2
*D4
  0
BLOCK_RECORD
  5
2A28
100
AcDbSymbolTableRecord
100
AcDbBlockTableRecord
  2
*D5
  0
BLOCK_RECORD
  5
2A34
100
AcDbSymbolTableRecord
100
AcDbBlockTableRecord
  2
*D6
  0
BLOCK_RECORD
  5
2A41
100
AcDbSymbolTableRecord
100
AcDbBlockTableRecord
  2
*D7
  0
BLOCK_RECORD
  5
2A4D
100
AcDbSymbolTableRecord
100
AcDbBlockTableRecord
  2
*D8
  0
BLOCK_RECORD
  5
2B1C
100
AcDbSymbolTableRecord
100
AcDbBlockTableRecord
  2
*D9
  0
BLOCK_RECORD
  5
2B29
100
AcDbSymbolTableRecord
100
AcDbBlockTableRecord
  2
*D10
  0
BLOCK_RECORD
  5
2BA5
100
AcDbSymbolTableRecord
100
AcDbBlockTableRecord
  2
*D11
  0
ENDTAB
  0
ENDSEC
  0
SECTION
  2
BLOCKS
  0
BLOCK
  5
D
100
AcDbEntity
  8
0
100
AcDbBlockBegin
  2
*MODEL_SPACE
 70
     0
 10
0.0
 20
0.0
 30
0.0
  3
*MODEL_SPACE
  1

  0
ENDBLK
  5
E
100
AcDbEntity
  8
0
100
AcDbBlockEnd
  0
BLOCK
  5
F
100
AcDbEntity
 67
     1
  8
0
100
AcDbBlockBegin
  2
*PAPER_SPACE
 70
     0
 10
0.0
 20
0.0
 30
0.0
  3
*PAPER_SPACE
  1

  0
ENDBLK
  5
10
100
AcDbEntity
 67
     1
  8
0
100
AcDbBlockEnd
  0
BLOCK
  5
6FB
100
AcDbEntity
  8
0
100
AcDbBlockBegin
  2
_OPEN30
 70
     0
 10
0.0
 20
0.0
 30
0.0
  3
_OPEN30
  1

  0
LINE
  5
6FC
100
AcDbEntity
  8
COTATION1
 62
     0
100
AcDbLine
 10
-1.0
 20
0.267949
 30
0.0
 11
0.0
 21
0.0
 31
0.0
1001
ACAD
1000
RTLwPs
1070
   158
  0
LINE
  5
6FD
100
AcDbEntity
  8
COTATION1
 62
     0
100
AcDbLine
 10
0.0
 20
0.0
 30
0.0
 11
-1.0
 21
-0.267949
 31
0.0
1001
ACAD
1000
RTLwPs
1070
   158
  0
LINE
  5
6FE
100
AcDbEntity
  8
COTATION1
 62
     0
100
AcDbLine
 10
0.0
 20
0.0
 30
0.0
 11
-1.0
 21
0.0
 31
0.0
1001
ACAD
1000
RTLwPs
1070
   158
  0
ENDBLK
  5
6FF
100
AcDbEntity
  8
0
100
AcDbBlockEnd
  0
BLOCK
  5
21E9
100
AcDbEntity
  8
0
100
AcDbBlockBegin
  2
*D1
 70
     1
 10
0.0
 20
0.0
 30
0.0
  3
*D1
  1

1001
ACAD
1000
RTLwPs
1070
   128
  0
LINE
  5
2CE8
100
AcDbEntity
  8
COTATION1
 62
     0
100
AcDbLine
 10
186.05122
 20
7.652728
 30
0.0
 11
186.05122
 21
-21.147272
 31
0.0
1001
ACAD
1000
RTLwPs
1070
   158
  0
LINE
  5
2CE9
100
AcDbEntity
  8
COTATION1
 62
     0
100
AcDbLine
 10
254.05122
 20
7.652728
 30
0.0
 11
254.05122
 21
-21.147272
 31
0.0
1001
ACAD
1000
RTLwPs
1070
   158
  0
LINE
  5
2CEA
100
AcDbEntity
  8
COTATION1
 62
     0
100
AcDbLine
 10
191.05122
 20
-18.647272
 30
0.0
 11
249.05122
 21
-18.647272
 31
0.0
1001
ACAD
1000
RTLwPs
1070
   158
  0
INSERT
  5
2CEB
100
AcDbEntity
  8
COTATION1
 62
     0
100
AcDbBlockReference
  2
_OPEN30
 10
186.05122
 20
-18.647272
 30
0.0
 41
5.0
 42
5.0
 43
5.0
 50
180.0
1001
ACAD
1000
RTLwPs
1070
   158
  0
INSERT
  5
2CEC
100
AcDbEntity
  8
COTATION1
 62
     0
100
AcDbBlockReference
  2
_OPEN30
 10
254.05122
 20
-18.647272
 30
0.0
 41
5.0
 42
5.0
 43
5.0
1001
ACAD
1000
RTLwPs
1070
   158
  0
MTEXT
  5
2CED
100
AcDbEntity
  8
COTATION1
 62
     0
100
AcDbMText
 10
220.05122
 20
-15.397272
 30
0.0
 40
2.5
 41
0.0
 71
     5
 72
     1
  1
\A1;68
  7
ROMANS
1001
ACAD
1000
MTEXTBEGIN
1070
    73
1070
     1
1070
    44
1040
1.0
1070
    74
1070
     0
1000
MTEXTEND
  0
POINT
  5
2CEE
100
AcDbEntity
  8
DEFPOINTS
 62
     0
100
AcDbPoint
 10
186.05122
 20
9.652728
 30
0.0
1001
ACAD
1000
RTLwPs
1070
   128
  0
POINT
  5
2CEF
100
AcDbEntity
  8
DEFPOINTS
 62
     0
100
AcDbPoint
 10
254.05122
 20
9.652728
 30
0.0
1001
ACAD
1000
RTLwPs
1070
   128
  0
POINT
  5
2CF0
100
AcDbEntity
  8
DEFPOINTS
 62
     0
100
AcDbPoint
 10
254.05122
 20
-18.647272
 30
0.0
1001
ACAD
1000
RTLwPs
1070
   128
  0
ENDBLK
  5
21EA
100
AcDbEntity
  8
0
100
AcDbBlockEnd
1001
ACAD
1000
RTLwPs
1070
   128
  0
BLOCK
  5
240D
100
AcDbEntity
  8
0
100
AcDbBlockBegin
  2
*D2
 70
     1
 10
0.0
 20
0.0
 30
0.0
  3
*D2
  1

1001
ACAD
1000
RTLwPs
1070
   128
  0
LINE
  5
2CF1
100
AcDbEntity
  8
COTATION1
 62
     0
100
AcDbLine
 10
176.05122
 20
10.352728
 30
0.0
 11
176.05122
 21
-31.147272
 31
0.0
1001
ACAD
1000
RTLwPs
1070
   158
  0
LINE
  5
2CF2
100
AcDbEntity
  8
COTATION1
 62
     0
100
AcDbLine
 10
264.05122
 20
10.352728
 30
0.0
 11
264.05122
 21
-31.147272
 31
0.0
1001
ACAD
1000
RTLwPs
1070
   158
  0
LINE
  5
2CF3
100
AcDbEntity
  8
COTATION1
 62
     0
100
AcDbLine
 10
181.05122
 20
-28.647272
 30
0.0
 11
259.05122
 21
-28.647272
 31
0.0
1001
ACAD
1000
RTLwPs
1070
   158
  0
INSERT
  5
2CF4
100
AcDbEntity
  8
COTATION1
 62
     0
100
AcDbBlockReference
  2
_OPEN30
 10
176.05122
 20
-28.647272
 30
0.0
 41
5.0
 42
5.0
 43
5.0
 50
180.0
1001
ACAD
1000
RTLwPs
1070
   158
  0
INSERT
  5
2CF5
100
AcDbEntity
  8
COTATION1
 62
     0
100
AcDbBlockReference
  2
_OPEN30
 10
264.05122
 20
-28.647272
 30
0.0
 41
5.0
 42
5.0
 43
5.0
1001
ACAD
1000
RTLwPs
1070
   158
  0
MTEXT
  5
2CF6
100
AcDbEntity
  8
COTATION1
 62
     0
100
AcDbMText
 10
220.05122
 20
-25.397272
 30
0.0
 40
2.5
 41
0.0
 71
     5
 72
     1
  1
\A1;88
  7
ROMANS
1001
ACAD
1000
MTEXTBEGIN
1070
    73
1070
     1
1070
    44
1040
1.0
1070
    74
1070
     0
1000
MTEXTEND
  0
POINT
  5
2CF7
100
AcDbEntity
  8
DEFPOINTS
 62
     0
100
AcDbPoint
 10
176.05122
 20
12.352728
 30
0.0
1001
ACAD
1000
RTLwPs
1070
   128
  0
POINT
  5
2CF8
100
AcDbEntity
  8
DEFPOINTS
 62
     0
100
AcDbPoint
 10
264.05122
 20
12.352728
 30
0.0
1001
ACAD
1000
RTLwPs
1070
   128
  0
POINT
  5
2CF9
100
AcDbEntity
  8
DEFPOINTS
 62
     0
100
AcDbPoint
 10
264.05122
 20
-28.647272
 30
0.0
1001
ACAD
1000
RTLwPs
1070
   128
  0
ENDBLK
  5
240E
100
AcDbEntity
  8
0
100
AcDbBlockEnd
1001
ACAD
1000
RTLwPs
1070
   128
  0
BLOCK
  5
262B
100
AcDbEntity
  8
0
100
AcDbBlockBegin
  2
*D3
 70
     1
 10
0.0
 20
0.0
 30
0.0
  3
*D3
  1

1001
ACAD
1000
RTLwPs
1070
   128
  0
LINE
  5
2CDF
100
AcDbEntity
  8
COTATION1
 62
     0
100
AcDbLine
 10
395.92494
 20
96.352728
 30
0.0
 11
395.92494
 21
118.352728
 31
0.0
1001
ACAD
1000
RTLwPs
1070
   158
  0
LINE
  5
2CE0
100
AcDbEntity
  8
COTATION1
 62
     0
100
AcDbLine
 10
430.92494
 20
96.352728
 30
0.0
 11
430.92494
 21
118.352728
 31
0.0
1001
ACAD
1000
RTLwPs
1070
   158
  0
LINE
  5
2CE1
100
AcDbEntity
  8
COTATION1
 62
     0
100
AcDbLine
 10
400.92494
 20
115.852728
 30
0.0
 11
425.92494
 21
115.852728
 31
0.0
1001
ACAD
1000
RTLwPs
1070
   158
  0
INSERT
  5
2CE2
100
AcDbEntity
  8
COTATION1
 62
     0
100
AcDbBlockReference
  2
_OPEN30
 10
395.92494
 20
115.852728
 30
0.0
 41
5.0
 42
5.0
 43
5.0
 50
180.0
1001
ACAD
1000
RTLwPs
1070
   158
  0
INSERT
  5
2CE3
100
AcDbEntity
  8
COTATION1
 62
     0
100
AcDbBlockReference
  2
_OPEN30
 10
430.92494
 20
115.852728
 30
0.0
 41
5.0
 42
5.0
 43
5.0
1001
ACAD
1000
RTLwPs
1070
   158
  0
MTEXT
  5
2CE4
100
AcDbEntity
  8
COTATION1
 62
     0
100
AcDbMText
 10
413.42494
 20
119.102728
 30
0.0
 40
2.5
 41
0.0
 71
     5
 72
     1
  1
\A1;120...150
  7
ROMANS
1001
ACAD
1000
MTEXTBEGIN
1070
    73
1070
     1
1070
    44
1040
1.0
1070
    74
1070
     0
1000
MTEXTEND
  0
POINT
  5
2CE5
100
AcDbEntity
  8
DEFPOINTS
 62
     0
100
AcDbPoint
 10
395.92494
 20
94.352728
 30
0.0
1001
ACAD
1000
RTLwPs
1070
   128
  0
POINT
  5
2CE6
100
AcDbEntity
  8
DEFPOINTS
 62
     0
100
AcDbPoint
 10
430.92494
 20
94.352728
 30
0.0
1001
ACAD
1000
RTLwPs
1070
   128
  0
POINT
  5
2CE7
100
AcDbEntity
  8
DEFPOINTS
 62
     0
100
AcDbPoint
 10
430.92494
 20
115.852728
 30
0.0
1001
ACAD
1000
RTLwPs
1070
   128
  0
ENDBLK
  5
262C
100
AcDbEntity
  8
0
100
AcDbBlockEnd
1001
ACAD
1000
RTLwPs
1070
   128
  0
BLOCK
  5
2A0C
100
AcDbEntity
  8
0
100
AcDbBlockBegin
  2
*D4
 70
     1
 10
0.0
 20
0.0
 30
0.0
  3
*D4
  1

1001
ACAD
1000
RTLwPs
1070
   128
  0
LINE
  5
2E98
100
AcDbEntity
  8
COTATION1
 62
     0
100
AcDbLine
 10
547.42494
 20
92.352728
 30
0.0
 11
583.055863
 21
92.352728
 31
0.0
1001
ACAD
1000
RTLwPs
1070
   158
  0
LINE
  5
2E99
100
AcDbEntity
  8
COTATION1
 62
     0
100
AcDbLine
 10
547.42494
 20
8.352728
 30
0.0
 11
583.055863
 21
8.352728
 31
0.0
1001
ACAD
1000
RTLwPs
1070
   158
  0
LINE
  5
2E9A
100
AcDbEntity
  8
COTATION1
 62
     0
100
AcDbLine
 10
580.555863
 20
87.352728
 30
0.0
 11
580.555863
 21
53.602728
 31
0.0
1001
ACAD
1000
RTLwPs
1070
   158
  0
LINE
  5
2E9B
100
AcDbEntity
  8
COTATION1
 62
     0
100
AcDbLine
 10
580.555863
 20
13.352728
 30
0.0
 11
580.555863
 21
47.102728
 31
0.0
1001
ACAD
1000
RTLwPs
1070
   158
  0
INSERT
  5
2E9C
100
AcDbEntity
  8
COTATION1
 62
     0
100
AcDbBlockReference
  2
_OPEN30
 10
580.555863
 20
92.352728
 30
0.0
 41
5.0
 42
5.0
 43
5.0
 50
90.0
1001
ACAD
1000
RTLwPs
1070
   158
  0
INSERT
  5
2E9D
100
AcDbEntity
  8
COTATION1
 62
     0
100
AcDbBlockReference
  2
_OPEN30
 10
580.555863
 20
8.352728
 30
0.0
 41
5.0
 42
5.0
 43
5.0
 50
270.0
1001
ACAD
1000
RTLwPs
1070
   158
  0
MTEXT
  5
2E9E
100
AcDbEntity
  8
COTATION1
 62
     0
100
AcDbMText
 10
580.555863
 20
50.352728
 30
0.0
 40
2.5
 41
0.0
 71
     5
 72
     1
  1
\A1;84
  7
ROMANS
1001
ACAD
1000
MTEXTBEGIN
1070
    73
1070
     1
1070
    44
1040
1.0
1070
    74
1070
     0
1000
MTEXTEND
  0
POINT
  5
2E9F
100
AcDbEntity
  8
DEFPOINTS
 62
     0
100
AcDbPoint
 10
545.42494
 20
92.352728
 30
0.0
1001
ACAD
1000
RTLwPs
1070
   128
  0
POINT
  5
2EA0
100
AcDbEntity
  8
DEFPOINTS
 62
     0
100
AcDbPoint
 10
545.42494
 20
8.352728
 30
0.0
1001
ACAD
1000
RTLwPs
1070
   128
  0
POINT
  5
2EA1
100
AcDbEntity
  8
DEFPOINTS
 62
     0
100
AcDbPoint
 10
580.555863
 20
8.352728
 30
0.0
1001
ACAD
1000
RTLwPs
1070
   128
  0
ENDBLK
  5
2A0D
100
AcDbEntity
  8
0
100
AcDbBlockEnd
1001
ACAD
1000
RTLwPs
1070
   128
  0
BLOCK
  5
2A32
100
AcDbEntity
  8
0
100
AcDbBlockBegin
  2
*D5
 70
     1
 10
0.0
 20
0.0
 30
0.0
  3
*D5
  1

1001
ACAD
1000
RTLwPs
1070
   128
  0
LINE
  5
2C6C
100
AcDbEntity
  8
COTATION1
 62
     0
100
AcDbLine
 10
395.92494
 20
96.352728
 30
0.0
 11
395.92494
 21
118.352728
 31
0.0
1001
ACAD
1000
RTLwPs
1070
   158
  0
LINE
  5
2C6D
100
AcDbEntity
  8
COTATION1
 62
     0
100
AcDbLine
 10
361.92494
 20
66.266547
 30
0.0
 11
361.92494
 21
118.352728
 31
0.0
1001
ACAD
1000
RTLwPs
1070
   158
  0
LINE
  5
2C6E
100
AcDbEntity
  8
COTATION1
 62
     0
100
AcDbLine
 10
390.92494
 20
115.852728
 30
0.0
 11
366.92494
 21
115.852728
 31
0.0
1001
ACAD
1000
RTLwPs
1070
   158
  0
INSERT
  5
2C6F
100
AcDbEntity
  8
COTATION1
 62
     0
100
AcDbBlockReference
  2
_OPEN30
 10
395.92494
 20
115.852728
 30
0.0
 41
5.0
 42
5.0
 43
5.0
1001
ACAD
1000
RTLwPs
1070
   158
  0
INSERT
  5
2C70
100
AcDbEntity
  8
COTATION1
 62
     0
100
AcDbBlockReference
  2
_OPEN30
 10
361.92494
 20
115.852728
 30
0.0
 41
5.0
 42
5.0
 43
5.0
 50
180.0
1001
ACAD
1000
RTLwPs
1070
   158
  0
MTEXT
  5
2C71
100
AcDbEntity
  8
COTATION1
 62
     0
100
AcDbMText
 10
378.92494
 20
119.102728
 30
0.0
 40
2.5
 41
0.0
 71
     5
 72
     1
  1
\A1;34
  7
ROMANS
1001
ACAD
1000
MTEXTBEGIN
1070
    73
1070
     1
1070
    44
1040
1.0
1070
    74
1070
     0
1000
MTEXTEND
  0
POINT
  5
2C72
100
AcDbEntity
  8
DEFPOINTS
 62
     0
100
AcDbPoint
 10
395.92494
 20
94.352728
 30
0.0
1001
ACAD
1000
RTLwPs
1070
   128
  0
POINT
  5
2C73
100
AcDbEntity
  8
DEFPOINTS
 62
     0
100
AcDbPoint
 10
361.92494
 20
64.266547
 30
0.0
1001
ACAD
1000
RTLwPs
1070
   128
  0
POINT
  5
2C74
100
AcDbEntity
  8
DEFPOINTS
 62
     0
100
AcDbPoint
 10
361.92494
 20
115.852728
 30
0.0
1001
ACAD
1000
RTLwPs
1070
   128
  0
ENDBLK
  5
2A33
100
AcDbEntity
  8
0
100
AcDbBlockEnd
1001
ACAD
1000
RTLwPs
1070
   128
  0
BLOCK
  5
2A3F
100
AcDbEntity
  8
0
100
AcDbBlockBegin
  2
*D6
 70
     1
 10
0.0
 20
0.0
 30
0.0
  3
*D6
  1

1001
ACAD
1000
RTLwPs
1070
   128
  0
LINE
  5
2E8E
100
AcDbEntity
  8
COTATION1
 62
     0
100
AcDbLine
 10
545.42494
 20
96.352728
 30
0.0
 11
545.42494
 21
118.352728
 31
0.0
1001
ACAD
1000
RTLwPs
1070
   158
  0
LINE
  5
2E8F
100
AcDbEntity
  8
COTATION1
 62
     0
100
AcDbLine
 10
554.32494
 20
96.352728
 30
0.0
 11
554.32494
 21
118.352728
 31
0.0
1001
ACAD
1000
RTLwPs
1070
   158
  0
LINE
  5
2E90
100
AcDbEntity
  8
COTATION1
 62
     0
100
AcDbLine
 10
540.42494
 20
115.852728
 30
0.0
 11
535.42494
 21
115.852728
 31
0.0
1001
ACAD
1000
RTLwPs
1070
   158
  0
LINE
  5
2E91
100
AcDbEntity
  8
COTATION1
 62
     0
100
AcDbLine
 10
559.32494
 20
115.852728
 30
0.0
 11
564.32494
 21
115.852728
 31
0.0
1001
ACAD
1000
RTLwPs
1070
   158
  0
MTEXT
  5
2E92
100
AcDbEntity
  8
COTATION1
 62
     0
100
AcDbMText
 10
549.87494
 20
121.852728
 30
0.0
 40
2.5
 41
0.0
 71
     5
 72
     1
  1
\A1;8.9
  7
ROMANS
1001
ACAD
1000
MTEXTBEGIN
1070
    73
1070
     1
1070
    44
1040
1.0
1070
    74
1070
     0
1000
MTEXTEND
  0
INSERT
  5
2E93
100
AcDbEntity
  8
COTATION1
 62
     0
100
AcDbBlockReference
  2
_OPEN30
 10
545.42494
 20
115.852728
 30
0.0
 41
5.0
 42
5.0
 43
5.0
1001
ACAD
1000
RTLwPs
1070
   158
  0
INSERT
  5
2E94
100
AcDbEntity
  8
COTATION1
 62
     0
100
AcDbBlockReference
  2
_OPEN30
 10
554.32494
 20
115.852728
 30
0.0
 41
5.0
 42
5.0
 43
5.0
 50
180.0
1001
ACAD
1000
RTLwPs
1070
   158
  0
POINT
  5
2E95
100
AcDbEntity
  8
DEFPOINTS
 62
     0
100
AcDbPoint
 10
545.42494
 20
94.352728
 30
0.0
1001
ACAD
1000
RTLwPs
1070
   128
  0
POINT
  5
2E96
100
AcDbEntity
  8
DEFPOINTS
 62
     0
100
AcDbPoint
 10
554.32494
 20
94.352728
 30
0.0
1001
ACAD
1000
RTLwPs
1070
   128
  0
POINT
  5
2E97
100
AcDbEntity
  8
DEFPOINTS
 62
     0
100
AcDbPoint
 10
554.32494
 20
115.852728
 30
0.0
1001
ACAD
1000
RTLwPs
1070
   128
  0
ENDBLK
  5
2A40
100
AcDbEntity
  8
0
100
AcDbBlockEnd
1001
ACAD
1000
RTLwPs
1070
   128
  0
BLOCK
  5
2A4B
100
AcDbEntity
  8
0
100
AcDbBlockBegin
  2
*D7
 70
     1
 10
0.0
 20
0.0
 30
0.0
  3
*D7
  1

1001
ACAD
1000
RTLwPs
1070
   128
  0
LINE
  5
2E85
100
AcDbEntity
  8
COTATION1
 62
     0
100
AcDbLine
 10
430.92494
 20
96.352728
 30
0.0
 11
430.92494
 21
118.352728
 31
0.0
1001
ACAD
1000
RTLwPs
1070
   158
  0
LINE
  5
2E86
100
AcDbEntity
  8
COTATION1
 62
     0
100
AcDbLine
 10
545.42494
 20
96.352728
 30
0.0
 11
545.42494
 21
118.352728
 31
0.0
1001
ACAD
1000
RTLwPs
1070
   158
  0
LINE
  5
2E87
100
AcDbEntity
  8
COTATION1
 62
     0
100
AcDbLine
 10
435.92494
 20
115.852728
 30
0.0
 11
540.42494
 21
115.852728
 31
0.0
1001
ACAD
1000
RTLwPs
1070
   158
  0
INSERT
  5
2E88
100
AcDbEntity
  8
COTATION1
 62
     0
100
AcDbBlockReference
  2
_OPEN30
 10
430.92494
 20
115.852728
 30
0.0
 41
5.0
 42
5.0
 43
5.0
 50
180.0
1001
ACAD
1000
RTLwPs
1070
   158
  0
INSERT
  5
2E89
100
AcDbEntity
  8
COTATION1
 62
     0
100
AcDbBlockReference
  2
_OPEN30
 10
545.42494
 20
115.852728
 30
0.0
 41
5.0
 42
5.0
 43
5.0
1001
ACAD
1000
RTLwPs
1070
   158
  0
MTEXT
  5
2E8A
100
AcDbEntity
  8
COTATION1
 62
     0
100
AcDbMText
 10
488.17494
 20
119.102728
 30
0.0
 40
2.5
 41
0.0
 71
     5
 72
     1
  1
\A1;114.5
  7
ROMANS
1001
ACAD
1000
MTEXTBEGIN
1070
    73
1070
     1
1070
    44
1040
1.0
1070
    74
1070
     0
1000
MTEXTEND
  0
POINT
  5
2E8B
100
AcDbEntity
  8
DEFPOINTS
 62
     0
100
AcDbPoint
 10
430.92494
 20
94.352728
 30
0.0
1001
ACAD
1000
RTLwPs
1070
   128
  0
POINT
  5
2E8C
100
AcDbEntity
  8
DEFPOINTS
 62
     0
100
AcDbPoint
 10
545.42494
 20
94.352728
 30
0.0
1001
ACAD
1000
RTLwPs
1070
   128
  0
POINT
  5
2E8D
100
AcDbEntity
  8
DEFPOINTS
 62
     0
100
AcDbPoint
 10
545.42494
 20
115.852728
 30
0.0
1001
ACAD
1000
RTLwPs
1070
   128
  0
ENDBLK
  5
2A4C
100
AcDbEntity
  8
0
100
AcDbBlockEnd
1001
ACAD
1000
RTLwPs
1070
   128
  0
BLOCK
  5
2A58
100
AcDbEntity
  8
0
100
AcDbBlockBegin
  2
*D8
 70
     1
 10
0.0
 20
0.0
 30
0.0
  3
*D8
  1

1001
ACAD
1000
RTLwPs
1070
   128
  0
LINE
  5
2C62
100
AcDbEntity
  8
COTATION1
 62
     0
100
AcDbLine
 10
387.92494
 20
94.352728
 30
0.0
 11
344.42494
 21
94.352728
 31
0.0
1001
ACAD
1000
RTLwPs
1070
   158
  0
LINE
  5
2C63
100
AcDbEntity
  8
COTATION1
 62
     0
100
AcDbLine
 10
387.92494
 20
6.352728
 30
0.0
 11
344.42494
 21
6.352728
 31
0.0
1001
ACAD
1000
RTLwPs
1070
   158
  0
LINE
  5
2C64
100
AcDbEntity
  8
COTATION1
 62
     0
100
AcDbLine
 10
346.92494
 20
89.352728
 30
0.0
 11
346.92494
 21
53.602728
 31
0.0
1001
ACAD
1000
RTLwPs
1070
   158
  0
LINE
  5
2C65
100
AcDbEntity
  8
COTATION1
 62
     0
100
AcDbLine
 10
346.92494
 20
11.352728
 30
0.0
 11
346.92494
 21
47.102728
 31
0.0
1001
ACAD
1000
RTLwPs
1070
   158
  0
INSERT
  5
2C66
100
AcDbEntity
  8
COTATION1
 62
     0
100
AcDbBlockReference
  2
_OPEN30
 10
346.92494
 20
94.352728
 30
0.0
 41
5.0
 42
5.0
 43
5.0
 50
90.0
1001
ACAD
1000
RTLwPs
1070
   158
  0
INSERT
  5
2C67
100
AcDbEntity
  8
COTATION1
 62
     0
100
AcDbBlockReference
  2
_OPEN30
 10
346.92494
 20
6.352728
 30
0.0
 41
5.0
 42
5.0
 43
5.0
 50
270.0
1001
ACAD
1000
RTLwPs
1070
   158
  0
MTEXT
  5
2C68
100
AcDbEntity
  8
COTATION1
 62
     0
100
AcDbMText
 10
346.92494
 20
50.352728
 30
0.0
 40
2.5
 41
0.0
 71
     5
 72
     1
  1
\A1;88
  7
ROMANS
1001
ACAD
1000
MTEXTBEGIN
1070
    73
1070
     1
1070
    44
1040
1.0
1070
    74
1070
     0
1000
MTEXTEND
  0
POINT
  5
2C69
100
AcDbEntity
  8
DEFPOINTS
 62
     0
100
AcDbPoint
 10
389.92494
 20
94.352728
 30
0.0
1001
ACAD
1000
RTLwPs
1070
   128
  0
POINT
  5
2C6A
100
AcDbEntity
  8
DEFPOINTS
 62
     0
100
AcDbPoint
 10
389.92494
 20
6.352728
 30
0.0
1001
ACAD
1000
RTLwPs
1070
   128
  0
POINT
  5
2C6B
100
AcDbEntity
  8
DEFPOINTS
 62
     0
100
AcDbPoint
 10
346.92494
 20
6.352728
 30
0.0
1001
ACAD
1000
RTLwPs
1070
   128
  0
ENDBLK
  5
2A59
100
AcDbEntity
  8
0
100
AcDbBlockEnd
1001
ACAD
1000
RTLwPs
1070
   128
  0
BLOCK
  5
2B27
100
AcDbEntity
  8
0
100
AcDbBlockBegin
  2
*D9
 70
     1
 10
0.0
 20
0.0
 30
0.0
  3
*D9
  1

1001
ACAD
1000
RTLwPs
1070
   128
  0
LINE
  5
2CFA
100
AcDbEntity
  8
COTATION1
 62
     0
100
AcDbLine
 10
262.75122
 20
84.354491
 30
0.0
 11
281.55122
 21
84.354491
 31
0.0
1001
ACAD
1000
RTLwPs
1070
   158
  0
LINE
  5
2CFB
100
AcDbEntity
  8
COTATION1
 62
     0
100
AcDbLine
 10
262.75122
 20
16.350965
 30
0.0
 11
281.55122
 21
16.350965
 31
0.0
1001
ACAD
1000
RTLwPs
1070
   158
  0
LINE
  5
2CFC
100
AcDbEntity
  8
COTATION1
 62
     0
100
AcDbLine
 10
279.05122
 20
79.354491
 30
0.0
 11
279.05122
 21
53.602728
 31
0.0
1001
ACAD
1000
RTLwPs
1070
   158
  0
LINE
  5
2CFD
100
AcDbEntity
  8
COTATION1
 62
     0
100
AcDbLine
 10
279.05122
 20
21.350965
 30
0.0
 11
279.05122
 21
47.102728
 31
0.0
1001
ACAD
1000
RTLwPs
1070
   158
  0
INSERT
  5
2CFE
100
AcDbEntity
  8
COTATION1
 62
     0
100
AcDbBlockReference
  2
_OPEN30
 10
279.05122
 20
84.354491
 30
0.0
 41
5.0
 42
5.0
 43
5.0
 50
90.0
1001
ACAD
1000
RTLwPs
1070
   158
  0
INSERT
  5
2CFF
100
AcDbEntity
  8
COTATION1
 62
     0
100
AcDbBlockReference
  2
_OPEN30
 10
279.05122
 20
16.350965
 30
0.0
 41
5.0
 42
5.0
 43
5.0
 50
270.0
1001
ACAD
1000
RTLwPs
1070
   158
  0
MTEXT
  5
2D00
100
AcDbEntity
  8
COTATION1
 62
     0
100
AcDbMText
 10
279.05122
 20
50.352728
 30
0.0
 40
2.5
 41
0.0
 71
     5
 72
     1
  1
\A1;68
  7
ROMANS
1001
ACAD
1000
MTEXTBEGIN
1070
    73
1070
     1
1070
    44
1040
1.0
1070
    74
1070
     0
1000
MTEXTEND
  0
POINT
  5
2D01
100
AcDbEntity
  8
DEFPOINTS
 62
     0
100
AcDbPoint
 10
260.75122
 20
84.354491
 30
0.0
1001
ACAD
1000
RTLwPs
1070
   128
  0
POINT
  5
2D02
100
AcDbEntity
  8
DEFPOINTS
 62
     0
100
AcDbPoint
 10
260.75122
 20
16.350965
 30
0.0
1001
ACAD
1000
RTLwPs
1070
   128
  0
POINT
  5
2D03
100
AcDbEntity
  8
DEFPOINTS
 62
     0
100
AcDbPoint
 10
279.05122
 20
16.350965
 30
0.0
1001
ACAD
1000
RTLwPs
1070
   128
  0
ENDBLK
  5
2B28
100
AcDbEntity
  8
0
100
AcDbBlockEnd
1001
ACAD
1000
RTLwPs
1070
   128
  0
BLOCK
  5
2B34
100
AcDbEntity
  8
0
100
AcDbBlockBegin
  2
*D10
 70
     1
 10
0.0
 20
0.0
 30
0.0
  3
*D10
  1

1001
ACAD
1000
RTLwPs
1070
   128
  0
LINE
  5
2D04
100
AcDbEntity
  8
COTATION1
 62
     0
100
AcDbLine
 10
260.05122
 20
94.352728
 30
0.0
 11
291.55122
 21
94.352728
 31
0.0
1001
ACAD
1000
RTLwPs
1070
   158
  0
LINE
  5
2D05
100
AcDbEntity
  8
COTATION1
 62
     0
100
AcDbLine
 10
260.05122
 20
6.352728
 30
0.0
 11
291.55122
 21
6.352728
 31
0.0
1001
ACAD
1000
RTLwPs
1070
   158
  0
LINE
  5
2D06
100
AcDbEntity
  8
COTATION1
 62
     0
100
AcDbLine
 10
289.05122
 20
89.352728
 30
0.0
 11
289.05122
 21
53.602728
 31
0.0
1001
ACAD
1000
RTLwPs
1070
   158
  0
LINE
  5
2D07
100
AcDbEntity
  8
COTATION1
 62
     0
100
AcDbLine
 10
289.05122
 20
11.352728
 30
0.0
 11
289.05122
 21
47.102728
 31
0.0
1001
ACAD
1000
RTLwPs
1070
   158
  0
INSERT
  5
2D08
100
AcDbEntity
  8
COTATION1
 62
     0
100
AcDbBlockReference
  2
_OPEN30
 10
289.05122
 20
94.352728
 30
0.0
 41
5.0
 42
5.0
 43
5.0
 50
90.0
1001
ACAD
1000
RTLwPs
1070
   158
  0
INSERT
  5
2D09
100
AcDbEntity
  8
COTATION1
 62
     0
100
AcDbBlockReference
  2
_OPEN30
 10
289.05122
 20
6.352728
 30
0.0
 41
5.0
 42
5.0
 43
5.0
 50
270.0
1001
ACAD
1000
RTLwPs
1070
   158
  0
MTEXT
  5
2D0A
100
AcDbEntity
  8
COTATION1
 62
     0
100
AcDbMText
 10
289.05122
 20
50.352728
 30
0.0
 40
2.5
 41
0.0
 71
     5
 72
     1
  1
\A1;88
  7
ROMANS
1001
ACAD
1000
MTEXTBEGIN
1070
    73
1070
     1
1070
    44
1040
1.0
1070
    74
1070
     0
1000
MTEXTEND
  0
POINT
  5
2D0B
100
AcDbEntity
  8
DEFPOINTS
 62
     0
100
AcDbPoint
 10
258.05122
 20
94.352728
 30
0.0
1001
ACAD
1000
RTLwPs
1070
   128
  0
POINT
  5
2D0C
100
AcDbEntity
  8
DEFPOINTS
 62
     0
100
AcDbPoint
 10
258.05122
 20
6.352728
 30
0.0
1001
ACAD
1000
RTLwPs
1070
   128
  0
POINT
  5
2D0D
100
AcDbEntity
  8
DEFPOINTS
 62
     0
100
AcDbPoint
 10
289.05122
 20
6.352728
 30
0.0
1001
ACAD
1000
RTLwPs
1070
   128
  0
ENDBLK
  5
2B35
100
AcDbEntity
  8
0
100
AcDbBlockEnd
1001
ACAD
1000
RTLwPs
1070
   128
  0
BLOCK
  5
2BAE
100
AcDbEntity
  8
0
100
AcDbBlockBegin
  2
*D11
 70
     1
 10
0.0
 20
0.0
 30
0.0
  3
*D11
  1

1001
ACAD
1000
RTLwPs
1070
   128
  0
LINE
  5
2EFA
100
AcDbEntity
  8
COTATION1
 62
     0
100
AcDbLine
 10
211.937887
 20
71.409678
 30
0.0
 11
197.914078
 21
71.409678
 31
0.0
  0
LINE
  5
2EFB
100
AcDbEntity
  8
COTATION1
 62
     0
100
AcDbLine
 10
197.914078
 20
71.409678
 30
0.0
 11
191.253917
 21
78.676291
 31
0.0
  0
MTEXT
  5
2EFC
100
AcDbEntity
  8
COTATION1
 62
     0
100
AcDbMText
 10
205.925983
 20
74.659678
 30
0.0
 40
2.5
 41
0.0
 71
     5
 72
     1
  1
\A1;4x\U+22055.4
  7
ROMANS
  0
INSERT
  5
2EFD
100
AcDbEntity
  8
COTATION1
 62
     0
100
AcDbBlockReference
  2
_OPEN30
 10
187.875542
 20
82.362289
 30
0.0
 41
5.0
 42
5.0
 43
5.0
 50
132.506587
  0
POINT
  5
2EFE
100
AcDbEntity
  8
DEFPOINTS
 62
     0
100
AcDbPoint
 10
187.875542
 20
82.362289
 30
0.0
  0
POINT
  5
2EFF
100
AcDbEntity
  8
DEFPOINTS
 62
     0
100
AcDbPoint
 10
184.226898
 20
86.343167
 30
0.0
  0
ENDBLK
  5
2BAF
100
AcDbEntity
  8
0
100
AcDbBlockEnd
1001
ACAD
1000
RTLwPs
1070
   128
  0
ENDSEC
  0
SECTION
  2
ENTITIES
  0
DIMENSION
  5
21DC
100
AcDbEntity
  8
COTATION1
100
AcDbDimension
  2
*D1
 10
254.05122
 20
-18.647272
 30
0.0
 11
220.05122
 21
-15.397272
 31
0.0
 70
    32
  1
<>
  3
SC_DEFAUT
100
AcDbAlignedDimension
 13
186.05122
 23
9.652728
 33
0.0
 14
254.05122
 24
9.652728
 34
0.0
100
AcDbRotatedDimension
  0
DIMENSION
  5
2402
100
AcDbEntity
  8
COTATION1
100
AcDbDimension
  2
*D2
 10
264.05122
 20
-28.647272
 30
0.0
 11
220.05122
 21
-25.397272
 31
0.0
 70
    32
  1
<>
  3
SC_DEFAUT
100
AcDbAlignedDimension
 13
176.05122
 23
12.352728
 33
0.0
 14
264.05122
 24
12.352728
 34
0.0
100
AcDbRotatedDimension
  0
LINE
  5
250B
100
AcDbEntity
  8
AXE
100
AcDbLine
 10
441.92494
 20
-14.647272
 30
0.0
 11
441.92494
 21
104.352728
 31
0.0
  0
TEXT
  5
250C
100
AcDbEntity
  8
AXE
100
AcDbText
 10
434.44875
 20
-14.647272
 30
0.0
 40
8.0
  1
Y
  7
ROMANS
 72
     2
 11
440.92494
 21
-14.647272
 31
0.0
100
AcDbText
  0
DIMENSION
  5
2620
100
AcDbEntity
  8
COTATION1
100
AcDbDimension
  2
*D3
 10
430.92494
 20
115.852728
 30
0.0
 11
413.42494
 21
119.102728
 31
0.0
 70
    32
  1
120...150
  3
SC_DEFAUT
100
AcDbAlignedDimension
 13
395.92494
 23
94.352728
 33
0.0
 14
430.92494
 24
94.352728
 34
0.0
100
AcDbRotatedDimension
  0
LINE
  5
2675
100
AcDbEntity
  8
ALPHA
  6
CONTINUOUS
100
AcDbLine
 10
404.42494
 20
53.352728
 30
0.0
 11
404.42494
 21
47.352728
 31
0.0
1001
ACAD
1000
RTLwPs
1070
   128
  0
LINE
  5
2676
100
AcDbEntity
  8
ALPHA
  6
CONTINUOUS
100
AcDbLine
 10
401.42494
 20
55.352728
 30
0.0
 11
401.42494
 21
45.352728
 31
0.0
1001
ACAD
1000
RTLwPs
1070
   128
  0
LINE
  5
2677
100
AcDbEntity
  8
ALPHA
  6
CONTINUOUS
100
AcDbLine
 10
401.42494
 20
45.352728
 30
0.0
 11
395.92494
 21
45.352728
 31
0.0
1001
ACAD
1000
RTLwPs
1070
   128
  0
LINE
  5
2678
100
AcDbEntity
  8
ALPHA
  6
CONTINUOUS
100
AcDbLine
 10
401.42494
 20
55.352728
 30
0.0
 11
395.92494
 21
55.352728
 31
0.0
1001
ACAD
1000
RTLwPs
1070
   128
  0
LINE
  5
2679
100
AcDbEntity
  8
ALPHA
  6
CONTINUOUS
100
AcDbLine
 10
430.92494
 20
53.352728
 30
0.0
 11
404.42494
 21
53.352728
 31
0.0
1001
ACAD
1000
RTLwPs
1070
   128
  0
LINE
  5
267A
100
AcDbEntity
  8
ALPHA
  6
CONTINUOUS
100
AcDbLine
 10
430.92494
 20
47.352728
 30
0.0
 11
404.42494
 21
47.352728
 31
0.0
1001
ACAD
1000
RTLwPs
1070
   128
  0
LINE
  5
26E5
100
AcDbEntity
  8
TEXTE
100
AcDbLine
 10
616.050011
 20
50.352728
 30
0.0
 11
593.990266
 21
50.352728
 31
0.0
  0
LINE
  5
26E6
100
AcDbEntity
  8
TEXTE
100
AcDbLine
 10
601.990266
 20
54.97153
 30
0.0
 11
593.990266
 21
50.352728
 31
0.0
  0
LINE
  5
26EB
100
AcDbEntity
  8
TEXTE
100
AcDbLine
 10
601.990266
 20
54.97153
 30
0.0
 11
601.990266
 21
48.352728
 31
0.0
  0
TEXT
  5
26ED
100
AcDbEntity
  8
TEXTE
100
AcDbText
 10
608.231835
 20
51.356998
 30
0.0
 40
8.0
  1
F
  7
ROMANS
 72
     2
 11
614.708025
 21
51.356998
 31
0.0
100
AcDbText
  0
TEXT
  5
273E
100
AcDbEntity
  8
TEXTE
100
AcDbText
 10
216.05122
 20
110.352728
 30
0.0
 40
8.0
  1
F
  7
ROMANS
 72
     4
 11
220.05122
 21
114.352728
 31
0.0
100
AcDbText
  0
LINE
  5
29C2
100
AcDbEntity
  8
ALPHA
  6
CONTINUOUS
100
AcDbLine
 10
395.92494
 20
94.352728
 30
0.0
 11
389.92494
 21
94.352728
 31
0.0
1001
ACAD
1000
RTLwPs
1070
   128
  0
LINE
  5
29C3
100
AcDbEntity
  8
ALPHA
  6
CONTINUOUS
100
AcDbLine
 10
395.92494
 20
6.352728
 30
0.0
 11
389.92494
 21
6.352728
 31
0.0
1001
ACAD
1000
RTLwPs
1070
   128
  0
LINE
  5
29C4
100
AcDbEntity
  8
ALPHA
  6
CONTINUOUS
100
AcDbLine
 10
389.92494
 20
94.352728
 30
0.0
 11
389.92494
 21
6.352728
 31
0.0
1001
ACAD
1000
RTLwPs
1070
   128
  0
LINE
  5
29C5
100
AcDbEntity
  8
ALPHA
  6
CONTINUOUS
100
AcDbLine
 10
381.92494
 20
75.352728
 30
0.0
 11
361.92494
 21
64.266547
 31
0.0
1001
ACAD
1000
RTLwPs
1070
   128
  0
LINE
  5
29C6
100
AcDbEntity
  8
ALPHA
  6
CONTINUOUS
100
AcDbLine
 10
383.42494
 20
75.352728
 30
0.0
 11
383.42494
 21
25.352728
 31
0.0
1001
ACAD
1000
RTLwPs
1070
   128
  0
LINE
  5
29C7
100
AcDbEntity
  8
ALPHA
  6
CONTINUOUS
100
AcDbLine
 10
395.92494
 20
94.352728
 30
0.0
 11
395.92494
 21
6.352728
 31
0.0
1001
ACAD
1000
RTLwPs
1070
   128
  0
LINE
  5
29C8
100
AcDbEntity
  8
ALPHA
  6
CONTINUOUS
100
AcDbLine
 10
430.92494
 20
94.352728
 30
0.0
 11
430.92494
 21
6.352728
 31
0.0
1001
ACAD
1000
RTLwPs
1070
   128
  0
LINE
  5
29C9
100
AcDbEntity
  8
ALPHA
  6
CONTINUOUS
100
AcDbLine
 10
554.32494
 20
94.352728
 30
0.0
 11
554.32494
 21
50.352728
 31
0.0
1001
ACAD
1000
RTLwPs
1070
   128
  0
LINE
  5
29CA
100
AcDbEntity
  8
ALPHA
  6
CONTINUOUS
100
AcDbLine
 10
545.42494
 20
94.352728
 30
0.0
 11
545.42494
 21
50.352728
 31
0.0
1001
ACAD
1000
RTLwPs
1070
   128
  0
LINE
  5
29CC
100
AcDbEntity
  8
ALPHA
  6
CONTINUOUS
100
AcDbLine
 10
434.42494
 20
94.352728
 30
0.0
 11
434.42494
 21
50.352728
 31
0.0
1001
ACAD
1000
RTLwPs
1070
   128
  0
LINE
  5
29CD
100
AcDbEntity
  8
ALPHA
  6
CONTINUOUS
100
AcDbLine
 10
436.92494
 20
82.852728
 30
0.0
 11
436.92494
 21
50.352728
 31
0.0
1001
ACAD
1000
RTLwPs
1070
   128
  0
LINE
  5
29D0
100
AcDbEntity
  8
ALPHA
  6
CONTINUOUS
100
AcDbLine
 10
361.92494
 20
64.266547
 30
0.0
 11
361.92494
 21
9.614777
 31
0.0
1001
ACAD
1000
RTLwPs
1070
   128
  0
LINE
  5
29D1
100
AcDbEntity
  8
ALPHA
  6
CONTINUOUS
100
AcDbLine
 10
380.42494
 20
25.352728
 30
0.0
 11
380.42494
 21
6.352728
 31
0.0
1001
ACAD
1000
RTLwPs
1070
   128
  0
LINE
  5
29D3
100
AcDbEntity
  8
ALPHA
  6
CONTINUOUS
100
AcDbLine
 10
446.92494
 20
82.852728
 30
0.0
 11
436.92494
 21
82.852728
 31
0.0
1001
ACAD
1000
RTLwPs
1070
   128
  0
LINE
  5
29D7
100
AcDbEntity
  8
ALPHA
  6
CONTINUOUS
100
AcDbLine
 10
380.42494
 20
6.352728
 30
0.0
 11
361.92494
 21
9.614777
 31
0.0
1001
ACAD
1000
RTLwPs
1070
   128
  0
LINE
  5
29D8
100
AcDbEntity
  8
ALPHA
  6
CONTINUOUS
100
AcDbLine
 10
389.92494
 20
75.352728
 30
0.0
 11
381.92494
 21
75.352728
 31
0.0
1001
ACAD
1000
RTLwPs
1070
   128
  0
LINE
  5
29D9
100
AcDbEntity
  8
ALPHA
  6
CONTINUOUS
100
AcDbLine
 10
389.92494
 20
25.352728
 30
0.0
 11
380.42494
 21
25.352728
 31
0.0
1001
ACAD
1000
RTLwPs
1070
   128
  0
LINE
  5
29DD
100
AcDbEntity
  8
ALPHA
  6
CONTINUOUS
100
AcDbLine
 10
434.42494
 20
94.352728
 30
0.0
 11
430.92494
 21
94.352728
 31
0.0
1001
ACAD
1000
RTLwPs
1070
   128
  0
LINE
  5
29DE
100
AcDbEntity
  8
ALPHA
  6
CONTINUOUS
100
AcDbLine
 10
554.32494
 20
94.352728
 30
0.0
 11
545.42494
 21
94.352728
 31
0.0
1001
ACAD
1000
RTLwPs
1070
   128
  0
LINE
  5
29DF
100
AcDbEntity
  8
ALPHA
  6
CONTINUOUS
100
AcDbLine
 10
436.92494
 20
82.852728
 30
0.0
 11
434.42494
 21
85.352728
 31
0.0
1001
ACAD
1000
RTLwPs
1070
   128
  0
LINE
  5
29E0
100
AcDbEntity
  8
ALPHA
  6
CONTINUOUS
100
AcDbLine
 10
554.32494
 20
6.352728
 30
0.0
 11
554.32494
 21
50.352728
 31
0.0
1001
ACAD
1000
RTLwPs
1070
   128
  0
LINE
  5
29E1
100
AcDbEntity
  8
ALPHA
  6
CONTINUOUS
100
AcDbLine
 10
545.42494
 20
6.352728
 30
0.0
 11
545.42494
 21
50.352728
 31
0.0
1001
ACAD
1000
RTLwPs
1070
   128
  0
LINE
  5
29E2
100
AcDbEntity
  8
ALPHA
  6
CONTINUOUS
100
AcDbLine
 10
434.42494
 20
6.352728
 30
0.0
 11
434.42494
 21
50.352728
 31
0.0
1001
ACAD
1000
RTLwPs
1070
   128
  0
LINE
  5
29E3
100
AcDbEntity
  8
ALPHA
  6
CONTINUOUS
100
AcDbLine
 10
436.92494
 20
17.852728
 30
0.0
 11
436.92494
 21
50.352728
 31
0.0
1001
ACAD
1000
RTLwPs
1070
   128
  0
LINE
  5
29E5
100
AcDbEntity
  8
ALPHA
  6
CONTINUOUS
100
AcDbLine
 10
446.92494
 20
17.852728
 30
0.0
 11
436.92494
 21
17.852728
 31
0.0
1001
ACAD
1000
RTLwPs
1070
   128
  0
LINE
  5
29E6
100
AcDbEntity
  8
ALPHA
  6
CONTINUOUS
100
AcDbLine
 10
434.42494
 20
6.352728
 30
0.0
 11
430.92494
 21
6.352728
 31
0.0
1001
ACAD
1000
RTLwPs
1070
   128
  0
LINE
  5
29E7
100
AcDbEntity
  8
ALPHA
  6
CONTINUOUS
100
AcDbLine
 10
554.32494
 20
6.352728
 30
0.0
 11
545.42494
 21
6.352728
 31
0.0
1001
ACAD
1000
RTLwPs
1070
   128
  0
LINE
  5
29E8
100
AcDbEntity
  8
ALPHA
  6
CONTINUOUS
100
AcDbLine
 10
436.92494
 20
17.852728
 30
0.0
 11
434.42494
 21
15.352728
 31
0.0
1001
ACAD
1000
RTLwPs
1070
   128
  0
DIMENSION
  5
29EC
100
AcDbEntity
  8
COTATION1
100
AcDbDimension
  2
*D4
 10
580.555863
 20
8.352728
 30
0.0
 11
580.555863
 21
50.352728
 31
0.0
 70
    32
  3
SC_DEFAUT
100
AcDbAlignedDimension
 13
545.42494
 23
92.352728
 33
0.0
 14
545.42494
 24
8.352728
 34
0.0
 50
90.0
100
AcDbRotatedDimension
  0
TEXT
  5
29ED
100
AcDbEntity
  8
AXE
100
AcDbText
 10
562.809068
 20
51.356998
 30
0.0
 40
8.0
  1
Z
  7
ROMANS
 72
     2
 11
569.285258
 21
51.356998
 31
0.0
100
AcDbText
  0
LINE
  5
29EF
100
AcDbEntity
  8
AXE
100
AcDbLine
 10
569.32494
 20
50.352728
 30
0.0
 11
356.92494
 21
50.352728
 31
0.0
  0
DIMENSION
  5
29FD
100
AcDbEntity
  8
COTATION1
100
AcDbDimension
  2
*D5
 10
361.92494
 20
115.852728
 30
0.0
 11
378.92494
 21
119.102728
 31
0.0
 70
    32
  3
SC_DEFAUT
100
AcDbAlignedDimension
 13
395.92494
 23
94.352728
 33
0.0
 14
361.92494
 24
64.266547
 34
0.0
100
AcDbRotatedDimension
  0
DIMENSION
  5
29FE
100
AcDbEntity
  8
COTATION1
100
AcDbDimension
  2
*D6
 10
554.32494
 20
115.852728
 30
0.0
 11
549.87494
 21
121.852728
 31
0.0
 70
    32
  1
<>
  3
SC_DEFAUT
100
AcDbAlignedDimension
 13
545.42494
 23
94.352728
 33
0.0
 14
554.32494
 24
94.352728
 34
0.0
100
AcDbRotatedDimension
  0
DIMENSION
  5
29FF
100
AcDbEntity
  8
COTATION1
100
AcDbDimension
  2
*D7
 10
545.42494
 20
115.852728
 30
0.0
 11
488.17494
 21
119.102728
 31
0.0
 70
    32
  1
<>
  3
SC_DEFAUT
100
AcDbAlignedDimension
 13
430.92494
 23
94.352728
 33
0.0
 14
545.42494
 24
94.352728
 34
0.0
100
AcDbRotatedDimension
  0
DIMENSION
  5
2A00
100
AcDbEntity
  8
COTATION1
100
AcDbDimension
  2
*D8
 10
346.92494
 20
6.352728
 30
0.0
 11
346.92494
 21
50.352728
 31
0.0
 70
    32
  3
SC_DEFAUT
100
AcDbAlignedDimension
 13
389.92494
 23
94.352728
 33
0.0
 14
389.92494
 24
6.352728
 34
0.0
 50
90.0
100
AcDbRotatedDimension
  0
LINE
  5
2AF3
100
AcDbEntity
  8
AXE
100
AcDbLine
 10
220.05122
 20
3.352728
 30
0.0
 11
220.05122
 21
87.352728
 31
0.0
  0
TEXT
  5
2AF4
100
AcDbEntity
  8
AXE
100
AcDbText
 10
160.2035
 20
51.356998
 30
0.0
 40
8.0
  1
X
  7
ROMANS
 72
     2
 11
166.67969
 21
51.356998
 31
0.0
100
AcDbText
  0
LINE
  5
2AF5
100
AcDbEntity
  8
AXE
100
AcDbLine
 10
186.05122
 20
77.652728
 30
0.0
 11
186.05122
 21
91.052728
 31
0.0
  0
LINE
  5
2AF6
100
AcDbEntity
  8
AXE
100
AcDbLine
 10
192.75122
 20
84.350965
 30
0.0
 11
179.35122
 21
84.354491
 31
0.0
  0
CIRCLE
  5
2AF7
100
AcDbEntity
  8
ALPHA
  6
CONTINUOUS
100
AcDbCircle
 10
186.05122
 20
84.352728
 30
0.0
 40
2.7
1001
ACAD
1000
RTLwPs
1070
   128
  0
DIMENSION
  5
2AF9
100
AcDbEntity
  8
COTATION1
100
AcDbDimension
  2
*D9
 10
279.05122
 20
16.350965
 30
0.0
 11
279.05122
 21
50.352728
 31
0.0
 70
    32
  3
SC_DEFAUT
100
AcDbAlignedDimension
 13
260.75122
 23
84.354491
 33
0.0
 14
260.75122
 24
16.350965
 34
0.0
 50
90.0
100
AcDbRotatedDimension
  0
LINE
  5
2AFA
100
AcDbEntity
  8
ALPHA
  6
CONTINUOUS
100
AcDbLine
 10
176.05122
 20
88.352728
 30
0.0
 11
176.05122
 21
12.352728
 31
0.0
1001
ACAD
1000
RTLwPs
1070
   128
  0
ARC
  5
2AFB
100
AcDbEntity
  8
ALPHA
  6
CONTINUOUS
100
AcDbCircle
 10
182.05122
 20
12.352728
 30
0.0
 40
6.0
100
AcDbArc
 50
180.0
 51
270.0
1001
ACAD
1000
RTLwPs
1070
   128
  0
LINE
  5
2AFC
100
AcDbEntity
  8
ALPHA
  6
CONTINUOUS
100
AcDbLine
 10
264.05122
 20
88.352728
 30
0.0
 11
264.05122
 21
12.352728
 31
0.0
1001
ACAD
1000
RTLwPs
1070
   128
  0
ARC
  5
2AFD
100
AcDbEntity
  8
ALPHA
  6
CONTINUOUS
100
AcDbCircle
 10
258.05122
 20
88.352728
 30
0.0
 40
6.0
100
AcDbArc
 50
0.0
 51
90.0
1001
ACAD
1000
RTLwPs
1070
   128
  0
LINE
  5
2AFE
100
AcDbEntity
  8
ALPHA
  6
CONTINUOUS
100
AcDbLine
 10
258.05122
 20
94.352728
 30
0.0
 11
182.05122
 21
94.352728
 31
0.0
1001
ACAD
1000
RTLwPs
1070
   128
  0
ARC
  5
2AFF
100
AcDbEntity
  8
ALPHA
  6
CONTINUOUS
100
AcDbCircle
 10
182.05122
 20
88.352728
 30
0.0
 40
6.0
100
AcDbArc
 50
90.0
 51
180.0
1001
ACAD
1000
RTLwPs
1070
   128
  0
LINE
  5
2B00
100
AcDbEntity
  8
ALPHA
  6
CONTINUOUS
100
AcDbLine
 10
258.05122
 20
6.352728
 30
0.0
 11
182.05122
 21
6.352728
 31
0.0
1001
ACAD
1000
RTLwPs
1070
   128
  0
ARC
  5
2B01
100
AcDbEntity
  8
ALPHA
  6
CONTINUOUS
100
AcDbCircle
 10
258.05122
 20
12.352728
 30
0.0
 40
6.0
100
AcDbArc
 50
270.0
 51
0.0
1001
ACAD
1000
RTLwPs
1070
   128
  0
LINE
  5
2B02
100
AcDbEntity
  8
AXE
100
AcDbLine
 10
220.05122
 20
-8.647272
 30
0.0
 11
220.05122
 21
99.352728
 31
0.0
  0
TEXT
  5
2B03
100
AcDbEntity
  8
AXE
100
AcDbText
 10
212.575029
 20
-8.647272
 30
0.0
 40
8.0
  1
Y
  7
ROMANS
 72
     2
 11
219.05122
 21
-8.647272
 31
0.0
100
AcDbText
  0
LINE
  5
2B04
100
AcDbEntity
  8
AXE
100
AcDbLine
 10
269.05122
 20
50.352728
 30
0.0
 11
161.05122
 21
50.352728
 31
0.0
  0
LINE
  5
2B05
100
AcDbEntity
  8
AXE
100
AcDbLine
 10
254.05122
 20
77.652728
 30
0.0
 11
254.05122
 21
91.052728
 31
0.0
  0
LINE
  5
2B06
100
AcDbEntity
  8
AXE
100
AcDbLine
 10
247.35122
 20
84.350965
 30
0.0
 11
260.75122
 21
84.354491
 31
0.0
  0
CIRCLE
  5
2B07
100
AcDbEntity
  8
ALPHA
  6
CONTINUOUS
100
AcDbCircle
 10
254.05122
 20
84.352728
 30
0.0
 40
2.7
1001
ACAD
1000
RTLwPs
1070
   128
  0
LINE
  5
2B08
100
AcDbEntity
  8
AXE
100
AcDbLine
 10
186.05122
 20
23.052728
 30
0.0
 11
186.05122
 21
9.652728
 31
0.0
  0
LINE
  5
2B09
100
AcDbEntity
  8
AXE
100
AcDbLine
 10
192.75122
 20
16.354491
 30
0.0
 11
179.35122
 21
16.350965
 31
0.0
  0
CIRCLE
  5
2B0A
100
AcDbEntity
  8
ALPHA
  6
CONTINUOUS
100
AcDbCircle
 10
186.05122
 20
16.352728
 30
0.0
 40
2.7
1001
ACAD
1000
RTLwPs
1070
   128
  0
LINE
  5
2B0B
100
AcDbEntity
  8
AXE
100
AcDbLine
 10
254.05122
 20
23.052728
 30
0.0
 11
254.05122
 21
9.652728
 31
0.0
  0
LINE
  5
2B0C
100
AcDbEntity
  8
AXE
100
AcDbLine
 10
247.35122
 20
16.354491
 30
0.0
 11
260.75122
 21
16.350965
 31
0.0
  0
CIRCLE
  5
2B0D
100
AcDbEntity
  8
ALPHA
  6
CONTINUOUS
100
AcDbCircle
 10
254.05122
 20
16.352728
 30
0.0
 40
2.7
1001
ACAD
1000
RTLwPs
1070
   128
  0
DIMENSION
  5
2B0E
100
AcDbEntity
  8
COTATION1
100
AcDbDimension
  2
*D10
 10
289.05122
 20
6.352728
 30
0.0
 11
289.05122
 21
50.352728
 31
0.0
 70
    32
  3
SC_DEFAUT
100
AcDbAlignedDimension
 13
258.05122
 23
94.352728
 33
0.0
 14
258.05122
 24
6.352728
 34
0.0
 50
90.0
100
AcDbRotatedDimension
  0
DIMENSION
  5
2BA4
100
AcDbEntity
  8
COTATION1
100
AcDbDimension
  2
*D11
 10
184.226898
 20
86.343167
 30
0.0
 11
197.914078
 21
71.409678
 31
0.0
 70
   163
  1
4x<>
  3
SC_DEFAUT
100
AcDbDiametricDimension
 15
187.875542
 25
82.362289
 35
0.0
 40
0.0
1001
ACAD
1000
DSTYLE
1002
{
1070
   287
1070
     4
1070
   279
1070
     1
1002
}
  0
LINE
  5
2DAB
100
AcDbEntity
  8
ALPHA
  6
CONTINUOUS
100
AcDbLine
 10
545.42494
 20
92.352728
 30
0.0
 11
545.42494
 21
8.352728
 31
0.0
1001
ACAD
1000
RTLwPs
1070
   128
  0
LINE
  5
2DC8
100
AcDbEntity
  8
ALPHA
  6
CONTINUOUS
100
AcDbLine
 10
541.42494
 20
85.352728
 30
0.0
 11
541.42494
 21
56.352728
 31
0.0
1001
ACAD
1000
RTLwPs
1070
   128
  0
LINE
  5
2DC9
100
AcDbEntity
  8
ALPHA
  6
CONTINUOUS
100
AcDbLine
 10
446.92494
 20
92.352728
 30
0.0
 11
446.92494
 21
50.352728
 31
0.0
1001
ACAD
1000
RTLwPs
1070
   128
  0
LINE
  5
2DCA
100
AcDbEntity
  8
ALPHA
  6
CONTINUOUS
100
AcDbLine
 10
450.92494
 20
85.352728
 30
0.0
 11
450.92494
 21
56.352728
 31
0.0
1001
ACAD
1000
RTLwPs
1070
   128
  0
LINE
  5
2DCB
100
AcDbEntity
  8
ALPHA
  6
CONTINUOUS
100
AcDbLine
 10
494.17494
 20
56.352728
 30
0.0
 11
450.92494
 21
56.352728
 31
0.0
1001
ACAD
1000
RTLwPs
1070
   128
  0
LINE
  5
2DCC
100
AcDbEntity
  8
ALPHA
  6
CONTINUOUS
100
AcDbLine
 10
541.42494
 20
85.352728
 30
0.0
 11
498.17494
 21
85.352728
 31
0.0
1001
ACAD
1000
RTLwPs
1070
   128
  0
LINE
  5
2DCD
100
AcDbEntity
  8
ALPHA
  6
CONTINUOUS
100
AcDbLine
 10
494.17494
 20
85.352728
 30
0.0
 11
450.92494
 21
85.352728
 31
0.0
1001
ACAD
1000
RTLwPs
1070
   128
  0
LINE
  5
2DCE
100
AcDbEntity
  8
ALPHA
  6
CONTINUOUS
100
AcDbLine
 10
446.92494
 20
8.352728
 30
0.0
 11
446.92494
 21
50.352728
 31
0.0
1001
ACAD
1000
RTLwPs
1070
   128
  0
LINE
  5
2DCF
100
AcDbEntity
  8
ALPHA
  6
CONTINUOUS
100
AcDbLine
 10
498.17494
 20
85.352728
 30
0.0
 11
498.17494
 21
56.352728
 31
0.0
1001
ACAD
1000
RTLwPs
1070
   128
  0
LINE
  5
2DD0
100
AcDbEntity
  8
ALPHA
  6
CONTINUOUS
100
AcDbLine
 10
494.17494
 20
85.352728
 30
0.0
 11
494.17494
 21
56.352728
 31
0.0
1001
ACAD
1000
RTLwPs
1070
   128
  0
LINE
  5
2DD1
100
AcDbEntity
  8
ALPHA
  6
CONTINUOUS
100
AcDbLine
 10
541.42494
 20
56.352728
 30
0.0
 11
498.17494
 21
56.352728
 31
0.0
1001
ACAD
1000
RTLwPs
1070
   128
  0
LINE
  5
2DD2
100
AcDbEntity
  8
ALPHA
  6
CONTINUOUS
100
AcDbLine
 10
545.42494
 20
92.352728
 30
0.0
 11
446.92494
 21
92.352728
 31
0.0
1001
ACAD
1000
RTLwPs
1070
   128
  0
LINE
  5
2DD3
100
AcDbEntity
  8
ALPHA
  6
CONTINUOUS
100
AcDbLine
 10
545.42494
 20
8.352728
 30
0.0
 11
446.92494
 21
8.352728
 31
0.0
1001
ACAD
1000
RTLwPs
1070
   128
  0
LINE
  5
2DD4
100
AcDbEntity
  8
ALPHA
  6
CONTINUOUS
100
AcDbLine
 10
541.42494
 20
15.352728
 30
0.0
 11
541.42494
 21
44.352728
 31
0.0
1001
ACAD
1000
RTLwPs
1070
   128
  0
LINE
  5
2DD5
100
AcDbEntity
  8
ALPHA
  6
CONTINUOUS
100
AcDbLine
 10
450.92494
 20
15.352728
 30
0.0
 11
450.92494
 21
44.352728
 31
0.0
1001
ACAD
1000
RTLwPs
1070
   128
  0
LINE
  5
2DD6
100
AcDbEntity
  8
ALPHA
  6
CONTINUOUS
100
AcDbLine
 10
494.17494
 20
44.352728
 30
0.0
 11
450.92494
 21
44.352728
 31
0.0
1001
ACAD
1000
RTLwPs
1070
   128
  0
LINE
  5
2DD7
100
AcDbEntity
  8
ALPHA
  6
CONTINUOUS
100
AcDbLine
 10
541.42494
 20
15.352728
 30
0.0
 11
498.17494
 21
15.352728
 31
0.0
1001
ACAD
1000
RTLwPs
1070
   128
  0
LINE
  5
2DD8
100
AcDbEntity
  8
ALPHA
  6
CONTINUOUS
100
AcDbLine
 10
494.17494
 20
15.352728
 30
0.0
 11
450.92494
 21
15.352728
 31
0.0
1001
ACAD
1000
RTLwPs
1070
   128
  0
LINE
  5
2DD9
100
AcDbEntity
  8
ALPHA
  6
CONTINUOUS
100
AcDbLine
 10
498.17494
 20
15.352728
 30
0.0
 11
498.17494
 21
44.352728
 31
0.0
1001
ACAD
1000
RTLwPs
1070
   128
  0
LINE
  5
2DDA
100
AcDbEntity
  8
ALPHA
  6
CONTINUOUS
100
AcDbLine
 10
494.17494
 20
15.352728
 30
0.0
 11
494.17494
 21
44.352728
 31
0.0
1001
ACAD
1000
RTLwPs
1070
   128
  0
LINE
  5
2DDB
100
AcDbEntity
  8
ALPHA
  6
CONTINUOUS
100
AcDbLine
 10
541.42494
 20
44.352728
 30
0.0
 11
498.17494
 21
44.352728
 31
0.0
1001
ACAD
1000
RTLwPs
1070
   128
  0
ENDSEC
  0
SECTION
  2
OBJECTS
  0
DICTIONARY
  5
19
102
{ACAD_XDICTIONARY
360
2EF0
102
}
100
AcDbDictionary
  3
ACAD_COLOR
350
6DB
  3
ACAD_GROUP
350
1A
  3
ACAD_LAYOUT
350
1E
  3
ACAD_MATERIAL
350
6DA
  3
ACAD_MLINESTYLE
350
1B
  3
ACAD_PLOTSETTINGS
350
22
  3
ACAD_PLOTSTYLENAME
350
1F
  3
ACAD_TABLESTYLE
350
6DC
  3
ACAD_WIPEOUT_VARS
350
23
  3
ACDBHEADERROUNDTRIPXREC
350
2ECC
  3
ACDBVARIABLEDICTIONARY
350
7DA
  0
DICTIONARY
  5
2EC0
100
AcDbDictionary
  3
ACAD_XREC_ROUNDTRIP
360
2EC1
  0
DICTIONARY
  5
2EC2
100
AcDbDictionary
  3
ACAD_XREC_ROUNDTRIP
360
2EC3
  0
DICTIONARY
  5
2EC4
100
AcDbDictionary
  3
ACAD_XREC_ROUNDTRIP
360
2EC5
  0
DICTIONARY
  5
26F0
100
AcDbDictionary
  3
ACAD_LAYERFILTERS
360
26F2
  3
ACLYDICTIONARY
360
26F1
  0
DICTIONARY
  5
2EBC
100
AcDbDictionary
  3
ACAD_XREC_ROUNDTRIP
360
2EBD
  0
DICTIONARY
  5
2EBE
100
AcDbDictionary
  3
ACAD_XREC_ROUNDTRIP
360
2EBF
  0
DICTIONARY
  5
2EC8
100
AcDbDictionary
  3
ACAD_XREC_ROUNDTRIP
360
2EC9
  0
DICTIONARY
  5
2EC6
100
AcDbDictionary
  3
ACAD_XREC_ROUNDTRIP
360
2EC7
  0
DICTIONARY
  5
2EBA
100
AcDbDictionary
  3
ACAD_XREC_ROUNDTRIP
360
2EBB
  0
DICTIONARY
  5
2EF8
100
AcDbDictionary
  3
ACAD_XREC_ROUNDTRIP
360
2EF9
  0
DICTIONARY
  5
7D7
100
AcDbDictionary
  3
ACAD_LAYOUTSELFREF
360
2EED
  3
ACAD_SORTENTS
360
7D8
  0
DICTIONARY
  5
2EEE
100
AcDbDictionary
  3
ACAD_LAYOUTSELFREF
360
2EEF
  0
DICTIONARY
  5
2EF0
100
AcDbDictionary
  3
ACAD_XREC_ROUNDTRIP
360
2EF1
  0
DICTIONARY
  5
6DB
102
{ACAD_REACTORS
330
19
102
}
100
AcDbDictionary
  0
DICTIONARY
  5
1A
102
{ACAD_REACTORS
330
19
102
}
100
AcDbDictionary
  0
DICTIONARY
  5
1E
102
{ACAD_XDICTIONARY
360
2EF4
102
}
102
{ACAD_REACTORS
330
19
102
}
100
AcDbDictionary
  3
LAYOUT1
350
21
  3
MODEL
350
20
  0
DICTIONARY
  5
6DA
102
{ACAD_REACTORS
330
19
102
}
100
AcDbDictionary
  0
DICTIONARY
  5
1B
102
{ACAD_XDICTIONARY
360
2EF2
102
}
102
{ACAD_REACTORS
330
19
102
}
100
AcDbDictionary
  3
STANDARD
350
1C
  0
DICTIONARY
  5
22
102
{ACAD_REACTORS
330
19
102
}
100
AcDbDictionary
  0
ACAD_ZOMBIE_OBJECT
  5
1F
102
{ACAD_REACTORS
330
19
102
}
100
AcDbZombieObject
 90
      499
 91
      517
 93
       86
310
405010041939BDC9B585B0
350
1D
340
1D
 94
        0
  0
DICTIONARY
  5
6DC
102
{ACAD_XDICTIONARY
360
2EF6
102
}
102
{ACAD_REACTORS
330
19
102
}
100
AcDbDictionary
  3
STANDARD
350
6DD
  0
ACAD_ZOMBIE_OBJECT
  5
23
102
{ACAD_REACTORS
330
19
102
}
100
AcDbZombieObject
 90
      499
 91
      525
 93
       10
310
4040
 94
        0
1001
ACAD
1000
AcadProxyRoundTripData
1071
      521
1071
   851991
1070
     0
  0
DICTIONARY
  5
2ECC
102
{ACAD_REACTORS
330
19
102
}
100
AcDbDictionary
  3
CEPSNTYPE
350
2ED6
  3
DIMSTYLEDATA
350
2EDA
  3
FINGERPRINTGUID
350
2ED7
  3
HYPERLINKBASE
350
2ECF
  3
INSUNITS
350
2ED5
  3
LAYOUTDICT
350
2ED1
  3
LWETCUNION
350
2ED4
  3
PLOTSETDICT
350
2ED2
  3
PLOTSTYLNAMDICT
350
2ED3
  3
PSVPSCALE
350
2ED9
  3
PUCSBASE
350
2EDD
  3
PUCSORGBACK
350
2EE3
  3
PUCSORGBOTTOM
350
2EDF
  3
PUCSORGFRONT
350
2EE2
  3
PUCSORGLEFT
350
2EE0
  3
PUCSORGRIGHT
350
2EE1
  3
PUCSORGTOP
350
2EDE
  3
PUCSORTHOREF
350
2EDB
  3
PUCSORTHOVIEW
350
2EDC
  3
STYLESHEET
350
2ED0
  3
TSTACKALIGN
350
2ECD
  3
TSTACKSIZE
350
2ECE
  3
UCSBASE
350
2EE6
  3
UCSORGBACK
350
2EEC
  3
UCSORGBOTTOM
350
2EE8
  3
UCSORGFRONT
350
2EEB
  3
UCSORGLEFT
350
2EE9
  3
UCSORGRIGHT
350
2EEA
  3
UCSORGTOP
350
2EE7
  3
UCSORTHOREF
350
2EE4
  3
UCSORTHOVIEW
350
2EE5
  3
VERSIONGUID
350
2ED8
  0
DICTIONARY
  5
7DA
102
{ACAD_REACTORS
330
19
102
}
100
AcDbDictionary
  3
CTABLESTYLE
350
7DB
  3
DIMASSOC
350
1A71
  3
PROJECTNAME
350
1A72
  0
XRECORD
  5
2EC1
102
{ACAD_REACTORS
330
2EC0
102
}
100
AcDbXrecord
102
EXTNAMES
  1
BYBLOCK
  2
ByBlock
  0
XRECORD
  5
2EC3
102
{ACAD_REACTORS
330
2EC2
102
}
100
AcDbXrecord
102
EXTNAMES
  1
BYLAYER
  2
ByLayer
  0
XRECORD
  5
2EC5
102
{ACAD_REACTORS
330
2EC4
102
}
100
AcDbXrecord
102
EXTNAMES
  1
CONTINUOUS
  2
Continuous
  0
DICTIONARY
  5
26F2
102
{ACAD_REACTORS
330
26F0
102
}
100
AcDbDictionary
  0
DICTIONARY
  5
26F1
102
{ACAD_REACTORS
330
26F0
102
}
100
AcDbDictionary
1001
ACAD
1000
<All
  0
XRECORD
  5
2EBD
102
{ACAD_REACTORS
330
2EBC
102
}
100
AcDbXrecord
102
EXTNAMES
  1
DEFPOINTS
  2
Defpoints
102
PLOTBIT
280
     0
  0
XRECORD
  5
2EBF
102
{ACAD_REACTORS
330
2EBE
102
}
100
AcDbXrecord
102
EXTNAMES
  1
TEXTE
  2
Texte
  0
XRECORD
  5
2EC9
102
{ACAD_REACTORS
330
2EC8
102
}
100
AcDbXrecord
102
EXTNAMES
  1
STANDARD
  2
Standard
  0
XRECORD
  5
2EC7
102
{ACAD_REACTORS
330
2EC6
102
}
100
AcDbXrecord
102
EXTNAMES
  1
ACAECLAYERSTANDARD
  2
AcAecLayerStandard
  0
XRECORD
  5
2EBB
102
{ACAD_REACTORS
330
2EBA
102
}
100
AcDbXrecord
102
EXTNAMES
  1
STANDARD
  2
Standard
  0
XRECORD
  5
2EF9
102
{ACAD_REACTORS
330
2EF8
102
}
100
AcDbXrecord
102
ACADR14ROUNDTRIP
1000
DSTYLE
1002
{
1070
   279
 70
     2
1070
   341
340
6FA
1070
   342
340
6FA
1002
}
  0
XRECORD
  5
2EED
102
{ACAD_REACTORS
330
7D7
102
}
100
AcDbXrecord
340
A
  0
SORTENTSTABLE
  5
7D8
102
{ACAD_REACTORS
330
7D7
102
}
100
AcDbSortentsTable
330
A
331
21DC
  5
220E
331
29D7
  5
29D7
331
29E2
  5
29E2
331
29C4
  5
29C4
331
2BA4
  5
2BA4
331
26E5
  5
26EB
331
2AF7
  5
2AF7
331
2B0A
  5
2B0A
331
2679
  5
2515
331
2AFE
  5
2AFE
331
29FD
  5
29FD
331
29DE
  5
29DE
331
2B05
  5
2B05
331
2AF9
  5
2AF9
331
29C6
  5
29C6
331
29D9
  5
29D9
331
29CD
  5
29CD
331
2B0C
  5
2B0C
331
2B00
  5
2B00
331
250C
  5
2514
331
29FF
  5
29FF
331
29C8
  5
29C8
331
2B07
  5
2B07
331
2676
  5
24FB
331
2AF4
  5
2AF4
331
2AFB
  5
2AFB
331
29E6
  5
29E6
331
2B0E
  5
2B0E
331
2B02
  5
2B02
331
29ED
  5
29ED
331
29C3
  5
29C3
331
29E1
  5
29E1
331
29CA
  5
29CA
331
2678
  5
2516
331
26EB
  5
273E
331
2AF6
  5
2AF6
331
2B09
  5
2B09
331
2AFD
  5
2AFD
331
29DD
  5
29DD
331
29E8
  5
29E8
331
273E
  5
2762
331
29D1
  5
29D1
331
2620
  5
26E5
331
2B04
  5
2B04
331
29EF
  5
29EF
331
29C5
  5
29C5
331
29D8
  5
29D8
331
29E3
  5
29E3
331
26E6
  5
26ED
331
29CC
  5
29CC
331
267A
  5
250D
331
26ED
  5
2745
331
2B0B
  5
2B0B
331
2AFF
  5
2AFF
331
250B
  5
2513
331
29FE
  5
29FE
331
29DF
  5
29DF
331
29D3
  5
29D3
331
2675
  5
24FA
331
2AF3
  5
2AF3
331
2B06
  5
2B06
331
2AFA
  5
2AFA
331
2402
  5
2402
331
29E5
  5
29E5
331
29C7
  5
29C7
331
2B0D
  5
2B0D
331
2B01
  5
2B01
331
2A00
  5
2A00
331
29EC
  5
29EC
331
29C2
  5
29C2
331
29E0
  5
29E0
331
29C9
  5
29C9
331
2AF5
  5
2AF5
331
2B08
  5
2B08
331
2677
  5
250E
331
2AFC
  5
2AFC
331
29E7
  5
29E7
331
29D0
  5
29D0
331
2B03
  5
2B03
  0
XRECORD
  5
2EEF
102
{ACAD_REACTORS
330
2EEE
102
}
100
AcDbXrecord
340
B
  0
XRECORD
  5
2EF1
102
{ACAD_REACTORS
330
2EF0
102
}
100
AcDbXrecord
102
EXTNAMES
  1
ACDBVARIABLEDICTIONARY
  2
AcDbVariableDictionary
  0
DICTIONARY
  5
2EF4
100
AcDbDictionary
  3
ACAD_XREC_ROUNDTRIP
360
2EF5
  0
ACAD_ZOMBIE_OBJECT
  5
21
102
{ACAD_XDICTIONARY
360
2EB3
102
}
102
{ACAD_REACTORS
330
1E
102
}
100
AcDbZombieObject
 90
      499
 91
      515
 93
      812
310
AAAAAAAAAA5A69074C61796F757431406A800000000000000000000000000000000000000000000A1000000000000008902A6A6A10232D5E076BC5510408CB5781DAF154410232D5E076BC5510408CB5781DAF15C410232D5E076BC5710408CB5781DAF15C4B
330
B
330
0
340
0
340
0
 94
        0
  0
ACAD_ZOMBIE_OBJECT
  5
20
102
{ACAD_XDICTIONARY
360
2EB1
102
}
102
{ACAD_REACTORS
330
1E
102
}
100
AcDbZombieObject
 90
      499
 91
      515
 93
      420
310
A00012AAAAAAAA5A69054D6F64656CAA80000000000000000000000000000000000000000000000000000000000000002AAAAAAAA0
330
A
330
0
340
0
340
0
 94
        0
  0
DICTIONARY
  5
2EF2
100
AcDbDictionary
  3
ACAD_XREC_ROUNDTRIP
360
2EF3
  0
MLINESTYLE
  5
1C
102
{ACAD_REACTORS
330
1B
102
}
100
AcDbMlineStyle
  2
STANDARD
 70
     0
  3

 62
     0
 51
90.0
 52
90.0
 71
     2
 49
0.5
 62
   256
  6
BYLAYER
 49
-0.5
 62
   256
  6
BYLAYER
  0
ACAD_ZOMBIE_OBJECT
  5
1D
102
{ACAD_REACTORS
330
1F
102
}
100
AcDbZombieObject
 90
      499
 91
      518
 93
        0
 94
        0
  0
DICTIONARY
  5
2EF6
100
AcDbDictionary
  3
ACAD_XREC_ROUNDTRIP
360
2EF7
  0
ACAD_ZOMBIE_OBJECT
  5
6DD
102
{ACAD_REACTORS
330
6DC
102
}
100
AcDbZombieObject
 90
      499
 91
      525
 93
     1841
310
4214DD185B99185C9928000000000000F83F0000000000003E0FC00000000000004901028000000C1008070000C3001FDFF8000000C1003FBFF000000182007F7FE00000030400FEFFC00000060801FDFF8000000C1003FBFF000000182000000000000000C2020B0000001820100E000186003FBFF000000182007F7FE000
310
00030400FEFFC00000060801FDFF8000000C1003FBFF000000182007F7FE0000003040000000000000012404160000003040201C00030C007F7FE00000030400FEFFC00000060801FDFF8000000C1003FBFF000000182007F7FE00000030400FEFFC000000608000
340
17
340
17
340
17
 94
        0
1001
ACAD
1000
AcadProxyRoundTripData
1071
      524
1071
   851991
1070
     0
  0
XRECORD
  5
2ED6
102
{ACAD_REACTORS
330
2ECC
102
}
100
AcDbXrecord
 90
        0
  0
XRECORD
  5
2EDA
102
{ACAD_REACTORS
330
2ECC
102
}
100
AcDbXrecord
1000
DSTYLE
1002
{
1070
   278
 70
     0
1070
   371
 70
     0
1070
   372
 70
     0
1002
}
  0
XRECORD
  5
2ED7
102
{ACAD_REACTORS
330
2ECC
102
}
100
AcDbXrecord
  1

  0
XRECORD
  5
2ECF
102
{ACAD_REACTORS
330
2ECC
102
}
100
AcDbXrecord
  1

  0
XRECORD
  5
2ED5
102
{ACAD_REACTORS
330
2ECC
102
}
100
AcDbXrecord
 90
        0
  0
XRECORD
  5
2ED1
102
{ACAD_REACTORS
330
2ECC
102
}
100
AcDbXrecord
340
1E
  0
XRECORD
  5
2ED4
102
{ACAD_REACTORS
330
2ECC
102
}
100
AcDbXrecord
 90
    10752
  0
XRECORD
  5
2ED2
102
{ACAD_REACTORS
330
2ECC
102
}
100
AcDbXrecord
340
22
  0
XRECORD
  5
2ED3
102
{ACAD_REACTORS
330
2ECC
102
}
100
AcDbXrecord
340
1F
  0
XRECORD
  5
2ED9
102
{ACAD_REACTORS
330
2ECC
102
}
100
AcDbXrecord
 40
0.0
  0
XRECORD
  5
2EDD
102
{ACAD_REACTORS
330
2ECC
102
}
100
AcDbXrecord
340
0
  0
XRECORD
  5
2EE3
102
{ACAD_REACTORS
330
2ECC
102
}
100
AcDbXrecord
 10
0.0
 20
0.0
 30
0.0
  0
XRECORD
  5
2EDF
102
{ACAD_REACTORS
330
2ECC
102
}
100
AcDbXrecord
 10
0.0
 20
0.0
 30
0.0
  0
XRECORD
  5
2EE2
102
{ACAD_REACTORS
330
2ECC
102
}
100
AcDbXrecord
 10
0.0
 20
0.0
 30
0.0
  0
XRECORD
  5
2EE0
102
{ACAD_REACTORS
330
2ECC
102
}
100
AcDbXrecord
 10
0.0
 20
0.0
 30
0.0
  0
XRECORD
  5
2EE1
102
{ACAD_REACTORS
330
2ECC
102
}
100
AcDbXrecord
 10
0.0
 20
0.0
 30
0.0
  0
XRECORD
  5
2EDE
102
{ACAD_REACTORS
330
2ECC
102
}
100
AcDbXrecord
 10
0.0
 20
0.0
 30
0.0
  0
XRECORD
  5
2EDB
102
{ACAD_REACTORS
330
2ECC
102
}
100
AcDbXrecord
340
0
  0
XRECORD
  5
2EDC
102
{ACAD_REACTORS
330
2ECC
102
}
100
AcDbXrecord
 70
     0
  0
XRECORD
  5
2ED0
102
{ACAD_REACTORS
330
2ECC
102
}
100
AcDbXrecord
  1

  0
XRECORD
  5
2ECD
102
{ACAD_REACTORS
330
2ECC
102
}
100
AcDbXrecord
 90
        1
  0
XRECORD
  5
2ECE
102
{ACAD_REACTORS
330
2ECC
102
}
100
AcDbXrecord
 90
       70
  0
XRECORD
  5
2EE6
102
{ACAD_REACTORS
330
2ECC
102
}
100
AcDbXrecord
340
0
  0
XRECORD
  5
2EEC
102
{ACAD_REACTORS
330
2ECC
102
}
100
AcDbXrecord
 10
0.0
 20
0.0
 30
0.0
  0
XRECORD
  5
2EE8
102
{ACAD_REACTORS
330
2ECC
102
}
100
AcDbXrecord
 10
0.0
 20
0.0
 30
0.0
  0
XRECORD
  5
2EEB
102
{ACAD_REACTORS
330
2ECC
102
}
100
AcDbXrecord
 10
0.0
 20
0.0
 30
0.0
  0
XRECORD
  5
2EE9
102
{ACAD_REACTORS
330
2ECC
102
}
100
AcDbXrecord
 10
0.0
 20
0.0
 30
0.0
  0
XRECORD
  5
2EEA
102
{ACAD_REACTORS
330
2ECC
102
}
100
AcDbXrecord
 10
0.0
 20
0.0
 30
0.0
  0
XRECORD
  5
2EE7
102
{ACAD_REACTORS
330
2ECC
102
}
100
AcDbXrecord
 10
0.0
 20
0.0
 30
0.0
  0
XRECORD
  5
2EE4
102
{ACAD_REACTORS
330
2ECC
102
}
100
AcDbXrecord
340
0
  0
XRECORD
  5
2EE5
102
{ACAD_REACTORS
330
2ECC
102
}
100
AcDbXrecord
 70
     0
  0
XRECORD
  5
2ED8
102
{ACAD_REACTORS
330
2ECC
102
}
100
AcDbXrecord
  1
{C5FECD75-0F7E-46FC-9886-C8CCD18CD905}
  0
DICTIONARYVAR
  5
7DB
102
{ACAD_REACTORS
330
7DA
102
}
100
DictionaryVariables
280
     0
  1
STANDARD
  0
DICTIONARYVAR
  5
1A71
102
{ACAD_REACTORS
330
7DA
102
}
100
DictionaryVariables
280
     0
  1
1
  0
DICTIONARYVAR
  5
1A72
102
{ACAD_REACTORS
330
7DA
102
}
100
DictionaryVariables
280
     0
  1

  0
XRECORD
  5
2EF5
102
{ACAD_REACTORS
330
2EF4
102
}
100
AcDbXrecord
102
EXTNAMES
  1
LAYOUT1
  2
Layout1
  1
MODEL
  2
Model
  0
DICTIONARY
  5
2EB3
100
AcDbDictionary
  3
ACAD_XREC_ROUNDTRIP
360
2EB4
  0
DICTIONARY
  5
2EB1
100
AcDbDictionary
  3
ACAD_XREC_ROUNDTRIP
360
2EB2
  0
XRECORD
  5
2EF3
102
{ACAD_REACTORS
330
2EF2
102
}
100
AcDbXrecord
102
EXTNAMES
  1
STANDARD
  2
Standard
  0
XRECORD
  5
2EF7
102
{ACAD_REACTORS
330
2EF6
102
}
100
AcDbXrecord
102
EXTNAMES
  1
STANDARD
  2
Standard
  0
XRECORD
  5
2EB4
102
{ACAD_REACTORS
330
2EB3
102
}
100
AcDbXrecord
102
SHADEPLOT
 70
     0
102
SHADEPLOTRESLEVEL
 70
     2
102
SHADEPLOTCUSTOMDPI
 70
   300
  0
XRECORD
  5
2EB2
102
{ACAD_REACTORS
330
2EB1
102
}
100
AcDbXrecord
102
SHADEPLOT
 70
     0
102
SHADEPLOTRESLEVEL
 70
     2
102
SHADEPLOTCUSTOMDPI
 70
   300
  0
ENDSEC
  0
EOF
