  0
SECTION
  2
HEADER
  9
$ACADVER
  1
AC1014
  9
$ACADMAINTVER
 70
     0
  9
$DWGCODEPAGE
  3
ANSI_1252
  9
$INSBASE
 10
123.60001
 20
97.800694
 30
0.0
  9
$EXTMIN
 10
105.461991
 20
65.72662
 30
0.0
  9
$EXTMAX
 10
148.437243
 20
120.800521
 30
0.0
  9
$LIMMIN
 10
0.0
 20
0.0
  9
$LIMMAX
 10
210.0
 20
297.0
  9
$ORTHOMODE
 70
     1
  9
$REGENMODE
 70
     1
  9
$FILLMODE
 70
     1
  9
$QTEXTMODE
 70
     0
  9
$MIRRTEXT
 70
     1
  9
$DRAGMODE
 70
     2
  9
$LTSCALE
 40
7.0
  9
$OSMODE
 70
     0
  9
$ATTMODE
 70
     1
  9
$TEXTSIZE
 40
0.2
  9
$TRACEWID
 40
0.05
  9
$TEXTSTYLE
  7
STANDARD
  9
$CLAYER
  8
COTATION1
  9
$CELTYPE
  6
BYLAYER
  9
$CECOLOR
 62
   256
  9
$CELTSCALE
 40
1.0
  9
$DELOBJ
 70
     1
  9
$DISPSILH
 70
     0
  9
$DIMSCALE
 40
1.0
  9
$DIMASZ
 40
3.0
  9
$DIMEXO
 40
0.0625
  9
$DIMDLI
 40
0.38
  9
$DIMRND
 40
0.01
  9
$DIMDLE
 40
0.0
  9
$DIMEXE
 40
0.18
  9
$DIMTP
 40
0.0
  9
$DIMTM
 40
0.0
  9
$DIMTXT
 40
2.5
  9
$DIMCEN
 40
0.09
  9
$DIMTSZ
 40
0.0
  9
$DIMTOL
 70
     0
  9
$DIMLIM
 70
     0
  9
$DIMTIH
 70
     0
  9
$DIMTOH
 70
     0
  9
$DIMSE1
 70
     0
  9
$DIMSE2
 70
     0
  9
$DIMTAD
 70
     1
  9
$DIMZIN
 70
    12
  9
$DIMBLK
  1

  9
$DIMASO
 70
     1
  9
$DIMSHO
 70
     1
  9
$DIMPOST
  1

  9
$DIMAPOST
  1

  9
$DIMALT
 70
     0
  9
$DIMALTD
 70
     2
  9
$DIMALTF
 40
25.4
  9
$DIMLFAC
 40
1.0
  9
$DIMTOFL
 70
     1
  9
$DIMTVP
 40
0.0
  9
$DIMTIX
 70
     0
  9
$DIMSOXD
 70
     0
  9
$DIMSAH
 70
     0
  9
$DIMBLK1
  1

  9
$DIMBLK2
  1

  9
$DIMSTYLE
  2
SC_STAND
  9
$DIMCLRD
 70
     0
  9
$DIMCLRE
 70
     0
  9
$DIMCLRT
 70
     0
  9
$DIMTFAC
 40
1.0
  9
$DIMGAP
 40
1.0
  9
$DIMJUST
 70
     0
  9
$DIMSD1
 70
     0
  9
$DIMSD2
 70
     0
  9
$DIMTOLJ
 70
     1
  9
$DIMTZIN
 70
    12
  9
$DIMALTZ
 70
    12
  9
$DIMALTTZ
 70
    12
  9
$DIMFIT
 70
     5
  9
$DIMUPT
 70
     0
  9
$DIMUNIT
 70
     2
  9
$DIMDEC
 70
     4
  9
$DIMTDEC
 70
     4
  9
$DIMALTU
 70
     2
  9
$DIMALTTD
 70
     2
  9
$DIMTXSTY
  7
STANDARD
  9
$DIMAUNIT
 70
     0
  9
$LUNITS
 70
     2
  9
$LUPREC
 70
     4
  9
$SKETCHINC
 40
0.1
  9
$FILLETRAD
 40
0.0
  9
$AUNITS
 70
     0
  9
$AUPREC
 70
     0
  9
$MENU
  1
acad
  9
$ELEVATION
 40
0.0
  9
$PELEVATION
 40
0.0
  9
$THICKNESS
 40
0.0
  9
$LIMCHECK
 70
     0
  9
$BLIPMODE
 70
     1
  9
$CHAMFERA
 40
0.0
  9
$CHAMFERB
 40
0.0
  9
$CHAMFERC
 40
0.0
  9
$CHAMFERD
 40
0.0
  9
$SKPOLY
 70
     0
  9
$TDCREATE
 40
2451086.446846180
  9
$TDUPDATE
 40
2451387.897797975
  9
$TDINDWG
 40
0.0000309144
  9
$TDUSRTIMER
 40
0.0000309144
  9
$USRTIMER
 70
     1
  9
$ANGBASE
 50
0.0
  9
$ANGDIR
 70
     0
  9
$PDMODE
 70
     0
  9
$PDSIZE
 40
0.0
  9
$PLINEWID
 40
0.0
  9
$COORDS
 70
     1
  9
$SPLFRAME
 70
     0
  9
$SPLINETYPE
 70
     6
  9
$SPLINESEGS
 70
     8
  9
$ATTDIA
 70
     0
  9
$ATTREQ
 70
     1
  9
$HANDLING
 70
     1
  9
$HANDSEED
  5
330
  9
$SURFTAB1
 70
     6
  9
$SURFTAB2
 70
     6
  9
$SURFTYPE
 70
     6
  9
$SURFU
 70
     6
  9
$SURFV
 70
     6
  9
$UCSNAME
  2

  9
$UCSORG
 10
0.0
 20
0.0
 30
0.0
  9
$UCSXDIR
 10
1.0
 20
0.0
 30
0.0
  9
$UCSYDIR
 10
0.0
 20
1.0
 30
0.0
  9
$PUCSNAME
  2

  9
$PUCSORG
 10
0.0
 20
0.0
 30
0.0
  9
$PUCSXDIR
 10
1.0
 20
0.0
 30
0.0
  9
$PUCSYDIR
 10
0.0
 20
1.0
 30
0.0
  9
$USERI1
 70
     0
  9
$USERI2
 70
     0
  9
$USERI3
 70
     0
  9
$USERI4
 70
     0
  9
$USERI5
 70
     0
  9
$USERR1
 40
0.0
  9
$USERR2
 40
0.0
  9
$USERR3
 40
0.0
  9
$USERR4
 40
0.0
  9
$USERR5
 40
0.0
  9
$WORLDVIEW
 70
     1
  9
$SHADEDGE
 70
     3
  9
$SHADEDIF
 70
    70
  9
$TILEMODE
 70
     1
  9
$MAXACTVP
 70
    16
  9
$PINSBASE
 10
0.0
 20
0.0
 30
0.0
  9
$PLIMCHECK
 70
     0
  9
$PEXTMIN
 10
1.000000E+20
 20
1.000000E+20
 30
1.000000E+20
  9
$PEXTMAX
 10
-1.000000E+20
 20
-1.000000E+20
 30
-1.000000E+20
  9
$PLIMMIN
 10
0.0
 20
0.0
  9
$PLIMMAX
 10
12.0
 20
9.0
  9
$UNITMODE
 70
     0
  9
$VISRETAIN
 70
     0
  9
$PLINEGEN
 70
     0
  9
$PSLTSCALE
 70
     1
  9
$TREEDEPTH
 70
  3020
  9
$PICKSTYLE
 70
     1
  9
$CMLSTYLE
  2
STANDARD
  9
$CMLJUST
 70
     0
  9
$CMLSCALE
 40
1.0
  9
$PROXYGRAPHICS
 70
     1
  9
$MEASUREMENT
 70
     0
  0
ENDSEC
  0
SECTION
  2
CLASSES
  0
CLASS
  1
DICTIONARYVAR
  2
AcDbDictionaryVar
  3
"AutoCAD"
 90
        0
280
     0
281
     0
  0
CLASS
  1
LWPOLYLINE
  2
AcDbPolyline
  3
"AutoCAD"
 90
        0
280
     0
281
     1
  0
ENDSEC
  0
SECTION
  2
TABLES
  0
TABLE
  2
VPORT
  5
304
100
AcDbSymbolTable
 70
     1
  0
VPORT
  5
32B
100
AcDbSymbolTableRecord
100
AcDbViewportTableRecord
  2
*ACTIVE
 70
     0
 10
0.0
 20
0.0
 11
1.0
 21
1.0
 12
225.654671
 22
135.037441
 13
0.0
 23
0.0
 14
1.0
 24
1.0
 15
0.0
 25
0.0
 16
0.0
 26
0.0
 36
1.0
 17
0.0
 27
0.0
 37
0.0
 40
270.074882
 41
1.671053
 42
50.0
 43
0.0
 44
0.0
 50
0.0
 51
0.0
 71
     0
 72
   100
 73
     1
 74
     1
 75
     0
 76
     0
 77
     0
 78
     0
  0
ENDTAB
  0
TABLE
  2
LTYPE
  5
301
100
AcDbSymbolTable
 70
     2
  0
LTYPE
  5
30D
100
AcDbSymbolTableRecord
100
AcDbLinetypeTableRecord
  2
BYBLOCK
 70
     0
  3

 72
    65
 73
     0
 40
0.0
  0
LTYPE
  5
30E
100
AcDbSymbolTableRecord
100
AcDbLinetypeTableRecord
  2
BYLAYER
 70
     0
  3

 72
    65
 73
     0
 40
0.0
  0
LTYPE
  5
30F
100
AcDbSymbolTableRecord
100
AcDbLinetypeTableRecord
  2
CONTINUOUS
 70
     0
  3
Solid line
 72
    65
 73
     0
 40
0.0
  0
LTYPE
  5
31B
100
AcDbSymbolTableRecord
100
AcDbLinetypeTableRecord
  2
AXES2
 70
     0
  3
___ _ ___ _ ___ _ ___ _ ___ _ ___ _ ___ _ ___ _
 72
    65
 73
     4
 40
1.125
 49
0.75
 74
     0
 49
-0.125
 74
     0
 49
0.125
 74
     0
 49
-0.125
 74
     0
  0
ENDTAB
  0
TABLE
  2
LAYER
  5
2FE
100
AcDbSymbolTable
 70
     5
  0
LAYER
  5
30A
100
AcDbSymbolTableRecord
100
AcDbLayerTableRecord
  2
0
 70
     0
 62
     7
  6
CONTINUOUS
  0
LAYER
  5
31E
100
AcDbSymbolTableRecord
100
AcDbLayerTableRecord
  2
AXE
 70
     0
 62
    80
  6
AXES2
  0
LAYER
  5
31F
100
AcDbSymbolTableRecord
100
AcDbLayerTableRecord
  2
COTATION1
 70
     0
 62
     2
  6
CONTINUOUS
  0
LAYER
  5
320
100
AcDbSymbolTableRecord
100
AcDbLayerTableRecord
  2
ALPHA
 70
     0
 62
   255
  6
CONTINUOUS
  0
LAYER
  5
321
100
AcDbSymbolTableRecord
100
AcDbLayerTableRecord
  2
DEFPOINTS
 70
     0
 62
     7
  6
CONTINUOUS
  0
ENDTAB
  0
TABLE
  2
STYLE
  5
2FF
100
AcDbSymbolTable
 70
     2
  0
STYLE
  5
30B
100
AcDbSymbolTableRecord
100
AcDbTextStyleTableRecord
  2
STANDARD
 70
     0
 40
0.0
 41
1.0
 50
0.0
 71
     0
 42
0.2
  3
txt
  4

  0
STYLE
  5
31A
100
AcDbSymbolTableRecord
100
AcDbTextStyleTableRecord
  2
ROMANS
 70
     0
 40
0.0
 41
1.0
 50
0.0
 71
     0
 42
2.9
  3
romans.shx
  4

  0
ENDTAB
  0
TABLE
  2
VIEW
  5
302
100
AcDbSymbolTable
 70
     0
  0
ENDTAB
  0
TABLE
  2
UCS
  5
303
100
AcDbSymbolTable
 70
     0
  0
ENDTAB
  0
TABLE
  2
APPID
  5
305
100
AcDbSymbolTable
 70
     1
  0
APPID
  5
30C
100
AcDbSymbolTableRecord
100
AcDbRegAppTableRecord
  2
ACAD
 70
     0
  0
ENDTAB
  0
TABLE
  2
DIMSTYLE
  5
306
100
AcDbSymbolTable
 70
     1
  0
DIMSTYLE
105
31D
102
{ACAD_REACTORS
330
1F
330
2D
102
}
100
AcDbSymbolTableRecord
100
AcDbDimStyleTableRecord
  2
SC_STAND
 70
     0
  3

  4

  5

  6

  7

 40
1.0
 41
3.0
 42
0.0625
 43
0.38
 44
0.18
 45
0.01
 46
0.0
 47
0.0
 48
0.0
140
2.5
141
0.09
142
0.0
143
25.4
144
1.0
145
0.0
146
1.0
147
1.0
 71
     0
 72
     0
 73
     0
 74
     0
 75
     0
 76
     0
 77
     1
 78
    12
170
     0
171
     2
172
     1
173
     0
174
     0
175
     0
176
     0
177
     0
178
     0
270
     2
271
     4
272
     4
273
     2
274
     2
340
30B
275
     0
280
     0
281
     0
282
     0
283
     1
284
    12
285
    12
286
    12
287
     5
288
     0
  0
ENDTAB
  0
TABLE
  2
BLOCK_RECORD
  5
2FD
100
AcDbSymbolTable
 70
     2
  0
BLOCK_RECORD
  5
313
100
AcDbSymbolTableRecord
100
AcDbBlockTableRecord
  2
*MODEL_SPACE
  0
BLOCK_RECORD
  5
310
100
AcDbSymbolTableRecord
100
AcDbBlockTableRecord
  2
*PAPER_SPACE
  0
BLOCK_RECORD
  5
318
100
AcDbSymbolTableRecord
100
AcDbBlockTableRecord
  2
*D0
  0
BLOCK_RECORD
  5
319
100
AcDbSymbolTableRecord
100
AcDbBlockTableRecord
  2
*D1
  0
ENDTAB
  0
ENDSEC
  0
SECTION
  2
BLOCKS
  0
BLOCK
  5
324
100
AcDbEntity
  8
0
100
AcDbBlockBegin
  2
*MODEL_SPACE
 70
     0
 10
0.0
 20
0.0
 30
0.0
  3
*MODEL_SPACE
  1

  0
ENDBLK
  5
325
100
AcDbEntity
  8
0
100
AcDbBlockEnd
  0
BLOCK
  5
322
100
AcDbEntity
 67
     1
  8
0
100
AcDbBlockBegin
  2
*PAPER_SPACE
 70
     0
 10
0.0
 20
0.0
 30
0.0
  3
*PAPER_SPACE
  1

  0
ENDBLK
  5
323
100
AcDbEntity
 67
     1
  8
0
100
AcDbBlockEnd
  0
BLOCK
  5
38
100
AcDbEntity
  8
0
100
AcDbBlockBegin
  2
*D0
 70
     1
 10
0.0
 20
0.0
 30
0.0
  3
*D0
  1
AVE_GLOBAL
  0
LINE
  5
2F
100
AcDbEntity
  8
0
  6
BYBLOCK
 62
     0
100
AcDbLine
 10
105.461991
 20
80.188021
 30
0.0
 11
105.461991
 21
66.04662
 31
0.0
  0
LINE
  5
30
100
AcDbEntity
  8
0
  6
BYBLOCK
 62
     0
100
AcDbLine
 10
137.661991
 20
83.488021
 30
0.0
 11
137.661991
 21
66.04662
 31
0.0
  0
LINE
  5
31
100
AcDbEntity
  8
0
  6
BYBLOCK
 62
     0
100
AcDbLine
 10
108.461991
 20
66.22662
 30
0.0
 11
134.661991
 21
66.22662
 31
0.0
  0
SOLID
  5
32
100
AcDbEntity
  8
0
  6
BYBLOCK
 62
     0
100
AcDbTrace
 10
108.461991
 20
66.72662
 30
0.0
 11
108.461991
 21
65.72662
 31
0.0
 12
105.461991
 22
66.22662
 32
0.0
 13
105.461991
 23
66.22662
 33
0.0
  0
SOLID
  5
33
100
AcDbEntity
  8
0
  6
BYBLOCK
 62
     0
100
AcDbTrace
 10
134.661991
 20
66.72662
 30
0.0
 11
134.661991
 21
65.72662
 31
0.0
 12
137.661991
 22
66.22662
 32
0.0
 13
137.661991
 23
66.22662
 33
0.0
  0
TEXT
  5
34
100
AcDbEntity
  8
0
  6
BYBLOCK
 62
     0
100
AcDbText
 10
117.395324
 20
67.22662
 30
0.0
 40
2.5
  1
32.2
  7
ROMANS
100
AcDbText
  0
POINT
  5
35
100
AcDbEntity
  8
DEFPOINTS
  6
BYBLOCK
 62
     0
100
AcDbPoint
 10
105.461991
 20
80.250521
 30
0.0
  0
POINT
  5
36
100
AcDbEntity
  8
DEFPOINTS
  6
BYBLOCK
 62
     0
100
AcDbPoint
 10
137.661991
 20
83.550521
 30
0.0
  0
POINT
  5
37
100
AcDbEntity
  8
DEFPOINTS
  6
BYBLOCK
 62
     0
100
AcDbPoint
 10
137.661991
 20
66.22662
 30
0.0
  0
ENDBLK
  5
39
100
AcDbEntity
  8
0
100
AcDbBlockEnd
  0
BLOCK
  5
2B
100
AcDbEntity
  8
0
100
AcDbBlockBegin
  2
*D1
 70
     1
 10
0.0
 20
0.0
 30
0.0
  3
*D1
  1
AVE_GLOBAL
  0
LINE
  5
21
100
AcDbEntity
  8
0
  6
BYBLOCK
 62
     0
100
AcDbLine
 10
133.603275
 20
82.050521
 30
0.0
 11
148.117243
 21
82.050521
 31
0.0
  0
LINE
  5
22
100
AcDbEntity
  8
0
  6
BYBLOCK
 62
     0
100
AcDbLine
 10
133.603275
 20
114.050521
 30
0.0
 11
148.117243
 21
114.050521
 31
0.0
  0
LINE
  5
23
100
AcDbEntity
  8
0
  6
BYBLOCK
 62
     0
100
AcDbLine
 10
147.937243
 20
85.050521
 30
0.0
 11
147.937243
 21
111.050521
 31
0.0
  0
SOLID
  5
24
100
AcDbEntity
  8
0
  6
BYBLOCK
 62
     0
100
AcDbTrace
 10
147.437243
 20
85.050521
 30
0.0
 11
148.437243
 21
85.050521
 31
0.0
 12
147.937243
 22
82.050521
 32
0.0
 13
147.937243
 23
82.050521
 33
0.0
  0
SOLID
  5
25
100
AcDbEntity
  8
0
  6
BYBLOCK
 62
     0
100
AcDbTrace
 10
147.437243
 20
111.050521
 30
0.0
 11
148.437243
 21
111.050521
 31
0.0
 12
147.937243
 22
114.050521
 32
0.0
 13
147.937243
 23
114.050521
 33
0.0
  0
TEXT
  5
26
100
AcDbEntity
  8
0
  6
BYBLOCK
 62
     0
100
AcDbText
 10
146.937243
 20
95.669568
 30
0.0
 40
2.5
  1
32
 50
90.0
  7
ROMANS
100
AcDbText
  0
POINT
  5
27
100
AcDbEntity
  8
DEFPOINTS
  6
BYBLOCK
 62
     0
100
AcDbPoint
 10
133.540775
 20
82.050521
 30
0.0
  0
POINT
  5
29
100
AcDbEntity
  8
DEFPOINTS
  6
BYBLOCK
 62
     0
100
AcDbPoint
 10
133.540775
 20
114.050521
 30
0.0
  0
POINT
  5
2A
100
AcDbEntity
  8
DEFPOINTS
  6
BYBLOCK
 62
     0
100
AcDbPoint
 10
147.937243
 20
114.050521
 30
0.0
  0
ENDBLK
  5
2C
100
AcDbEntity
  8
0
100
AcDbBlockEnd
  0
ENDSEC
  0
SECTION
  2
ENTITIES
  0
DIMENSION
  5
1F
100
AcDbEntity
  8
COTATION1
100
AcDbDimension
  2
*D1
 10
147.937243
 20
114.050521
 30
0.0
 11
145.687243
 21
98.050521
 31
0.0
  3
SC_STAND
100
AcDbAlignedDimension
 13
133.540775
 23
82.050521
 33
0.0
 14
133.540775
 24
114.050521
 34
0.0
 50
90.0
100
AcDbRotatedDimension
  0
DIMENSION
  5
2D
100
AcDbEntity
  8
COTATION1
100
AcDbDimension
  2
*D0
 10
137.661991
 20
66.22662
 30
0.0
 11
121.561991
 21
68.47662
 31
0.0
  3
SC_STAND
100
AcDbAlignedDimension
 13
105.461991
 23
80.250521
 33
0.0
 14
137.661991
 24
83.550521
 34
0.0
100
AcDbRotatedDimension
  0
LINE
  5
3A
100
AcDbEntity
  8
AXE
100
AcDbLine
 10
108.231991
 20
84.034495
 30
0.0
 11
108.231991
 21
80.85117
 31
0.0
  0
LWPOLYLINE
  5
3D
100
AcDbEntity
  8
AXE
100
AcDbPolyline
 90
        7
 70
     0
 43
0.0
 10
108.231991
 20
85.333511
 10
108.231991
 20
85.073039
 10
108.231991
 20
84.820483
 10
108.231991
 20
84.583517
 10
108.231991
 20
84.36934
 10
108.231991
 20
84.184461
 10
108.231991
 20
84.034496
  0
LINE
  5
46
100
AcDbEntity
  8
AXE
100
AcDbLine
 10
108.231991
 20
114.00046
 30
0.0
 11
108.231991
 21
85.333511
 31
0.0
  0
LWPOLYLINE
  5
47
100
AcDbEntity
  8
AXE
100
AcDbPolyline
 90
        9
 70
     0
 43
0.0
 10
108.231991
 20
116.000521
 10
108.231991
 20
115.962432
 10
108.231991
 20
115.849613
 10
108.231991
 20
115.666364
 10
108.231991
 20
115.414735
 10
108.231991
 20
115.113112
 10
108.231991
 20
114.769112
 10
108.231991
 20
114.395836
 10
108.231991
 20
114.00046
  0
LWPOLYLINE
  5
52
100
AcDbEntity
  8
AXE
100
AcDbPolyline
 90
        7
 70
     0
 43
0.0
 10
108.231991
 20
116.033818
 10
108.231991
 20
116.023742
 10
108.231991
 20
116.015466
 10
108.231991
 20
116.009
 10
108.231991
 20
116.00435
 10
108.231991
 20
116.001524
 10
108.231991
 20
116.000521
  0
LINE
  5
5B
100
AcDbEntity
  8
AXE
100
AcDbLine
 10
108.231991
 20
116.700198
 30
0.0
 11
108.231991
 21
116.033817
 31
0.0
  0
LWPOLYLINE
  5
5C
100
AcDbEntity
  8
AXE
100
AcDbPolyline
 90
        7
 70
     0
 43
0.0
 10
108.231991
 20
116.700198
 10
108.231991
 20
116.718549
 10
108.231991
 20
116.729665
 10
108.231991
 20
116.733492
 10
108.231991
 20
116.730011
 10
108.231991
 20
116.71924
 10
108.231991
 20
116.700198
  0
LINE
  5
65
100
AcDbEntity
  8
AXE
100
AcDbLine
 10
108.231991
 20
116.033817
 30
0.0
 11
108.231991
 21
116.700198
 31
0.0
  0
LWPOLYLINE
  5
66
100
AcDbEntity
  8
AXE
100
AcDbPolyline
 90
        7
 70
     0
 43
0.0
 10
108.231991
 20
116.000521
 10
108.231991
 20
116.001435
 10
108.231991
 20
116.004175
 10
108.231991
 20
116.008738
 10
108.231991
 20
116.015119
 10
108.231991
 20
116.02331
 10
108.231991
 20
116.033818
  0
LWPOLYLINE
  5
6F
100
AcDbEntity
  8
AXE
100
AcDbPolyline
 90
        9
 70
     0
 43
0.0
 10
108.231991
 20
114.00046
 10
108.231991
 20
114.38893
 10
108.231991
 20
114.762606
 10
108.231991
 20
115.107254
 10
108.231991
 20
115.414692
 10
108.231991
 20
115.662456
 10
108.231991
 20
115.846918
 10
108.231991
 20
115.961052
 10
108.231991
 20
116.000521
  0
LINE
  5
7A
100
AcDbEntity
  8
AXE
100
AcDbLine
 10
108.231991
 20
85.333511
 30
0.0
 11
108.231991
 21
114.00046
 31
0.0
  0
LWPOLYLINE
  5
7B
100
AcDbEntity
  8
AXE
100
AcDbPolyline
 90
        7
 70
     0
 43
0.0
 10
108.231991
 20
84.034496
 10
108.231991
 20
84.184461
 10
108.231991
 20
84.369341
 10
108.231991
 20
84.583518
 10
108.231991
 20
84.820484
 10
108.231991
 20
85.07304
 10
108.231991
 20
85.333512
  0
LINE
  5
84
100
AcDbEntity
  8
AXE
100
AcDbLine
 10
108.231991
 20
80.85117
 30
0.0
 11
108.231991
 21
84.034495
 31
0.0
  0
LWPOLYLINE
  5
85
100
AcDbEntity
  8
ALPHA
100
AcDbPolyline
 90
       21
 70
     0
 43
0.0
 10
119.961991
 20
99.950521
 10
119.968445
 20
99.956975
 10
119.97498
 20
99.96351
 10
119.981559
 20
99.970089
 10
119.988146
 20
99.976676
 10
119.994705
 20
99.983235
 10
120.001203
 20
99.989733
 10
120.007606
 20
99.996136
 10
120.013881
 20
100.002411
 10
120.019993
 20
100.008523
 10
120.025905
 20
100.014435
 10
120.031578
 20
100.020108
 10
120.036968
 20
100.025498
 10
120.042026
 20
100.030556
 10
120.046696
 20
100.035226
 10
120.050913
 20
100.039442
 10
120.054596
 20
100.043126
 10
120.057656
 20
100.046186
 10
120.059986
 20
100.048516
 10
120.061471
 20
100.050001
 10
120.061991
 20
100.050521
  0
LINE
  5
9D
100
AcDbEntity
  8
ALPHA
100
AcDbLine
 10
119.961991
 20
99.950521
 30
0.0
 11
114.061991
 21
99.950521
 31
0.0
  0
LWPOLYLINE
  5
9E
100
AcDbEntity
  8
ALPHA
100
AcDbPolyline
 90
       21
 70
     0
 43
0.0
 10
119.961991
 20
96.150521
 10
119.968445
 20
96.144067
 10
119.97498
 20
96.137532
 10
119.981559
 20
96.130953
 10
119.988146
 20
96.124366
 10
119.994705
 20
96.117807
 10
120.001203
 20
96.111309
 10
120.007606
 20
96.104905
 10
120.013881
 20
96.09863
 10
120.019993
 20
96.092519
 10
120.025905
 20
96.086607
 10
120.031578
 20
96.080934
 10
120.036968
 20
96.075544
 10
120.042026
 20
96.070486
 10
120.046696
 20
96.065816
 10
120.050913
 20
96.061599
 10
120.054596
 20
96.057915
 10
120.057656
 20
96.054856
 10
120.059986
 20
96.052526
 10
120.061471
 20
96.051041
 10
120.061991
 20
96.050521
  0
LINE
  5
B5
100
AcDbEntity
  8
ALPHA
100
AcDbLine
 10
114.061991
 20
96.150521
 30
0.0
 11
119.961991
 21
96.150521
 31
0.0
  0
LINE
  5
B6
100
AcDbEntity
  8
ALPHA
100
AcDbLine
 10
119.961991
 20
96.150521
 30
0.0
 11
119.961991
 21
99.950521
 31
0.0
  0
LINE
  5
B7
100
AcDbEntity
  8
ALPHA
100
AcDbLine
 10
117.279604
 20
86.250521
 30
0.0
 11
117.261991
 21
86.250521
 31
0.0
  0
LINE
  5
B8
100
AcDbEntity
  8
ALPHA
100
AcDbLine
 10
115.061991
 20
110.725943
 30
0.0
 11
115.061991
 21
112.352516
 31
0.0
  0
LINE
  5
B9
100
AcDbEntity
  8
ALPHA
100
AcDbLine
 10
115.061991
 20
112.352516
 30
0.0
 11
123.265058
 21
114.550521
 31
0.0
  0
LINE
  5
BA
100
AcDbEntity
  8
ALPHA
100
AcDbLine
 10
123.265058
 20
114.550521
 30
0.0
 11
126.761991
 21
114.550521
 31
0.0
  0
LINE
  5
BB
100
AcDbEntity
  8
ALPHA
100
AcDbLine
 10
127.061991
 20
114.250521
 30
0.0
 11
127.061991
 21
113.802862
 31
0.0
  0
ARC
  5
BC
100
AcDbEntity
  8
ALPHA
100
AcDbCircle
 10
121.021856
 20
111.686049
 30
0.0
 40
0.3
100
AcDbArc
 50
292.0
 51
102.0
  0
LINE
  5
BD
100
AcDbEntity
  8
ALPHA
100
AcDbLine
 10
120.959482
 20
111.979494
 30
0.0
 11
115.061991
 21
110.725943
 31
0.0
  0
LINE
  5
BE
100
AcDbEntity
  8
ALPHA
100
AcDbLine
 10
114.061991
 20
112.084567
 30
0.0
 11
115.061991
 21
112.352516
 31
0.0
  0
LINE
  5
BF
100
AcDbEntity
  8
ALPHA
100
AcDbLine
 10
115.061991
 20
110.725943
 30
0.0
 11
114.061991
 21
110.513386
 31
0.0
  0
ARC
  5
C0
100
AcDbEntity
  8
ALPHA
100
AcDbCircle
 10
126.761991
 20
114.250521
 30
0.0
 40
0.3
100
AcDbArc
 50
0.0
 51
90.0
  0
LINE
  5
C1
100
AcDbEntity
  8
ALPHA
100
AcDbLine
 10
127.674969
 20
114.050521
 30
0.0
 11
132.661991
 21
114.050521
 31
0.0
  0
ARC
  5
C2
100
AcDbEntity
  8
ALPHA
100
AcDbCircle
 10
132.361991
 20
111.93855
 30
0.0
 40
0.3
100
AcDbArc
 50
260.0
 51
0.0
  0
ARC
  5
C3
100
AcDbEntity
  8
ALPHA
100
AcDbCircle
 10
132.361991
 20
84.162492
 30
0.0
 40
0.3
100
AcDbArc
 50
0.0
 51
100.0
  0
ARC
  5
C4
100
AcDbEntity
  8
ALPHA
100
AcDbCircle
 10
117.761991
 20
90.350521
 30
0.0
 40
0.3
100
AcDbArc
 50
0.0
 51
90.0
  0
LINE
  5
C5
100
AcDbEntity
  8
ALPHA
100
AcDbLine
 10
127.674969
 20
114.050521
 30
0.0
 11
124.934998
 21
112.943501
 31
0.0
  0
LINE
  5
C6
100
AcDbEntity
  8
ALPHA
100
AcDbLine
 10
118.061991
 20
85.934416
 30
0.0
 11
117.261991
 21
86.257637
 31
0.0
  0
LINE
  5
C7
100
AcDbEntity
  8
ALPHA
100
AcDbLine
 10
124.934998
 20
83.157541
 30
0.0
 11
127.674969
 21
82.050521
 31
0.0
  0
LINE
  5
C8
100
AcDbEntity
  8
ALPHA
100
AcDbLine
 10
127.674969
 20
82.050521
 30
0.0
 11
132.661991
 21
82.050521
 31
0.0
  0
LINE
  5
C9
100
AcDbEntity
  8
ALPHA
100
AcDbLine
 10
114.061991
 20
96.050521
 30
0.0
 11
120.061991
 21
96.050521
 31
0.0
  0
LINE
  5
CA
100
AcDbEntity
  8
ALPHA
100
AcDbLine
 10
120.061991
 20
96.050521
 30
0.0
 11
120.061991
 21
100.050521
 31
0.0
  0
LINE
  5
CB
100
AcDbEntity
  8
ALPHA
100
AcDbLine
 10
117.261991
 20
90.650521
 30
0.0
 11
117.761991
 21
90.650521
 31
0.0
  0
LINE
  5
CC
100
AcDbEntity
  8
ALPHA
100
AcDbLine
 10
118.061991
 20
85.934416
 30
0.0
 11
118.061991
 21
90.350521
 31
0.0
  0
LINE
  5
CD
100
AcDbEntity
  8
ALPHA
100
AcDbLine
 10
124.934998
 20
83.157541
 30
0.0
 11
118.061991
 21
85.934416
 31
0.0
  0
LINE
  5
CE
100
AcDbEntity
  8
ALPHA
100
AcDbLine
 10
132.309896
 20
84.457934
 30
0.0
 11
124.934998
 21
83.157541
 31
0.0
  0
LINE
  5
CF
100
AcDbEntity
  8
ALPHA
100
AcDbLine
 10
132.661991
 20
82.050521
 30
0.0
 11
132.661991
 21
84.162492
 31
0.0
  0
LINE
  5
D0
100
AcDbEntity
  8
ALPHA
100
AcDbLine
 10
133.540775
 20
82.050521
 30
0.0
 11
132.661991
 21
82.050521
 31
0.0
  0
LINE
  5
D1
100
AcDbEntity
  8
ALPHA
100
AcDbLine
 10
137.661991
 20
83.550521
 30
0.0
 11
133.540775
 21
82.050521
 31
0.0
  0
LINE
  5
D2
100
AcDbEntity
  8
ALPHA
100
AcDbLine
 10
137.661991
 20
112.550521
 30
0.0
 11
137.661991
 21
83.550521
 31
0.0
  0
LINE
  5
D3
100
AcDbEntity
  8
ALPHA
100
AcDbLine
 10
133.540775
 20
114.050521
 30
0.0
 11
137.661991
 21
112.550521
 31
0.0
  0
LINE
  5
D4
100
AcDbEntity
  8
ALPHA
100
AcDbLine
 10
132.661991
 20
114.050521
 30
0.0
 11
133.540775
 21
114.050521
 31
0.0
  0
LINE
  5
D5
100
AcDbEntity
  8
ALPHA
100
AcDbLine
 10
132.661991
 20
114.050521
 30
0.0
 11
132.661991
 21
111.93855
 31
0.0
  0
LINE
  5
D6
100
AcDbEntity
  8
ALPHA
100
AcDbLine
 10
124.934998
 20
112.943501
 30
0.0
 11
132.309896
 21
111.643108
 31
0.0
  0
LINE
  5
D7
100
AcDbEntity
  8
ALPHA
100
AcDbLine
 10
114.061991
 20
108.550521
 30
0.0
 11
124.934998
 21
112.943501
 31
0.0
  0
LINE
  5
D8
100
AcDbEntity
  8
ALPHA
100
AcDbLine
 10
120.061991
 20
100.050521
 30
0.0
 11
114.061991
 21
100.050521
 31
0.0
  0
LINE
  5
D9
100
AcDbEntity
  8
ALPHA
100
AcDbLine
 10
122.661991
 20
85.450521
 30
0.0
 11
132.661991
 21
85.450521
 31
0.0
  0
LINE
  5
DA
100
AcDbEntity
  8
ALPHA
100
AcDbLine
 10
122.661991
 20
85.450521
 30
0.0
 11
122.661991
 21
110.650521
 31
0.0
  0
LINE
  5
DB
100
AcDbEntity
  8
ALPHA
100
AcDbLine
 10
132.661991
 20
110.650521
 30
0.0
 11
122.661991
 21
110.650521
 31
0.0
  0
LINE
  5
DC
100
AcDbEntity
  8
ALPHA
100
AcDbLine
 10
132.661991
 20
85.450521
 30
0.0
 11
132.661991
 21
110.650521
 31
0.0
  0
LINE
  5
DD
100
AcDbEntity
  8
ALPHA
100
AcDbLine
 10
110.674502
 20
80.550521
 30
0.0
 11
117.261991
 21
81.712073
 31
0.0
  0
LINE
  5
DE
100
AcDbEntity
  8
ALPHA
100
AcDbLine
 10
109.081991
 20
119.216546
 30
0.0
 11
111.381991
 21
119.216546
 31
0.0
  0
LINE
  5
DF
100
AcDbEntity
  8
ALPHA
100
AcDbLine
 10
107.461991
 20
115.597887
 30
0.0
 11
106.361991
 21
115.597887
 31
0.0
  0
LWPOLYLINE
  5
E0
100
AcDbEntity
  8
ALPHA
100
AcDbPolyline
 90
        6
 70
     0
 43
0.0
 10
110.674502
 20
80.550521
 10
110.701483
 20
80.242134
 10
110.725855
 20
79.963555
 10
110.74523
 20
79.742097
 10
110.757691
 20
79.599669
 10
110.761991
 20
79.550521
  0
LWPOLYLINE
  5
E8
100
AcDbEntity
  8
ALPHA
100
AcDbPolyline
 90
        7
 70
     0
 43
0.0
 10
106.26717
 20
118.486305
 10
106.537749
 20
118.497628
 10
106.791009
 20
118.489723
 10
107.012097
 20
118.462629
 10
107.185416
 20
118.417569
 10
107.297744
 20
118.357344
 10
107.34081
 20
118.285623
  0
LINE
  5
F1
100
AcDbEntity
  8
ALPHA
100
AcDbLine
 10
109.081991
 20
80.550521
 30
0.0
 11
110.674502
 21
80.550521
 31
0.0
  0
LINE
  5
F2
100
AcDbEntity
  8
ALPHA
100
AcDbLine
 10
106.191561
 20
119.350521
 30
0.0
 11
106.26717
 21
118.486305
 31
0.0
  0
LWPOLYLINE
  5
F3
100
AcDbEntity
  8
ALPHA
100
AcDbPolyline
 90
        7
 70
     0
 43
0.0
 10
106.361991
 20
116.852494
 10
106.646331
 20
116.864908
 10
106.91117
 20
116.876472
 10
107.139526
 20
116.886442
 10
107.314624
 20
116.894087
 10
107.42443
 20
116.898881
 10
107.461991
 20
116.900521
  0
LWPOLYLINE
  5
FC
100
AcDbEntity
  8
ALPHA
100
AcDbPolyline
 90
        4
 70
     0
 43
0.0
 10
106.26717
 20
118.486305
 10
106.251246
 20
118.485301
 10
106.235263
 20
118.484697
 10
106.219209
 20
118.484495
  0
LINE
  5
102
100
AcDbEntity
  8
ALPHA
100
AcDbLine
 10
106.361991
 20
116.852494
 30
0.0
 11
106.219209
 21
118.484495
 31
0.0
  0
LINE
  5
103
100
AcDbEntity
  8
ALPHA
100
AcDbLine
 10
106.361991
 20
115.597887
 30
0.0
 11
106.361991
 21
116.852494
 31
0.0
  0
LINE
  5
104
100
AcDbEntity
  8
ALPHA
100
AcDbLine
 10
107.447244
 20
113.932333
 30
0.0
 11
107.481991
 21
113.914611
 31
0.0
  0
LWPOLYLINE
  5
105
100
AcDbEntity
  8
ALPHA
100
AcDbPolyline
 90
        7
 70
     0
 43
0.0
 10
106.361991
 20
115.597887
 10
106.404589
 20
115.207927
 10
106.531031
 20
114.834564
 10
106.735801
 20
114.496091
 10
106.99213
 20
114.223041
 10
107.260688
 20
114.027481
 10
107.447244
 20
113.932333
  0
LINE
  5
10E
100
AcDbEntity
  8
ALPHA
100
AcDbLine
 10
107.464975
 20
115.577853
 30
0.0
 11
107.481991
 21
115.463621
 31
0.0
  0
LINE
  5
10F
100
AcDbEntity
  8
ALPHA
100
AcDbLine
 10
107.461991
 20
115.597887
 30
0.0
 11
107.464975
 21
115.577853
 31
0.0
  0
LINE
  5
110
100
AcDbEntity
  8
ALPHA
100
AcDbLine
 10
107.461991
 20
84.750521
 30
0.0
 11
105.461991
 21
84.750521
 31
0.0
  0
LINE
  5
111
100
AcDbEntity
  8
ALPHA
100
AcDbLine
 10
107.461991
 20
83.051936
 30
0.0
 11
105.461991
 21
83.051936
 31
0.0
  0
LINE
  5
112
100
AcDbEntity
  8
ALPHA
100
AcDbLine
 10
107.461991
 20
83.871088
 30
0.0
 11
105.461991
 21
83.871088
 31
0.0
  0
LINE
  5
113
100
AcDbEntity
  8
ALPHA
100
AcDbLine
 10
112.035581
 20
116.973171
 30
0.0
 11
109.081991
 21
116.973171
 31
0.0
  0
LINE
  5
114
100
AcDbEntity
  8
ALPHA
100
AcDbLine
 10
114.285289
 20
113.927222
 30
0.0
 11
114.285289
 21
116.147971
 31
0.0
  0
LINE
  5
115
100
AcDbEntity
  8
ALPHA
100
AcDbLine
 10
114.411991
 20
113.800521
 30
0.0
 11
114.285289
 21
113.927222
 31
0.0
  0
LINE
  5
116
100
AcDbEntity
  8
ALPHA
100
AcDbLine
 10
114.061991
 20
113.927222
 30
0.0
 11
114.285289
 21
113.927222
 31
0.0
  0
LINE
  5
117
100
AcDbEntity
  8
ALPHA
100
AcDbLine
 10
106.219209
 20
118.484495
 30
0.0
 11
105.461991
 21
118.484495
 31
0.0
  0
LINE
  5
118
100
AcDbEntity
  8
ALPHA
100
AcDbLine
 10
111.381991
 20
117.839196
 30
0.0
 11
109.081991
 21
117.839196
 31
0.0
  0
LINE
  5
119
100
AcDbEntity
  8
ALPHA
100
AcDbLine
 10
113.585289
 20
110.550521
 30
0.0
 11
113.585289
 21
116.078446
 31
0.0
  0
LINE
  5
11A
100
AcDbEntity
  8
ALPHA
100
AcDbLine
 10
109.081991
 20
119.724714
 30
0.0
 11
111.381991
 21
119.724714
 31
0.0
  0
LINE
  5
11B
100
AcDbEntity
  8
ALPHA
100
AcDbLine
 10
109.081991
 20
113.700521
 30
0.0
 11
108.981991
 21
113.700521
 31
0.0
  0
LINE
  5
11C
100
AcDbEntity
  8
ALPHA
100
AcDbLine
 10
107.481991
 20
84.187154
 30
0.0
 11
107.461991
 21
84.077797
 31
0.0
  0
LINE
  5
11D
100
AcDbEntity
  8
ALPHA
100
AcDbLine
 10
109.081991
 20
84.684015
 30
0.0
 11
108.981991
 21
84.684015
 31
0.0
  0
LINE
  5
11E
100
AcDbEntity
  8
ALPHA
100
AcDbLine
 10
108.981991
 20
85.333534
 30
0.0
 11
109.081991
 21
85.333534
 31
0.0
  0
LINE
  5
11F
100
AcDbEntity
  8
ALPHA
100
AcDbLine
 10
107.461991
 20
85.333534
 30
0.0
 11
107.481991
 21
85.333534
 31
0.0
  0
ARC
  5
120
100
AcDbEntity
  8
ALPHA
100
AcDbCircle
 10
111.681991
 20
117.550977
 30
0.0
 40
0.3
100
AcDbArc
 50
196.888772
 51
213.750303
  0
ARC
  5
121
100
AcDbEntity
  8
ALPHA
100
AcDbCircle
 10
111.681991
 20
117.550977
 30
0.0
 40
0.3
100
AcDbArc
 50
213.750303
 51
242.602839
  0
ARC
  5
122
100
AcDbEntity
  8
ALPHA
100
AcDbCircle
 10
111.681991
 20
117.550977
 30
0.0
 40
0.3
100
AcDbArc
 50
242.602839
 51
247.500605
  0
LINE
  5
123
100
AcDbEntity
  8
ALPHA
100
AcDbLine
 10
107.247644
 20
119.350521
 30
0.0
 11
107.34081
 21
118.285623
 31
0.0
  0
LINE
  5
124
100
AcDbEntity
  8
ALPHA
100
AcDbLine
 10
106.191561
 20
119.350521
 30
0.0
 11
107.247644
 21
119.350521
 31
0.0
  0
LINE
  5
125
100
AcDbEntity
  8
ALPHA
100
AcDbLine
 10
107.461991
 20
116.900521
 30
0.0
 11
107.34081
 21
118.285623
 31
0.0
  0
LINE
  5
126
100
AcDbEntity
  8
ALPHA
100
AcDbLine
 10
107.461991
 20
116.000521
 30
0.0
 11
107.461991
 21
116.900521
 31
0.0
  0
LINE
  5
127
100
AcDbEntity
  8
ALPHA
100
AcDbLine
 10
107.461991
 20
115.597887
 30
0.0
 11
107.461991
 21
116.000521
 31
0.0
  0
LINE
  5
128
100
AcDbEntity
  8
ALPHA
100
AcDbLine
 10
105.461991
 20
119.350521
 30
0.0
 11
105.461991
 21
118.484495
 31
0.0
  0
LINE
  5
129
100
AcDbEntity
  8
ALPHA
100
AcDbLine
 10
106.191561
 20
119.350521
 30
0.0
 11
105.461991
 21
119.350521
 31
0.0
  0
LINE
  5
12A
100
AcDbEntity
  8
ALPHA
100
AcDbLine
 10
107.461991
 20
105.750521
 30
0.0
 11
107.481991
 21
105.730521
 31
0.0
  0
LINE
  5
12B
100
AcDbEntity
  8
ALPHA
100
AcDbLine
 10
107.478367
 20
85.050521
 30
0.0
 11
107.461991
 21
85.050521
 31
0.0
  0
LINE
  5
12C
100
AcDbEntity
  8
ALPHA
100
AcDbLine
 10
107.461991
 20
85.333534
 30
0.0
 11
107.461991
 21
90.550521
 31
0.0
  0
LINE
  5
12D
100
AcDbEntity
  8
ALPHA
100
AcDbLine
 10
107.461991
 20
85.237068
 30
0.0
 11
107.461991
 21
85.050521
 31
0.0
  0
LINE
  5
12E
100
AcDbEntity
  8
ALPHA
100
AcDbLine
 10
107.461991
 20
85.333534
 30
0.0
 11
107.461991
 21
85.237068
 31
0.0
  0
LINE
  5
12F
100
AcDbEntity
  8
ALPHA
100
AcDbLine
 10
107.461991
 20
80.85117
 30
0.0
 11
107.461991
 21
83.051936
 31
0.0
  0
LINE
  5
130
100
AcDbEntity
  8
ALPHA
100
AcDbLine
 10
107.461991
 20
80.250521
 30
0.0
 11
107.461991
 21
80.85117
 31
0.0
  0
LINE
  5
131
100
AcDbEntity
  8
ALPHA
100
AcDbLine
 10
107.461991
 20
83.871088
 30
0.0
 11
107.461991
 21
84.750521
 31
0.0
  0
LINE
  5
132
100
AcDbEntity
  8
ALPHA
100
AcDbLine
 10
107.461991
 20
90.550521
 30
0.0
 11
107.481991
 21
90.570521
 31
0.0
  0
LINE
  5
133
100
AcDbEntity
  8
ALPHA
100
AcDbLine
 10
114.761991
 20
115.950521
 30
0.0
 11
114.285289
 21
116.147971
 31
0.0
  0
LINE
  5
134
100
AcDbEntity
  8
ALPHA
100
AcDbLine
 10
114.761991
 20
114.150521
 30
0.0
 11
114.761991
 21
115.950521
 31
0.0
  0
LINE
  5
135
100
AcDbEntity
  8
ALPHA
100
AcDbLine
 10
114.061991
 20
110.150521
 30
0.0
 11
113.585289
 21
110.550521
 31
0.0
  0
LINE
  5
136
100
AcDbEntity
  8
ALPHA
100
AcDbLine
 10
114.061991
 20
110.150521
 30
0.0
 11
114.061991
 21
115.803222
 31
0.0
  0
LINE
  5
137
100
AcDbEntity
  8
ALPHA
100
AcDbLine
 10
113.585289
 20
116.078446
 30
0.0
 11
114.061991
 21
115.803222
 31
0.0
  0
LINE
  5
138
100
AcDbEntity
  8
ALPHA
100
AcDbLine
 10
113.585289
 20
116.078446
 30
0.0
 11
112.035581
 21
116.973171
 31
0.0
  0
LINE
  5
139
100
AcDbEntity
  8
ALPHA
100
AcDbLine
 10
112.07328
 20
117.064188
 30
0.0
 11
114.285289
 21
116.147971
 31
0.0
  0
LINE
  5
13A
100
AcDbEntity
  8
ALPHA
100
AcDbLine
 10
111.567189
 20
117.273812
 30
0.0
 11
112.07328
 21
117.064188
 31
0.0
  0
LINE
  5
13B
100
AcDbEntity
  8
ALPHA
100
AcDbLine
 10
112.709337
 20
108.550521
 30
0.0
 11
109.081991
 21
108.550521
 31
0.0
  0
LINE
  5
13C
100
AcDbEntity
  8
ALPHA
100
AcDbLine
 10
111.381991
 20
119.216546
 30
0.0
 11
111.381991
 21
117.839196
 31
0.0
  0
ARC
  5
13D
100
AcDbEntity
  8
ALPHA
100
AcDbCircle
 10
108.161991
 20
115.600521
 30
0.0
 40
0.7
100
AcDbArc
 50
180.0
 51
192.597822
  0
ARC
  5
13E
100
AcDbEntity
  8
ALPHA
100
AcDbCircle
 10
108.161991
 20
115.600521
 30
0.0
 40
0.7
100
AcDbArc
 50
192.597822
 51
195.005433
  0
ARC
  5
13F
100
AcDbEntity
  8
ALPHA
100
AcDbCircle
 10
108.161991
 20
115.600521
 30
0.0
 40
0.7
100
AcDbArc
 50
180.0
 51
192.577603
  0
LINE
  5
140
100
AcDbEntity
  8
ALPHA
100
AcDbLine
 10
105.461991
 20
111.850521
 30
0.0
 11
105.761991
 21
111.550521
 31
0.0
  0
LINE
  5
141
100
AcDbEntity
  8
ALPHA
100
AcDbLine
 10
105.461991
 20
111.850521
 30
0.0
 11
105.461991
 21
118.484495
 31
0.0
  0
LINE
  5
142
100
AcDbEntity
  8
ALPHA
100
AcDbLine
 10
107.461991
 20
85.050521
 30
0.0
 11
105.461991
 21
85.050521
 31
0.0
  0
LINE
  5
143
100
AcDbEntity
  8
ALPHA
100
AcDbLine
 10
105.461991
 20
83.871088
 30
0.0
 11
105.461991
 21
83.051936
 31
0.0
  0
LINE
  5
144
100
AcDbEntity
  8
ALPHA
100
AcDbLine
 10
107.461991
 20
83.871088
 30
0.0
 11
107.461991
 21
83.051936
 31
0.0
  0
LINE
  5
145
100
AcDbEntity
  8
ALPHA
100
AcDbLine
 10
107.461991
 20
80.250521
 30
0.0
 11
105.461991
 21
80.250521
 31
0.0
  0
LINE
  5
146
100
AcDbEntity
  8
ALPHA
100
AcDbLine
 10
105.461991
 20
80.250521
 30
0.0
 11
105.461991
 21
83.051936
 31
0.0
  0
LINE
  5
147
100
AcDbEntity
  8
ALPHA
100
AcDbLine
 10
105.461991
 20
83.871088
 30
0.0
 11
105.461991
 21
84.750521
 31
0.0
  0
LINE
  5
148
100
AcDbEntity
  8
ALPHA
100
AcDbLine
 10
109.081991
 20
91.050521
 30
0.0
 11
108.981991
 21
91.050521
 31
0.0
  0
LINE
  5
149
100
AcDbEntity
  8
ALPHA
100
AcDbLine
 10
108.981991
 20
81.129544
 30
0.0
 11
109.081991
 21
81.129544
 31
0.0
  0
LINE
  5
14A
100
AcDbEntity
  8
ALPHA
100
AcDbLine
 10
114.411991
 20
113.800521
 30
0.0
 11
114.061991
 21
113.450521
 31
0.0
  0
LINE
  5
14B
100
AcDbEntity
  8
ALPHA
100
AcDbLine
 10
114.761991
 20
114.150521
 30
0.0
 11
114.411991
 21
113.800521
 31
0.0
  0
LINE
  5
14C
100
AcDbEntity
  8
ALPHA
100
AcDbLine
 10
111.381991
 20
119.722323
 30
0.0
 11
111.381991
 21
119.350521
 31
0.0
  0
LINE
  5
14D
100
AcDbEntity
  8
ALPHA
100
AcDbLine
 10
109.081991
 20
114.900521
 30
0.0
 11
108.981991
 21
114.900521
 31
0.0
  0
LINE
  5
14E
100
AcDbEntity
  8
ALPHA
100
AcDbLine
 10
107.461991
 20
111.550521
 30
0.0
 11
105.761991
 21
111.550521
 31
0.0
  0
LINE
  5
14F
100
AcDbEntity
  8
ALPHA
100
AcDbLine
 10
109.081991
 20
105.050521
 30
0.0
 11
108.981991
 21
105.050521
 31
0.0
  0
LINE
  5
150
100
AcDbEntity
  8
ALPHA
100
AcDbLine
 10
107.461991
 20
105.750521
 30
0.0
 11
107.461991
 21
111.550521
 31
0.0
  0
LINE
  5
151
100
AcDbEntity
  8
ALPHA
100
AcDbLine
 10
117.261991
 20
81.712073
 30
0.0
 11
117.261991
 21
80.696646
 31
0.0
  0
LINE
  5
152
100
AcDbEntity
  8
ALPHA
100
AcDbLine
 10
110.761991
 20
79.550521
 30
0.0
 11
117.261991
 21
80.696646
 31
0.0
  0
LINE
  5
153
100
AcDbEntity
  8
ALPHA
100
AcDbLine
 10
109.081991
 20
79.550521
 30
0.0
 11
110.761991
 21
79.550521
 31
0.0
  0
LINE
  5
154
100
AcDbEntity
  8
ALPHA
100
AcDbLine
 10
109.081991
 20
79.550521
 30
0.0
 11
109.081991
 21
80.550521
 31
0.0
  0
LINE
  5
155
100
AcDbEntity
  8
ALPHA
100
AcDbLine
 10
117.261991
 20
81.712073
 30
0.0
 11
117.261991
 21
90.695075
 31
0.0
  0
LINE
  5
156
100
AcDbEntity
  8
ALPHA
100
AcDbLine
 10
117.261991
 20
90.695075
 30
0.0
 11
114.061991
 21
93.150521
 31
0.0
  0
LINE
  5
157
100
AcDbEntity
  8
ALPHA
100
AcDbLine
 10
113.061991
 20
110.550521
 30
0.0
 11
113.585289
 21
110.550521
 31
0.0
  0
LINE
  5
158
100
AcDbEntity
  8
ALPHA
100
AcDbLine
 10
112.709337
 20
108.550521
 30
0.0
 11
113.061991
 21
110.550521
 31
0.0
  0
LINE
  5
159
100
AcDbEntity
  8
ALPHA
100
AcDbLine
 10
109.081991
 20
119.216546
 30
0.0
 11
109.081991
 21
117.839196
 31
0.0
  0
LINE
  5
15A
100
AcDbEntity
  8
ALPHA
100
AcDbLine
 10
109.081991
 20
119.722323
 30
0.0
 11
109.081991
 21
120.800387
 31
0.0
  0
LINE
  5
15B
100
AcDbEntity
  8
ALPHA
100
AcDbLine
 10
109.081991
 20
116.973171
 30
0.0
 11
109.081991
 21
117.839196
 31
0.0
  0
LINE
  5
15C
100
AcDbEntity
  8
ALPHA
100
AcDbLine
 10
111.381991
 20
117.839196
 30
0.0
 11
111.381991
 21
117.523726
 31
0.0
  0
ARC
  5
15D
100
AcDbEntity
  8
ALPHA
100
AcDbCircle
 10
111.681991
 20
117.523726
 30
0.0
 40
0.3
100
AcDbArc
 50
180.0
 51
240.0
  0
LINE
  5
15E
100
AcDbEntity
  8
ALPHA
100
AcDbLine
 10
109.081991
 20
80.550521
 30
0.0
 11
109.081991
 21
108.550521
 31
0.0
  0
LINE
  5
15F
100
AcDbEntity
  8
ALPHA
100
AcDbLine
 10
111.531991
 20
117.263918
 30
0.0
 11
112.035581
 21
116.973171
 31
0.0
  0
LINE
  5
160
100
AcDbEntity
  8
ALPHA
100
AcDbLine
 10
109.081991
 20
108.550521
 30
0.0
 11
109.081991
 21
116.973171
 31
0.0
  0
LINE
  5
161
100
AcDbEntity
  8
ALPHA
100
AcDbLine
 10
109.081991
 20
119.350521
 30
0.0
 11
111.381991
 21
119.350521
 31
0.0
  0
LINE
  5
162
100
AcDbEntity
  8
ALPHA
100
AcDbLine
 10
109.081991
 20
119.216546
 30
0.0
 11
109.081991
 21
119.350521
 31
0.0
  0
LINE
  5
163
100
AcDbEntity
  8
ALPHA
100
AcDbLine
 10
111.381991
 20
120.800521
 30
0.0
 11
109.081991
 21
120.800521
 31
0.0
  0
LINE
  5
164
100
AcDbEntity
  8
ALPHA
100
AcDbLine
 10
111.381991
 20
120.800387
 30
0.0
 11
111.381991
 21
119.722323
 31
0.0
  0
LINE
  5
165
100
AcDbEntity
  8
ALPHA
100
AcDbLine
 10
105.461991
 20
85.050521
 30
0.0
 11
107.461991
 21
85.050521
 31
0.0
  0
LINE
  5
166
100
AcDbEntity
  8
ALPHA
100
AcDbLine
 10
105.461991
 20
85.050521
 30
0.0
 11
105.461991
 21
84.750521
 31
0.0
  0
LINE
  5
167
100
AcDbEntity
  8
ALPHA
100
AcDbLine
 10
107.461991
 20
85.050521
 30
0.0
 11
107.461991
 21
84.750521
 31
0.0
  0
LINE
  5
168
100
AcDbEntity
  8
ALPHA
100
AcDbLine
 10
107.461991
 20
116.000521
 30
0.0
 11
107.461991
 21
115.597887
 31
0.0
  0
LINE
  5
169
100
AcDbEntity
  8
ALPHA
100
AcDbLine
 10
107.461991
 20
116.900521
 30
0.0
 11
107.461991
 21
116.000521
 31
0.0
  0
LINE
  5
16A
100
AcDbEntity
  8
ALPHA
100
AcDbLine
 10
114.061991
 20
93.150521
 30
0.0
 11
114.061991
 21
110.150521
 31
0.0
  0
LINE
  5
16B
100
AcDbEntity
  8
ALPHA
100
AcDbLine
 10
107.46433
 20
80.856084
 30
0.0
 11
107.481991
 21
80.919547
 31
0.0
  0
LINE
  5
16C
100
AcDbEntity
  8
ALPHA
100
AcDbLine
 10
107.461991
 20
80.847677
 30
0.0
 11
107.46433
 21
80.856084
 31
0.0
  0
LINE
  5
16D
100
AcDbEntity
  8
ALPHA
100
AcDbLine
 10
109.081991
 20
119.350521
 30
0.0
 11
109.081991
 21
119.722323
 31
0.0
  0
LINE
  5
16E
100
AcDbEntity
  8
ALPHA
100
AcDbLine
 10
109.081991
 20
119.350521
 30
0.0
 11
111.381991
 21
119.350521
 31
0.0
  0
LINE
  5
16F
100
AcDbEntity
  8
ALPHA
100
AcDbLine
 10
111.381991
 20
119.350521
 30
0.0
 11
111.381991
 21
119.216546
 31
0.0
  0
LWPOLYLINE
  5
170
100
AcDbEntity
  8
ALPHA
100
AcDbPolyline
 90
        6
 70
     0
 43
0.0
 10
107.499131
 20
116.13963
 10
107.518698
 20
116.260435
 10
107.625228
 20
116.464871
 10
107.791152
 20
116.627111
 10
108.000228
 20
116.731276
 10
108.231991
 20
116.767169
  0
LINE
  5
178
100
AcDbEntity
  8
ALPHA
100
AcDbLine
 10
107.486255
 20
116.060143
 30
0.0
 11
107.499131
 21
116.13963
 31
0.0
  0
LINE
  5
179
100
AcDbEntity
  8
ALPHA
100
AcDbLine
 10
107.481991
 20
116.033817
 30
0.0
 11
107.486255
 21
116.060143
 31
0.0
  0
LWPOLYLINE
  5
17A
100
AcDbEntity
  8
ALPHA
100
AcDbPolyline
 90
        6
 70
     0
 43
0.0
 10
107.513098
 20
116.892243
 10
107.518698
 20
116.926817
 10
107.625228
 20
117.131252
 10
107.791152
 20
117.293492
 10
108.000228
 20
117.397657
 10
108.231991
 20
117.43355
  0
LINE
  5
182
100
AcDbEntity
  8
ALPHA
100
AcDbLine
 10
107.48666
 20
116.729027
 30
0.0
 11
107.513098
 21
116.892243
 31
0.0
  0
LINE
  5
183
100
AcDbEntity
  8
ALPHA
100
AcDbLine
 10
107.481991
 20
116.700198
 30
0.0
 11
107.48666
 21
116.729027
 31
0.0
  0
LWPOLYLINE
  5
184
100
AcDbEntity
  8
ALPHA
100
AcDbPolyline
 90
        6
 70
     0
 43
0.0
 10
108.231991
 20
114.000437
 10
108.463754
 20
114.000438
 10
108.67283
 20
114.000442
 10
108.838754
 20
114.000447
 10
108.945283
 20
114.000453
 10
108.981991
 20
114.00046
  0
LWPOLYLINE
  5
18C
100
AcDbEntity
  8
ALPHA
100
AcDbPolyline
 90
        6
 70
     0
 43
0.0
 10
107.481991
 20
114.00046
 10
107.518698
 20
114.000453
 10
107.625228
 20
114.000447
 10
107.791152
 20
114.000442
 10
108.000228
 20
114.000438
 10
108.231991
 20
114.000437
  0
LWPOLYLINE
  5
194
100
AcDbEntity
  8
ALPHA
100
AcDbPolyline
 90
        6
 70
     0
 43
0.0
 10
108.231991
 20
117.43355
 10
108.463754
 20
117.397657
 10
108.67283
 20
117.293492
 10
108.838754
 20
117.131252
 10
108.945283
 20
116.926817
 10
108.981991
 20
116.700198
  0
LWPOLYLINE
  5
19C
100
AcDbEntity
  8
ALPHA
100
AcDbPolyline
 90
        6
 70
     0
 43
0.0
 10
107.481991
 20
85.333511
 10
107.518698
 20
85.333504
 10
107.625228
 20
85.333497
 10
107.791152
 20
85.333492
 10
108.000228
 20
85.333489
 10
108.231991
 20
85.333488
  0
LINE
  5
1A4
100
AcDbEntity
  8
ALPHA
100
AcDbLine
 10
108.977727
 20
116.060143
 30
0.0
 11
108.981991
 21
116.033817
 31
0.0
  0
LINE
  5
1A5
100
AcDbEntity
  8
ALPHA
100
AcDbLine
 10
108.964851
 20
116.13963
 30
0.0
 11
108.977727
 21
116.060143
 31
0.0
  0
LWPOLYLINE
  5
1A6
100
AcDbEntity
  8
ALPHA
100
AcDbPolyline
 90
        6
 70
     0
 43
0.0
 10
108.231991
 20
116.767169
 10
108.463754
 20
116.731276
 10
108.67283
 20
116.627111
 10
108.838754
 20
116.464871
 10
108.945283
 20
116.260435
 10
108.964851
 20
116.13963
  0
LWPOLYLINE
  5
1AE
100
AcDbEntity
  8
ALPHA
100
AcDbPolyline
 90
        6
 70
     0
 43
0.0
 10
107.510261
 20
83.879916
 10
107.518698
 20
83.83378
 10
107.625228
 20
83.652711
 10
107.791152
 20
83.509014
 10
108.000228
 20
83.416755
 10
108.231991
 20
83.384965
  0
LINE
  5
1B6
100
AcDbEntity
  8
ALPHA
100
AcDbLine
 10
107.481991
 20
84.034495
 30
0.0
 11
107.510261
 21
83.879916
 31
0.0
  0
LWPOLYLINE
  5
1B7
100
AcDbEntity
  8
ALPHA
100
AcDbPolyline
 90
        6
 70
     0
 43
0.0
 10
108.231991
 20
85.333488
 10
108.463754
 20
85.333489
 10
108.67283
 20
85.333492
 10
108.838754
 20
85.333497
 10
108.945283
 20
85.333504
 10
108.981991
 20
85.333511
  0
LWPOLYLINE
  5
1BF
100
AcDbEntity
  8
ALPHA
100
AcDbPolyline
 90
        6
 70
     0
 43
0.0
 10
108.231991
 20
83.384965
 10
108.463754
 20
83.416755
 10
108.67283
 20
83.509014
 10
108.838754
 20
83.652711
 10
108.945283
 20
83.83378
 10
108.981991
 20
84.034495
  0
LINE
  5
1C7
100
AcDbEntity
  8
ALPHA
100
AcDbLine
 10
108.981991
 20
116.000521
 30
0.0
 11
108.981991
 21
116.033817
 31
0.0
  0
LINE
  5
1C8
100
AcDbEntity
  8
ALPHA
100
AcDbLine
 10
107.481991
 20
116.000521
 30
0.0
 11
107.481991
 21
116.033817
 31
0.0
  0
ARC
  5
1C9
100
AcDbEntity
  8
AXE
100
AcDbCircle
 10
108.231991
 20
116.000521
 30
0.0
 40
0.75
100
AcDbArc
 50
72.764491
 51
90.0
  0
ARC
  5
1CA
100
AcDbEntity
  8
AXE
100
AcDbCircle
 10
108.231991
 20
116.000521
 30
0.0
 40
0.75
100
AcDbArc
 50
67.098929
 51
72.764491
  0
ARC
  5
1CB
100
AcDbEntity
  8
AXE
100
AcDbCircle
 10
108.231991
 20
116.000521
 30
0.0
 40
0.75
100
AcDbArc
 50
55.522078
 51
67.098929
  0
ARC
  5
1CC
100
AcDbEntity
  8
ALPHA
100
AcDbCircle
 10
108.231991
 20
116.000521
 30
0.0
 40
0.75
100
AcDbArc
 50
48.777542
 51
55.522078
  0
ARC
  5
1CD
100
AcDbEntity
  8
ALPHA
100
AcDbCircle
 10
108.231991
 20
116.000521
 30
0.0
 40
0.75
100
AcDbArc
 50
38.268355
 51
48.777542
  0
ARC
  5
1CE
100
AcDbEntity
  8
ALPHA
100
AcDbCircle
 10
108.231991
 20
116.000521
 30
0.0
 40
0.75
100
AcDbArc
 50
31.109637
 51
38.268355
  0
ARC
  5
1CF
100
AcDbEntity
  8
ALPHA
100
AcDbCircle
 10
108.231991
 20
116.000521
 30
0.0
 40
0.75
100
AcDbArc
 50
20.996429
 51
31.109637
  0
ARC
  5
1D0
100
AcDbEntity
  8
ALPHA
100
AcDbCircle
 10
108.231991
 20
116.000521
 30
0.0
 40
0.75
100
AcDbArc
 50
13.658673
 51
20.996429
  0
ARC
  5
1D1
100
AcDbEntity
  8
ALPHA
100
AcDbCircle
 10
108.231991
 20
116.000521
 30
0.0
 40
0.75
100
AcDbArc
 50
0.0
 51
13.658673
  0
LINE
  5
1D2
100
AcDbEntity
  8
ALPHA
100
AcDbLine
 10
107.481991
 20
116.033817
 30
0.0
 11
107.481991
 21
116.700198
 31
0.0
  0
LINE
  5
1D3
100
AcDbEntity
  8
ALPHA
100
AcDbLine
 10
108.981991
 20
116.033817
 30
0.0
 11
108.981991
 21
116.700198
 31
0.0
  0
LINE
  5
1D4
100
AcDbEntity
  8
ALPHA
100
AcDbLine
 10
108.981991
 20
116.000521
 30
0.0
 11
108.981991
 21
114.00046
 31
0.0
  0
LINE
  5
1D5
100
AcDbEntity
  8
ALPHA
100
AcDbLine
 10
107.481991
 20
116.700198
 30
0.0
 11
107.481991
 21
116.729783
 31
0.0
  0
LINE
  5
1D6
100
AcDbEntity
  8
ALPHA
100
AcDbLine
 10
107.481991
 20
116.729783
 30
0.0
 11
107.481991
 21
116.733495
 31
0.0
  0
ARC
  5
1D7
100
AcDbEntity
  8
ALPHA
100
AcDbCircle
 10
108.231991
 20
116.733495
 30
0.0
 40
0.75
100
AcDbArc
 50
171.818182
 51
180.0
  0
ARC
  5
1D8
100
AcDbEntity
  8
ALPHA
100
AcDbCircle
 10
108.231991
 20
116.733495
 30
0.0
 40
0.75
100
AcDbArc
 50
167.980663
 51
171.818182
  0
ARC
  5
1D9
100
AcDbEntity
  8
ALPHA
100
AcDbCircle
 10
108.231991
 20
116.733495
 30
0.0
 40
0.75
100
AcDbArc
 50
90.0
 51
167.980663
  0
ARC
  5
1DA
100
AcDbEntity
  8
ALPHA
100
AcDbCircle
 10
108.231991
 20
116.000521
 30
0.0
 40
0.75
100
AcDbArc
 50
166.341327
 51
180.0
  0
ARC
  5
1DB
100
AcDbEntity
  8
ALPHA
100
AcDbCircle
 10
108.231991
 20
116.000521
 30
0.0
 40
0.75
100
AcDbArc
 50
159.003571
 51
166.341327
  0
ARC
  5
1DC
100
AcDbEntity
  8
ALPHA
100
AcDbCircle
 10
108.231991
 20
116.000521
 30
0.0
 40
0.75
100
AcDbArc
 50
148.890363
 51
159.003571
  0
ARC
  5
1DD
100
AcDbEntity
  8
ALPHA
100
AcDbCircle
 10
108.231991
 20
116.000521
 30
0.0
 40
0.75
100
AcDbArc
 50
141.731645
 51
148.890363
  0
ARC
  5
1DE
100
AcDbEntity
  8
ALPHA
100
AcDbCircle
 10
108.231991
 20
116.000521
 30
0.0
 40
0.75
100
AcDbArc
 50
131.222458
 51
141.731645
  0
ARC
  5
1DF
100
AcDbEntity
  8
ALPHA
100
AcDbCircle
 10
108.231991
 20
116.000521
 30
0.0
 40
0.75
100
AcDbArc
 50
124.477922
 51
131.222458
  0
ARC
  5
1E0
100
AcDbEntity
  8
ALPHA
100
AcDbCircle
 10
108.231991
 20
116.000521
 30
0.0
 40
0.75
100
AcDbArc
 50
112.901071
 51
124.477922
  0
ARC
  5
1E1
100
AcDbEntity
  8
AXE
100
AcDbCircle
 10
108.231991
 20
116.000521
 30
0.0
 40
0.75
100
AcDbArc
 50
107.235509
 51
112.901071
  0
ARC
  5
1E2
100
AcDbEntity
  8
AXE
100
AcDbCircle
 10
108.231991
 20
116.000521
 30
0.0
 40
0.75
100
AcDbArc
 50
90.0
 51
107.235509
  0
ARC
  5
1E3
100
AcDbEntity
  8
AXE
100
AcDbCircle
 10
108.231991
 20
116.000521
 30
0.0
 40
0.75
100
AcDbArc
 50
90.0
 51
107.214246
  0
ARC
  5
1E4
100
AcDbEntity
  8
AXE
100
AcDbCircle
 10
108.231991
 20
116.000521
 30
0.0
 40
0.75
100
AcDbArc
 50
107.214246
 51
112.917115
  0
ARC
  5
1E5
100
AcDbEntity
  8
ALPHA
100
AcDbCircle
 10
108.231991
 20
116.000521
 30
0.0
 40
0.75
100
AcDbArc
 50
112.917115
 51
124.441854
  0
ARC
  5
1E6
100
AcDbEntity
  8
ALPHA
100
AcDbCircle
 10
108.231991
 20
116.000521
 30
0.0
 40
0.75
100
AcDbArc
 50
124.441854
 51
131.250277
  0
ARC
  5
1E7
100
AcDbEntity
  8
ALPHA
100
AcDbCircle
 10
108.231991
 20
116.000521
 30
0.0
 40
0.75
100
AcDbArc
 50
131.250277
 51
141.686524
  0
ARC
  5
1E8
100
AcDbEntity
  8
ALPHA
100
AcDbCircle
 10
108.231991
 20
116.000521
 30
0.0
 40
0.75
100
AcDbArc
 50
141.686524
 51
148.927829
  0
ARC
  5
1E9
100
AcDbEntity
  8
ALPHA
100
AcDbCircle
 10
108.231991
 20
116.000521
 30
0.0
 40
0.75
100
AcDbArc
 50
148.927829
 51
158.954457
  0
ARC
  5
1EA
100
AcDbEntity
  8
ALPHA
100
AcDbCircle
 10
108.231991
 20
116.000521
 30
0.0
 40
0.75
100
AcDbArc
 50
158.954457
 51
166.385959
  0
ARC
  5
1EB
100
AcDbEntity
  8
ALPHA
100
AcDbCircle
 10
108.231991
 20
116.000521
 30
0.0
 40
0.75
100
AcDbArc
 50
166.385959
 51
180.0
  0
LINE
  5
1EC
100
AcDbEntity
  8
ALPHA
100
AcDbLine
 10
107.481991
 20
115.602972
 30
0.0
 11
107.481991
 21
116.000521
 31
0.0
  0
LINE
  5
1ED
100
AcDbEntity
  8
ALPHA
100
AcDbLine
 10
107.481991
 20
115.564168
 30
0.0
 11
107.481991
 21
115.602972
 31
0.0
  0
LINE
  5
1EE
100
AcDbEntity
  8
ALPHA
100
AcDbLine
 10
107.481991
 20
114.00046
 30
0.0
 11
107.481991
 21
115.564168
 31
0.0
  0
LINE
  5
1EF
100
AcDbEntity
  8
ALPHA
100
AcDbLine
 10
108.981991
 20
116.700198
 30
0.0
 11
108.981991
 21
116.729783
 31
0.0
  0
LINE
  5
1F0
100
AcDbEntity
  8
ALPHA
100
AcDbLine
 10
108.981991
 20
116.729783
 30
0.0
 11
108.981991
 21
116.733495
 31
0.0
  0
LINE
  5
1F1
100
AcDbEntity
  8
ALPHA
100
AcDbLine
 10
108.981991
 20
85.333511
 30
0.0
 11
108.981991
 21
114.00046
 31
0.0
  0
LINE
  5
1F2
100
AcDbEntity
  8
ALPHA
100
AcDbLine
 10
107.481991
 20
85.333511
 30
0.0
 11
107.481991
 21
114.00046
 31
0.0
  0
ARC
  5
1F3
100
AcDbEntity
  8
ALPHA
100
AcDbCircle
 10
108.231991
 20
116.733495
 30
0.0
 40
0.75
100
AcDbArc
 50
0.0
 51
90.0
  0
LINE
  5
1F4
100
AcDbEntity
  8
ALPHA
100
AcDbLine
 10
108.981991
 20
85.333511
 30
0.0
 11
108.981991
 21
84.034495
 31
0.0
  0
LINE
  5
1F5
100
AcDbEntity
  8
ALPHA
100
AcDbLine
 10
107.481991
 20
85.050154
 30
0.0
 11
107.481991
 21
85.333511
 31
0.0
  0
LINE
  5
1F6
100
AcDbEntity
  8
ALPHA
100
AcDbLine
 10
107.481991
 20
85.021644
 30
0.0
 11
107.481991
 21
85.050154
 31
0.0
  0
LINE
  5
1F7
100
AcDbEntity
  8
ALPHA
100
AcDbLine
 10
107.481991
 20
84.749608
 30
0.0
 11
107.481991
 21
85.021644
 31
0.0
  0
LINE
  5
1F8
100
AcDbEntity
  8
ALPHA
100
AcDbLine
 10
107.481991
 20
84.72341
 30
0.0
 11
107.481991
 21
84.749608
 31
0.0
  0
LINE
  5
1F9
100
AcDbEntity
  8
ALPHA
100
AcDbLine
 10
107.481991
 20
84.072954
 30
0.0
 11
107.481991
 21
84.72341
 31
0.0
  0
LINE
  5
1FA
100
AcDbEntity
  8
ALPHA
100
AcDbLine
 10
107.481991
 20
84.034495
 30
0.0
 11
107.481991
 21
84.072954
 31
0.0
  0
LINE
  5
1FB
100
AcDbEntity
  8
ALPHA
100
AcDbLine
 10
108.981991
 20
80.85117
 30
0.0
 11
108.981991
 21
84.034495
 31
0.0
  0
LWPOLYLINE
  5
1FC
100
AcDbEntity
  8
ALPHA
100
AcDbPolyline
 90
        6
 70
     0
 43
0.0
 10
107.481991
 20
80.85117
 10
107.518698
 20
80.650454
 10
107.625228
 20
80.469385
 10
107.791152
 20
80.325688
 10
108.000228
 20
80.233429
 10
108.231991
 20
80.201639
  0
LINE
  5
204
100
AcDbEntity
  8
ALPHA
100
AcDbLine
 10
107.481991
 20
83.871088
 30
0.0
 11
107.481991
 21
84.034495
 31
0.0
  0
LINE
  5
205
100
AcDbEntity
  8
ALPHA
100
AcDbLine
 10
107.481991
 20
83.300536
 30
0.0
 11
107.481991
 21
83.871088
 31
0.0
  0
LINE
  5
206
100
AcDbEntity
  8
ALPHA
100
AcDbLine
 10
107.481991
 20
83.051936
 30
0.0
 11
107.481991
 21
83.300536
 31
0.0
  0
LINE
  5
207
100
AcDbEntity
  8
ALPHA
100
AcDbLine
 10
107.481991
 20
80.85117
 30
0.0
 11
107.481991
 21
83.051936
 31
0.0
  0
ARC
  5
208
100
AcDbEntity
  8
ALPHA
100
AcDbCircle
 10
108.231991
 20
116.000521
 30
0.0
 40
0.75
100
AcDbArc
 50
0.0
 51
13.614041
  0
ARC
  5
209
100
AcDbEntity
  8
ALPHA
100
AcDbCircle
 10
108.231991
 20
116.000521
 30
0.0
 40
0.75
100
AcDbArc
 50
13.614041
 51
21.045543
  0
ARC
  5
20A
100
AcDbEntity
  8
ALPHA
100
AcDbCircle
 10
108.231991
 20
116.000521
 30
0.0
 40
0.75
100
AcDbArc
 50
21.045543
 51
31.072171
  0
ARC
  5
20B
100
AcDbEntity
  8
ALPHA
100
AcDbCircle
 10
108.231991
 20
116.000521
 30
0.0
 40
0.75
100
AcDbArc
 50
31.072171
 51
38.313476
  0
ARC
  5
20C
100
AcDbEntity
  8
ALPHA
100
AcDbCircle
 10
108.231991
 20
116.000521
 30
0.0
 40
0.75
100
AcDbArc
 50
38.313476
 51
48.749723
  0
ARC
  5
20D
100
AcDbEntity
  8
ALPHA
100
AcDbCircle
 10
108.231991
 20
116.000521
 30
0.0
 40
0.75
100
AcDbArc
 50
48.749723
 51
55.558146
  0
ARC
  5
20E
100
AcDbEntity
  8
AXE
100
AcDbCircle
 10
108.231991
 20
116.000521
 30
0.0
 40
0.75
100
AcDbArc
 50
55.558146
 51
67.082885
  0
ARC
  5
20F
100
AcDbEntity
  8
AXE
100
AcDbCircle
 10
108.231991
 20
116.000521
 30
0.0
 40
0.75
100
AcDbArc
 50
67.082885
 51
72.785754
  0
ARC
  5
210
100
AcDbEntity
  8
AXE
100
AcDbCircle
 10
108.231991
 20
116.000521
 30
0.0
 40
0.75
100
AcDbArc
 50
72.785754
 51
90.0
  0
LWPOLYLINE
  5
211
100
AcDbEntity
  8
ALPHA
100
AcDbPolyline
 90
        6
 70
     0
 43
0.0
 10
108.231991
 20
80.201639
 10
108.463754
 20
80.233429
 10
108.67283
 20
80.325688
 10
108.838754
 20
80.469385
 10
108.945283
 20
80.650454
 10
108.981991
 20
80.85117
  0
ENDSEC
  0
SECTION
  2
OBJECTS
  0
DICTIONARY
  5
308
100
AcDbDictionary
  3
ACAD_GROUP
350
309
  3
ACAD_MLINESTYLE
350
316
  3
ACDBVARIABLEDICTIONARY
350
326
  0
DICTIONARY
  5
309
102
{ACAD_REACTORS
330
308
102
}
100
AcDbDictionary
  0
DICTIONARY
  5
316
102
{ACAD_REACTORS
330
308
102
}
100
AcDbDictionary
  3
STANDARD
350
317
  0
DICTIONARY
  5
326
102
{ACAD_REACTORS
330
308
102
}
100
AcDbDictionary
  3
DIMADEC
350
327
  0
MLINESTYLE
  5
317
102
{ACAD_REACTORS
330
316
102
}
100
AcDbMlineStyle
  2
STANDARD
 70
     0
  3

 62
   256
 51
90.0
 52
90.0
 71
     2
 49
0.5
 62
   256
  6
BYLAYER
 49
-0.5
 62
   256
  6
BYLAYER
  0
DICTIONARYVAR
  5
327
102
{ACAD_REACTORS
330
326
102
}
100
DictionaryVariables
280
     0
  1
0
  0
ENDSEC
  0
EOF
