  0
SECTION
  2
HEADER
  9
$ACADVER
  1
AC1009
  9
$INSBASE
 10
0.0
 20
0.0
 30
0.0
  9
$EXTMIN
 10
111.883353
 20
76.575423
 30
-0.001526
  9
$EXTMAX
 10
266.315957
 20
264.095146
 30
0.0
  9
$LIMMIN
 10
0.0
 20
0.0
  9
$LIMMAX
 10
150.0
 20
150.0
  9
$ORTHOMODE
 70
     0
  9
$REGENMODE
 70
     1
  9
$FILLMODE
 70
     1
  9
$QTEXTMODE
 70
     0
  9
$MIRRTEXT
 70
     1
  9
$DRAGMODE
 70
     2
  9
$LTSCALE
 40
9.777778
  9
$OSMODE
 70
   167
  9
$ATTMODE
 70
     1
  9
$TEXTSIZE
 40
0.2
  9
$TRACEWID
 40
0.05
  9
$TEXTSTYLE
  7
STANDARD
  9
$CLAYER
  8
0
  9
$CELTYPE
  6
BYLAYER
  9
$CECOLOR
 62
   256
  9
$DIMSCALE
 40
1.0
  9
$DIMASZ
 40
2.5
  9
$DIMEXO
 40
1.111111
  9
$DIMDLI
 40
2.0
  9
$DIMRND
 40
0.0
  9
$DIMDLE
 40
0.0
  9
$DIMEXE
 40
3.2
  9
$DIMTP
 40
0.0
  9
$DIMTM
 40
0.0
  9
$DIMTXT
 40
2.008929
  9
$DIMCEN
 40
1.6
  9
$DIMTSZ
 40
0.0
  9
$DIMTOL
 70
     0
  9
$DIMLIM
 70
     0
  9
$DIMTIH
 70
     0
  9
$DIMTOH
 70
     0
  9
$DIMSE1
 70
     0
  9
$DIMSE2
 70
     0
  9
$DIMTAD
 70
     1
  9
$DIMZIN
 70
     8
  9
$DIMBLK
  1

  9
$DIMASO
 70
     1
  9
$DIMSHO
 70
     1
  9
$DIMPOST
  1

  9
$DIMAPOST
  1

  9
$DIMALT
 70
     0
  9
$DIMALTD
 70
     2
  9
$DIMALTF
 40
25.4
  9
$DIMLFAC
 40
1.0
  9
$DIMTOFL
 70
     0
  9
$DIMTVP
 40
0.0
  9
$DIMTIX
 70
     0
  9
$DIMSOXD
 70
     0
  9
$DIMSAH
 70
     0
  9
$DIMBLK1
  1

  9
$DIMBLK2
  1

  9
$DIMSTYLE
  2
STANDARD
  9
$DIMCLRD
 70
     0
  9
$DIMCLRE
 70
     0
  9
$DIMCLRT
 70
     0
  9
$DIMTFAC
 40
1.0
  9
$DIMGAP
 40
1.0
  9
$LUNITS
 70
     2
  9
$LUPREC
 70
     4
  9
$SKETCHINC
 40
0.1
  9
$FILLETRAD
 40
0.0
  9
$AUNITS
 70
     0
  9
$AUPREC
 70
     0
  9
$MENU
  1
.
  9
$ELEVATION
 40
0.0
  9
$PELEVATION
 40
0.0
  9
$THICKNESS
 40
0.0
  9
$LIMCHECK
 70
     0
  9
$BLIPMODE
 70
     0
  9
$CHAMFERA
 40
0.0
  9
$CHAMFERB
 40
0.0
  9
$SKPOLY
 70
     0
  9
$TDCREATE
 40
2452282.428316
  9
$TDUPDATE
 40
2452292.362878
  9
$TDINDWG
 40
0.012283
  9
$TDUSRTIMER
 40
0.012283
  9
$USRTIMER
 70
     1
  9
$ANGBASE
 50
0.0
  9
$ANGDIR
 70
     0
  9
$PDMODE
 70
     0
  9
$PDSIZE
 40
0.0
  9
$PLINEWID
 40
0.0
  9
$COORDS
 70
     2
  9
$SPLFRAME
 70
     0
  9
$SPLINETYPE
 70
     6
  9
$SPLINESEGS
 70
     8
  9
$ATTDIA
 70
     0
  9
$ATTREQ
 70
     1
  9
$HANDLING
 70
     1
  9
$HANDSEED
  5
32F9
  9
$SURFTAB1
 70
     6
  9
$SURFTAB2
 70
     6
  9
$SURFTYPE
 70
     6
  9
$SURFU
 70
     6
  9
$SURFV
 70
     6
  9
$UCSNAME
  2

  9
$UCSORG
 10
0.0
 20
0.0
 30
0.0
  9
$UCSXDIR
 10
1.0
 20
0.0
 30
0.0
  9
$UCSYDIR
 10
0.0
 20
1.0
 30
0.0
  9
$PUCSNAME
  2

  9
$PUCSORG
 10
0.0
 20
0.0
 30
0.0
  9
$PUCSXDIR
 10
1.0
 20
0.0
 30
0.0
  9
$PUCSYDIR
 10
0.0
 20
1.0
 30
0.0
  9
$USERI1
 70
     0
  9
$USERI2
 70
     0
  9
$USERI3
 70
     0
  9
$USERI4
 70
     0
  9
$USERI5
 70
     0
  9
$USERR1
 40
0.0
  9
$USERR2
 40
0.0
  9
$USERR3
 40
0.0
  9
$USERR4
 40
0.0
  9
$USERR5
 40
0.0
  9
$WORLDVIEW
 70
     1
  9
$SHADEDGE
 70
     3
  9
$SHADEDIF
 70
    70
  9
$TILEMODE
 70
     1
  9
$MAXACTVP
 70
    48
  9
$PLIMCHECK
 70
     0
  9
$PEXTMIN
 10
1.000000E+020
 20
1.000000E+020
 30
1.000000E+020
  9
$PEXTMAX
 10
-1.000000E+020
 20
-1.000000E+020
 30
-1.000000E+020
  9
$PLIMMIN
 10
0.0
 20
0.0
  9
$PLIMMAX
 10
12.0
 20
9.0
  9
$UNITMODE
 70
     0
  9
$VISRETAIN
 70
     1
  9
$PLINEGEN
 70
     0
  9
$PSLTSCALE
 70
     1
  0
ENDSEC
  0
SECTION
  2
TABLES
  0
TABLE
  2
VPORT
 70
     2
  0
VPORT
  2
*ACTIVE
 70
     0
 10
0.0
 20
0.0
 11
1.0
 21
1.0
 12
189.099655
 22
170.335285
 13
0.0
 23
0.0
 14
1.0
 24
1.0
 15
0.0
 25
0.0
 16
0.0
 26
0.0
 36
1.0
 17
0.0
 27
0.0
 37
0.0
 40
189.58416
 41
1.700368
 42
50.0
 43
0.0
 44
0.0
 50
0.0
 51
0.0
 71
     0
 72
   100
 73
     1
 74
     1
 75
     0
 76
     0
 77
     0
 78
     0
  0
ENDTAB
  0
TABLE
  2
LTYPE
 70
     6
  0
LTYPE
  2
CONTINUOUS
 70
     0
  3
Solid line
 72
    65
 73
     0
 40
0.0
  0
LTYPE
  2
CENTER
 70
     0
  3
____ _ ____ _ ____ _ ____ _ ____ _ ____ _ ____
 72
    65
 73
     4
 40
0.6
 49
0.375
 49
-0.075
 49
0.075
 49
-0.075
  0
LTYPE
  2
HIDDEN
 70
     0
  3
- - - - - - - - - - - - - - - - - - - -
 72
    65
 73
     2
 40
0.2
 49
0.1
 49
-0.1
  0
LTYPE
  2
PHANTOM
 70
     0
  3
_____ _ _ _____ _ _ _____ _ _ _____
 72
    65
 73
     6
 40
0.8
 49
0.45
 49
-0.05
 49
0.1
 49
-0.05
 49
0.1
 49
-0.05
  0
ENDTAB
  0
TABLE
  2
LAYER
 70
     5
  0
LAYER
  2
0
 70
     0
 62
     7
  6
CONTINUOUS
  0
LAYER
  2
DEFPOINTS
 70
     0
 62
     7
  6
CONTINUOUS
  0
ENDTAB
  0
TABLE
  2
STYLE
 70
     1
  0
STYLE
  2
STANDARD
 70
     0
 40
0.0
 41
1.0
 50
0.0
 71
     0
 42
0.2
  3
txt
  4

  0
ENDTAB
  0
TABLE
  2
VIEW
 70
     0
  0
ENDTAB
  0
TABLE
  2
UCS
 70
     0
  0
ENDTAB
  0
TABLE
  2
APPID
 70
     1
  0
APPID
  2
ACAD
 70
     0
  0
ENDTAB
  0
TABLE
  2
DIMSTYLE
 70
     1
  0
DIMSTYLE
  2
STANDARD
 70
     0
  3

  4

  5

  6

  7

 40
1.0
 41
0.18
 42
0.0625
 43
0.02
 44
0.1
 45
0.0
 46
0.0
 47
0.0
 48
0.0
140
0.18
141
0.0
142
0.0
143
25.4
144
1.0
145
0.0
146
1.0
147
1.0
 71
     0
 72
     0
 73
     0
 74
     0
 75
     0
 76
     0
 77
     1
 78
     8
170
     0
171
     2
172
     0
173
     0
174
     0
175
     0
176
     0
177
     0
178
     0
  0
ENDTAB
  0
ENDSEC
  0
SECTION
  2
BLOCKS
  0
BLOCK
  8
0
  2
$MODEL_SPACE
 70
     0
 10
0.0
 20
0.0
 30
0.0
  3
$MODEL_SPACE
  1

  0
ENDBLK
  5
20
  8
0
  0
BLOCK
 67
     1
  8
0
  2
$PAPER_SPACE
 70
     0
 10
0.0
 20
0.0
 30
0.0
  3
$PAPER_SPACE
  1

  0
ENDBLK
  5
1C
 67
     1
  8
0
  0
BLOCK
  8
0
  2
*D0
 70
     1
 10
0.0
 20
0.0
 30
0.0
  3
*D0
  1

  0
LINE
  5
2AD3
  8
0
 62
     0
 10
131.9059
 20
252.541723
 30
0.0
 11
131.9059
 21
261.587086
 31
0.0
1001
ACAD
1000
RTLwPs
1070
   158
  0
LINE
  5
2AD4
  8
0
 62
     0
 10
266.3059
 20
139.368172
 30
0.0
 11
266.3059
 21
261.587086
 31
0.0
1001
ACAD
1000
RTLwPs
1070
   158
  0
LINE
  5
2AD5
  8
0
 62
     0
 10
134.4059
 20
260.587086
 30
0.0
 11
263.8059
 21
260.587086
 31
0.0
1001
ACAD
1000
RTLwPs
1070
   158
  0
SOLID
  5
2AD6
  8
0
 62
     0
 10
134.4059
 20
261.003753
 30
0.0
 11
134.4059
 21
260.170419
 31
0.0
 12
131.9059
 22
260.587086
 32
0.0
 13
131.9059
 23
260.587086
 33
0.0
  0
SOLID
  5
2AD7
  8
0
 62
     0
 10
263.8059
 20
261.003753
 30
0.0
 11
263.8059
 21
260.170419
 31
0.0
 12
266.3059
 22
260.587086
 32
0.0
 13
266.3059
 23
260.587086
 33
0.0
  0
TEXT
  8
0
  40
2.5
  5
32F7
  62
0
  72
0
  71
0
 10
194.194
 20
258.412
 30
0.000000
  1
134.4
  0
POINT
  5
2AD9
  8
DEFPOINTS
 62
     0
 10
131.9059
 20
251.541723
 30
0.0
  0
POINT
  5
2ADA
  8
DEFPOINTS
 62
     0
 10
266.3059
 20
138.368172
 30
0.0
  0
POINT
  5
2ADB
  8
DEFPOINTS
 62
     0
 10
266.3059
 20
260.587086
 30
0.0
  0
ENDBLK
  5
2A0C
  8
0
  0
BLOCK
  8
0
  2
*D1
 70
     1
 10
0.0
 20
0.0
 30
0.0
  3
*D1
  1

  0
LINE
  5
2ADC
  8
0
 62
     0
 10
129.8059
 20
251.541723
 30
0.0
 11
114.389035
 21
251.541723
 31
0.0
1001
ACAD
1000
RTLwPs
1070
   158
  0
LINE
  5
2ADD
  8
0
 62
     0
 10
132.5059
 20
76.594621
 30
0.0
 11
114.389035
 21
76.594621
 31
0.0
1001
ACAD
1000
RTLwPs
1070
   158
  0
LINE
  5
2ADE
  8
0
 62
     0
 10
115.389035
 20
249.041723
 30
0.0
 11
115.389035
 21
79.094621
 31
0.0
1001
ACAD
1000
RTLwPs
1070
   158
  0
SOLID
  5
2ADF
  8
0
 62
     0
 10
114.972369
 20
249.041723
 30
0.0
 11
115.805702
 21
249.041723
 31
0.0
 12
115.389035
 22
251.541723
 32
0.0
 13
115.389035
 23
251.541723
 33
0.0
  0
SOLID
  5
2AE0
  8
0
 62
     0
 10
114.972369
 20
79.094621
 30
0.0
 11
115.805702
 21
79.094621
 31
0.0
 12
115.389035
 22
76.594621
 32
0.0
 13
115.389035
 23
76.594621
 33
0.0
  0
TEXT
  8
0
  40
2.5
  5
32F8
  62
0
  72
0
  71
0
 10
108.139
 20
161.370
 30
0.000000
  1
174.95
  0
POINT
  5
2AE2
  8
DEFPOINTS
 62
     0
 10
130.8059
 20
251.541723
 30
0.0
  0
POINT
  5
2AE3
  8
DEFPOINTS
 62
     0
 10
133.5059
 20
76.594621
 30
0.0
  0
POINT
  5
2AE4
  8
DEFPOINTS
 62
     0
 10
115.389035
 20
76.594621
 30
0.0
  0
ENDBLK
  5
2A18
  8
0
  0
ENDSEC
  0
SECTION
  2
ENTITIES
  0
ARC
  5
25AF
  8
0
 62
     0
 10
196.793465
 20
97.368172
 30
0.0
 40
0.499998
 50
187.723767
 51
270.0
  0
ARC
  5
25B0
  8
0
 62
     0
 10
196.793465
 20
97.368172
 30
0.0
 40
1.0
 50
187.723768
 51
270.0
  0
LINE
  5
25B1
  8
0
 62
     0
 10
152.55647
 20
228.668172
 30
0.0
 11
242.605756
 21
228.668172
 31
0.0
  0
LINE
  5
25B2
  8
0
 62
     0
 10
198.1059
 20
228.168172
 30
0.0
 11
174.2059
 21
228.168172
 31
0.0
  0
LINE
  5
25B3
  8
0
 62
     0
 10
195.2059
 20
174.668172
 30
0.0
 11
198.1059
 21
174.668172
 31
0.0
  0
LINE
  5
25B4
  8
0
 62
     0
 10
195.4059
 20
174.318172
 30
0.0
 11
198.0059
 21
174.318172
 31
0.0
  0
LINE
  5
25B5
  8
0
 62
     0
 10
195.4059
 20
169.018172
 30
0.0
 11
198.0059
 21
169.018172
 31
0.0
  0
LINE
  5
25B6
  8
0
 62
     0
 10
195.2059
 20
168.668172
 30
0.0
 11
198.1059
 21
168.668172
 31
0.0
  0
LINE
  5
25B7
  8
0
 62
     0
 10
152.55647
 20
99.468172
 30
0.0
 11
198.1059
 21
99.468172
 31
0.0
  0
DIMENSION
  5
25B8
  8
0
 62
     0
  2
*D0
 10
266.3059
 20
260.587086
 30
0.0
 11
199.193814
 21
260.587086
 31
0.0
 70
   128
 13
131.9059
 23
251.541723
 33
0.0
 14
266.3059
 24
138.368172
 34
0.0
1001
ACAD
1000
DSTYLE
1002
{
1070
    41
1040
2.5
1070
    42
1040
1.0
1070
    43
1040
11.259259
1070
    44
1040
1.0
1070
   140
1040
2.5
1070
   141
1040
2.666667
1070
   271
1070
     2
1002
}
  0
ARC
  5
25B9
  8
0
 62
     0
 10
546.454985
 20
164.068172
 30
0.0
 40
400.0
 50
170.828015
 51
189.171985
  0
ARC
  5
25BA
  8
0
 62
     0
 10
545.705774
 20
164.068172
 30
0.0
 40
399.8
 50
170.845536
 51
189.154464
  0
ARC
  5
25BB
  8
0
 62
     0
 10
545.705774
 20
164.068172
 30
0.0
 40
400.0
 50
170.845549
 51
189.154451
  0
LINE
  5
25BC
  8
0
 62
     0
 10
132.4059
 20
161.745522
 30
0.0
 11
132.4059
 21
175.990821
 31
0.0
  0
DIMENSION
  5
25BD
  8
0
 62
     0
  2
*D1
 10
115.389035
 20
76.594621
 30
0.0
 11
115.389035
 21
165.79508
 31
0.0
 70
   128
 13
130.8059
 23
251.541723
 33
0.0
 14
133.5059
 24
76.594621
 34
0.0
 50
270.0
1001
ACAD
1000
DSTYLE
1002
{
1070
    41
1040
2.5
1070
    42
1040
1.0
1070
    43
1040
11.259259
1070
    44
1040
1.0
1070
   140
1040
2.5
1070
   141
1040
2.666667
1070
   271
1070
     2
1002
}
  0
ARC
  5
25BE
  8
0
 62
     0
 10
592.173551
 20
150.992676
 30
0.0
 40
399.5
 50
187.515993
 51
187.723767
  0
ARC
  5
25BF
  8
0
 62
     0
 10
592.173551
 20
150.992676
 30
0.0
 40
400.0
 50
187.400905
 51
187.723767
  0
LINE
  5
25C0
  8
0
 62
     0
 10
195.0059
 20
99.468172
 30
0.0
 11
195.0059
 21
94.068172
 31
0.0
  0
POLYLINE
  5
25C1
  8
0
 62
     0
 66
     1
 10
0.0
 20
0.0
 30
0.0
  0
VERTEX
  5
2B57
  8
0
 62
     0
 10
177.302916
 20
94.068013
 30
0.0
  0
VERTEX
  5
2B58
  8
0
 62
     0
 10
177.313011
 20
94.817771
 30
0.0
  0
VERTEX
  5
2B59
  8
0
 62
     0
 10
177.343558
 20
95.556038
 30
0.0
  0
VERTEX
  5
2B5A
  8
0
 62
     0
 10
177.392662
 20
96.2368
 30
0.0
  0
VERTEX
  5
2B5B
  8
0
 62
     0
 10
177.455835
 20
96.822056
 30
0.0
  0
VERTEX
  5
2B5C
  8
0
 62
     0
 10
177.530204
 20
97.303719
 30
0.0
  0
VERTEX
  5
2B5D
  8
0
 62
     0
 10
177.613412
 20
97.669615
 30
0.0
  0
VERTEX
  5
2B5E
  8
0
 62
     0
 10
177.699576
 20
97.894061
 30
0.0
  0
VERTEX
  5
2B5F
  8
0
 62
     0
 10
177.783135
 20
97.968172
 30
0.0
  0
SEQEND
  5
2B60
  8
0
 62
     0
  0
POLYLINE
  5
25C2
  8
0
 62
     0
 66
     1
 10
0.0
 20
0.0
 30
0.0
  0
VERTEX
  5
2B61
  8
0
 62
     0
 10
178.445736
 20
94.068012
 30
0.0
  0
VERTEX
  5
2B62
  8
0
 62
     0
 10
178.447988
 20
94.822128
 30
0.0
  0
VERTEX
  5
2B63
  8
0
 62
     0
 10
178.454566
 20
95.56189
 30
0.0
  0
VERTEX
  5
2B64
  8
0
 62
     0
 10
178.464436
 20
96.24216
 30
0.0
  0
VERTEX
  5
2B65
  8
0
 62
     0
 10
178.475829
 20
96.826169
 30
0.0
  0
VERTEX
  5
2B66
  8
0
 62
     0
 10
178.487228
 20
97.306768
 30
0.0
  0
VERTEX
  5
2B67
  8
0
 62
     0
 10
178.497096
 20
97.671455
 30
0.0
  0
VERTEX
  5
2B68
  8
0
 62
     0
 10
178.503658
 20
97.894774
 30
0.0
  0
VERTEX
  5
2B69
  8
0
 62
     0
 10
178.5059
 20
97.968172
 30
0.0
  0
SEQEND
  5
2B6A
  8
0
 62
     0
  0
LINE
  5
25C3
  8
0
 62
     0
 10
181.8059
 20
88.268172
 30
0.0
 11
181.8059
 21
99.468172
 31
0.0
  0
LINE
  5
25C4
  8
0
 62
     0
 10
179.0059
 20
88.068172
 30
0.0
 11
179.0059
 21
99.468172
 31
0.0
  0
LINE
  5
25C5
  8
0
 62
     0
 10
176.652347
 20
87.568172
 30
0.0
 11
176.652347
 21
99.168172
 31
0.0
  0
LINE
  5
25C6
  8
0
 62
     0
 10
175.667007
 20
87.068172
 30
0.0
 11
175.667007
 21
99.168172
 31
0.0
  0
LINE
  5
25C7
  8
0
 62
     0
 10
172.5059
 20
99.168172
 30
0.0
 11
172.5059
 21
87.068172
 31
0.0
  0
POLYLINE
  5
25C8
  8
0
 62
     0
 66
     1
 10
0.0
 20
0.0
 30
0.0
  0
VERTEX
  5
2B6B
  8
0
 62
     0
 10
177.783135
 20
97.968172
 30
0.0
  0
VERTEX
  5
2B6C
  8
0
 62
     0
 10
177.861509
 20
97.895191
 30
0.0
  0
VERTEX
  5
2B6D
  8
0
 62
     0
 10
177.934304
 20
97.671953
 30
0.0
  0
VERTEX
  5
2B6E
  8
0
 62
     0
 10
177.997512
 20
97.306756
 30
0.0
  0
VERTEX
  5
2B6F
  8
0
 62
     0
 10
178.048794
 20
96.825296
 30
0.0
  0
VERTEX
  5
2B70
  8
0
 62
     0
 10
178.088837
 20
96.240833
 30
0.0
  0
VERTEX
  5
2B71
  8
0
 62
     0
 10
178.117973
 20
95.560711
 30
0.0
  0
VERTEX
  5
2B72
  8
0
 62
     0
 10
178.135322
 20
94.821208
 30
0.0
  0
VERTEX
  5
2B73
  8
0
 62
     0
 10
178.140939
 20
94.068331
 30
0.0
  0
SEQEND
  5
2B74
  8
0
 62
     0
  0
LINE
  5
25C9
  8
0
 62
     0
 10
132.2059
 20
87.068172
 30
0.0
 11
132.2059
 21
149.209326
 31
0.0
  0
LINE
  5
25CA
  8
0
 62
     0
 10
131.9059
 20
77.594621
 30
0.0
 11
131.9059
 21
148.747446
 31
0.0
  0
LINE
  5
25CB
  8
0
 62
     0
 10
131.8059
 20
151.568172
 30
0.0
 11
131.8059
 21
90.240368
 31
0.0
  0
LINE
  5
25CC
  8
0
 62
     0
 10
129.0059
 20
151.368172
 30
0.0
 11
129.0059
 21
88.068172
 31
0.0
  0
LINE
  5
25CD
  8
0
 62
     0
 10
131.9059
 20
87.368172
 30
0.0
 11
176.249843
 21
87.368172
 31
0.0
  0
LINE
  5
25CE
  8
0
 62
     0
 10
178.00588
 20
87.068172
 30
0.0
 11
132.2059
 21
87.068172
 31
0.0
  0
LINE
  5
25CF
  8
0
 62
     0
 10
136.8059
 20
76.594621
 30
0.0
 11
136.8059
 21
87.068172
 31
0.0
  0
LINE
  5
25D0
  8
0
 62
     0
 10
134.5059
 20
76.594621
 30
0.0
 11
134.5059
 21
87.068172
 31
0.0
  0
LINE
  5
25D1
  8
0
 62
     0
 10
136.8059
 20
76.594621
 30
0.0
 11
131.8059
 21
76.594621
 31
0.0
  0
LINE
  5
25D2
  8
0
 62
     0
 10
131.8059
 20
76.594621
 30
0.0
 11
131.8059
 21
77.594621
 31
0.0
  0
LINE
  5
25D3
  8
0
 62
     0
 10
131.8059
 20
77.594621
 30
0.0
 11
131.9059
 21
77.594621
 31
0.0
  0
ARC
  5
25D4
  8
0
 62
     0
 10
135.5059
 20
89.068172
 30
0.0
 40
3.9
 50
157.380135
 51
202.619865
  0
ARC
  5
25D5
  8
0
 62
     0
 10
132.2059
 20
87.368172
 30
0.0
 40
0.3
 50
180.0
 51
270.0
  0
LINE
  5
25D6
  8
0
 62
     0
 10
129.0059
 20
88.068172
 30
0.0
 11
131.75337
 21
88.068172
 31
0.0
  0
LINE
  5
25D7
  8
0
 62
     0
 10
178.5059
 20
87.568172
 30
0.0
 11
176.652347
 21
87.568172
 31
0.0
  0
POLYLINE
  5
25D8
  8
0
 62
     0
 66
     1
 10
0.0
 20
0.0
 30
0.0
  0
VERTEX
  5
2B75
  8
0
 62
     0
 10
176.074992
 20
87.068172
 30
0.0
  0
VERTEX
  5
2B76
  8
0
 62
     0
 10
176.141903
 20
87.091007
 30
0.0
  0
VERTEX
  5
2B77
  8
0
 62
     0
 10
176.198629
 20
87.156037
 30
0.0
  0
VERTEX
  5
2B78
  8
0
 62
     0
 10
176.236532
 20
87.253364
 30
0.0
  0
VERTEX
  5
2B79
  8
0
 62
     0
 10
176.249843
 20
87.368172
 30
0.0
  0
SEQEND
  5
2B7A
  8
0
 62
     0
  0
POLYLINE
  5
25D9
  8
0
 62
     0
 66
     1
 10
0.0
 20
0.0
 30
0.0
  0
VERTEX
  5
2B7B
  8
0
 62
     0
 10
176.652347
 20
87.568172
 30
0.0
  0
VERTEX
  5
2B7C
  8
0
 62
     0
 10
176.607546
 20
87.503778
 30
0.0
  0
VERTEX
  5
2B7D
  8
0
 62
     0
 10
176.536841
 20
87.446969
 30
0.0
  0
VERTEX
  5
2B7E
  8
0
 62
     0
 10
176.448031
 20
87.403652
 30
0.0
  0
VERTEX
  5
2B7F
  8
0
 62
     0
 10
176.349597
 20
87.376998
 30
0.0
  0
VERTEX
  5
2B80
  8
0
 62
     0
 10
176.249843
 20
87.368172
 30
0.0
  0
SEQEND
  5
2B81
  8
0
 62
     0
  0
POLYLINE
  5
25DA
  8
0
 62
     0
 66
     1
 10
0.0
 20
0.0
 30
0.0
  0
VERTEX
  5
2B82
  8
0
 62
     0
 10
176.652347
 20
87.568172
 30
0.0
  0
VERTEX
  5
2B83
  8
0
 62
     0
 10
176.605243
 20
87.407274
 30
0.0
  0
VERTEX
  5
2B84
  8
0
 62
     0
 10
176.511066
 20
87.265297
 30
0.0
  0
VERTEX
  5
2B85
  8
0
 62
     0
 10
176.381918
 20
87.156988
 30
0.0
  0
VERTEX
  5
2B86
  8
0
 62
     0
 10
176.231897
 20
87.090325
 30
0.0
  0
VERTEX
  5
2B87
  8
0
 62
     0
 10
176.074992
 20
87.068172
 30
0.0
  0
SEQEND
  5
2B88
  8
0
 62
     0
  0
LINE
  5
25DB
  8
0
 62
     0
 10
178.5059
 20
90.168253
 30
0.0
 11
178.5059
 21
87.568172
 31
0.0
  0
ARC
  5
25DC
  8
0
 62
     0
 10
178.0059
 20
87.568172
 30
0.0
 40
0.5
 50
270.0
 51
0.0
  0
LINE
  5
25DD
  8
0
 62
     0
 10
178.5059
 20
88.268172
 30
0.0
 11
181.8059
 21
88.268172
 31
0.0
  0
POLYLINE
  5
25DE
  8
0
 62
     0
 66
     1
 10
0.0
 20
0.0
 30
0.0
  0
VERTEX
  5
2B89
  8
0
 62
     0
 10
178.140939
 20
94.068331
 30
0.0
  0
VERTEX
  5
2B8A
  8
0
 62
     0
 10
178.135334
 20
93.315901
 30
0.0
  0
VERTEX
  5
2B8B
  8
0
 62
     0
 10
178.118005
 20
92.576635
 30
0.0
  0
VERTEX
  5
2B8C
  8
0
 62
     0
 10
178.088862
 20
91.895969
 30
0.0
  0
VERTEX
  5
2B8D
  8
0
 62
     0
 10
178.048808
 20
91.311204
 30
0.0
  0
VERTEX
  5
2B8E
  8
0
 62
     0
 10
177.99756
 20
90.82995
 30
0.0
  0
VERTEX
  5
2B8F
  8
0
 62
     0
 10
177.934386
 20
90.464749
 30
0.0
  0
VERTEX
  5
2B90
  8
0
 62
     0
 10
177.86156
 20
90.241251
 30
0.0
  0
VERTEX
  5
2B91
  8
0
 62
     0
 10
177.783135
 20
90.168172
 30
0.0
  0
SEQEND
  5
2B92
  8
0
 62
     0
  0
POLYLINE
  5
25DF
  8
0
 62
     0
 66
     1
 10
0.0
 20
0.0
 30
0.0
  0
VERTEX
  5
2B93
  8
0
 62
     0
 10
178.5059
 20
90.168172
 30
0.0
  0
VERTEX
  5
2B94
  8
0
 62
     0
 10
178.503665
 20
90.241318
 30
0.0
  0
VERTEX
  5
2B95
  8
0
 62
     0
 10
178.497111
 20
90.464376
 30
0.0
  0
VERTEX
  5
2B96
  8
0
 62
     0
 10
178.487239
 20
90.829134
 30
0.0
  0
VERTEX
  5
2B97
  8
0
 62
     0
 10
178.475833
 20
91.310007
 30
0.0
  0
VERTEX
  5
2B98
  8
0
 62
     0
 10
178.464443
 20
91.893753
 30
0.0
  0
VERTEX
  5
2B99
  8
0
 62
     0
 10
178.454577
 20
92.573503
 30
0.0
  0
VERTEX
  5
2B9A
  8
0
 62
     0
 10
178.447992
 20
93.313497
 30
0.0
  0
VERTEX
  5
2B9B
  8
0
 62
     0
 10
178.445736
 20
94.068012
 30
0.0
  0
SEQEND
  5
2B9C
  8
0
 62
     0
  0
POLYLINE
  5
25E0
  8
0
 62
     0
 66
     1
 10
0.0
 20
0.0
 30
0.0
  0
VERTEX
  5
2B9D
  8
0
 62
     0
 10
177.783135
 20
90.168172
 30
0.0
  0
VERTEX
  5
2B9E
  8
0
 62
     0
 10
177.699637
 20
90.242176
 30
0.0
  0
VERTEX
  5
2B9F
  8
0
 62
     0
 10
177.613521
 20
90.466349
 30
0.0
  0
VERTEX
  5
2BA0
  8
0
 62
     0
 10
177.530278
 20
90.832227
 30
0.0
  0
VERTEX
  5
2BA1
  8
0
 62
     0
 10
177.455862
 20
91.314079
 30
0.0
  0
VERTEX
  5
2BA2
  8
0
 62
     0
 10
177.392708
 20
91.899021
 30
0.0
  0
VERTEX
  5
2BA3
  8
0
 62
     0
 10
177.343617
 20
92.579252
 30
0.0
  0
VERTEX
  5
2BA4
  8
0
 62
     0
 10
177.313033
 20
93.317786
 30
0.0
  0
VERTEX
  5
2BA5
  8
0
 62
     0
 10
177.302916
 20
94.068013
 30
0.0
  0
SEQEND
  5
2BA6
  8
0
 62
     0
  0
LINE
  5
25E1
  8
0
 62
     0
 10
178.5059
 20
88.068172
 30
0.0
 11
179.0059
 21
88.068172
 31
0.0
  0
LINE
  5
25E2
  8
0
 62
     0
 10
196.298001
 20
97.300973
 30
0.0
 11
195.802538
 21
97.233774
 31
0.0
  0
LINE
  5
25E3
  8
0
 62
     0
 10
159.0059
 20
172.518172
 30
0.0
 11
156.0059
 21
172.518172
 31
0.0
  0
LINE
  5
25E4
  8
0
 62
     0
 10
158.65949
 20
172.368172
 30
0.0
 11
156.0059
 21
172.368172
 31
0.0
  0
LINE
  5
25E5
  8
0
 62
     0
 10
156.0059
 20
165.368172
 30
0.0
 11
158.65949
 21
165.368172
 31
0.0
  0
LINE
  5
25E6
  8
0
 62
     0
 10
156.0059
 20
165.218172
 30
0.0
 11
159.0059
 21
165.218172
 31
0.0
  0
LINE
  5
25E7
  8
0
 62
     0
 10
159.0059
 20
146.868172
 30
0.0
 11
156.0059
 21
146.868172
 31
0.0
  0
LINE
  5
25E8
  8
0
 62
     0
 10
159.0059
 20
146.568172
 30
0.0
 11
156.0059
 21
146.568172
 31
0.0
  0
LINE
  5
25E9
  8
0
 62
     0
 10
158.65949
 20
146.368172
 30
0.0
 11
156.0059
 21
146.368172
 31
0.0
  0
LINE
  5
25EA
  8
0
 62
     0
 10
156.0059
 20
139.368172
 30
0.0
 11
158.65949
 21
139.368172
 31
0.0
  0
LINE
  5
25EB
  8
0
 62
     0
 10
156.0059
 20
139.168172
 30
0.0
 11
159.0059
 21
139.168172
 31
0.0
  0
LINE
  5
25EC
  8
0
 62
     0
 10
156.0059
 20
138.868172
 30
0.0
 11
159.0059
 21
138.868172
 31
0.0
  0
LINE
  5
25ED
  8
0
 62
     0
 10
159.0059
 20
115.868172
 30
0.0
 11
156.0059
 21
115.868172
 31
0.0
  0
LINE
  5
25EE
  8
0
 62
     0
 10
159.0059
 20
115.568172
 30
0.0
 11
156.0059
 21
115.568172
 31
0.0
  0
LINE
  5
25EF
  8
0
 62
     0
 10
158.65949
 20
115.368172
 30
0.0
 11
156.0059
 21
115.368172
 31
0.0
  0
LINE
  5
25F0
  8
0
 62
     0
 10
156.0059
 20
108.368172
 30
0.0
 11
158.65949
 21
108.368172
 31
0.0
  0
LINE
  5
25F1
  8
0
 62
     0
 10
156.0059
 20
108.168172
 30
0.0
 11
159.0059
 21
108.168172
 31
0.0
  0
LINE
  5
25F2
  8
0
 62
     0
 10
156.0059
 20
107.868172
 30
0.0
 11
159.0059
 21
107.868172
 31
0.0
  0
LINE
  5
25F3
  8
0
 62
     0
 10
152.281461
 20
99.168172
 30
0.0
 11
178.505883
 21
99.168172
 31
0.0
  0
ARC
  5
25F4
  8
0
 62
     0
 10
152.55647
 20
100.468172
 30
0.0
 40
1.0
 50
189.171985
 51
270.0
  0
LINE
  5
25F5
  8
0
 62
     0
 10
156.5059
 20
99.368172
 30
0.0
 11
152.281461
 21
99.368172
 31
0.0
  0
ARC
  5
25F6
  8
0
 62
     0
 10
152.281461
 20
100.668172
 30
0.0
 40
1.299977
 50
189.154464
 51
270.0
  0
ARC
  5
25F7
  8
0
 62
     0
 10
152.281461
 20
100.668172
 30
0.0
 40
1.5
 50
189.150997
 51
270.0
  0
LINE
  5
25F8
  8
0
 62
     0
 10
152.281461
 20
99.368172
 30
0.0
 11
152.281461
 21
99.168172
 31
0.0
  0
LINE
  5
25F9
  8
0
 62
     0
 10
150.998019
 20
100.461346
 30
0.0
 11
150.800566
 21
100.429527
 31
0.0
  0
LINE
  5
25FA
  8
0
 62
     0
 10
156.8059
 20
99.468172
 30
0.0
 11
156.8059
 21
99.168172
 31
0.0
  0
LINE
  5
25FB
  8
0
 62
     0
 10
156.5059
 20
99.468172
 30
0.0
 11
156.5059
 21
99.168172
 31
0.0
  0
LINE
  5
25FC
  8
0
 62
     0
 10
156.581029
 20
115.368172
 30
0.0
 11
156.581029
 21
108.368172
 31
0.0
  0
LINE
  5
25FD
  8
0
 62
     0
 10
155.0059
 20
114.868172
 30
0.0
 11
155.0059
 21
108.868172
 31
0.0
  0
ARC
  5
25FE
  8
0
 62
     0
 10
156.0059
 20
108.868172
 30
0.0
 40
1.0
 50
180.0
 51
270.0
  0
ARC
  5
25FF
  8
0
 62
     0
 10
156.0059
 20
109.368172
 30
0.0
 40
1.0
 50
180.0
 51
270.0
  0
ARC
  5
2600
  8
0
 62
     0
 10
156.0059
 20
109.368172
 30
0.0
 40
1.199987
 50
215.591137
 51
270.0
  0
LINE
  5
2601
  8
0
 62
     0
 10
156.0059
 20
108.168172
 30
0.0
 11
156.0059
 21
108.368172
 31
0.0
  0
ARC
  5
2602
  8
0
 62
     0
 10
156.0059
 20
114.868172
 30
0.0
 40
1.0
 50
90.0
 51
180.0
  0
ARC
  5
2603
  8
0
 62
     0
 10
156.0059
 20
114.368172
 30
0.0
 40
1.199987
 50
90.0
 51
144.348178
  0
ARC
  5
2604
  8
0
 62
     0
 10
156.0059
 20
114.368172
 30
0.0
 40
1.0
 50
90.0
 51
162.058535
  0
LINE
  5
2605
  8
0
 62
     0
 10
156.0059
 20
115.568172
 30
0.0
 11
156.0059
 21
115.368172
 31
0.0
  0
LINE
  5
2606
  8
0
 62
     0
 10
135.9059
 20
150.768172
 30
0.0
 11
135.9059
 21
157.992745
 31
0.0
  0
LINE
  5
2607
  8
0
 62
     0
 10
134.0059
 20
160.244411
 30
0.0
 11
134.0059
 21
151.368172
 31
0.0
  0
LINE
  5
2608
  8
0
 62
     0
 10
135.6059
 20
148.368172
 30
0.0
 11
135.6059
 21
141.721029
 31
0.0
  0
LINE
  5
2609
  8
0
 62
     0
 10
134.2559
 20
141.768172
 30
0.0
 11
134.2559
 21
148.368172
 31
0.0
  0
LINE
  5
260A
  8
0
 62
     0
 10
133.1059
 20
148.368172
 30
0.0
 11
133.1059
 21
141.808331
 31
0.0
  0
LINE
  5
260B
  8
0
 62
     0
 10
135.6059
 20
141.721029
 30
0.0
 11
133.1059
 21
141.808331
 31
0.0
  0
LINE
  5
260C
  8
0
 62
     0
 10
135.6059
 20
141.768172
 30
0.0
 11
134.2559
 21
141.768172
 31
0.0
  0
LINE
  5
260D
  8
0
 62
     0
 10
135.9059
 20
151.568172
 30
0.0
 11
131.8059
 21
151.568172
 31
0.0
  0
LINE
  5
260E
  8
0
 62
     0
 10
134.0059
 20
151.368172
 30
0.0
 11
129.0059
 21
151.368172
 31
0.0
  0
LINE
  5
260F
  8
0
 62
     0
 10
132.1559
 20
149.180458
 30
0.0
 11
134.9059
 21
150.768172
 31
0.0
  0
ARC
  5
2610
  8
0
 62
     0
 10
132.4059
 20
148.747446
 30
0.0
 40
0.5
 50
120.0
 51
180.0
  0
LINE
  5
2611
  8
0
 62
     0
 10
134.9059
 20
150.768172
 30
0.0
 11
135.9059
 21
150.768172
 31
0.0
  0
LINE
  5
2612
  8
0
 62
     0
 10
133.1059
 20
148.368172
 30
0.0
 11
135.6059
 21
148.368172
 31
0.0
  0
ARC
  5
2613
  8
0
 62
     0
 10
133.4059
 20
161.745522
 30
0.0
 40
1.0
 50
180.0
 51
240.0
  0
ARC
  5
2614
  8
0
 62
     0
 10
133.9059
 20
157.992745
 30
0.0
 40
2.0
 50
0.0
 51
60.0
  0
LINE
  5
2615
  8
0
 62
     0
 10
134.9059
 20
159.724796
 30
0.0
 11
132.9059
 21
160.879497
 31
0.0
  0
ARC
  5
2616
  8
0
 62
     0
 10
156.0059
 20
145.868172
 30
0.0
 40
1.0
 50
90.0
 51
180.0
  0
ARC
  5
2617
  8
0
 62
     0
 10
156.0059
 20
145.368172
 30
0.0
 40
1.199987
 50
90.0
 51
144.348178
  0
LINE
  5
2618
  8
0
 62
     0
 10
156.581029
 20
146.368172
 30
0.0
 11
156.581029
 21
139.368172
 31
0.0
  0
LINE
  5
2619
  8
0
 62
     0
 10
155.0059
 20
145.868172
 30
0.0
 11
155.0059
 21
139.868172
 31
0.0
  0
ARC
  5
261A
  8
0
 62
     0
 10
156.0059
 20
139.868172
 30
0.0
 40
1.0
 50
180.0
 51
270.0
  0
ARC
  5
261B
  8
0
 62
     0
 10
156.0059
 20
140.368172
 30
0.0
 40
1.0
 50
180.0
 51
270.0
  0
ARC
  5
261C
  8
0
 62
     0
 10
156.0059
 20
140.368172
 30
0.0
 40
1.199987
 50
215.591137
 51
270.0
  0
LINE
  5
261D
  8
0
 62
     0
 10
156.0059
 20
139.168172
 30
0.0
 11
156.0059
 21
139.368172
 31
0.0
  0
ARC
  5
261E
  8
0
 62
     0
 10
156.0059
 20
145.368172
 30
0.0
 40
1.0
 50
90.0
 51
162.058535
  0
LINE
  5
261F
  8
0
 62
     0
 10
156.0059
 20
146.568172
 30
0.0
 11
156.0059
 21
146.368172
 31
0.0
  0
ARC
  5
2620
  8
0
 62
     0
 10
156.0059
 20
166.218172
 30
0.0
 40
1.0
 50
180.0
 51
270.0
  0
ARC
  5
2621
  8
0
 62
     0
 10
156.0059
 20
166.368172
 30
0.0
 40
1.0
 50
180.0
 51
270.0
  0
LINE
  5
2622
  8
0
 62
     0
 10
156.581029
 20
172.368172
 30
0.0
 11
156.581029
 21
165.368172
 31
0.0
  0
LINE
  5
2623
  8
0
 62
     0
 10
156.0059
 20
165.218172
 30
0.0
 11
156.0059
 21
165.341377
 31
0.0
  0
LINE
  5
2624
  8
0
 62
     0
 10
155.0059
 20
171.518172
 30
0.0
 11
155.0059
 21
166.218172
 31
0.0
  0
ARC
  5
2625
  8
0
 62
     0
 10
156.0059
 20
171.518172
 30
0.0
 40
1.0
 50
90.0
 51
180.0
  0
ARC
  5
2626
  8
0
 62
     0
 10
156.0059
 20
171.368172
 30
0.0
 40
1.0
 50
90.0
 51
162.058535
  0
LINE
  5
2627
  8
0
 62
     0
 10
156.0059
 20
172.518172
 30
0.0
 11
156.0059
 21
172.394967
 31
0.0
  0
LINE
  5
2628
  8
0
 62
     0
 10
159.5059
 20
108.368172
 30
0.0
 11
159.5059
 21
115.368172
 31
0.0
  0
LINE
  5
2629
  8
0
 62
     0
 10
159.0059
 20
115.568172
 30
0.0
 11
159.0059
 21
108.168172
 31
0.0
  0
ARC
  5
262A
  8
0
 62
     0
 10
159.0059
 20
108.368172
 30
0.0
 40
0.5
 50
270.0
 51
0.0
  0
POLYLINE
  5
262B
  8
0
 62
     0
 66
     1
 10
0.0
 20
0.0
 30
0.0
  0
VERTEX
  5
2BA7
  8
0
 62
     0
 10
159.0059
 20
108.168172
 30
0.0
  0
VERTEX
  5
2BA8
  8
0
 62
     0
 10
158.990144
 20
108.227803
 30
0.0
  0
VERTEX
  5
2BA9
  8
0
 62
     0
 10
158.948764
 20
108.278203
 30
0.0
  0
VERTEX
  5
2BAA
  8
0
 62
     0
 10
158.891521
 20
108.316677
 30
0.0
  0
VERTEX
  5
2BAB
  8
0
 62
     0
 10
158.823156
 20
108.344442
 30
0.0
  0
VERTEX
  5
2BAC
  8
0
 62
     0
 10
158.745549
 20
108.361902
 30
0.0
  0
VERTEX
  5
2BAD
  8
0
 62
     0
 10
158.65949
 20
108.368172
 30
0.0
  0
SEQEND
  5
2BAE
  8
0
 62
     0
  0
ARC
  5
262C
  8
0
 62
     0
 10
159.0059
 20
115.368172
 30
0.0
 40
0.5
 50
0.0
 51
90.0
  0
POLYLINE
  5
262D
  8
0
 62
     0
 66
     1
 10
0.0
 20
0.0
 30
0.0
  0
VERTEX
  5
2BAF
  8
0
 62
     0
 10
159.0059
 20
115.568172
 30
0.0
  0
VERTEX
  5
2BB0
  8
0
 62
     0
 10
158.990144
 20
115.50854
 30
0.0
  0
VERTEX
  5
2BB1
  8
0
 62
     0
 10
158.948764
 20
115.458141
 30
0.0
  0
VERTEX
  5
2BB2
  8
0
 62
     0
 10
158.891521
 20
115.419666
 30
0.0
  0
VERTEX
  5
2BB3
  8
0
 62
     0
 10
158.823156
 20
115.391902
 30
0.0
  0
VERTEX
  5
2BB4
  8
0
 62
     0
 10
158.745549
 20
115.374442
 30
0.0
  0
VERTEX
  5
2BB5
  8
0
 62
     0
 10
158.65949
 20
115.368172
 30
0.0
  0
SEQEND
  5
2BB6
  8
0
 62
     0
  0
LINE
  5
262E
  8
0
 62
     0
 10
171.0059
 20
99.468172
 30
0.0
 11
171.0059
 21
99.168172
 31
0.0
  0
LINE
  5
262F
  8
0
 62
     0
 10
170.9059
 20
125.568172
 30
0.0
 11
170.9059
 21
121.568172
 31
0.0
  0
LINE
  5
2630
  8
0
 62
     0
 10
170.8059
 20
125.568172
 30
0.0
 11
170.8059
 21
121.568172
 31
0.0
  0
LINE
  5
2631
  8
0
 62
     0
 10
169.8059
 20
125.568172
 30
0.0
 11
169.8059
 21
121.568172
 31
0.0
  0
LINE
  5
2632
  8
0
 62
     0
 10
169.6059
 20
121.568172
 30
0.0
 11
169.6059
 21
125.568172
 31
0.0
  0
LINE
  5
2633
  8
0
 62
     0
 10
170.8059
 20
121.950142
 30
0.0
 11
169.6059
 21
121.950142
 31
0.0
  0
LINE
  5
2634
  8
0
 62
     0
 10
170.9059
 20
121.568172
 30
0.0
 11
169.6059
 21
121.568172
 31
0.0
  0
LINE
  5
2635
  8
0
 62
     0
 10
169.6059
 20
125.568172
 30
0.0
 11
170.9059
 21
125.568172
 31
0.0
  0
LINE
  5
2636
  8
0
 62
     0
 10
170.8059
 20
125.186201
 30
0.0
 11
169.8059
 21
125.186201
 31
0.0
  0
LINE
  5
2637
  8
0
 62
     0
 10
169.8059
 20
124.650142
 30
0.0
 11
169.6059
 21
124.650142
 31
0.0
  0
POLYLINE
  5
2638
  8
0
 62
     0
 66
     1
 10
0.0
 20
0.0
 30
0.0
  0
VERTEX
  5
2BB7
  8
0
 62
     0
 10
179.2059
 20
105.868172
 30
0.0
  0
VERTEX
  5
2BB8
  8
0
 62
     0
 10
179.400804
 20
106.468893
 30
0.0
  0
VERTEX
  5
2BB9
  8
0
 62
     0
 10
179.49438
 20
107.068635
 30
0.0
  0
VERTEX
  5
2BBA
  8
0
 62
     0
 10
179.494402
 20
107.667433
 30
0.0
  0
VERTEX
  5
2BBB
  8
0
 62
     0
 10
179.400827
 20
108.267354
 30
0.0
  0
VERTEX
  5
2BBC
  8
0
 62
     0
 10
179.2059
 20
108.868172
 30
0.0
  0
SEQEND
  5
2BBD
  8
0
 62
     0
  0
LINE
  5
2639
  8
0
 62
     0
 10
180.5059
 20
108.868172
 30
0.0
 11
180.5059
 21
105.868172
 31
0.0
  0
LINE
  5
263A
  8
0
 62
     0
 10
180.4059
 20
108.868172
 30
0.0
 11
180.4059
 21
105.868172
 31
0.0
  0
LINE
  5
263B
  8
0
 62
     0
 10
179.2059
 20
105.868172
 30
0.0
 11
179.2059
 21
108.868172
 31
0.0
  0
LINE
  5
263C
  8
0
 62
     0
 10
178.5059
 20
99.168172
 30
0.0
 11
178.5059
 21
97.968115
 31
0.0
  0
LINE
  5
263D
  8
0
 62
     0
 10
177.2059
 20
99.468172
 30
0.0
 11
177.2059
 21
99.168172
 31
0.0
  0
LINE
  5
263E
  8
0
 62
     0
 10
180.5059
 20
105.868172
 30
0.0
 11
179.2059
 21
105.868172
 31
0.0
  0
LINE
  5
263F
  8
0
 62
     0
 10
179.2059
 20
108.868172
 30
0.0
 11
180.5059
 21
108.868172
 31
0.0
  0
LINE
  5
2640
  8
0
 62
     0
 10
180.4059
 20
108.605606
 30
0.0
 11
180.5059
 21
108.606479
 31
0.0
  0
LINE
  5
2641
  8
0
 62
     0
 10
196.1059
 20
99.468172
 30
0.0
 11
196.1059
 21
98.736904
 31
0.0
  0
LINE
  5
2642
  8
0
 62
     0
 10
195.6059
 20
99.468172
 30
0.0
 11
195.6059
 21
98.704072
 31
0.0
  0
LINE
  5
2643
  8
0
 62
     0
 10
196.1059
 20
98.736904
 30
0.0
 11
195.6059
 21
98.704072
 31
0.0
  0
POLYLINE
  5
2644
  8
0
 62
     0
 66
     1
 10
0.0
 20
0.0
 30
0.0
  0
VERTEX
  5
2BBE
  8
0
 62
     0
 10
186.38965
 20
131.963534
 30
0.0
  0
VERTEX
  5
2BBF
  8
0
 62
     0
 10
186.403103
 20
132.030433
 30
0.0
  0
VERTEX
  5
2BC0
  8
0
 62
     0
 10
186.427796
 20
132.093466
 30
0.0
  0
VERTEX
  5
2BC1
  8
0
 62
     0
 10
186.462787
 20
132.150232
 30
0.0
  0
VERTEX
  5
2BC2
  8
0
 62
     0
 10
186.5076
 20
132.199343
 30
0.0
  0
VERTEX
  5
2BC3
  8
0
 62
     0
 10
186.558961
 20
132.237211
 30
0.0
  0
VERTEX
  5
2BC4
  8
0
 62
     0
 10
186.615624
 20
132.263336
 30
0.0
  0
VERTEX
  5
2BC5
  8
0
 62
     0
 10
186.675432
 20
132.276724
 30
0.0
  0
VERTEX
  5
2BC6
  8
0
 62
     0
 10
186.737183
 20
132.276746
 30
0.0
  0
VERTEX
  5
2BC7
  8
0
 62
     0
 10
186.796365
 20
132.2634
 30
0.0
  0
VERTEX
  5
2BC8
  8
0
 62
     0
 10
186.851806
 20
132.237315
 30
0.0
  0
VERTEX
  5
2BC9
  8
0
 62
     0
 10
186.901396
 20
132.199483
 30
0.0
  0
VERTEX
  5
2BCA
  8
0
 62
     0
 10
186.943912
 20
132.150402
 30
0.0
  0
VERTEX
  5
2BCB
  8
0
 62
     0
 10
186.976246
 20
132.093661
 30
0.0
  0
VERTEX
  5
2BCC
  8
0
 62
     0
 10
186.997989
 20
132.030644
 30
0.0
  0
VERTEX
  5
2BCD
  8
0
 62
     0
 10
187.008312
 20
131.963753
 30
0.0
  0
VERTEX
  5
2BCE
  8
0
 62
     0
 10
187.006688
 20
131.894322
 30
0.0
  0
SEQEND
  5
2BCF
  8
0
 62
     0
  0
POLYLINE
  5
2645
  8
0
 62
     0
 66
     1
 10
0.0
 20
0.0
 30
0.0
  0
VERTEX
  5
2BD0
  8
0
 62
     0
 10
187.006687
 20
131.894322
 30
0.0
  0
VERTEX
  5
2BD1
  8
0
 62
     0
 10
187.00839
 20
131.962539
 30
0.0
  0
VERTEX
  5
2BD2
  8
0
 62
     0
 10
186.998276
 20
132.029476
 30
0.0
  0
VERTEX
  5
2BD3
  8
0
 62
     0
 10
186.976731
 20
132.092584
 30
0.0
  0
VERTEX
  5
2BD4
  8
0
 62
     0
 10
186.943911
 20
132.150402
 30
0.0
  0
VERTEX
  5
2BD5
  8
0
 62
     0
 10
186.902216
 20
132.198708
 30
0.0
  0
VERTEX
  5
2BD6
  8
0
 62
     0
 10
186.852749
 20
132.236739
 30
0.0
  0
VERTEX
  5
2BD7
  8
0
 62
     0
 10
186.797394
 20
132.263044
 30
0.0
  0
VERTEX
  5
2BD8
  8
0
 62
     0
 10
186.737183
 20
132.276746
 30
0.0
  0
VERTEX
  5
2BD9
  8
0
 62
     0
 10
186.676515
 20
132.276844
 30
0.0
  0
VERTEX
  5
2BDA
  8
0
 62
     0
 10
186.616671
 20
132.263689
 30
0.0
  0
VERTEX
  5
2BDB
  8
0
 62
     0
 10
186.559932
 20
132.237784
 30
0.0
  0
VERTEX
  5
2BDC
  8
0
 62
     0
 10
186.5076
 20
132.199343
 30
0.0
  0
VERTEX
  5
2BDD
  8
0
 62
     0
 10
186.463497
 20
132.151175
 30
0.0
  0
VERTEX
  5
2BDE
  8
0
 62
     0
 10
186.428333
 20
132.094541
 30
0.0
  0
VERTEX
  5
2BDF
  8
0
 62
     0
 10
186.403448
 20
132.0316
 30
0.0
  0
VERTEX
  5
2BE0
  8
0
 62
     0
 10
186.389649
 20
131.963533
 30
0.0
  0
SEQEND
  5
2BE1
  8
0
 62
     0
  0
POLYLINE
  5
2646
  8
0
 62
     0
 66
     1
 10
0.0
 20
0.0
 30
0.0
  0
VERTEX
  5
2BE2
  8
0
 62
     0
 10
186.38965
 20
131.963534
 30
0.0
  0
VERTEX
  5
2BE3
  8
0
 62
     0
 10
186.387947
 20
131.895316
 30
0.0
  0
VERTEX
  5
2BE4
  8
0
 62
     0
 10
186.398061
 20
131.828379
 30
0.0
  0
VERTEX
  5
2BE5
  8
0
 62
     0
 10
186.419606
 20
131.765272
 30
0.0
  0
VERTEX
  5
2BE6
  8
0
 62
     0
 10
186.452425
 20
131.707453
 30
0.0
  0
VERTEX
  5
2BE7
  8
0
 62
     0
 10
186.494121
 20
131.659147
 30
0.0
  0
VERTEX
  5
2BE8
  8
0
 62
     0
 10
186.543588
 20
131.621117
 30
0.0
  0
VERTEX
  5
2BE9
  8
0
 62
     0
 10
186.598943
 20
131.594811
 30
0.0
  0
VERTEX
  5
2BEA
  8
0
 62
     0
 10
186.659154
 20
131.581109
 30
0.0
  0
VERTEX
  5
2BEB
  8
0
 62
     0
 10
186.719822
 20
131.581011
 30
0.0
  0
VERTEX
  5
2BEC
  8
0
 62
     0
 10
186.779666
 20
131.594166
 30
0.0
  0
VERTEX
  5
2BED
  8
0
 62
     0
 10
186.836405
 20
131.620071
 30
0.0
  0
VERTEX
  5
2BEE
  8
0
 62
     0
 10
186.888737
 20
131.658512
 30
0.0
  0
VERTEX
  5
2BEF
  8
0
 62
     0
 10
186.93284
 20
131.70668
 30
0.0
  0
VERTEX
  5
2BF0
  8
0
 62
     0
 10
186.968003
 20
131.763314
 30
0.0
  0
VERTEX
  5
2BF1
  8
0
 62
     0
 10
186.992889
 20
131.826255
 30
0.0
  0
VERTEX
  5
2BF2
  8
0
 62
     0
 10
187.006688
 20
131.894322
 30
0.0
  0
SEQEND
  5
2BF3
  8
0
 62
     0
  0
POLYLINE
  5
2647
  8
0
 62
     0
 66
     1
 10
0.0
 20
0.0
 30
0.0
  0
VERTEX
  5
2BF4
  8
0
 62
     0
 10
186.417319
 20
131.96043
 30
0.0
  0
VERTEX
  5
2BF5
  8
0
 62
     0
 10
186.419021
 20
132.028647
 30
0.0
  0
VERTEX
  5
2BF6
  8
0
 62
     0
 10
186.408907
 20
132.095585
 30
0.0
  0
VERTEX
  5
2BF7
  8
0
 62
     0
 10
186.387362
 20
132.158692
 30
0.0
  0
VERTEX
  5
2BF8
  8
0
 62
     0
 10
186.354543
 20
132.216511
 30
0.0
  0
VERTEX
  5
2BF9
  8
0
 62
     0
 10
186.312848
 20
132.264817
 30
0.0
  0
VERTEX
  5
2BFA
  8
0
 62
     0
 10
186.26338
 20
132.302847
 30
0.0
  0
VERTEX
  5
2BFB
  8
0
 62
     0
 10
186.208025
 20
132.329153
 30
0.0
  0
VERTEX
  5
2BFC
  8
0
 62
     0
 10
186.147814
 20
132.342855
 30
0.0
  0
VERTEX
  5
2BFD
  8
0
 62
     0
 10
186.087146
 20
132.342952
 30
0.0
  0
VERTEX
  5
2BFE
  8
0
 62
     0
 10
186.027303
 20
132.329798
 30
0.0
  0
VERTEX
  5
2BFF
  8
0
 62
     0
 10
185.970563
 20
132.303892
 30
0.0
  0
VERTEX
  5
2C00
  8
0
 62
     0
 10
185.918231
 20
132.265451
 30
0.0
  0
VERTEX
  5
2C01
  8
0
 62
     0
 10
185.874128
 20
132.217283
 30
0.0
  0
VERTEX
  5
2C02
  8
0
 62
     0
 10
185.838965
 20
132.16065
 30
0.0
  0
VERTEX
  5
2C03
  8
0
 62
     0
 10
185.814079
 20
132.097708
 30
0.0
  0
VERTEX
  5
2C04
  8
0
 62
     0
 10
185.800281
 20
132.029642
 30
0.0
  0
SEQEND
  5
2C05
  8
0
 62
     0
  0
POLYLINE
  5
2648
  8
0
 62
     0
 66
     1
 10
0.0
 20
0.0
 30
0.0
  0
VERTEX
  5
2C06
  8
0
 62
     0
 10
185.800281
 20
132.029642
 30
0.0
  0
VERTEX
  5
2C07
  8
0
 62
     0
 10
185.798578
 20
131.961424
 30
0.0
  0
VERTEX
  5
2C08
  8
0
 62
     0
 10
185.808692
 20
131.894487
 30
0.0
  0
VERTEX
  5
2C09
  8
0
 62
     0
 10
185.830237
 20
131.83138
 30
0.0
  0
VERTEX
  5
2C0A
  8
0
 62
     0
 10
185.863057
 20
131.773561
 30
0.0
  0
VERTEX
  5
2C0B
  8
0
 62
     0
 10
185.904752
 20
131.725255
 30
0.0
  0
VERTEX
  5
2C0C
  8
0
 62
     0
 10
185.954219
 20
131.687225
 30
0.0
  0
VERTEX
  5
2C0D
  8
0
 62
     0
 10
186.009574
 20
131.660919
 30
0.0
  0
VERTEX
  5
2C0E
  8
0
 62
     0
 10
186.069785
 20
131.647217
 30
0.0
  0
VERTEX
  5
2C0F
  8
0
 62
     0
 10
186.130453
 20
131.64712
 30
0.0
  0
VERTEX
  5
2C10
  8
0
 62
     0
 10
186.190297
 20
131.660274
 30
0.0
  0
VERTEX
  5
2C11
  8
0
 62
     0
 10
186.247036
 20
131.68618
 30
0.0
  0
VERTEX
  5
2C12
  8
0
 62
     0
 10
186.299368
 20
131.724621
 30
0.0
  0
VERTEX
  5
2C13
  8
0
 62
     0
 10
186.343471
 20
131.772789
 30
0.0
  0
VERTEX
  5
2C14
  8
0
 62
     0
 10
186.378635
 20
131.829422
 30
0.0
  0
VERTEX
  5
2C15
  8
0
 62
     0
 10
186.40352
 20
131.892364
 30
0.0
  0
VERTEX
  5
2C16
  8
0
 62
     0
 10
186.417319
 20
131.96043
 30
0.0
  0
SEQEND
  5
2C17
  8
0
 62
     0
  0
POLYLINE
  5
2649
  8
0
 62
     0
 66
     1
 10
0.0
 20
0.0
 30
0.0
  0
VERTEX
  5
2C18
  8
0
 62
     0
 10
183.905891
 20
132.363534
 30
0.0
  0
VERTEX
  5
2C19
  8
0
 62
     0
 10
183.904188
 20
132.295316
 30
0.0
  0
VERTEX
  5
2C1A
  8
0
 62
     0
 10
183.914302
 20
132.228379
 30
0.0
  0
VERTEX
  5
2C1B
  8
0
 62
     0
 10
183.935847
 20
132.165272
 30
0.0
  0
VERTEX
  5
2C1C
  8
0
 62
     0
 10
183.968667
 20
132.107453
 30
0.0
  0
VERTEX
  5
2C1D
  8
0
 62
     0
 10
184.010362
 20
132.059147
 30
0.0
  0
VERTEX
  5
2C1E
  8
0
 62
     0
 10
184.059829
 20
132.021117
 30
0.0
  0
VERTEX
  5
2C1F
  8
0
 62
     0
 10
184.115184
 20
131.994811
 30
0.0
  0
VERTEX
  5
2C20
  8
0
 62
     0
 10
184.175395
 20
131.981109
 30
0.0
  0
VERTEX
  5
2C21
  8
0
 62
     0
 10
184.236063
 20
131.981011
 30
0.0
  0
VERTEX
  5
2C22
  8
0
 62
     0
 10
184.295907
 20
131.994166
 30
0.0
  0
VERTEX
  5
2C23
  8
0
 62
     0
 10
184.352646
 20
132.020071
 30
0.0
  0
VERTEX
  5
2C24
  8
0
 62
     0
 10
184.404978
 20
132.058512
 30
0.0
  0
VERTEX
  5
2C25
  8
0
 62
     0
 10
184.449081
 20
132.106681
 30
0.0
  0
VERTEX
  5
2C26
  8
0
 62
     0
 10
184.484245
 20
132.163314
 30
0.0
  0
VERTEX
  5
2C27
  8
0
 62
     0
 10
184.50913
 20
132.226255
 30
0.0
  0
VERTEX
  5
2C28
  8
0
 62
     0
 10
184.522929
 20
132.294322
 30
0.0
  0
SEQEND
  5
2C29
  8
0
 62
     0
  0
POLYLINE
  5
264A
  8
0
 62
     0
 66
     1
 10
0.0
 20
0.0
 30
0.0
  0
VERTEX
  5
2C2A
  8
0
 62
     0
 10
183.905891
 20
132.363534
 30
0.0
  0
VERTEX
  5
2C2B
  8
0
 62
     0
 10
183.919344
 20
132.430433
 30
0.0
  0
VERTEX
  5
2C2C
  8
0
 62
     0
 10
183.944037
 20
132.493466
 30
0.0
  0
VERTEX
  5
2C2D
  8
0
 62
     0
 10
183.979028
 20
132.550232
 30
0.0
  0
VERTEX
  5
2C2E
  8
0
 62
     0
 10
184.023841
 20
132.599343
 30
0.0
  0
VERTEX
  5
2C2F
  8
0
 62
     0
 10
184.075202
 20
132.637211
 30
0.0
  0
VERTEX
  5
2C30
  8
0
 62
     0
 10
184.131865
 20
132.663336
 30
0.0
  0
VERTEX
  5
2C31
  8
0
 62
     0
 10
184.191673
 20
132.676724
 30
0.0
  0
VERTEX
  5
2C32
  8
0
 62
     0
 10
184.253424
 20
132.676746
 30
0.0
  0
VERTEX
  5
2C33
  8
0
 62
     0
 10
184.312606
 20
132.663401
 30
0.0
  0
VERTEX
  5
2C34
  8
0
 62
     0
 10
184.368047
 20
132.637315
 30
0.0
  0
VERTEX
  5
2C35
  8
0
 62
     0
 10
184.417637
 20
132.599483
 30
0.0
  0
VERTEX
  5
2C36
  8
0
 62
     0
 10
184.460153
 20
132.550403
 30
0.0
  0
VERTEX
  5
2C37
  8
0
 62
     0
 10
184.492487
 20
132.493661
 30
0.0
  0
VERTEX
  5
2C38
  8
0
 62
     0
 10
184.51423
 20
132.430644
 30
0.0
  0
VERTEX
  5
2C39
  8
0
 62
     0
 10
184.524553
 20
132.363753
 30
0.0
  0
VERTEX
  5
2C3A
  8
0
 62
     0
 10
184.522929
 20
132.294322
 30
0.0
  0
SEQEND
  5
2C3B
  8
0
 62
     0
  0
POLYLINE
  5
264B
  8
0
 62
     0
 66
     1
 10
0.0
 20
0.0
 30
0.0
  0
VERTEX
  5
2C3C
  8
0
 62
     0
 10
184.181341
 20
132.332637
 30
0.0
  0
VERTEX
  5
2C3D
  8
0
 62
     0
 10
184.188549
 20
132.400237
 30
0.0
  0
VERTEX
  5
2C3E
  8
0
 62
     0
 10
184.194741
 20
132.465345
 30
0.0
  0
VERTEX
  5
2C3F
  8
0
 62
     0
 10
184.199683
 20
132.525481
 30
0.0
  0
VERTEX
  5
2C40
  8
0
 62
     0
 10
184.203234
 20
132.579221
 30
0.0
  0
VERTEX
  5
2C41
  8
0
 62
     0
 10
184.205135
 20
132.622636
 30
0.0
  0
VERTEX
  5
2C42
  8
0
 62
     0
 10
184.205389
 20
132.655089
 30
0.0
  0
VERTEX
  5
2C43
  8
0
 62
     0
 10
184.203987
 20
132.675343
 30
0.0
  0
VERTEX
  5
2C44
  8
0
 62
     0
 10
184.200914
 20
132.682636
 30
0.0
  0
VERTEX
  5
2C45
  8
0
 62
     0
 10
184.196395
 20
132.676436
 30
0.0
  0
VERTEX
  5
2C46
  8
0
 62
     0
 10
184.190562
 20
132.657223
 30
0.0
  0
VERTEX
  5
2C47
  8
0
 62
     0
 10
184.183638
 20
132.62573
 30
0.0
  0
VERTEX
  5
2C48
  8
0
 62
     0
 10
184.175741
 20
132.582304
 30
0.0
  0
VERTEX
  5
2C49
  8
0
 62
     0
 10
184.167449
 20
132.53012
 30
0.0
  0
VERTEX
  5
2C4A
  8
0
 62
     0
 10
184.158945
 20
132.470496
 30
0.0
  0
VERTEX
  5
2C4B
  8
0
 62
     0
 10
184.150554
 20
132.405704
 30
0.0
  0
VERTEX
  5
2C4C
  8
0
 62
     0
 10
184.14246
 20
132.336998
 30
0.0
  0
SEQEND
  5
2C4D
  8
0
 62
     0
  0
POLYLINE
  5
264C
  8
0
 62
     0
 66
     1
 10
0.0
 20
0.0
 30
0.0
  0
VERTEX
  5
2C4E
  8
0
 62
     0
 10
184.14246
 20
132.336998
 30
0.0
  0
VERTEX
  5
2C4F
  8
0
 62
     0
 10
184.135252
 20
132.269398
 30
0.0
  0
VERTEX
  5
2C50
  8
0
 62
     0
 10
184.129059
 20
132.20429
 30
0.0
  0
VERTEX
  5
2C51
  8
0
 62
     0
 10
184.124118
 20
132.144154
 30
0.0
  0
VERTEX
  5
2C52
  8
0
 62
     0
 10
184.120567
 20
132.090414
 30
0.0
  0
VERTEX
  5
2C53
  8
0
 62
     0
 10
184.118665
 20
132.046999
 30
0.0
  0
VERTEX
  5
2C54
  8
0
 62
     0
 10
184.118411
 20
132.014546
 30
0.0
  0
VERTEX
  5
2C55
  8
0
 62
     0
 10
184.119813
 20
131.994292
 30
0.0
  0
VERTEX
  5
2C56
  8
0
 62
     0
 10
184.122886
 20
131.986999
 30
0.0
  0
VERTEX
  5
2C57
  8
0
 62
     0
 10
184.127405
 20
131.993199
 30
0.0
  0
VERTEX
  5
2C58
  8
0
 62
     0
 10
184.133238
 20
132.012412
 30
0.0
  0
VERTEX
  5
2C59
  8
0
 62
     0
 10
184.140163
 20
132.043905
 30
0.0
  0
VERTEX
  5
2C5A
  8
0
 62
     0
 10
184.14806
 20
132.08733
 30
0.0
  0
VERTEX
  5
2C5B
  8
0
 62
     0
 10
184.156352
 20
132.139515
 30
0.0
  0
VERTEX
  5
2C5C
  8
0
 62
     0
 10
184.164855
 20
132.199139
 30
0.0
  0
VERTEX
  5
2C5D
  8
0
 62
     0
 10
184.173246
 20
132.263931
 30
0.0
  0
VERTEX
  5
2C5E
  8
0
 62
     0
 10
184.181341
 20
132.332637
 30
0.0
  0
SEQEND
  5
2C5F
  8
0
 62
     0
  0
POLYLINE
  5
264D
  8
0
 62
     0
 66
     1
 10
0.0
 20
0.0
 30
0.0
  0
VERTEX
  5
2C60
  8
0
 62
     0
 10
184.522929
 20
132.294322
 30
0.0
  0
VERTEX
  5
2C61
  8
0
 62
     0
 10
184.524631
 20
132.362539
 30
0.0
  0
VERTEX
  5
2C62
  8
0
 62
     0
 10
184.514517
 20
132.429476
 30
0.0
  0
VERTEX
  5
2C63
  8
0
 62
     0
 10
184.492972
 20
132.492584
 30
0.0
  0
VERTEX
  5
2C64
  8
0
 62
     0
 10
184.460153
 20
132.550402
 30
0.0
  0
VERTEX
  5
2C65
  8
0
 62
     0
 10
184.418457
 20
132.598708
 30
0.0
  0
VERTEX
  5
2C66
  8
0
 62
     0
 10
184.36899
 20
132.636739
 30
0.0
  0
VERTEX
  5
2C67
  8
0
 62
     0
 10
184.313635
 20
132.663044
 30
0.0
  0
VERTEX
  5
2C68
  8
0
 62
     0
 10
184.253424
 20
132.676746
 30
0.0
  0
VERTEX
  5
2C69
  8
0
 62
     0
 10
184.192756
 20
132.676844
 30
0.0
  0
VERTEX
  5
2C6A
  8
0
 62
     0
 10
184.132912
 20
132.663689
 30
0.0
  0
VERTEX
  5
2C6B
  8
0
 62
     0
 10
184.076173
 20
132.637784
 30
0.0
  0
VERTEX
  5
2C6C
  8
0
 62
     0
 10
184.023841
 20
132.599343
 30
0.0
  0
VERTEX
  5
2C6D
  8
0
 62
     0
 10
183.979738
 20
132.551175
 30
0.0
  0
VERTEX
  5
2C6E
  8
0
 62
     0
 10
183.944575
 20
132.494541
 30
0.0
  0
VERTEX
  5
2C6F
  8
0
 62
     0
 10
183.919689
 20
132.4316
 30
0.0
  0
VERTEX
  5
2C70
  8
0
 62
     0
 10
183.905891
 20
132.363534
 30
0.0
  0
SEQEND
  5
2C71
  8
0
 62
     0
  0
POLYLINE
  5
264E
  8
0
 62
     0
 66
     1
 10
0.0
 20
0.0
 30
0.0
  0
VERTEX
  5
2C72
  8
0
 62
     0
 10
183.93356
 20
132.36043
 30
0.0
  0
VERTEX
  5
2C73
  8
0
 62
     0
 10
183.935262
 20
132.428647
 30
0.0
  0
VERTEX
  5
2C74
  8
0
 62
     0
 10
183.925148
 20
132.495585
 30
0.0
  0
VERTEX
  5
2C75
  8
0
 62
     0
 10
183.903603
 20
132.558692
 30
0.0
  0
VERTEX
  5
2C76
  8
0
 62
     0
 10
183.870784
 20
132.616511
 30
0.0
  0
VERTEX
  5
2C77
  8
0
 62
     0
 10
183.829089
 20
132.664817
 30
0.0
  0
VERTEX
  5
2C78
  8
0
 62
     0
 10
183.779621
 20
132.702847
 30
0.0
  0
VERTEX
  5
2C79
  8
0
 62
     0
 10
183.724266
 20
132.729153
 30
0.0
  0
VERTEX
  5
2C7A
  8
0
 62
     0
 10
183.664055
 20
132.742855
 30
0.0
  0
VERTEX
  5
2C7B
  8
0
 62
     0
 10
183.603387
 20
132.742952
 30
0.0
  0
VERTEX
  5
2C7C
  8
0
 62
     0
 10
183.543544
 20
132.729798
 30
0.0
  0
VERTEX
  5
2C7D
  8
0
 62
     0
 10
183.486805
 20
132.703892
 30
0.0
  0
VERTEX
  5
2C7E
  8
0
 62
     0
 10
183.434472
 20
132.665451
 30
0.0
  0
VERTEX
  5
2C7F
  8
0
 62
     0
 10
183.39037
 20
132.617283
 30
0.0
  0
VERTEX
  5
2C80
  8
0
 62
     0
 10
183.355206
 20
132.56065
 30
0.0
  0
VERTEX
  5
2C81
  8
0
 62
     0
 10
183.33032
 20
132.497708
 30
0.0
  0
VERTEX
  5
2C82
  8
0
 62
     0
 10
183.316522
 20
132.429642
 30
0.0
  0
SEQEND
  5
2C83
  8
0
 62
     0
  0
POLYLINE
  5
264F
  8
0
 62
     0
 66
     1
 10
0.0
 20
0.0
 30
0.0
  0
VERTEX
  5
2C84
  8
0
 62
     0
 10
183.316522
 20
132.429642
 30
0.0
  0
VERTEX
  5
2C85
  8
0
 62
     0
 10
183.31482
 20
132.361425
 30
0.0
  0
VERTEX
  5
2C86
  8
0
 62
     0
 10
183.324934
 20
132.294487
 30
0.0
  0
VERTEX
  5
2C87
  8
0
 62
     0
 10
183.346479
 20
132.23138
 30
0.0
  0
VERTEX
  5
2C88
  8
0
 62
     0
 10
183.379298
 20
132.173561
 30
0.0
  0
VERTEX
  5
2C89
  8
0
 62
     0
 10
183.420993
 20
132.125255
 30
0.0
  0
VERTEX
  5
2C8A
  8
0
 62
     0
 10
183.47046
 20
132.087225
 30
0.0
  0
VERTEX
  5
2C8B
  8
0
 62
     0
 10
183.525815
 20
132.060919
 30
0.0
  0
VERTEX
  5
2C8C
  8
0
 62
     0
 10
183.586027
 20
132.047217
 30
0.0
  0
VERTEX
  5
2C8D
  8
0
 62
     0
 10
183.646695
 20
132.04712
 30
0.0
  0
VERTEX
  5
2C8E
  8
0
 62
     0
 10
183.706538
 20
132.060274
 30
0.0
  0
VERTEX
  5
2C8F
  8
0
 62
     0
 10
183.763277
 20
132.08618
 30
0.0
  0
VERTEX
  5
2C90
  8
0
 62
     0
 10
183.815609
 20
132.124621
 30
0.0
  0
VERTEX
  5
2C91
  8
0
 62
     0
 10
183.859712
 20
132.172789
 30
0.0
  0
VERTEX
  5
2C92
  8
0
 62
     0
 10
183.894876
 20
132.229422
 30
0.0
  0
VERTEX
  5
2C93
  8
0
 62
     0
 10
183.919762
 20
132.292364
 30
0.0
  0
VERTEX
  5
2C94
  8
0
 62
     0
 10
183.93356
 20
132.36043
 30
0.0
  0
SEQEND
  5
2C95
  8
0
 62
     0
  0
LINE
  5
2650
  8
0
 62
     0
 10
184.601528
 20
132.285505
 30
0.0
 11
184.522929
 21
132.294322
 31
0.0
  0
CIRCLE
  5
2651
  8
0
 62
     0
 10
188.322141
 20
131.868172
 30
0.0
 40
0.35
  0
POLYLINE
  5
2652
  8
0
 62
     0
 66
     1
 10
0.0
 20
0.0
 30
0.0
  0
VERTEX
  5
2C96
  8
0
 62
     0
 10
187.731737
 20
131.934396
 30
0.0
  0
VERTEX
  5
2C97
  8
0
 62
     0
 10
187.738945
 20
132.001996
 30
0.0
  0
VERTEX
  5
2C98
  8
0
 62
     0
 10
187.745137
 20
132.067104
 30
0.0
  0
VERTEX
  5
2C99
  8
0
 62
     0
 10
187.750079
 20
132.12724
 30
0.0
  0
VERTEX
  5
2C9A
  8
0
 62
     0
 10
187.75363
 20
132.18098
 30
0.0
  0
VERTEX
  5
2C9B
  8
0
 62
     0
 10
187.755531
 20
132.224396
 30
0.0
  0
VERTEX
  5
2C9C
  8
0
 62
     0
 10
187.755786
 20
132.256849
 30
0.0
  0
VERTEX
  5
2C9D
  8
0
 62
     0
 10
187.754383
 20
132.277102
 30
0.0
  0
VERTEX
  5
2C9E
  8
0
 62
     0
 10
187.751311
 20
132.284396
 30
0.0
  0
VERTEX
  5
2C9F
  8
0
 62
     0
 10
187.746791
 20
132.278195
 30
0.0
  0
VERTEX
  5
2CA0
  8
0
 62
     0
 10
187.740958
 20
132.258982
 30
0.0
  0
VERTEX
  5
2CA1
  8
0
 62
     0
 10
187.734034
 20
132.227489
 30
0.0
  0
VERTEX
  5
2CA2
  8
0
 62
     0
 10
187.726137
 20
132.184064
 30
0.0
  0
VERTEX
  5
2CA3
  8
0
 62
     0
 10
187.717845
 20
132.131879
 30
0.0
  0
VERTEX
  5
2CA4
  8
0
 62
     0
 10
187.709342
 20
132.072255
 30
0.0
  0
VERTEX
  5
2CA5
  8
0
 62
     0
 10
187.700951
 20
132.007463
 30
0.0
  0
VERTEX
  5
2CA6
  8
0
 62
     0
 10
187.692856
 20
131.938757
 30
0.0
  0
SEQEND
  5
2CA7
  8
0
 62
     0
  0
POLYLINE
  5
2653
  8
0
 62
     0
 66
     1
 10
0.0
 20
0.0
 30
0.0
  0
VERTEX
  5
2CA8
  8
0
 62
     0
 10
186.6651
 20
131.932637
 30
0.0
  0
VERTEX
  5
2CA9
  8
0
 62
     0
 10
186.672307
 20
132.000237
 30
0.0
  0
VERTEX
  5
2CAA
  8
0
 62
     0
 10
186.6785
 20
132.065345
 30
0.0
  0
VERTEX
  5
2CAB
  8
0
 62
     0
 10
186.683442
 20
132.125481
 30
0.0
  0
VERTEX
  5
2CAC
  8
0
 62
     0
 10
186.686993
 20
132.179221
 30
0.0
  0
VERTEX
  5
2CAD
  8
0
 62
     0
 10
186.688894
 20
132.222636
 30
0.0
  0
VERTEX
  5
2CAE
  8
0
 62
     0
 10
186.689148
 20
132.255089
 30
0.0
  0
VERTEX
  5
2CAF
  8
0
 62
     0
 10
186.687746
 20
132.275343
 30
0.0
  0
VERTEX
  5
2CB0
  8
0
 62
     0
 10
186.684673
 20
132.282636
 30
0.0
  0
VERTEX
  5
2CB1
  8
0
 62
     0
 10
186.680154
 20
132.276436
 30
0.0
  0
VERTEX
  5
2CB2
  8
0
 62
     0
 10
186.674321
 20
132.257223
 30
0.0
  0
VERTEX
  5
2CB3
  8
0
 62
     0
 10
186.667397
 20
132.22573
 30
0.0
  0
VERTEX
  5
2CB4
  8
0
 62
     0
 10
186.6595
 20
132.182304
 30
0.0
  0
VERTEX
  5
2CB5
  8
0
 62
     0
 10
186.651208
 20
132.13012
 30
0.0
  0
VERTEX
  5
2CB6
  8
0
 62
     0
 10
186.642704
 20
132.070496
 30
0.0
  0
VERTEX
  5
2CB7
  8
0
 62
     0
 10
186.634313
 20
132.005704
 30
0.0
  0
VERTEX
  5
2CB8
  8
0
 62
     0
 10
186.626218
 20
131.936998
 30
0.0
  0
SEQEND
  5
2CB9
  8
0
 62
     0
  0
POLYLINE
  5
2654
  8
0
 62
     0
 66
     1
 10
0.0
 20
0.0
 30
0.0
  0
VERTEX
  5
2CBA
  8
0
 62
     0
 10
187.692856
 20
131.938757
 30
0.0
  0
VERTEX
  5
2CBB
  8
0
 62
     0
 10
187.685648
 20
131.871157
 30
0.0
  0
VERTEX
  5
2CBC
  8
0
 62
     0
 10
187.679455
 20
131.806049
 30
0.0
  0
VERTEX
  5
2CBD
  8
0
 62
     0
 10
187.674514
 20
131.745913
 30
0.0
  0
VERTEX
  5
2CBE
  8
0
 62
     0
 10
187.670963
 20
131.692174
 30
0.0
  0
VERTEX
  5
2CBF
  8
0
 62
     0
 10
187.669062
 20
131.648758
 30
0.0
  0
VERTEX
  5
2CC0
  8
0
 62
     0
 10
187.668807
 20
131.616305
 30
0.0
  0
VERTEX
  5
2CC1
  8
0
 62
     0
 10
187.670209
 20
131.596051
 30
0.0
  0
VERTEX
  5
2CC2
  8
0
 62
     0
 10
187.673282
 20
131.588758
 30
0.0
  0
VERTEX
  5
2CC3
  8
0
 62
     0
 10
187.677801
 20
131.594959
 30
0.0
  0
VERTEX
  5
2CC4
  8
0
 62
     0
 10
187.683634
 20
131.614171
 30
0.0
  0
VERTEX
  5
2CC5
  8
0
 62
     0
 10
187.690559
 20
131.645664
 30
0.0
  0
VERTEX
  5
2CC6
  8
0
 62
     0
 10
187.698456
 20
131.68909
 30
0.0
  0
VERTEX
  5
2CC7
  8
0
 62
     0
 10
187.706748
 20
131.741275
 30
0.0
  0
VERTEX
  5
2CC8
  8
0
 62
     0
 10
187.715251
 20
131.800898
 30
0.0
  0
VERTEX
  5
2CC9
  8
0
 62
     0
 10
187.723642
 20
131.86569
 30
0.0
  0
VERTEX
  5
2CCA
  8
0
 62
     0
 10
187.731737
 20
131.934396
 30
0.0
  0
SEQEND
  5
2CCB
  8
0
 62
     0
  0
POLYLINE
  5
2655
  8
0
 62
     0
 66
     1
 10
0.0
 20
0.0
 30
0.0
  0
VERTEX
  5
2CCC
  8
0
 62
     0
 10
186.626219
 20
131.936998
 30
0.0
  0
VERTEX
  5
2CCD
  8
0
 62
     0
 10
186.619011
 20
131.869398
 30
0.0
  0
VERTEX
  5
2CCE
  8
0
 62
     0
 10
186.612818
 20
131.80429
 30
0.0
  0
VERTEX
  5
2CCF
  8
0
 62
     0
 10
186.607877
 20
131.744154
 30
0.0
  0
VERTEX
  5
2CD0
  8
0
 62
     0
 10
186.604325
 20
131.690414
 30
0.0
  0
VERTEX
  5
2CD1
  8
0
 62
     0
 10
186.602424
 20
131.646999
 30
0.0
  0
VERTEX
  5
2CD2
  8
0
 62
     0
 10
186.60217
 20
131.614546
 30
0.0
  0
VERTEX
  5
2CD3
  8
0
 62
     0
 10
186.603572
 20
131.594292
 30
0.0
  0
VERTEX
  5
2CD4
  8
0
 62
     0
 10
186.606645
 20
131.586999
 30
0.0
  0
VERTEX
  5
2CD5
  8
0
 62
     0
 10
186.611164
 20
131.593199
 30
0.0
  0
VERTEX
  5
2CD6
  8
0
 62
     0
 10
186.616997
 20
131.612412
 30
0.0
  0
VERTEX
  5
2CD7
  8
0
 62
     0
 10
186.623922
 20
131.643905
 30
0.0
  0
VERTEX
  5
2CD8
  8
0
 62
     0
 10
186.631819
 20
131.68733
 30
0.0
  0
VERTEX
  5
2CD9
  8
0
 62
     0
 10
186.640111
 20
131.739515
 30
0.0
  0
VERTEX
  5
2CDA
  8
0
 62
     0
 10
186.648614
 20
131.799139
 30
0.0
  0
VERTEX
  5
2CDB
  8
0
 62
     0
 10
186.657005
 20
131.863931
 30
0.0
  0
VERTEX
  5
2CDC
  8
0
 62
     0
 10
186.6651
 20
131.932637
 30
0.0
  0
SEQEND
  5
2CDD
  8
0
 62
     0
  0
LINE
  5
2656
  8
0
 62
     0
 10
187.085287
 20
131.885505
 30
0.0
 11
187.006688
 21
131.894322
 31
0.0
  0
CIRCLE
  5
2657
  8
0
 62
     0
 10
190.8059
 20
131.468172
 30
0.0
 40
0.35
  0
POLYLINE
  5
2658
  8
0
 62
     0
 66
     1
 10
0.0
 20
0.0
 30
0.0
  0
VERTEX
  5
2CDE
  8
0
 62
     0
 10
190.215496
 20
131.534396
 30
0.0
  0
VERTEX
  5
2CDF
  8
0
 62
     0
 10
190.222704
 20
131.601996
 30
0.0
  0
VERTEX
  5
2CE0
  8
0
 62
     0
 10
190.228896
 20
131.667104
 30
0.0
  0
VERTEX
  5
2CE1
  8
0
 62
     0
 10
190.233838
 20
131.72724
 30
0.0
  0
VERTEX
  5
2CE2
  8
0
 62
     0
 10
190.237389
 20
131.78098
 30
0.0
  0
VERTEX
  5
2CE3
  8
0
 62
     0
 10
190.23929
 20
131.824396
 30
0.0
  0
VERTEX
  5
2CE4
  8
0
 62
     0
 10
190.239544
 20
131.856849
 30
0.0
  0
VERTEX
  5
2CE5
  8
0
 62
     0
 10
190.238142
 20
131.877102
 30
0.0
  0
VERTEX
  5
2CE6
  8
0
 62
     0
 10
190.235069
 20
131.884395
 30
0.0
  0
VERTEX
  5
2CE7
  8
0
 62
     0
 10
190.23055
 20
131.878195
 30
0.0
  0
VERTEX
  5
2CE8
  8
0
 62
     0
 10
190.224717
 20
131.858982
 30
0.0
  0
VERTEX
  5
2CE9
  8
0
 62
     0
 10
190.217793
 20
131.827489
 30
0.0
  0
VERTEX
  5
2CEA
  8
0
 62
     0
 10
190.209896
 20
131.784064
 30
0.0
  0
VERTEX
  5
2CEB
  8
0
 62
     0
 10
190.201604
 20
131.731879
 30
0.0
  0
VERTEX
  5
2CEC
  8
0
 62
     0
 10
190.1931
 20
131.672255
 30
0.0
  0
VERTEX
  5
2CED
  8
0
 62
     0
 10
190.184709
 20
131.607463
 30
0.0
  0
VERTEX
  5
2CEE
  8
0
 62
     0
 10
190.176615
 20
131.538757
 30
0.0
  0
SEQEND
  5
2CEF
  8
0
 62
     0
  0
POLYLINE
  5
2659
  8
0
 62
     0
 66
     1
 10
0.0
 20
0.0
 30
0.0
  0
VERTEX
  5
2CF0
  8
0
 62
     0
 10
190.176614
 20
131.538757
 30
0.0
  0
VERTEX
  5
2CF1
  8
0
 62
     0
 10
190.169407
 20
131.471157
 30
0.0
  0
VERTEX
  5
2CF2
  8
0
 62
     0
 10
190.163214
 20
131.406049
 30
0.0
  0
VERTEX
  5
2CF3
  8
0
 62
     0
 10
190.158273
 20
131.345913
 30
0.0
  0
VERTEX
  5
2CF4
  8
0
 62
     0
 10
190.154721
 20
131.292174
 30
0.0
  0
VERTEX
  5
2CF5
  8
0
 62
     0
 10
190.15282
 20
131.248758
 30
0.0
  0
VERTEX
  5
2CF6
  8
0
 62
     0
 10
190.152566
 20
131.216305
 30
0.0
  0
VERTEX
  5
2CF7
  8
0
 62
     0
 10
190.153968
 20
131.196051
 30
0.0
  0
VERTEX
  5
2CF8
  8
0
 62
     0
 10
190.157041
 20
131.188758
 30
0.0
  0
VERTEX
  5
2CF9
  8
0
 62
     0
 10
190.16156
 20
131.194959
 30
0.0
  0
VERTEX
  5
2CFA
  8
0
 62
     0
 10
190.167393
 20
131.214171
 30
0.0
  0
VERTEX
  5
2CFB
  8
0
 62
     0
 10
190.174318
 20
131.245664
 30
0.0
  0
VERTEX
  5
2CFC
  8
0
 62
     0
 10
190.182215
 20
131.28909
 30
0.0
  0
VERTEX
  5
2CFD
  8
0
 62
     0
 10
190.190507
 20
131.341275
 30
0.0
  0
VERTEX
  5
2CFE
  8
0
 62
     0
 10
190.19901
 20
131.400898
 30
0.0
  0
VERTEX
  5
2CFF
  8
0
 62
     0
 10
190.207401
 20
131.46569
 30
0.0
  0
VERTEX
  5
2D00
  8
0
 62
     0
 10
190.215496
 20
131.534396
 30
0.0
  0
SEQEND
  5
2D01
  8
0
 62
     0
  0
LINE
  5
265A
  8
0
 62
     0
 10
175.3059
 20
158.068172
 30
0.0
 11
175.3059
 21
155.16871
 31
0.0
  0
LINE
  5
265B
  8
0
 62
     0
 10
174.7059
 20
157.868172
 30
0.0
 11
174.7059
 21
155.448495
 31
0.0
  0
LINE
  5
265C
  8
0
 62
     0
 10
168.7059
 20
155.448495
 30
0.0
 11
168.7059
 21
157.868172
 31
0.0
  0
LINE
  5
265D
  8
0
 62
     0
 10
168.1059
 20
155.16871
 30
0.0
 11
168.1059
 21
158.068172
 31
0.0
  0
ARC
  5
265E
  8
0
 62
     0
 10
159.0059
 20
146.368172
 30
0.0
 40
0.5
 50
0.0
 51
90.0
  0
LINE
  5
265F
  8
0
 62
     0
 10
159.5059
 20
139.368172
 30
0.0
 11
159.5059
 21
146.368172
 31
0.0
  0
LINE
  5
2660
  8
0
 62
     0
 10
159.0059
 20
146.568172
 30
0.0
 11
159.0059
 21
139.168172
 31
0.0
  0
ARC
  5
2661
  8
0
 62
     0
 10
159.0059
 20
139.368172
 30
0.0
 40
0.5
 50
270.0
 51
0.0
  0
POLYLINE
  5
2662
  8
0
 62
     0
 66
     1
 10
0.0
 20
0.0
 30
0.0
  0
VERTEX
  5
2D02
  8
0
 62
     0
 10
159.0059
 20
139.168172
 30
0.0
  0
VERTEX
  5
2D03
  8
0
 62
     0
 10
158.990144
 20
139.227803
 30
0.0
  0
VERTEX
  5
2D04
  8
0
 62
     0
 10
158.948764
 20
139.278203
 30
0.0
  0
VERTEX
  5
2D05
  8
0
 62
     0
 10
158.891521
 20
139.316677
 30
0.0
  0
VERTEX
  5
2D06
  8
0
 62
     0
 10
158.823156
 20
139.344442
 30
0.0
  0
VERTEX
  5
2D07
  8
0
 62
     0
 10
158.745549
 20
139.361902
 30
0.0
  0
VERTEX
  5
2D08
  8
0
 62
     0
 10
158.65949
 20
139.368172
 30
0.0
  0
SEQEND
  5
2D09
  8
0
 62
     0
  0
POLYLINE
  5
2663
  8
0
 62
     0
 66
     1
 10
0.0
 20
0.0
 30
0.0
  0
VERTEX
  5
2D0A
  8
0
 62
     0
 10
159.0059
 20
146.568172
 30
0.0
  0
VERTEX
  5
2D0B
  8
0
 62
     0
 10
158.990144
 20
146.50854
 30
0.0
  0
VERTEX
  5
2D0C
  8
0
 62
     0
 10
158.948764
 20
146.458141
 30
0.0
  0
VERTEX
  5
2D0D
  8
0
 62
     0
 10
158.891521
 20
146.419666
 30
0.0
  0
VERTEX
  5
2D0E
  8
0
 62
     0
 10
158.823156
 20
146.391902
 30
0.0
  0
VERTEX
  5
2D0F
  8
0
 62
     0
 10
158.745549
 20
146.374442
 30
0.0
  0
VERTEX
  5
2D10
  8
0
 62
     0
 10
158.65949
 20
146.368172
 30
0.0
  0
SEQEND
  5
2D11
  8
0
 62
     0
  0
LINE
  5
2664
  8
0
 62
     0
 10
174.7059
 20
155.868172
 30
0.0
 11
168.7059
 21
155.868172
 31
0.0
  0
LINE
  5
2665
  8
0
 62
     0
 10
175.3059
 20
155.16871
 30
0.0
 11
168.1059
 21
155.16871
 31
0.0
  0
LINE
  5
2666
  8
0
 62
     0
 10
168.1059
 20
155.16871
 30
0.0
 11
168.7059
 21
155.448495
 31
0.0
  0
LINE
  5
2667
  8
0
 62
     0
 10
175.3059
 20
155.16871
 30
0.0
 11
174.7059
 21
155.448495
 31
0.0
  0
LINE
  5
2668
  8
0
 62
     0
 10
159.5059
 20
165.718172
 30
0.0
 11
159.5059
 21
172.018172
 31
0.0
  0
LINE
  5
2669
  8
0
 62
     0
 10
159.0059
 20
172.518172
 30
0.0
 11
159.0059
 21
165.218172
 31
0.0
  0
ARC
  5
266A
  8
0
 62
     0
 10
159.0059
 20
165.718172
 30
0.0
 40
0.5
 50
270.0
 51
0.0
  0
LINE
  5
266B
  8
0
 62
     0
 10
158.745549
 20
165.361902
 30
0.0
 11
158.65949
 21
165.368172
 31
0.0
  0
POLYLINE
  5
266C
  8
0
 62
     0
 66
     1
 10
0.0
 20
0.0
 30
0.0
  0
VERTEX
  5
2D12
  8
0
 62
     0
 10
158.891521
 20
165.316677
 30
0.0
  0
VERTEX
  5
2D13
  8
0
 62
     0
 10
158.823156
 20
165.344442
 30
0.0
  0
VERTEX
  5
2D14
  8
0
 62
     0
 10
158.745549
 20
165.361902
 30
0.0
  0
SEQEND
  5
2D15
  8
0
 62
     0
  0
POLYLINE
  5
266D
  8
0
 62
     0
 66
     1
 10
0.0
 20
0.0
 30
0.0
  0
VERTEX
  5
2D16
  8
0
 62
     0
 10
158.992689
 20
165.218172
 30
0.0
  0
VERTEX
  5
2D17
  8
0
 62
     0
 10
158.990144
 20
165.227803
 30
0.0
  0
VERTEX
  5
2D18
  8
0
 62
     0
 10
158.948764
 20
165.278203
 30
0.0
  0
VERTEX
  5
2D19
  8
0
 62
     0
 10
158.891521
 20
165.316677
 30
0.0
  0
SEQEND
  5
2D1A
  8
0
 62
     0
  0
ARC
  5
266E
  8
0
 62
     0
 10
159.0059
 20
172.018172
 30
0.0
 40
0.5
 50
0.0
 51
90.0
  0
LINE
  5
266F
  8
0
 62
     0
 10
158.745549
 20
172.374442
 30
0.0
 11
158.65949
 21
172.368172
 31
0.0
  0
POLYLINE
  5
2670
  8
0
 62
     0
 66
     1
 10
0.0
 20
0.0
 30
0.0
  0
VERTEX
  5
2D1B
  8
0
 62
     0
 10
158.891521
 20
172.419666
 30
0.0
  0
VERTEX
  5
2D1C
  8
0
 62
     0
 10
158.823156
 20
172.391902
 30
0.0
  0
VERTEX
  5
2D1D
  8
0
 62
     0
 10
158.745549
 20
172.374442
 30
0.0
  0
SEQEND
  5
2D1E
  8
0
 62
     0
  0
POLYLINE
  5
2671
  8
0
 62
     0
 66
     1
 10
0.0
 20
0.0
 30
0.0
  0
VERTEX
  5
2D1F
  8
0
 62
     0
 10
158.992689
 20
172.518172
 30
0.0
  0
VERTEX
  5
2D20
  8
0
 62
     0
 10
158.990144
 20
172.50854
 30
0.0
  0
VERTEX
  5
2D21
  8
0
 62
     0
 10
158.948764
 20
172.458141
 30
0.0
  0
VERTEX
  5
2D22
  8
0
 62
     0
 10
158.891521
 20
172.419666
 30
0.0
  0
SEQEND
  5
2D23
  8
0
 62
     0
  0
LINE
  5
2672
  8
0
 62
     0
 10
170.205007
 20
161.265845
 30
0.0
 11
173.204779
 21
161.239666
 31
0.0
  0
LINE
  5
2673
  8
0
 62
     0
 10
170.7059
 20
162.468172
 30
0.0
 11
172.7059
 21
162.468172
 31
0.0
  0
LINE
  5
2674
  8
0
 62
     0
 10
170.7059
 20
161.868172
 30
0.0
 11
172.7059
 21
161.868172
 31
0.0
  0
LINE
  5
2675
  8
0
 62
     0
 10
170.2059
 20
159.868172
 30
0.0
 11
170.2059
 21
161.368172
 31
0.0
  0
LINE
  5
2676
  8
0
 62
     0
 10
169.6059
 20
160.068172
 30
0.0
 11
169.6059
 21
161.368172
 31
0.0
  0
LINE
  5
2677
  8
0
 62
     0
 10
168.7059
 20
157.868172
 30
0.0
 11
170.2059
 21
159.868172
 31
0.0
  0
LINE
  5
2678
  8
0
 62
     0
 10
168.1059
 20
158.068172
 30
0.0
 11
169.6059
 21
160.068172
 31
0.0
  0
LINE
  5
2679
  8
0
 62
     0
 10
168.1059
 20
158.068172
 30
0.0
 11
168.7059
 21
157.868172
 31
0.0
  0
POLYLINE
  5
267A
  8
0
 62
     0
 66
     1
 10
0.0
 20
0.0
 30
0.0
  0
VERTEX
  5
2D24
  8
0
 62
     0
 10
170.2059
 20
159.868172
 30
0.0
  0
VERTEX
  5
2D25
  8
0
 62
     0
 10
170.196205
 20
160.034288
 30
0.0
  0
VERTEX
  5
2D26
  8
0
 62
     0
 10
170.166699
 20
160.171434
 30
0.0
  0
VERTEX
  5
2D27
  8
0
 62
     0
 10
170.11183
 20
160.280319
 30
0.0
  0
VERTEX
  5
2D28
  8
0
 62
     0
 10
170.02124
 20
160.343632
 30
0.0
  0
VERTEX
  5
2D29
  8
0
 62
     0
 10
169.882432
 20
160.32434
 30
0.0
  0
VERTEX
  5
2D2A
  8
0
 62
     0
 10
169.741664
 20
160.223254
 30
0.0
  0
VERTEX
  5
2D2B
  8
0
 62
     0
 10
169.6059
 20
160.068172
 30
0.0
  0
SEQEND
  5
2D2C
  8
0
 62
     0
  0
ARC
  5
267B
  8
0
 62
     0
 10
170.7059
 20
161.368172
 30
0.0
 40
1.09998
 50
90.0
 51
180.0
  0
ARC
  5
267C
  8
0
 62
     0
 10
170.7059
 20
161.368172
 30
0.0
 40
0.5
 50
90.0
 51
180.0
  0
LINE
  5
267D
  8
0
 62
     0
 10
169.6059
 20
161.368172
 30
0.0
 11
170.2059
 21
161.368172
 31
0.0
  0
LINE
  5
267E
  8
0
 62
     0
 10
170.7059
 20
162.468172
 30
0.0
 11
170.7059
 21
161.868172
 31
0.0
  0
LINE
  5
267F
  8
0
 62
     0
 10
173.8059
 20
161.368172
 30
0.0
 11
173.8059
 21
160.068172
 31
0.0
  0
LINE
  5
2680
  8
0
 62
     0
 10
173.2059
 20
161.368172
 30
0.0
 11
173.2059
 21
159.868172
 31
0.0
  0
LINE
  5
2681
  8
0
 62
     0
 10
173.8059
 20
160.068172
 30
0.0
 11
175.3059
 21
158.068172
 31
0.0
  0
LINE
  5
2682
  8
0
 62
     0
 10
173.2059
 20
159.868172
 30
0.0
 11
174.7059
 21
157.868172
 31
0.0
  0
POLYLINE
  5
2683
  8
0
 62
     0
 66
     1
 10
0.0
 20
0.0
 30
0.0
  0
VERTEX
  5
2D2D
  8
0
 62
     0
 10
173.8059
 20
160.068172
 30
0.0
  0
VERTEX
  5
2D2E
  8
0
 62
     0
 10
173.670136
 20
160.223254
 30
0.0
  0
VERTEX
  5
2D2F
  8
0
 62
     0
 10
173.529368
 20
160.32434
 30
0.0
  0
VERTEX
  5
2D30
  8
0
 62
     0
 10
173.390561
 20
160.343632
 30
0.0
  0
VERTEX
  5
2D31
  8
0
 62
     0
 10
173.299971
 20
160.280319
 30
0.0
  0
VERTEX
  5
2D32
  8
0
 62
     0
 10
173.245101
 20
160.171434
 30
0.0
  0
VERTEX
  5
2D33
  8
0
 62
     0
 10
173.215596
 20
160.034288
 30
0.0
  0
VERTEX
  5
2D34
  8
0
 62
     0
 10
173.2059
 20
159.868172
 30
0.0
  0
SEQEND
  5
2D35
  8
0
 62
     0
  0
LINE
  5
2684
  8
0
 62
     0
 10
175.3059
 20
158.068172
 30
0.0
 11
174.7059
 21
157.868172
 31
0.0
  0
ARC
  5
2685
  8
0
 62
     0
 10
172.7059
 20
161.368172
 30
0.0
 40
1.09998
 50
0.0
 51
90.0
  0
ARC
  5
2686
  8
0
 62
     0
 10
172.7059
 20
161.368172
 30
0.0
 40
0.5
 50
0.0
 51
90.0
  0
LINE
  5
2687
  8
0
 62
     0
 10
173.8059
 20
161.368172
 30
0.0
 11
173.2059
 21
161.368172
 31
0.0
  0
LINE
  5
2688
  8
0
 62
     0
 10
172.7059
 20
162.468172
 30
0.0
 11
172.7059
 21
161.868172
 31
0.0
  0
LINE
  5
2689
  8
0
 62
     0
 10
192.7059
 20
173.168172
 30
0.0
 11
187.7059
 21
173.168172
 31
0.0
  0
LINE
  5
268A
  8
0
 62
     0
 10
187.7059
 20
171.368172
 30
0.0
 11
191.7059
 21
171.368172
 31
0.0
  0
LINE
  5
268B
  8
0
 62
     0
 10
187.7059
 20
169.668172
 30
0.0
 11
192.7059
 21
169.668172
 31
0.0
  0
LINE
  5
268C
  8
0
 62
     0
 10
187.7059
 20
173.168172
 30
0.0
 11
187.7059
 21
169.668172
 31
0.0
  0
LINE
  5
268D
  8
0
 62
     0
 10
195.4059
 20
174.318172
 30
0.0
 11
195.4059
 21
169.018172
 31
0.0
  0
LINE
  5
268E
  8
0
 62
     0
 10
195.2059
 20
174.668172
 30
0.0
 11
195.2059
 21
168.668172
 31
0.0
  0
LINE
  5
268F
  8
0
 62
     0
 10
192.7059
 20
169.668172
 30
0.0
 11
192.7059
 21
173.168172
 31
0.0
  0
LINE
  5
2690
  8
0
 62
     0
 10
195.4059
 20
169.568172
 30
0.0
 11
195.2059
 21
169.568172
 31
0.0
  0
LINE
  5
2691
  8
0
 62
     0
 10
191.7059
 20
173.168172
 30
0.0
 11
191.7059
 21
171.368172
 31
0.0
  0
LINE
  5
2692
  8
0
 62
     0
 10
195.4059
 20
173.768172
 30
0.0
 11
195.2059
 21
173.768172
 31
0.0
  0
LINE
  5
2693
  8
0
 62
     0
 10
195.2059
 20
171.268172
 30
0.0
 11
195.4059
 21
171.268172
 31
0.0
  0
LINE
  5
2694
  8
0
 62
     0
 10
132.2059
 20
241.068172
 30
0.0
 11
178.00588
 21
241.068172
 31
0.0
  0
LINE
  5
2695
  8
0
 62
     0
 10
131.9059
 20
240.768172
 30
0.0
 11
176.249843
 21
240.768172
 31
0.0
  0
LINE
  5
2696
  8
0
 62
     0
 10
152.281461
 20
228.968172
 30
0.0
 11
178.505883
 21
228.968172
 31
0.0
  0
LINE
  5
2697
  8
0
 62
     0
 10
159.0059
 20
220.868172
 30
0.0
 11
156.0059
 21
220.868172
 31
0.0
  0
LINE
  5
2698
  8
0
 62
     0
 10
159.0059
 20
220.568172
 30
0.0
 11
156.0059
 21
220.568172
 31
0.0
  0
LINE
  5
2699
  8
0
 62
     0
 10
158.65949
 20
220.368172
 30
0.0
 11
156.0059
 21
220.368172
 31
0.0
  0
LINE
  5
269A
  8
0
 62
     0
 10
156.0059
 20
213.368172
 30
0.0
 11
158.65949
 21
213.368172
 31
0.0
  0
LINE
  5
269B
  8
0
 62
     0
 10
156.0059
 20
213.168172
 30
0.0
 11
159.0059
 21
213.168172
 31
0.0
  0
LINE
  5
269C
  8
0
 62
     0
 10
156.0059
 20
212.868172
 30
0.0
 11
159.0059
 21
212.868172
 31
0.0
  0
LINE
  5
269D
  8
0
 62
     0
 10
159.0059
 20
198.868172
 30
0.0
 11
156.0059
 21
198.868172
 31
0.0
  0
LINE
  5
269E
  8
0
 62
     0
 10
159.0059
 20
198.568172
 30
0.0
 11
156.0059
 21
198.568172
 31
0.0
  0
LINE
  5
269F
  8
0
 62
     0
 10
158.65949
 20
198.368172
 30
0.0
 11
156.0059
 21
198.368172
 31
0.0
  0
LINE
  5
26A0
  8
0
 62
     0
 10
156.0059
 20
191.368172
 30
0.0
 11
158.65949
 21
191.368172
 31
0.0
  0
LINE
  5
26A1
  8
0
 62
     0
 10
156.0059
 20
191.168172
 30
0.0
 11
159.0059
 21
191.168172
 31
0.0
  0
LINE
  5
26A2
  8
0
 62
     0
 10
156.0059
 20
190.868172
 30
0.0
 11
159.0059
 21
190.868172
 31
0.0
  0
LINE
  5
26A3
  8
0
 62
     0
 10
156.581029
 20
220.368172
 30
0.0
 11
156.581029
 21
213.368172
 31
0.0
  0
LINE
  5
26A4
  8
0
 62
     0
 10
155.0059
 20
219.868172
 30
0.0
 11
155.0059
 21
213.868172
 31
0.0
  0
LINE
  5
26A5
  8
0
 62
     0
 10
132.2059
 20
241.068172
 30
0.0
 11
132.2059
 21
184.868172
 31
0.0
  0
LINE
  5
26A6
  8
0
 62
     0
 10
131.9059
 20
184.868172
 30
0.0
 11
131.9059
 21
250.541723
 31
0.0
  0
LINE
  5
26A7
  8
0
 62
     0
 10
131.8059
 20
237.895975
 30
0.0
 11
131.8059
 21
186.568172
 31
0.0
  0
LINE
  5
26A8
  8
0
 62
     0
 10
129.0059
 20
240.068172
 30
0.0
 11
129.0059
 21
186.368172
 31
0.0
  0
LINE
  5
26A9
  8
0
 62
     0
 10
134.626116
 20
185.768172
 30
0.0
 11
132.997445
 21
185.00871
 31
0.0
  0
LINE
  5
26AA
  8
0
 62
     0
 10
135.9059
 20
179.743598
 30
0.0
 11
135.9059
 21
186.368172
 31
0.0
  0
ARC
  5
26AB
  8
0
 62
     0
 10
133.4059
 20
175.990821
 30
0.0
 40
1.0
 50
120.0
 51
180.0
  0
ARC
  5
26AC
  8
0
 62
     0
 10
132.363517
 20
186.368172
 30
0.0
 40
1.5
 50
270.0
 51
295.0
  0
LINE
  5
26AD
  8
0
 62
     0
 10
132.363517
 20
184.868172
 30
0.0
 11
131.9059
 21
184.868172
 31
0.0
  0
LINE
  5
26AE
  8
0
 62
     0
 10
134.0059
 20
185.47896
 30
0.0
 11
134.0059
 21
177.491932
 31
0.0
  0
ARC
  5
26AF
  8
0
 62
     0
 10
133.9059
 20
179.743598
 30
0.0
 40
2.0
 50
300.0
 51
0.0
  0
LINE
  5
26B0
  8
0
 62
     0
 10
132.9059
 20
176.856847
 30
0.0
 11
134.9059
 21
178.011547
 31
0.0
  0
LINE
  5
26B1
  8
0
 62
     0
 10
129.0059
 20
186.368172
 30
0.0
 11
131.9059
 21
186.368172
 31
0.0
  0
LINE
  5
26B2
  8
0
 62
     0
 10
131.8059
 20
186.568172
 30
0.0
 11
131.9059
 21
186.568172
 31
0.0
  0
LINE
  5
26B3
  8
0
 62
     0
 10
135.9059
 20
186.368172
 30
0.0
 11
134.9059
 21
186.368172
 31
0.0
  0
LINE
  5
26B4
  8
0
 62
     0
 10
134.9059
 20
186.368172
 30
0.0
 11
134.626116
 21
185.768172
 31
0.0
  0
LINE
  5
26B5
  8
0
 62
     0
 10
156.581029
 20
198.368172
 30
0.0
 11
156.581029
 21
191.368172
 31
0.0
  0
LINE
  5
26B6
  8
0
 62
     0
 10
155.0059
 20
197.868172
 30
0.0
 11
155.0059
 21
191.868172
 31
0.0
  0
ARC
  5
26B7
  8
0
 62
     0
 10
156.0059
 20
191.868172
 30
0.0
 40
1.0
 50
180.0
 51
270.0
  0
ARC
  5
26B8
  8
0
 62
     0
 10
156.0059
 20
192.368172
 30
0.0
 40
1.0
 50
180.0
 51
270.0
  0
ARC
  5
26B9
  8
0
 62
     0
 10
156.0059
 20
192.368172
 30
0.0
 40
1.199987
 50
215.591137
 51
270.0
  0
LINE
  5
26BA
  8
0
 62
     0
 10
156.0059
 20
191.168172
 30
0.0
 11
156.0059
 21
191.368172
 31
0.0
  0
ARC
  5
26BB
  8
0
 62
     0
 10
156.0059
 20
197.868172
 30
0.0
 40
1.0
 50
90.0
 51
180.0
  0
ARC
  5
26BC
  8
0
 62
     0
 10
156.0059
 20
197.368172
 30
0.0
 40
1.199987
 50
90.0
 51
144.348178
  0
ARC
  5
26BD
  8
0
 62
     0
 10
156.0059
 20
197.368172
 30
0.0
 40
1.0
 50
90.0
 51
162.058535
  0
LINE
  5
26BE
  8
0
 62
     0
 10
156.0059
 20
198.568172
 30
0.0
 11
156.0059
 21
198.368172
 31
0.0
  0
ARC
  5
26BF
  8
0
 62
     0
 10
154.644038
 20
210.344944
 30
0.0
 40
0.5
 50
322.181189
 51
40.0
  0
ARC
  5
26C0
  8
0
 62
     0
 10
156.5359
 20
208.868172
 30
0.0
 40
3.0
 50
141.541505
 51
218.458495
  0
ARC
  5
26C1
  8
0
 62
     0
 10
154.578376
 20
207.313147
 30
0.0
 40
0.5
 50
218.435766
 51
320.0
  0
ARC
  5
26C2
  8
0
 62
     0
 10
156.5359
 20
208.868172
 30
0.0
 40
1.9
 50
141.98355
 51
218.01645
  0
ARC
  5
26C3
  8
0
 62
     0
 10
154.644038
 20
207.3914
 30
0.0
 40
0.5
 50
320.0
 51
37.818811
  0
LINE
  5
26C4
  8
0
 62
     0
 10
154.961399
 20
206.991754
 30
0.0
 11
155.02706
 21
207.070006
 31
0.0
  0
ARC
  5
26C5
  8
0
 62
     0
 10
154.578376
 20
210.423196
 30
0.0
 40
0.5
 50
40.0
 51
141.564234
  0
ARC
  5
26C6
  8
0
 62
     0
 10
156.0059
 20
213.868172
 30
0.0
 40
1.0
 50
180.0
 51
270.0
  0
ARC
  5
26C7
  8
0
 62
     0
 10
156.0059
 20
214.368172
 30
0.0
 40
1.0
 50
180.0
 51
270.0
  0
ARC
  5
26C8
  8
0
 62
     0
 10
156.0059
 20
214.368172
 30
0.0
 40
1.199987
 50
215.591137
 51
270.0
  0
LINE
  5
26C9
  8
0
 62
     0
 10
155.02706
 20
210.666338
 30
0.0
 11
154.961399
 21
210.74459
 31
0.0
  0
LINE
  5
26CA
  8
0
 62
     0
 10
156.0059
 20
213.168172
 30
0.0
 11
156.0059
 21
213.368172
 31
0.0
  0
LINE
  5
26CB
  8
0
 62
     0
 10
136.8059
 20
241.068172
 30
0.0
 11
136.8059
 21
251.541723
 31
0.0
  0
LINE
  5
26CC
  8
0
 62
     0
 10
134.5059
 20
241.068172
 30
0.0
 11
134.5059
 21
251.541723
 31
0.0
  0
ARC
  5
26CD
  8
0
 62
     0
 10
135.5059
 20
239.068172
 30
0.0
 40
3.9
 50
157.380135
 51
202.619865
  0
LINE
  5
26CE
  8
0
 62
     0
 10
131.75337
 20
240.068172
 30
0.0
 11
129.0059
 21
240.068172
 31
0.0
  0
ARC
  5
26CF
  8
0
 62
     0
 10
132.2059
 20
240.768172
 30
0.0
 40
0.3
 50
90.0
 51
180.0
  0
LINE
  5
26D0
  8
0
 62
     0
 10
131.8059
 20
251.541723
 30
0.0
 11
136.8059
 21
251.541723
 31
0.0
  0
LINE
  5
26D1
  8
0
 62
     0
 10
131.8059
 20
250.541723
 30
0.0
 11
131.9059
 21
250.541723
 31
0.0
  0
LINE
  5
26D2
  8
0
 62
     0
 10
131.8059
 20
251.541723
 30
0.0
 11
131.8059
 21
250.541723
 31
0.0
  0
ARC
  5
26D3
  8
0
 62
     0
 10
156.0059
 20
219.868172
 30
0.0
 40
1.0
 50
90.0
 51
180.0
  0
ARC
  5
26D4
  8
0
 62
     0
 10
156.0059
 20
219.368172
 30
0.0
 40
1.0
 50
90.0
 51
162.058535
  0
ARC
  5
26D5
  8
0
 62
     0
 10
156.0059
 20
219.368172
 30
0.0
 40
1.199987
 50
90.0
 51
144.348178
  0
LINE
  5
26D6
  8
0
 62
     0
 10
156.0059
 20
220.568172
 30
0.0
 11
156.0059
 21
220.368172
 31
0.0
  0
ARC
  5
26D7
  8
0
 62
     0
 10
152.55647
 20
227.668172
 30
0.0
 40
1.0
 50
90.0
 51
170.828015
  0
LINE
  5
26D8
  8
0
 62
     0
 10
152.281461
 20
228.768172
 30
0.0
 11
156.5059
 21
228.768172
 31
0.0
  0
ARC
  5
26D9
  8
0
 62
     0
 10
152.281461
 20
227.468172
 30
0.0
 40
1.299977
 50
90.0
 51
170.845536
  0
ARC
  5
26DA
  8
0
 62
     0
 10
152.281461
 20
227.468172
 30
0.0
 40
1.5
 50
90.0
 51
170.849003
  0
LINE
  5
26DB
  8
0
 62
     0
 10
150.998019
 20
227.674997
 30
0.0
 11
150.800566
 21
227.706817
 31
0.0
  0
LINE
  5
26DC
  8
0
 62
     0
 10
152.281461
 20
228.768172
 30
0.0
 11
152.281461
 21
228.968172
 31
0.0
  0
LINE
  5
26DD
  8
0
 62
     0
 10
156.8059
 20
228.668172
 30
0.0
 11
156.8059
 21
228.968172
 31
0.0
  0
LINE
  5
26DE
  8
0
 62
     0
 10
156.5059
 20
228.968172
 30
0.0
 11
156.5059
 21
228.668172
 31
0.0
  0
LINE
  5
26DF
  8
0
 62
     0
 10
159.5059
 20
213.368172
 30
0.0
 11
159.5059
 21
220.368172
 31
0.0
  0
LINE
  5
26E0
  8
0
 62
     0
 10
159.0059
 20
220.568172
 30
0.0
 11
159.0059
 21
213.168172
 31
0.0
  0
CIRCLE
  5
26E1
  8
0
 62
     0
 10
166.9559
 20
195.868172
 30
0.0
 40
1.3
  0
CIRCLE
  5
26E2
  8
0
 62
     0
 10
166.9559
 20
195.868172
 30
0.0
 40
0.95
  0
CIRCLE
  5
26E3
  8
0
 62
     0
 10
166.9559
 20
195.868172
 30
0.0
 40
1.25
  0
LINE
  5
26E4
  8
0
 62
     0
 10
159.5059
 20
191.368172
 30
0.0
 11
159.5059
 21
198.368172
 31
0.0
  0
LINE
  5
26E5
  8
0
 62
     0
 10
159.0059
 20
198.568172
 30
0.0
 11
159.0059
 21
191.168172
 31
0.0
  0
ARC
  5
26E6
  8
0
 62
     0
 10
159.0059
 20
191.368172
 30
0.0
 40
0.5
 50
270.0
 51
0.0
  0
POLYLINE
  5
26E7
  8
0
 62
     0
 66
     1
 10
0.0
 20
0.0
 30
0.0
  0
VERTEX
  5
2D36
  8
0
 62
     0
 10
159.0059
 20
191.168172
 30
0.0
  0
VERTEX
  5
2D37
  8
0
 62
     0
 10
158.990144
 20
191.227803
 30
0.0
  0
VERTEX
  5
2D38
  8
0
 62
     0
 10
158.948764
 20
191.278203
 30
0.0
  0
VERTEX
  5
2D39
  8
0
 62
     0
 10
158.891521
 20
191.316677
 30
0.0
  0
VERTEX
  5
2D3A
  8
0
 62
     0
 10
158.823156
 20
191.344442
 30
0.0
  0
VERTEX
  5
2D3B
  8
0
 62
     0
 10
158.745549
 20
191.361902
 30
0.0
  0
VERTEX
  5
2D3C
  8
0
 62
     0
 10
158.65949
 20
191.368172
 30
0.0
  0
SEQEND
  5
2D3D
  8
0
 62
     0
  0
ARC
  5
26E8
  8
0
 62
     0
 10
159.0059
 20
198.368172
 30
0.0
 40
0.5
 50
0.0
 51
90.0
  0
POLYLINE
  5
26E9
  8
0
 62
     0
 66
     1
 10
0.0
 20
0.0
 30
0.0
  0
VERTEX
  5
2D3E
  8
0
 62
     0
 10
159.0059
 20
198.568172
 30
0.0
  0
VERTEX
  5
2D3F
  8
0
 62
     0
 10
158.990144
 20
198.50854
 30
0.0
  0
VERTEX
  5
2D40
  8
0
 62
     0
 10
158.948764
 20
198.458141
 30
0.0
  0
VERTEX
  5
2D41
  8
0
 62
     0
 10
158.891521
 20
198.419666
 30
0.0
  0
VERTEX
  5
2D42
  8
0
 62
     0
 10
158.823156
 20
198.391902
 30
0.0
  0
VERTEX
  5
2D43
  8
0
 62
     0
 10
158.745549
 20
198.374442
 30
0.0
  0
VERTEX
  5
2D44
  8
0
 62
     0
 10
158.65949
 20
198.368172
 30
0.0
  0
SEQEND
  5
2D45
  8
0
 62
     0
  0
ARC
  5
26EA
  8
0
 62
     0
 10
159.0059
 20
213.368172
 30
0.0
 40
0.5
 50
270.0
 51
0.0
  0
POLYLINE
  5
26EB
  8
0
 62
     0
 66
     1
 10
0.0
 20
0.0
 30
0.0
  0
VERTEX
  5
2D46
  8
0
 62
     0
 10
159.0059
 20
213.168172
 30
0.0
  0
VERTEX
  5
2D47
  8
0
 62
     0
 10
158.990144
 20
213.227803
 30
0.0
  0
VERTEX
  5
2D48
  8
0
 62
     0
 10
158.948764
 20
213.278203
 30
0.0
  0
VERTEX
  5
2D49
  8
0
 62
     0
 10
158.891521
 20
213.316677
 30
0.0
  0
VERTEX
  5
2D4A
  8
0
 62
     0
 10
158.823156
 20
213.344442
 30
0.0
  0
VERTEX
  5
2D4B
  8
0
 62
     0
 10
158.745549
 20
213.361902
 30
0.0
  0
VERTEX
  5
2D4C
  8
0
 62
     0
 10
158.65949
 20
213.368172
 30
0.0
  0
SEQEND
  5
2D4D
  8
0
 62
     0
  0
LINE
  5
26EC
  8
0
 62
     0
 10
193.7159
 20
214.868172
 30
0.0
 11
182.4959
 21
214.868172
 31
0.0
  0
LINE
  5
26ED
  8
0
 62
     0
 10
182.1059
 20
213.188172
 30
0.0
 11
194.1059
 21
213.188172
 31
0.0
  0
LINE
  5
26EE
  8
0
 62
     0
 10
182.4959
 20
212.068172
 30
0.0
 11
188.2059
 21
212.068172
 31
0.0
  0
ARC
  5
26EF
  8
0
 62
     0
 10
182.4959
 20
214.478172
 30
0.0
 40
0.39
 50
90.0
 51
180.0
  0
ARC
  5
26F0
  8
0
 62
     0
 10
182.4959
 20
212.458172
 30
0.0
 40
0.39
 50
180.0
 51
270.0
  0
LINE
  5
26F1
  8
0
 62
     0
 10
182.1059
 20
214.478172
 30
0.0
 11
182.1059
 21
212.458172
 31
0.0
  0
LINE
  5
26F2
  8
0
 62
     0
 10
188.5959
 20
210.868172
 30
0.0
 11
193.7159
 21
210.868172
 31
0.0
  0
ARC
  5
26F3
  8
0
 62
     0
 10
188.5959
 20
211.258172
 30
0.0
 40
0.39
 50
180.0
 51
270.0
  0
LINE
  5
26F4
  8
0
 62
     0
 10
188.2059
 20
212.068172
 30
0.0
 11
188.2059
 21
211.258172
 31
0.0
  0
ARC
  5
26F5
  8
0
 62
     0
 10
193.7159
 20
214.478172
 30
0.0
 40
0.39
 50
0.0
 51
90.0
  0
ARC
  5
26F6
  8
0
 62
     0
 10
193.7159
 20
211.258172
 30
0.0
 40
0.39
 50
270.0
 51
0.0
  0
LINE
  5
26F7
  8
0
 62
     0
 10
194.1059
 20
211.258172
 30
0.0
 11
194.1059
 21
214.478172
 31
0.0
  0
LINE
  5
26F8
  8
0
 62
     0
 10
176.652347
 20
240.568172
 30
0.0
 11
178.5059
 21
240.568172
 31
0.0
  0
LINE
  5
26F9
  8
0
 62
     0
 10
176.652347
 20
240.568172
 30
0.0
 11
176.652347
 21
228.968172
 31
0.0
  0
LINE
  5
26FA
  8
0
 62
     0
 10
175.667007
 20
241.068172
 30
0.0
 11
175.667007
 21
228.968172
 31
0.0
  0
LINE
  5
26FB
  8
0
 62
     0
 10
172.5059
 20
241.068172
 30
0.0
 11
172.5059
 21
228.968172
 31
0.0
  0
LINE
  5
26FC
  8
0
 62
     0
 10
163.6059
 20
226.134479
 30
0.0
 11
170.8059
 21
226.134479
 31
0.0
  0
LINE
  5
26FD
  8
0
 62
     0
 10
164.2059
 20
225.668172
 30
0.0
 11
170.2059
 21
225.668172
 31
0.0
  0
LINE
  5
26FE
  8
0
 62
     0
 10
164.2059
 20
225.168172
 30
0.0
 11
170.2059
 21
225.168172
 31
0.0
  0
LINE
  5
26FF
  8
0
 62
     0
 10
168.2059
 20
219.668172
 30
0.0
 11
166.2059
 21
219.668172
 31
0.0
  0
LINE
  5
2700
  8
0
 62
     0
 10
168.2059
 20
219.068172
 30
0.0
 11
166.2059
 21
219.068172
 31
0.0
  0
LINE
  5
2701
  8
0
 62
     0
 10
164.2059
 20
223.668172
 30
0.0
 11
164.2059
 21
225.854695
 31
0.0
  0
LINE
  5
2702
  8
0
 62
     0
 10
163.6059
 20
223.468172
 30
0.0
 11
163.6059
 21
226.134479
 31
0.0
  0
ARC
  5
2703
  8
0
 62
     0
 10
159.0059
 20
220.368172
 30
0.0
 40
0.5
 50
0.0
 51
90.0
  0
POLYLINE
  5
2704
  8
0
 62
     0
 66
     1
 10
0.0
 20
0.0
 30
0.0
  0
VERTEX
  5
2D4E
  8
0
 62
     0
 10
159.0059
 20
220.568172
 30
0.0
  0
VERTEX
  5
2D4F
  8
0
 62
     0
 10
158.990144
 20
220.50854
 30
0.0
  0
VERTEX
  5
2D50
  8
0
 62
     0
 10
158.948764
 20
220.458141
 30
0.0
  0
VERTEX
  5
2D51
  8
0
 62
     0
 10
158.891521
 20
220.419666
 30
0.0
  0
VERTEX
  5
2D52
  8
0
 62
     0
 10
158.823156
 20
220.391902
 30
0.0
  0
VERTEX
  5
2D53
  8
0
 62
     0
 10
158.745549
 20
220.374442
 30
0.0
  0
VERTEX
  5
2D54
  8
0
 62
     0
 10
158.65949
 20
220.368172
 30
0.0
  0
SEQEND
  5
2D55
  8
0
 62
     0
  0
ARC
  5
2705
  8
0
 62
     0
 10
166.2059
 20
220.168172
 30
0.0
 40
1.09998
 50
180.0
 51
270.0
  0
ARC
  5
2706
  8
0
 62
     0
 10
166.2059
 20
220.168172
 30
0.0
 40
0.5
 50
180.0
 51
270.0
  0
LINE
  5
2707
  8
0
 62
     0
 10
166.2059
 20
219.068172
 30
0.0
 11
166.2059
 21
219.668172
 31
0.0
  0
LINE
  5
2708
  8
0
 62
     0
 10
165.7059
 20
221.668172
 30
0.0
 11
164.2059
 21
223.668172
 31
0.0
  0
LINE
  5
2709
  8
0
 62
     0
 10
165.1059
 20
221.468172
 30
0.0
 11
163.6059
 21
223.468172
 31
0.0
  0
LINE
  5
270A
  8
0
 62
     0
 10
163.6059
 20
223.468172
 30
0.0
 11
164.2059
 21
223.668172
 31
0.0
  0
LINE
  5
270B
  8
0
 62
     0
 10
165.1059
 20
220.168172
 30
0.0
 11
165.7059
 21
220.168172
 31
0.0
  0
POLYLINE
  5
270C
  8
0
 62
     0
 66
     1
 10
0.0
 20
0.0
 30
0.0
  0
VERTEX
  5
2D56
  8
0
 62
     0
 10
165.1059
 20
221.468172
 30
0.0
  0
VERTEX
  5
2D57
  8
0
 62
     0
 10
165.241664
 20
221.313089
 30
0.0
  0
VERTEX
  5
2D58
  8
0
 62
     0
 10
165.382432
 20
221.212003
 30
0.0
  0
VERTEX
  5
2D59
  8
0
 62
     0
 10
165.52124
 20
221.192711
 30
0.0
  0
VERTEX
  5
2D5A
  8
0
 62
     0
 10
165.61183
 20
221.256024
 30
0.0
  0
VERTEX
  5
2D5B
  8
0
 62
     0
 10
165.666699
 20
221.364909
 30
0.0
  0
VERTEX
  5
2D5C
  8
0
 62
     0
 10
165.696205
 20
221.502055
 30
0.0
  0
VERTEX
  5
2D5D
  8
0
 62
     0
 10
165.7059
 20
221.668172
 30
0.0
  0
SEQEND
  5
2D5E
  8
0
 62
     0
  0
LINE
  5
270D
  8
0
 62
     0
 10
165.7059
 20
220.168172
 30
0.0
 11
165.7059
 21
221.668172
 31
0.0
  0
LINE
  5
270E
  8
0
 62
     0
 10
165.1059
 20
220.168172
 30
0.0
 11
165.1059
 21
221.468172
 31
0.0
  0
LINE
  5
270F
  8
0
 62
     0
 10
163.6059
 20
226.134479
 30
0.0
 11
164.2059
 21
225.854695
 31
0.0
  0
LINE
  5
2710
  8
0
 62
     0
 10
170.8059
 20
226.134479
 30
0.0
 11
170.8059
 21
223.468172
 31
0.0
  0
LINE
  5
2711
  8
0
 62
     0
 10
170.2059
 20
225.854695
 30
0.0
 11
170.2059
 21
223.668172
 31
0.0
  0
ARC
  5
2712
  8
0
 62
     0
 10
168.2059
 20
220.168172
 30
0.0
 40
1.09998
 50
270.0
 51
0.0
  0
ARC
  5
2713
  8
0
 62
     0
 10
168.2059
 20
220.168172
 30
0.0
 40
0.5
 50
270.0
 51
0.0
  0
LINE
  5
2714
  8
0
 62
     0
 10
168.2059
 20
219.068172
 30
0.0
 11
168.2059
 21
219.668172
 31
0.0
  0
LINE
  5
2715
  8
0
 62
     0
 10
170.8059
 20
223.468172
 30
0.0
 11
169.3059
 21
221.468172
 31
0.0
  0
LINE
  5
2716
  8
0
 62
     0
 10
170.2059
 20
223.668172
 30
0.0
 11
168.7059
 21
221.668172
 31
0.0
  0
LINE
  5
2717
  8
0
 62
     0
 10
169.3059
 20
220.168172
 30
0.0
 11
168.7059
 21
220.168172
 31
0.0
  0
LINE
  5
2718
  8
0
 62
     0
 10
169.3059
 20
221.468172
 30
0.0
 11
169.3059
 21
220.168172
 31
0.0
  0
POLYLINE
  5
2719
  8
0
 62
     0
 66
     1
 10
0.0
 20
0.0
 30
0.0
  0
VERTEX
  5
2D5F
  8
0
 62
     0
 10
168.7059
 20
221.668172
 30
0.0
  0
VERTEX
  5
2D60
  8
0
 62
     0
 10
168.715596
 20
221.502055
 30
0.0
  0
VERTEX
  5
2D61
  8
0
 62
     0
 10
168.745101
 20
221.364909
 30
0.0
  0
VERTEX
  5
2D62
  8
0
 62
     0
 10
168.799971
 20
221.256024
 30
0.0
  0
VERTEX
  5
2D63
  8
0
 62
     0
 10
168.890561
 20
221.192711
 30
0.0
  0
VERTEX
  5
2D64
  8
0
 62
     0
 10
169.029368
 20
221.212003
 30
0.0
  0
VERTEX
  5
2D65
  8
0
 62
     0
 10
169.170136
 20
221.313089
 30
0.0
  0
VERTEX
  5
2D66
  8
0
 62
     0
 10
169.3059
 20
221.468172
 30
0.0
  0
SEQEND
  5
2D67
  8
0
 62
     0
  0
LINE
  5
271A
  8
0
 62
     0
 10
168.7059
 20
221.668172
 30
0.0
 11
168.7059
 21
220.168172
 31
0.0
  0
LINE
  5
271B
  8
0
 62
     0
 10
170.8059
 20
223.468172
 30
0.0
 11
170.2059
 21
223.668172
 31
0.0
  0
LINE
  5
271C
  8
0
 62
     0
 10
171.0059
 20
228.668172
 30
0.0
 11
171.0059
 21
228.968172
 31
0.0
  0
LINE
  5
271D
  8
0
 62
     0
 10
170.8059
 20
226.134479
 30
0.0
 11
170.2059
 21
225.854695
 31
0.0
  0
LINE
  5
271E
  8
0
 62
     0
 10
174.2059
 20
228.668172
 30
0.0
 11
174.2059
 21
228.168172
 31
0.0
  0
POLYLINE
  5
271F
  8
0
 62
     0
 66
     1
 10
0.0
 20
0.0
 30
0.0
  0
VERTEX
  5
2D68
  8
0
 62
     0
 10
176.074992
 20
241.068172
 30
0.0
  0
VERTEX
  5
2D69
  8
0
 62
     0
 10
176.231995
 20
241.04599
 30
0.0
  0
VERTEX
  5
2D6A
  8
0
 62
     0
 10
176.381909
 20
240.979361
 30
0.0
  0
VERTEX
  5
2D6B
  8
0
 62
     0
 10
176.511114
 20
240.870993
 30
0.0
  0
VERTEX
  5
2D6C
  8
0
 62
     0
 10
176.605261
 20
240.729029
 30
0.0
  0
VERTEX
  5
2D6D
  8
0
 62
     0
 10
176.652347
 20
240.568172
 30
0.0
  0
SEQEND
  5
2D6E
  8
0
 62
     0
  0
POLYLINE
  5
2720
  8
0
 62
     0
 66
     1
 10
0.0
 20
0.0
 30
0.0
  0
VERTEX
  5
2D6F
  8
0
 62
     0
 10
176.249843
 20
240.768172
 30
0.0
  0
VERTEX
  5
2D70
  8
0
 62
     0
 10
176.349652
 20
240.759336
 30
0.0
  0
VERTEX
  5
2D71
  8
0
 62
     0
 10
176.448021
 20
240.732694
 30
0.0
  0
VERTEX
  5
2D72
  8
0
 62
     0
 10
176.536873
 20
240.689354
 30
0.0
  0
VERTEX
  5
2D73
  8
0
 62
     0
 10
176.607561
 20
240.632549
 30
0.0
  0
VERTEX
  5
2D74
  8
0
 62
     0
 10
176.652347
 20
240.568172
 30
0.0
  0
SEQEND
  5
2D75
  8
0
 62
     0
  0
POLYLINE
  5
2721
  8
0
 62
     0
 66
     1
 10
0.0
 20
0.0
 30
0.0
  0
VERTEX
  5
2D76
  8
0
 62
     0
 10
176.074992
 20
241.068172
 30
0.0
  0
VERTEX
  5
2D77
  8
0
 62
     0
 10
176.141899
 20
241.045337
 30
0.0
  0
VERTEX
  5
2D78
  8
0
 62
     0
 10
176.198624
 20
240.980306
 30
0.0
  0
VERTEX
  5
2D79
  8
0
 62
     0
 10
176.236529
 20
240.882979
 30
0.0
  0
VERTEX
  5
2D7A
  8
0
 62
     0
 10
176.249843
 20
240.768172
 30
0.0
  0
SEQEND
  5
2D7B
  8
0
 62
     0
  0
POLYLINE
  5
2722
  8
0
 62
     0
 66
     1
 10
0.0
 20
0.0
 30
0.0
  0
VERTEX
  5
2D7C
  8
0
 62
     0
 10
177.783135
 20
237.968172
 30
0.0
  0
VERTEX
  5
2D7D
  8
0
 62
     0
 10
177.861509
 20
237.895191
 30
0.0
  0
VERTEX
  5
2D7E
  8
0
 62
     0
 10
177.934304
 20
237.671953
 30
0.0
  0
VERTEX
  5
2D7F
  8
0
 62
     0
 10
177.997512
 20
237.306756
 30
0.0
  0
VERTEX
  5
2D80
  8
0
 62
     0
 10
178.048794
 20
236.825296
 30
0.0
  0
VERTEX
  5
2D81
  8
0
 62
     0
 10
178.088837
 20
236.240833
 30
0.0
  0
VERTEX
  5
2D82
  8
0
 62
     0
 10
178.117973
 20
235.560711
 30
0.0
  0
VERTEX
  5
2D83
  8
0
 62
     0
 10
178.135322
 20
234.821208
 30
0.0
  0
VERTEX
  5
2D84
  8
0
 62
     0
 10
178.140939
 20
234.068331
 30
0.0
  0
SEQEND
  5
2D85
  8
0
 62
     0
  0
POLYLINE
  5
2723
  8
0
 62
     0
 66
     1
 10
0.0
 20
0.0
 30
0.0
  0
VERTEX
  5
2D86
  8
0
 62
     0
 10
178.445736
 20
234.068012
 30
0.0
  0
VERTEX
  5
2D87
  8
0
 62
     0
 10
178.447988
 20
234.82216
 30
0.0
  0
VERTEX
  5
2D88
  8
0
 62
     0
 10
178.454567
 20
235.561952
 30
0.0
  0
VERTEX
  5
2D89
  8
0
 62
     0
 10
178.464437
 20
236.242242
 30
0.0
  0
VERTEX
  5
2D8A
  8
0
 62
     0
 10
178.475831
 20
236.82626
 30
0.0
  0
VERTEX
  5
2D8B
  8
0
 62
     0
 10
178.48723
 20
237.306842
 30
0.0
  0
VERTEX
  5
2D8C
  8
0
 62
     0
 10
178.497097
 20
237.671481
 30
0.0
  0
VERTEX
  5
2D8D
  8
0
 62
     0
 10
178.503657
 20
237.89476
 30
0.0
  0
VERTEX
  5
2D8E
  8
0
 62
     0
 10
178.5059
 20
237.968172
 30
0.0
  0
SEQEND
  5
2D8F
  8
0
 62
     0
  0
POLYLINE
  5
2724
  8
0
 62
     0
 66
     1
 10
0.0
 20
0.0
 30
0.0
  0
VERTEX
  5
2D90
  8
0
 62
     0
 10
177.302916
 20
234.068013
 30
0.0
  0
VERTEX
  5
2D91
  8
0
 62
     0
 10
177.313011
 20
234.817771
 30
0.0
  0
VERTEX
  5
2D92
  8
0
 62
     0
 10
177.343558
 20
235.556038
 30
0.0
  0
VERTEX
  5
2D93
  8
0
 62
     0
 10
177.392662
 20
236.2368
 30
0.0
  0
VERTEX
  5
2D94
  8
0
 62
     0
 10
177.455835
 20
236.822056
 30
0.0
  0
VERTEX
  5
2D95
  8
0
 62
     0
 10
177.530204
 20
237.303719
 30
0.0
  0
VERTEX
  5
2D96
  8
0
 62
     0
 10
177.613412
 20
237.669615
 30
0.0
  0
VERTEX
  5
2D97
  8
0
 62
     0
 10
177.699576
 20
237.894061
 30
0.0
  0
VERTEX
  5
2D98
  8
0
 62
     0
 10
177.783135
 20
237.968172
 30
0.0
  0
SEQEND
  5
2D99
  8
0
 62
     0
  0
LINE
  5
2725
  8
0
 62
     0
 10
178.5059
 20
228.968172
 30
0.0
 11
178.5059
 21
230.168228
 31
0.0
  0
LINE
  5
2726
  8
0
 62
     0
 10
177.2059
 20
228.668172
 30
0.0
 11
177.2059
 21
228.968172
 31
0.0
  0
POLYLINE
  5
2727
  8
0
 62
     0
 66
     1
 10
0.0
 20
0.0
 30
0.0
  0
VERTEX
  5
2D9A
  8
0
 62
     0
 10
177.783135
 20
230.168172
 30
0.0
  0
VERTEX
  5
2D9B
  8
0
 62
     0
 10
177.699637
 20
230.242176
 30
0.0
  0
VERTEX
  5
2D9C
  8
0
 62
     0
 10
177.613521
 20
230.466349
 30
0.0
  0
VERTEX
  5
2D9D
  8
0
 62
     0
 10
177.530278
 20
230.832227
 30
0.0
  0
VERTEX
  5
2D9E
  8
0
 62
     0
 10
177.455862
 20
231.314079
 30
0.0
  0
VERTEX
  5
2D9F
  8
0
 62
     0
 10
177.392708
 20
231.899021
 30
0.0
  0
VERTEX
  5
2DA0
  8
0
 62
     0
 10
177.343617
 20
232.579252
 30
0.0
  0
VERTEX
  5
2DA1
  8
0
 62
     0
 10
177.313033
 20
233.317786
 30
0.0
  0
VERTEX
  5
2DA2
  8
0
 62
     0
 10
177.302916
 20
234.068013
 30
0.0
  0
SEQEND
  5
2DA3
  8
0
 62
     0
  0
POLYLINE
  5
2728
  8
0
 62
     0
 66
     1
 10
0.0
 20
0.0
 30
0.0
  0
VERTEX
  5
2DA4
  8
0
 62
     0
 10
178.140939
 20
234.068331
 30
0.0
  0
VERTEX
  5
2DA5
  8
0
 62
     0
 10
178.135334
 20
233.315901
 30
0.0
  0
VERTEX
  5
2DA6
  8
0
 62
     0
 10
178.118005
 20
232.576635
 30
0.0
  0
VERTEX
  5
2DA7
  8
0
 62
     0
 10
178.088862
 20
231.895969
 30
0.0
  0
VERTEX
  5
2DA8
  8
0
 62
     0
 10
178.048808
 20
231.311204
 30
0.0
  0
VERTEX
  5
2DA9
  8
0
 62
     0
 10
177.99756
 20
230.82995
 30
0.0
  0
VERTEX
  5
2DAA
  8
0
 62
     0
 10
177.934386
 20
230.464749
 30
0.0
  0
VERTEX
  5
2DAB
  8
0
 62
     0
 10
177.86156
 20
230.241251
 30
0.0
  0
VERTEX
  5
2DAC
  8
0
 62
     0
 10
177.783135
 20
230.168172
 30
0.0
  0
SEQEND
  5
2DAD
  8
0
 62
     0
  0
POLYLINE
  5
2729
  8
0
 62
     0
 66
     1
 10
0.0
 20
0.0
 30
0.0
  0
VERTEX
  5
2DAE
  8
0
 62
     0
 10
178.5059
 20
230.168172
 30
0.0
  0
VERTEX
  5
2DAF
  8
0
 62
     0
 10
178.503664
 20
230.241363
 30
0.0
  0
VERTEX
  5
2DB0
  8
0
 62
     0
 10
178.497108
 20
230.464453
 30
0.0
  0
VERTEX
  5
2DB1
  8
0
 62
     0
 10
178.487237
 20
230.829227
 30
0.0
  0
VERTEX
  5
2DB2
  8
0
 62
     0
 10
178.475831
 20
231.310098
 30
0.0
  0
VERTEX
  5
2DB3
  8
0
 62
     0
 10
178.464442
 20
231.893835
 30
0.0
  0
VERTEX
  5
2DB4
  8
0
 62
     0
 10
178.454576
 20
232.573565
 30
0.0
  0
VERTEX
  5
2DB5
  8
0
 62
     0
 10
178.447992
 20
233.313529
 30
0.0
  0
VERTEX
  5
2DB6
  8
0
 62
     0
 10
178.445736
 20
234.068012
 30
0.0
  0
SEQEND
  5
2DB7
  8
0
 62
     0
  0
LINE
  5
272A
  8
0
 62
     0
 10
181.8059
 20
240.268172
 30
0.0
 11
178.5059
 21
240.268172
 31
0.0
  0
LINE
  5
272B
  8
0
 62
     0
 10
178.5059
 20
237.96809
 30
0.0
 11
178.5059
 21
240.568172
 31
0.0
  0
ARC
  5
272C
  8
0
 62
     0
 10
178.0059
 20
240.568172
 30
0.0
 40
0.5
 50
0.0
 51
90.0
  0
LINE
  5
272D
  8
0
 62
     0
 10
179.0059
 20
240.068172
 30
0.0
 11
178.5059
 21
240.068172
 31
0.0
  0
LINE
  5
272E
  8
0
 62
     0
 10
243.056073
 20
173.135236
 30
0.0
 11
243.056073
 21
176.19257
 31
0.0
  0
LINE
  5
272F
  8
0
 62
     0
 10
240.17274
 20
161.668172
 30
0.0
 11
240.17274
 21
177.102869
 31
0.0
  0
LINE
  5
2730
  8
0
 62
     0
 10
239.9059
 20
181.78735
 30
0.0
 11
239.9059
 21
173.968172
 31
0.0
  0
LINE
  5
2731
  8
0
 62
     0
 10
239.6059
 20
181.78735
 30
0.0
 11
239.6059
 21
173.98408
 31
0.0
  0
LINE
  5
2732
  8
0
 62
     0
 10
232.6059
 20
189.168172
 30
0.0
 11
232.6059
 21
147.768172
 31
0.0
  0
LINE
  5
2733
  8
0
 62
     0
 10
232.3059
 20
189.168172
 30
0.0
 11
232.3059
 21
147.768172
 31
0.0
  0
LINE
  5
2734
  8
0
 62
     0
 10
231.8059
 20
149.568172
 30
0.0
 11
231.8059
 21
190.399921
 31
0.0
  0
LINE
  5
2735
  8
0
 62
     0
 10
230.8059
 20
149.875302
 30
0.0
 11
230.8059
 21
190.912705
 31
0.0
  0
LINE
  5
2736
  8
0
 62
     0
 10
230.3059
 20
205.268172
 30
0.0
 11
230.3059
 21
152.768172
 31
0.0
  0
LINE
  5
2737
  8
0
 62
     0
 10
219.8059
 20
205.268172
 30
0.0
 11
219.8059
 21
142.168172
 31
0.0
  0
LINE
  5
2738
  8
0
 62
     0
 10
219.6059
 20
205.068172
 30
0.0
 11
219.6059
 21
142.368172
 31
0.0
  0
LINE
  5
2739
  8
0
 62
     0
 10
219.1059
 20
121.516247
 30
0.0
 11
219.1059
 21
206.068172
 31
0.0
  0
LINE
  5
273A
  8
0
 62
     0
 10
218.3059
 20
206.068172
 30
0.0
 11
218.3059
 21
166.652024
 31
0.0
  0
LINE
  5
273B
  8
0
 62
     0
 10
217.6059
 20
166.652024
 30
0.0
 11
217.6059
 21
228.168172
 31
0.0
  0
LINE
  5
273C
  8
0
 62
     0
 10
215.6059
 20
228.668172
 30
0.0
 11
215.6059
 21
166.657265
 31
0.0
  0
LINE
  5
273D
  8
0
 62
     0
 10
212.6059
 20
228.668172
 30
0.0
 11
212.6059
 21
166.657265
 31
0.0
  0
LINE
  5
273E
  8
0
 62
     0
 10
208.6059
 20
228.668172
 30
0.0
 11
208.6059
 21
166.657265
 31
0.0
  0
LINE
  5
273F
  8
0
 62
     0
 10
204.1059
 20
228.668172
 30
0.0
 11
204.1059
 21
166.657265
 31
0.0
  0
LINE
  5
2740
  8
0
 62
     0
 10
198.6059
 20
228.668172
 30
0.0
 11
198.6059
 21
166.657265
 31
0.0
  0
LINE
  5
2741
  8
0
 62
     0
 10
198.1059
 20
99.468172
 30
0.0
 11
198.1059
 21
228.668172
 31
0.0
  0
LINE
  5
2742
  8
0
 62
     0
 10
240.6059
 20
96.668172
 30
0.0
 11
240.6059
 21
106.348871
 31
0.0
  0
LINE
  5
2743
  8
0
 62
     0
 10
240.585085
 20
106.348871
 30
0.0
 11
240.585085
 21
96.668172
 31
0.0
  0
LINE
  5
2744
  8
0
 62
     0
 10
240.385204
 20
106.348871
 30
0.0
 11
240.385204
 21
96.468311
 31
0.0
  0
LINE
  5
2745
  8
0
 62
     0
 10
239.3059
 20
107.568172
 30
0.0
 11
239.3059
 21
96.468172
 31
0.0
  0
LINE
  5
2746
  8
0
 62
     0
 10
239.1059
 20
107.568172
 30
0.0
 11
239.1059
 21
96.668172
 31
0.0
  0
LINE
  5
2747
  8
0
 62
     0
 10
237.785085
 20
107.168172
 30
0.0
 11
237.785085
 21
96.468172
 31
0.0
  0
LINE
  5
2748
  8
0
 62
     0
 10
237.585204
 20
107.368032
 30
0.0
 11
237.585204
 21
96.268311
 31
0.0
  0
LINE
  5
2749
  8
0
 62
     0
 10
236.5059
 20
107.368172
 30
0.0
 11
236.5059
 21
96.268172
 31
0.0
  0
LINE
  5
274A
  8
0
 62
     0
 10
236.3059
 20
107.368172
 30
0.0
 11
236.3059
 21
96.468172
 31
0.0
  0
LINE
  5
274B
  8
0
 62
     0
 10
219.2059
 20
98.818172
 30
0.0
 11
219.2059
 21
96.568172
 31
0.0
  0
LINE
  5
274C
  8
0
 62
     0
 10
218.5059
 20
107.518172
 30
0.0
 11
218.5059
 21
96.568172
 31
0.0
  0
LINE
  5
274D
  8
0
 62
     0
 10
216.8059
 20
96.568172
 30
0.0
 11
216.8059
 21
110.635882
 31
0.0
  0
LINE
  5
274E
  8
0
 62
     0
 10
214.0059
 20
96.368172
 30
0.0
 11
214.0059
 21
110.435882
 31
0.0
  0
LINE
  5
274F
  8
0
 62
     0
 10
214.032081
 20
96.368172
 30
0.0
 11
214.0059
 21
99.368172
 31
0.0
  0
LINE
  5
2750
  8
0
 62
     0
 10
214.0059
 20
97.068172
 30
0.0
 11
216.8059
 21
97.068172
 31
0.0
  0
LINE
  5
2751
  8
0
 62
     0
 10
196.793465
 20
96.368172
 30
0.0
 11
217.5059
 21
96.368172
 31
0.0
  0
POLYLINE
  5
2752
  8
0
 62
     0
 66
     1
 10
0.0
 20
0.0
 30
0.0
  0
VERTEX
  5
2DB8
  8
0
 62
     0
 10
215.649416
 20
96.368172
 30
0.0
  0
VERTEX
  5
2DB9
  8
0
 62
     0
 10
215.794388
 20
96.391942
 30
0.0
  0
VERTEX
  5
2DBA
  8
0
 62
     0
 10
215.927226
 20
96.461847
 30
0.0
  0
VERTEX
  5
2DBB
  8
0
 62
     0
 10
216.030276
 20
96.568172
 30
0.0
  0
SEQEND
  5
2DBC
  8
0
 62
     0
  0
LINE
  5
2753
  8
0
 62
     0
 10
196.793465
 20
96.868172
 30
0.0
 11
214.0059
 21
96.868172
 31
0.0
  0
LINE
  5
2754
  8
0
 62
     0
 10
197.8059
 20
96.368172
 30
0.0
 11
197.8059
 21
94.268172
 31
0.0
  0
LINE
  5
2755
  8
0
 62
     0
 10
196.793465
 20
96.868172
 30
0.0
 11
196.793465
 21
96.368172
 31
0.0
  0
LINE
  5
2756
  8
0
 62
     0
 10
215.234153
 20
96.368172
 30
0.0
 11
215.234153
 21
96.868172
 31
0.0
  0
LINE
  5
2757
  8
0
 62
     0
 10
214.0059
 20
96.568172
 30
0.0
 11
214.030335
 21
96.568172
 31
0.0
  0
LINE
  5
2758
  8
0
 62
     0
 10
216.8059
 20
96.865554
 30
0.0
 11
218.5059
 21
96.865554
 31
0.0
  0
LINE
  5
2759
  8
0
 62
     0
 10
216.8059
 20
96.568172
 30
0.0
 11
219.2059
 21
96.568172
 31
0.0
  0
ARC
  5
275A
  8
0
 62
     0
 10
217.5059
 20
96.868172
 30
0.0
 40
0.5
 50
270.0
 51
323.006176
  0
LINE
  5
275B
  8
0
 62
     0
 10
217.328207
 20
96.868172
 30
0.0
 11
216.8059
 21
96.868172
 31
0.0
  0
LINE
  5
275C
  8
0
 62
     0
 10
218.5059
 20
96.87079
 30
0.0
 11
219.2059
 21
96.87079
 31
0.0
  0
LINE
  5
275D
  8
0
 62
     0
 10
239.3059
 20
96.468172
 30
0.0
 11
240.377728
 21
96.468172
 31
0.0
  0
ARC
  5
275E
  8
0
 62
     0
 10
237.6059
 20
96.468172
 30
0.0
 40
0.2
 50
270.0
 51
0.0
  0
ARC
  5
275F
  8
0
 62
     0
 10
236.5059
 20
96.468172
 30
0.0
 40
0.2
 50
180.0
 51
270.0
  0
POLYLINE
  5
2760
  8
0
 62
     0
 66
     1
 10
0.0
 20
0.0
 30
0.0
  0
VERTEX
  5
2DBD
  8
0
 62
     0
 10
237.658755
 20
96.285045
 30
0.0
  0
VERTEX
  5
2DBE
  8
0
 62
     0
 10
237.714539
 20
96.320454
 30
0.0
  0
VERTEX
  5
2DBF
  8
0
 62
     0
 10
237.753398
 20
96.366071
 30
0.0
  0
VERTEX
  5
2DC0
  8
0
 62
     0
 10
237.776553
 20
96.416759
 30
0.0
  0
VERTEX
  5
2DC1
  8
0
 62
     0
 10
237.785085
 20
96.468172
 30
0.0
  0
SEQEND
  5
2DC2
  8
0
 62
     0
  0
LINE
  5
2761
  8
0
 62
     0
 10
237.8059
 20
96.468172
 30
0.0
 11
237.785085
 21
96.468172
 31
0.0
  0
LINE
  5
2762
  8
0
 62
     0
 10
236.5059
 20
96.268172
 30
0.0
 11
237.577728
 21
96.268172
 31
0.0
  0
POLYLINE
  5
2763
  8
0
 62
     0
 66
     1
 10
0.0
 20
0.0
 30
0.0
  0
VERTEX
  5
2DC3
  8
0
 62
     0
 10
237.585204
 20
96.268311
 30
0.0
  0
VERTEX
  5
2DC4
  8
0
 62
     0
 10
237.582713
 20
96.268234
 30
0.0
  0
VERTEX
  5
2DC5
  8
0
 62
     0
 10
237.580221
 20
96.268187
 30
0.0
  0
VERTEX
  5
2DC6
  8
0
 62
     0
 10
237.577728
 20
96.268172
 30
0.0
  0
SEQEND
  5
2DC7
  8
0
 62
     0
  0
LINE
  5
2764
  8
0
 62
     0
 10
237.585204
 20
96.268311
 30
0.0
 11
237.658755
 21
96.285045
 31
0.0
  0
ARC
  5
2765
  8
0
 62
     0
 10
239.3059
 20
96.668172
 30
0.0
 40
0.2
 50
180.0
 51
270.0
  0
ARC
  5
2766
  8
0
 62
     0
 10
240.4059
 20
96.668172
 30
0.0
 40
0.2
 50
270.0
 51
0.0
  0
POLYLINE
  5
2767
  8
0
 62
     0
 66
     1
 10
0.0
 20
0.0
 30
0.0
  0
VERTEX
  5
2DC8
  8
0
 62
     0
 10
240.458755
 20
96.485045
 30
0.0
  0
VERTEX
  5
2DC9
  8
0
 62
     0
 10
240.514539
 20
96.520454
 30
0.0
  0
VERTEX
  5
2DCA
  8
0
 62
     0
 10
240.553398
 20
96.566071
 30
0.0
  0
VERTEX
  5
2DCB
  8
0
 62
     0
 10
240.576553
 20
96.616759
 30
0.0
  0
VERTEX
  5
2DCC
  8
0
 62
     0
 10
240.585085
 20
96.668172
 30
0.0
  0
SEQEND
  5
2DCD
  8
0
 62
     0
  0
LINE
  5
2768
  8
0
 62
     0
 10
240.6059
 20
96.668172
 30
0.0
 11
240.585085
 21
96.668172
 31
0.0
  0
POLYLINE
  5
2769
  8
0
 62
     0
 66
     1
 10
0.0
 20
0.0
 30
0.0
  0
VERTEX
  5
2DCE
  8
0
 62
     0
 10
240.385204
 20
96.468311
 30
0.0
  0
VERTEX
  5
2DCF
  8
0
 62
     0
 10
240.382713
 20
96.468234
 30
0.0
  0
VERTEX
  5
2DD0
  8
0
 62
     0
 10
240.380221
 20
96.468187
 30
0.0
  0
VERTEX
  5
2DD1
  8
0
 62
     0
 10
240.377728
 20
96.468172
 30
0.0
  0
SEQEND
  5
2DD2
  8
0
 62
     0
  0
LINE
  5
276A
  8
0
 62
     0
 10
240.385204
 20
96.468311
 30
0.0
 11
240.458755
 21
96.485045
 31
0.0
  0
ARC
  5
276B
  8
0
 62
     0
 10
235.3059
 20
97.818172
 30
0.0
 40
1.0
 50
0.0
 51
90.0
  0
ARC
  5
276C
  8
0
 62
     0
 10
234.7059
 20
147.768172
 30
0.0
 40
2.099998
 50
180.0
 51
353.929207
  0
ARC
  5
276D
  8
0
 62
     0
 10
234.7059
 20
147.768172
 30
0.0
 40
2.4
 50
180.0
 51
353.929207
  0
POLYLINE
  5
276E
  8
0
 62
     0
 66
     1
 10
0.0
 20
0.0
 30
0.0
  0
VERTEX
  5
2DD3
  8
0
 62
     0
 10
238.257983
 20
144.226169
 30
0.0
  0
VERTEX
  5
2DD4
  8
0
 62
     0
 10
237.969691
 20
144.050201
 30
0.0
  0
VERTEX
  5
2DD5
  8
0
 62
     0
 10
237.6815
 20
143.889424
 30
0.0
  0
VERTEX
  5
2DD6
  8
0
 62
     0
 10
237.39446
 20
143.742483
 30
0.0
  0
VERTEX
  5
2DD7
  8
0
 62
     0
 10
237.10935
 20
143.608148
 30
0.0
  0
VERTEX
  5
2DD8
  8
0
 62
     0
 10
236.826719
 20
143.485308
 30
0.0
  0
VERTEX
  5
2DD9
  8
0
 62
     0
 10
236.546925
 20
143.372953
 30
0.0
  0
VERTEX
  5
2DDA
  8
0
 62
     0
 10
236.270075
 20
143.27017
 30
0.0
  0
VERTEX
  5
2DDB
  8
0
 62
     0
 10
235.996245
 20
143.176127
 30
0.0
  0
VERTEX
  5
2DDC
  8
0
 62
     0
 10
235.725263
 20
143.090074
 30
0.0
  0
VERTEX
  5
2DDD
  8
0
 62
     0
 10
235.45685
 20
143.011328
 30
0.0
  0
VERTEX
  5
2DDE
  8
0
 62
     0
 10
235.190556
 20
142.939271
 30
0.0
  0
VERTEX
  5
2DDF
  8
0
 62
     0
 10
234.92576
 20
142.87334
 30
0.0
  0
VERTEX
  5
2DE0
  8
0
 62
     0
 10
234.661646
 20
142.813025
 30
0.0
  0
VERTEX
  5
2DE1
  8
0
 62
     0
 10
234.397026
 20
142.757861
 30
0.0
  0
VERTEX
  5
2DE2
  8
0
 62
     0
 10
234.130438
 20
142.707425
 30
0.0
  0
VERTEX
  5
2DE3
  8
0
 62
     0
 10
233.85976
 20
142.661339
 30
0.0
  0
VERTEX
  5
2DE4
  8
0
 62
     0
 10
233.581919
 20
142.61925
 30
0.0
  0
VERTEX
  5
2DE5
  8
0
 62
     0
 10
233.292077
 20
142.580849
 30
0.0
  0
VERTEX
  5
2DE6
  8
0
 62
     0
 10
232.982509
 20
142.545886
 30
0.0
  0
VERTEX
  5
2DE7
  8
0
 62
     0
 10
232.637246
 20
142.514118
 30
0.0
  0
VERTEX
  5
2DE8
  8
0
 62
     0
 10
232.212518
 20
142.485302
 30
0.0
  0
SEQEND
  5
2DE9
  8
0
 62
     0
  0
LINE
  5
276F
  8
0
 62
     0
 10
232.212518
 20
142.468172
 30
0.0
 11
242.9059
 21
142.468172
 31
0.0
  0
LINE
  5
2770
  8
0
 62
     0
 10
232.212518
 20
142.168172
 30
0.0
 11
242.905833
 21
142.168172
 31
0.0
  0
LINE
  5
2771
  8
0
 62
     0
 10
219.1059
 20
141.868172
 30
0.0
 11
240.415771
 21
141.868172
 31
0.0
  0
LINE
  5
2772
  8
0
 62
     0
 10
219.1059
 20
141.668172
 30
0.0
 11
242.8059
 21
141.668172
 31
0.0
  0
LINE
  5
2773
  8
0
 62
     0
 10
219.1059
 20
141.368172
 30
0.0
 11
243.1059
 21
141.368172
 31
0.0
  0
POLYLINE
  5
2774
  8
0
 62
     0
 66
     1
 10
0.0
 20
0.0
 30
0.0
  0
VERTEX
  5
2DEA
  8
0
 62
     0
 10
231.8059
 20
142.868306
 30
0.0
  0
VERTEX
  5
2DEB
  8
0
 62
     0
 10
232.868596
 20
142.936697
 30
0.0
  0
VERTEX
  5
2DEC
  8
0
 62
     0
 10
234.039518
 20
143.099323
 30
0.0
  0
VERTEX
  5
2DED
  8
0
 62
     0
 10
235.324588
 20
143.39509
 30
0.0
  0
VERTEX
  5
2DEE
  8
0
 62
     0
 10
236.605828
 20
143.838932
 30
0.0
  0
VERTEX
  5
2DEF
  8
0
 62
     0
 10
237.699749
 20
144.378763
 30
0.0
  0
VERTEX
  5
2DF0
  8
0
 62
     0
 10
238.583987
 20
144.984259
 30
0.0
  0
VERTEX
  5
2DF1
  8
0
 62
     0
 10
239.264591
 20
145.639083
 30
0.0
  0
VERTEX
  5
2DF2
  8
0
 62
     0
 10
239.73774
 20
146.318015
 30
0.0
  0
VERTEX
  5
2DF3
  8
0
 62
     0
 10
240.006428
 20
146.983744
 30
0.0
  0
VERTEX
  5
2DF4
  8
0
 62
     0
 10
240.097676
 20
147.649262
 30
0.0
  0
VERTEX
  5
2DF5
  8
0
 62
     0
 10
240.016196
 20
148.315105
 30
0.0
  0
VERTEX
  5
2DF6
  8
0
 62
     0
 10
239.758146
 20
148.980167
 30
0.0
  0
VERTEX
  5
2DF7
  8
0
 62
     0
 10
239.297154
 20
149.658935
 30
0.0
  0
VERTEX
  5
2DF8
  8
0
 62
     0
 10
238.628021
 20
150.316108
 30
0.0
  0
VERTEX
  5
2DF9
  8
0
 62
     0
 10
237.755411
 20
150.924838
 30
0.0
  0
VERTEX
  5
2DFA
  8
0
 62
     0
 10
237.470414
 20
151.068283
 30
0.0
  0
SEQEND
  5
2DFB
  8
0
 62
     0
  0
POLYLINE
  5
2775
  8
0
 62
     0
 66
     1
 10
0.0
 20
0.0
 30
0.0
  0
VERTEX
  5
2DFC
  8
0
 62
     0
 10
232.889463
 20
142.637299
 30
0.0
  0
VERTEX
  5
2DFD
  8
0
 62
     0
 10
234.084163
 20
142.802538
 30
0.0
  0
VERTEX
  5
2DFE
  8
0
 62
     0
 10
235.398614
 20
143.104255
 30
0.0
  0
VERTEX
  5
2DFF
  8
0
 62
     0
 10
236.715121
 20
143.559473
 30
0.0
  0
VERTEX
  5
2E00
  8
0
 62
     0
 10
237.846645
 20
144.117144
 30
0.0
  0
SEQEND
  5
2E01
  8
0
 62
     0
  0
LINE
  5
2776
  8
0
 62
     0
 10
225.2559
 20
121.568172
 30
0.0
 11
237.34126
 21
121.462704
 31
0.0
  0
LINE
  5
2777
  8
0
 62
     0
 10
242.934084
 20
122.368172
 30
0.0
 11
219.1059
 21
122.368172
 31
0.0
  0
LINE
  5
2778
  8
0
 62
     0
 10
242.633127
 20
122.068172
 30
0.0
 11
219.1059
 21
122.068172
 31
0.0
  0
LINE
  5
2779
  8
0
 62
     0
 10
237.009726
 20
108.018172
 30
0.0
 11
217.0059
 21
108.018172
 31
0.0
  0
LINE
  5
277A
  8
0
 62
     0
 10
236.515307
 20
107.518172
 30
0.0
 11
216.8059
 21
107.518172
 31
0.0
  0
LINE
  5
277B
  8
0
 62
     0
 10
231.8059
 20
141.668172
 30
0.0
 11
231.8059
 21
121.511011
 31
0.0
  0
LINE
  5
277C
  8
0
 62
     0
 10
219.9059
 20
122.068172
 30
0.0
 11
219.9059
 21
139.568172
 31
0.0
  0
LINE
  5
277D
  8
0
 62
     0
 10
219.6059
 20
139.568172
 30
0.0
 11
219.6059
 21
122.368172
 31
0.0
  0
LINE
  5
277E
  8
0
 62
     0
 10
218.3059
 20
110.968172
 30
0.0
 11
218.3059
 21
166.068172
 31
0.0
  0
LINE
  5
277F
  8
0
 62
     0
 10
217.6059
 20
166.068172
 30
0.0
 11
217.6059
 21
110.968172
 31
0.0
  0
LINE
  5
2780
  8
0
 62
     0
 10
215.6059
 20
110.968172
 30
0.0
 11
215.6059
 21
166.068172
 31
0.0
  0
LINE
  5
2781
  8
0
 62
     0
 10
212.6059
 20
110.968172
 30
0.0
 11
212.6059
 21
166.068172
 31
0.0
  0
LINE
  5
2782
  8
0
 62
     0
 10
208.6059
 20
110.968172
 30
0.0
 11
208.6059
 21
166.068172
 31
0.0
  0
LINE
  5
2783
  8
0
 62
     0
 10
204.1059
 20
110.968172
 30
0.0
 11
204.1059
 21
166.068172
 31
0.0
  0
LINE
  5
2784
  8
0
 62
     0
 10
198.6059
 20
110.968172
 30
0.0
 11
198.6059
 21
166.068172
 31
0.0
  0
LINE
  5
2785
  8
0
 62
     0
 10
198.1059
 20
110.968172
 30
0.0
 11
218.3059
 21
110.968172
 31
0.0
  0
LINE
  5
2786
  8
0
 62
     0
 10
198.1059
 20
110.47269
 30
0.0
 11
216.8059
 21
110.635882
 31
0.0
  0
LINE
  5
2787
  8
0
 62
     0
 10
198.1059
 20
110.768172
 30
0.0
 11
215.4059
 21
110.768172
 31
0.0
  0
LINE
  5
2788
  8
0
 62
     0
 10
212.7059
 20
110.724526
 30
0.0
 11
199.7059
 21
110.611077
 31
0.0
  0
LINE
  5
2789
  8
0
 62
     0
 10
214.0059
 20
110.435882
 30
0.0
 11
198.1059
 21
110.297125
 31
0.0
  0
LINE
  5
278A
  8
0
 62
     0
 10
198.1059
 20
110.668172
 30
0.0
 11
199.7059
 21
110.668172
 31
0.0
  0
LINE
  5
278B
  8
0
 62
     0
 10
198.4059
 20
110.475308
 30
0.0
 11
198.4059
 21
110.299743
 31
0.0
  0
LINE
  5
278C
  8
0
 62
     0
 10
199.7059
 20
110.486653
 30
0.0
 11
199.7059
 21
110.768172
 31
0.0
  0
LINE
  5
278D
  8
0
 62
     0
 10
198.9059
 20
110.479671
 30
0.0
 11
198.9059
 21
110.304107
 31
0.0
  0
LINE
  5
278E
  8
0
 62
     0
 10
212.7059
 20
110.768172
 30
0.0
 11
212.7059
 21
110.600102
 31
0.0
  0
LINE
  5
278F
  8
0
 62
     0
 10
215.4059
 20
110.968172
 30
0.0
 11
215.4059
 21
110.768172
 31
0.0
  0
LINE
  5
2790
  8
0
 62
     0
 10
214.0059
 20
110.268172
 30
0.0
 11
215.234153
 21
110.268172
 31
0.0
  0
LINE
  5
2791
  8
0
 62
     0
 10
200.3059
 20
120.468172
 30
0.0
 11
201.4059
 21
120.468172
 31
0.0
  0
LINE
  5
2792
  8
0
 62
     0
 10
200.513055
 20
118.551293
 30
0.0
 11
201.3059
 21
118.551293
 31
0.0
  0
LINE
  5
2793
  8
0
 62
     0
 10
201.4059
 20
118.168172
 30
0.0
 11
200.3059
 21
118.168172
 31
0.0
  0
LINE
  5
2794
  8
0
 62
     0
 10
200.3059
 20
118.454695
 30
0.0
 11
200.513055
 21
118.551293
 31
0.0
  0
POLYLINE
  5
2795
  8
0
 62
     0
 66
     1
 10
0.0
 20
0.0
 30
0.0
  0
VERTEX
  5
2E02
  8
0
 62
     0
 10
200.513055
 20
118.551293
 30
0.0
  0
VERTEX
  5
2E03
  8
0
 62
     0
 10
200.607647
 20
118.888613
 30
0.0
  0
VERTEX
  5
2E04
  8
0
 62
     0
 10
200.651649
 20
119.225176
 30
0.0
  0
VERTEX
  5
2E05
  8
0
 62
     0
 10
200.648162
 20
119.561028
 30
0.0
  0
VERTEX
  5
2E06
  8
0
 62
     0
 10
200.597038
 20
119.897243
 30
0.0
  0
VERTEX
  5
2E07
  8
0
 62
     0
 10
200.494703
 20
120.234234
 30
0.0
  0
VERTEX
  5
2E08
  8
0
 62
     0
 10
200.383148
 20
120.468172
 30
0.0
  0
SEQEND
  5
2E09
  8
0
 62
     0
  0
LINE
  5
2796
  8
0
 62
     0
 10
200.3059
 20
118.168172
 30
0.0
 11
200.3059
 21
120.468172
 31
0.0
  0
LINE
  5
2797
  8
0
 62
     0
 10
201.4059
 20
120.468172
 30
0.0
 11
201.4059
 21
118.168172
 31
0.0
  0
LINE
  5
2798
  8
0
 62
     0
 10
201.3059
 20
120.468172
 30
0.0
 11
201.3059
 21
118.268172
 31
0.0
  0
LINE
  5
2799
  8
0
 62
     0
 10
201.3059
 20
119.968685
 30
0.0
 11
201.4059
 21
119.969558
 31
0.0
  0
LINE
  5
279A
  8
0
 62
     0
 10
201.3059
 20
119.668697
 30
0.0
 11
201.4059
 21
119.669569
 31
0.0
  0
LINE
  5
279B
  8
0
 62
     0
 10
213.1059
 20
134.818172
 30
0.0
 11
215.1059
 21
134.818172
 31
0.0
  0
LINE
  5
279C
  8
0
 62
     0
 10
213.1059
 20
134.668172
 30
0.0
 11
215.1059
 21
134.668172
 31
0.0
  0
LINE
  5
279D
  8
0
 62
     0
 10
213.1059
 20
132.668172
 30
0.0
 11
215.1059
 21
132.668172
 31
0.0
  0
LINE
  5
279E
  8
0
 62
     0
 10
215.1059
 20
132.318172
 30
0.0
 11
213.1059
 21
132.318172
 31
0.0
  0
LINE
  5
279F
  8
0
 62
     0
 10
213.1059
 20
132.318172
 30
0.0
 11
213.1059
 21
134.818172
 31
0.0
  0
LINE
  5
27A0
  8
0
 62
     0
 10
215.1059
 20
134.818172
 30
0.0
 11
215.1059
 21
132.318172
 31
0.0
  0
LINE
  5
27A1
  8
0
 62
     0
 10
235.189925
 20
107.518172
 30
0.0
 11
235.189925
 21
121.481479
 31
0.0
  0
LINE
  5
27A2
  8
0
 62
     0
 10
232.9559
 20
120.12428
 30
0.0
 11
232.9559
 21
111.768172
 31
0.0
  0
LINE
  5
27A3
  8
0
 62
     0
 10
232.7559
 20
119.962936
 30
0.0
 11
232.7559
 21
111.973408
 31
0.0
  0
LINE
  5
27A4
  8
0
 62
     0
 10
217.0059
 20
121.49792
 30
0.0
 11
217.0059
 21
111.973408
 31
0.0
  0
LINE
  5
27A5
  8
0
 62
     0
 10
232.7559
 20
111.973408
 30
0.0
 11
217.0059
 21
111.973408
 31
0.0
  0
LINE
  5
27A6
  8
0
 62
     0
 10
217.0059
 20
111.628978
 30
0.0
 11
232.9559
 21
111.768172
 31
0.0
  0
LINE
  5
27A7
  8
0
 62
     0
 10
235.3059
 20
98.818172
 30
0.0
 11
218.5059
 21
98.818172
 31
0.0
  0
POLYLINE
  5
27A8
  8
0
 62
     0
 66
     1
 10
0.0
 20
0.0
 30
0.0
  0
VERTEX
  5
2E0A
  8
0
 62
     0
 10
217.64261
 20
105.657306
 30
0.0
  0
VERTEX
  5
2E0B
  8
0
 62
     0
 10
217.632718
 20
105.028726
 30
0.0
  0
VERTEX
  5
2E0C
  8
0
 62
     0
 10
217.605884
 20
104.371198
 30
0.0
  0
VERTEX
  5
2E0D
  8
0
 62
     0
 10
217.563996
 20
103.72002
 30
0.0
  0
VERTEX
  5
2E0E
  8
0
 62
     0
 10
217.507977
 20
103.092182
 30
0.0
  0
VERTEX
  5
2E0F
  8
0
 62
     0
 10
217.440557
 20
102.524995
 30
0.0
  0
VERTEX
  5
2E10
  8
0
 62
     0
 10
217.362362
 20
102.03216
 30
0.0
  0
VERTEX
  5
2E11
  8
0
 62
     0
 10
217.3059
 20
101.775615
 30
0.0
  0
SEQEND
  5
2E12
  8
0
 62
     0
  0
LINE
  5
27A9
  8
0
 62
     0
 10
217.3059
 20
107.518172
 30
0.0
 11
217.3059
 21
100.260527
 31
0.0
  0
LINE
  5
27AA
  8
0
 62
     0
 10
219.2059
 20
98.068172
 30
0.0
 11
216.8059
 21
98.068172
 31
0.0
  0
LINE
  5
27AB
  8
0
 62
     0
 10
216.8059
 20
100.537565
 30
0.0
 11
217.3059
 21
100.540084
 31
0.0
  0
LINE
  5
27AC
  8
0
 62
     0
 10
216.8059
 20
100.254657
 30
0.0
 11
217.3059
 21
100.260527
 31
0.0
  0
LINE
  5
27AD
  8
0
 62
     0
 10
217.3059
 20
107.468701
 30
0.0
 11
217.381079
 21
107.518172
 31
0.0
  0
POLYLINE
  5
27AE
  8
0
 62
     0
 66
     1
 10
0.0
 20
0.0
 30
0.0
  0
VERTEX
  5
2E13
  8
0
 62
     0
 10
217.635013
 20
106.212675
 30
0.0
  0
VERTEX
  5
2E14
  8
0
 62
     0
 10
217.61367
 20
106.030983
 30
0.0
  0
VERTEX
  5
2E15
  8
0
 62
     0
 10
217.592272
 20
105.84952
 30
0.0
  0
VERTEX
  5
2E16
  8
0
 62
     0
 10
217.570805
 20
105.668172
 30
0.0
  0
SEQEND
  5
2E17
  8
0
 62
     0
  0
POLYLINE
  5
27AF
  8
0
 62
     0
 66
     1
 10
0.0
 20
0.0
 30
0.0
  0
VERTEX
  5
2E18
  8
0
 62
     0
 10
217.381079
 20
107.518172
 30
0.0
  0
VERTEX
  5
2E19
  8
0
 62
     0
 10
217.457653
 20
107.461929
 30
0.0
  0
VERTEX
  5
2E1A
  8
0
 62
     0
 10
217.523188
 20
107.294127
 30
0.0
  0
VERTEX
  5
2E1B
  8
0
 62
     0
 10
217.574879
 20
107.024277
 30
0.0
  0
VERTEX
  5
2E1C
  8
0
 62
     0
 10
217.612547
 20
106.657436
 30
0.0
  0
VERTEX
  5
2E1D
  8
0
 62
     0
 10
217.635013
 20
106.212675
 30
0.0
  0
SEQEND
  5
2E1E
  8
0
 62
     0
  0
POLYLINE
  5
27B0
  8
0
 62
     0
 66
     1
 10
0.0
 20
0.0
 30
0.0
  0
VERTEX
  5
2E1F
  8
0
 62
     0
 10
217.64261
 20
105.657306
 30
0.0
  0
VERTEX
  5
2E20
  8
0
 62
     0
 10
217.619013
 20
105.660929
 30
0.0
  0
VERTEX
  5
2E21
  8
0
 62
     0
 10
217.595077
 20
105.664551
 30
0.0
  0
VERTEX
  5
2E22
  8
0
 62
     0
 10
217.570805
 20
105.668172
 30
0.0
  0
SEQEND
  5
2E23
  8
0
 62
     0
  0
LINE
  5
27B1
  8
0
 62
     0
 10
217.3059
 20
106.212456
 30
0.0
 11
217.635013
 21
106.212675
 31
0.0
  0
LINE
  5
27B2
  8
0
 62
     0
 10
217.3059
 20
105.665931
 30
0.0
 11
217.570805
 21
105.668172
 31
0.0
  0
LINE
  5
27B3
  8
0
 62
     0
 10
217.3059
 20
105.654403
 30
0.0
 11
217.64261
 21
105.657306
 31
0.0
  0
LINE
  5
27B4
  8
0
 62
     0
 10
216.8059
 20
107.818172
 30
0.0
 11
217.0059
 21
108.018172
 31
0.0
  0
LINE
  5
27B5
  8
0
 62
     0
 10
217.0059
 20
108.018172
 30
0.0
 11
217.0059
 21
110.968172
 31
0.0
  0
LINE
  5
27B6
  8
0
 62
     0
 10
216.5059
 20
110.633264
 30
0.0
 11
216.5059
 21
110.968172
 31
0.0
  0
POLYLINE
  5
27B7
  8
0
 62
     0
 66
     1
 10
0.0
 20
0.0
 30
0.0
  0
VERTEX
  5
2E24
  8
0
 62
     0
 10
217.0059
 20
111.973408
 30
0.0
  0
VERTEX
  5
2E25
  8
0
 62
     0
 10
216.85188
 20
111.973196
 30
0.0
  0
VERTEX
  5
2E26
  8
0
 62
     0
 10
216.7112
 20
111.972569
 30
0.0
  0
VERTEX
  5
2E27
  8
0
 62
     0
 10
216.601983
 20
111.971616
 30
0.0
  0
VERTEX
  5
2E28
  8
0
 62
     0
 10
216.530215
 20
111.970388
 30
0.0
  0
VERTEX
  5
2E29
  8
0
 62
     0
 10
216.5059
 20
111.969044
 30
0.0
  0
SEQEND
  5
2E2A
  8
0
 62
     0
  0
LINE
  5
27B8
  8
0
 62
     0
 10
232.7559
 20
111.968172
 30
0.0
 11
232.7559
 21
111.766426
 31
0.0
  0
LINE
  5
27B9
  8
0
 62
     0
 10
232.9559
 20
112.173408
 30
0.0
 11
232.7559
 21
112.173408
 31
0.0
  0
LINE
  5
27BA
  8
0
 62
     0
 10
232.7559
 20
111.968172
 30
0.0
 11
232.9559
 21
111.969917
 31
0.0
  0
LINE
  5
27BB
  8
0
 62
     0
 10
226.7059
 20
135.168172
 30
0.0
 11
224.6059
 21
135.168172
 31
0.0
  0
LINE
  5
27BC
  8
0
 62
     0
 10
226.5559
 20
135.068172
 30
0.0
 11
224.7559
 21
135.068172
 31
0.0
  0
LINE
  5
27BD
  8
0
 62
     0
 10
226.5559
 20
133.679657
 30
0.0
 11
224.7559
 21
133.679657
 31
0.0
  0
LINE
  5
27BE
  8
0
 62
     0
 10
226.5559
 20
133.268172
 30
0.0
 11
224.7559
 21
133.268172
 31
0.0
  0
LINE
  5
27BF
  8
0
 62
     0
 10
224.6059
 20
133.168172
 30
0.0
 11
226.7059
 21
133.168172
 31
0.0
  0
LINE
  5
27C0
  8
0
 62
     0
 10
219.1059
 20
121.691812
 30
0.0
 11
227.8559
 21
121.768172
 31
0.0
  0
LINE
  5
27C1
  8
0
 62
     0
 10
225.2559
 20
120.191477
 30
0.0
 11
232.9559
 21
120.12428
 31
0.0
  0
LINE
  5
27C2
  8
0
 62
     0
 10
232.7559
 20
119.968172
 30
0.0
 11
225.008775
 21
119.968172
 31
0.0
  0
LINE
  5
27C3
  8
0
 62
     0
 10
232.7559
 20
119.962936
 30
0.0
 11
225.003539
 21
119.962936
 31
0.0
  0
LINE
  5
27C4
  8
0
 62
     0
 10
217.0059
 20
121.49792
 30
0.0
 11
225.003539
 21
121.567715
 31
0.0
  0
ARC
  5
27C5
  8
0
 62
     0
 10
219.9059
 20
122.368172
 30
0.0
 40
0.3
 50
180.0
 51
270.0
  0
LINE
  5
27C6
  8
0
 62
     0
 10
219.8059
 20
121.69792
 30
0.0
 11
219.8059
 21
121.522356
 31
0.0
  0
LINE
  5
27C7
  8
0
 62
     0
 10
219.3059
 20
121.693557
 30
0.0
 11
219.3059
 21
121.517992
 31
0.0
  0
LINE
  5
27C8
  8
0
 62
     0
 10
225.2559
 20
121.568172
 30
0.0
 11
225.2559
 21
120.191477
 31
0.0
  0
LINE
  5
27C9
  8
0
 62
     0
 10
225.003539
 20
119.962936
 30
0.0
 11
225.003539
 21
121.567715
 31
0.0
  0
LINE
  5
27CA
  8
0
 62
     0
 10
224.7559
 20
133.268172
 30
0.0
 11
224.7559
 21
135.168172
 31
0.0
  0
LINE
  5
27CB
  8
0
 62
     0
 10
224.6059
 20
135.168172
 30
0.0
 11
224.6059
 21
133.168172
 31
0.0
  0
LINE
  5
27CC
  8
0
 62
     0
 10
230.0559
 20
121.568172
 30
0.0
 11
231.144485
 21
121.568172
 31
0.0
  0
LINE
  5
27CD
  8
0
 62
     0
 10
228.158554
 20
121.668172
 30
0.0
 11
227.8559
 21
121.668172
 31
0.0
  0
LINE
  5
27CE
  8
0
 62
     0
 10
227.946962
 20
121.544687
 30
0.0
 11
227.946962
 21
121.668172
 31
0.0
  0
LINE
  5
27CF
  8
0
 62
     0
 10
227.8559
 20
121.768172
 30
0.0
 11
227.8559
 21
121.545482
 31
0.0
  0
LINE
  5
27D0
  8
0
 62
     0
 10
230.073354
 20
121.52613
 30
0.0
 11
230.073354
 21
121.568172
 31
0.0
  0
LINE
  5
27D1
  8
0
 62
     0
 10
230.0559
 20
121.526283
 30
0.0
 11
230.0559
 21
121.568172
 31
0.0
  0
LINE
  5
27D2
  8
0
 62
     0
 10
228.158554
 20
121.542841
 30
0.0
 11
228.158554
 21
121.668172
 31
0.0
  0
LINE
  5
27D3
  8
0
 62
     0
 10
231.144485
 20
121.568172
 30
0.0
 11
231.25679
 21
121.515803
 31
0.0
  0
LINE
  5
27D4
  8
0
 62
     0
 10
226.7059
 20
133.168172
 30
0.0
 11
226.7059
 21
135.168172
 31
0.0
  0
LINE
  5
27D5
  8
0
 62
     0
 10
226.5559
 20
133.268172
 30
0.0
 11
226.5559
 21
135.168172
 31
0.0
  0
LINE
  5
27D6
  8
0
 62
     0
 10
217.6059
 20
166.652024
 30
0.0
 11
215.6059
 21
166.657265
 31
0.0
  0
LINE
  5
27D7
  8
0
 62
     0
 10
211.0059
 20
166.568172
 30
0.0
 11
219.6059
 21
166.568172
 31
0.0
  0
LINE
  5
27D8
  8
0
 62
     0
 10
198.1059
 20
166.068172
 30
0.0
 11
219.1059
 21
166.068172
 31
0.0
  0
LINE
  5
27D9
  8
0
 62
     0
 10
212.1059
 20
166.568172
 30
0.0
 11
219.1059
 21
166.583894
 31
0.0
  0
LINE
  5
27DA
  8
0
 62
     0
 10
208.6059
 20
166.652024
 30
0.0
 11
204.1059
 21
166.657265
 31
0.0
  0
LINE
  5
27DB
  8
0
 62
     0
 10
212.1059
 20
166.620579
 30
0.0
 11
200.662895
 21
166.620579
 31
0.0
  0
LINE
  5
27DC
  8
0
 62
     0
 10
204.1059
 20
166.652024
 30
0.0
 11
198.6059
 21
166.657265
 31
0.0
  0
LINE
  5
27DD
  8
0
 62
     0
 10
198.0059
 20
174.318172
 30
0.0
 11
198.0059
 21
169.018172
 31
0.0
  0
LINE
  5
27DE
  8
0
 62
     0
 10
200.662895
 20
166.620579
 30
0.0
 11
198.1059
 21
166.632303
 31
0.0
  0
LINE
  5
27DF
  8
0
 62
     0
 10
198.1059
 20
169.568172
 30
0.0
 11
198.0059
 21
169.568172
 31
0.0
  0
LINE
  5
27E0
  8
0
 62
     0
 10
198.6059
 20
166.652024
 30
0.0
 11
198.1059
 21
166.652024
 31
0.0
  0
LINE
  5
27E1
  8
0
 62
     0
 10
198.1059
 20
173.768172
 30
0.0
 11
198.0059
 21
173.768172
 31
0.0
  0
LINE
  5
27E2
  8
0
 62
     0
 10
198.0059
 20
171.268172
 30
0.0
 11
198.1059
 21
171.268172
 31
0.0
  0
LINE
  5
27E3
  8
0
 62
     0
 10
211.0059
 20
166.620579
 30
0.0
 11
211.0059
 21
166.068172
 31
0.0
  0
LINE
  5
27E4
  8
0
 62
     0
 10
212.6059
 20
166.652024
 30
0.0
 11
208.6059
 21
166.657265
 31
0.0
  0
LINE
  5
27E5
  8
0
 62
     0
 10
215.6059
 20
166.652024
 30
0.0
 11
212.6059
 21
166.657265
 31
0.0
  0
LINE
  5
27E6
  8
0
 62
     0
 10
212.1059
 20
166.568172
 30
0.0
 11
212.1059
 21
166.620579
 31
0.0
  0
LINE
  5
27E7
  8
0
 62
     0
 10
219.6059
 20
142.468172
 30
0.0
 11
230.3059
 21
142.468172
 31
0.0
  0
LINE
  5
27E8
  8
0
 62
     0
 10
219.8059
 20
142.168172
 30
0.0
 11
230.3059
 21
142.168172
 31
0.0
  0
LINE
  5
27E9
  8
0
 62
     0
 10
231.8059
 20
139.768172
 30
0.0
 11
219.1059
 21
139.768172
 31
0.0
  0
LINE
  5
27EA
  8
0
 62
     0
 10
219.1059
 20
139.568172
 30
0.0
 11
231.8059
 21
139.568172
 31
0.0
  0
ARC
  5
27EB
  8
0
 62
     0
 10
219.9059
 20
141.368172
 30
0.0
 40
0.3
 50
90.0
 51
180.0
  0
LINE
  5
27EC
  8
0
 62
     0
 10
219.9059
 20
139.768172
 30
0.0
 11
219.9059
 21
141.668172
 31
0.0
  0
LINE
  5
27ED
  8
0
 62
     0
 10
219.6059
 20
141.368172
 30
0.0
 11
219.6059
 21
139.768172
 31
0.0
  0
ARC
  5
27EE
  8
0
 62
     0
 10
219.8059
 20
142.368172
 30
0.0
 40
0.2
 50
180.0
 51
270.0
  0
LINE
  5
27EF
  8
0
 62
     0
 10
223.190588
 20
141.668172
 30
0.0
 11
223.263382
 21
141.868172
 31
0.0
  0
LINE
  5
27F0
  8
0
 62
     0
 10
222.977752
 20
141.668172
 30
0.0
 11
223.050546
 21
141.868172
 31
0.0
  0
LINE
  5
27F1
  8
0
 62
     0
 10
222.1059
 20
141.868172
 30
0.0
 11
222.1059
 21
141.668172
 31
0.0
  0
LINE
  5
27F2
  8
0
 62
     0
 10
221.1559
 20
139.568172
 30
0.0
 11
221.1559
 21
139.768172
 31
0.0
  0
ARC
  5
27F3
  8
0
 62
     0
 10
234.2059
 20
147.768172
 30
0.0
 40
4.0
 50
148.211669
 51
211.788331
  0
ARC
  5
27F4
  8
0
 62
     0
 10
234.2059
 20
147.768172
 30
0.0
 40
3.0
 50
143.130102
 51
216.869898
  0
ARC
  5
27F5
  8
0
 62
     0
 10
234.2059
 20
147.768172
 30
0.0
 40
2.0
 50
163.292577
 51
222.533595
  0
LINE
  5
27F6
  8
0
 62
     0
 10
230.3059
 20
142.568172
 30
0.0
 11
232.423843
 21
142.568172
 31
0.0
  0
ARC
  5
27F7
  8
0
 62
     0
 10
229.2059
 20
142.268172
 30
0.0
 40
0.6
 50
222.394094
 51
270.0
  0
LINE
  5
27F8
  8
0
 62
     0
 10
230.4059
 20
141.868172
 30
0.0
 11
230.4059
 21
141.668172
 31
0.0
  0
LINE
  5
27F9
  8
0
 62
     0
 10
226.712611
 20
141.868172
 30
0.0
 11
226.924802
 21
141.668172
 31
0.0
  0
LINE
  5
27FA
  8
0
 62
     0
 10
226.421021
 20
141.868172
 30
0.0
 11
226.633212
 21
141.668172
 31
0.0
  0
LINE
  5
27FB
  8
0
 62
     0
 10
230.3059
 20
142.168172
 30
0.0
 11
230.3059
 21
142.568172
 31
0.0
  0
LINE
  5
27FC
  8
0
 62
     0
 10
232.423843
 20
142.607594
 30
0.0
 11
232.423843
 21
142.498242
 31
0.0
  0
LINE
  5
27FD
  8
0
 62
     0
 10
232.212518
 20
141.868172
 30
0.0
 11
232.212518
 21
142.485302
 31
0.0
  0
LINE
  5
27FE
  8
0
 62
     0
 10
232.072662
 20
142.568172
 30
0.0
 11
232.072662
 21
141.868172
 31
0.0
  0
LINE
  5
27FF
  8
0
 62
     0
 10
231.8059
 20
145.968172
 30
0.0
 11
231.8059
 21
142.568172
 31
0.0
  0
LINE
  5
2800
  8
0
 62
     0
 10
230.8059
 20
145.661041
 30
0.0
 11
230.8059
 21
142.568172
 31
0.0
  0
POLYLINE
  5
2801
  8
0
 62
     0
 66
     1
 10
0.0
 20
0.0
 30
0.0
  0
VERTEX
  5
2E2B
  8
0
 62
     0
 10
230.8059
 20
145.661041
 30
0.0
  0
VERTEX
  5
2E2C
  8
0
 62
     0
 10
231.109355
 20
145.749297
 30
0.0
  0
VERTEX
  5
2E2D
  8
0
 62
     0
 10
231.386026
 20
145.833269
 30
0.0
  0
VERTEX
  5
2E2E
  8
0
 62
     0
 10
231.608879
 20
145.903654
 30
0.0
  0
VERTEX
  5
2E2F
  8
0
 62
     0
 10
231.754688
 20
145.951181
 30
0.0
  0
VERTEX
  5
2E30
  8
0
 62
     0
 10
231.8059
 20
145.968172
 30
0.0
  0
SEQEND
  5
2E31
  8
0
 62
     0
  0
LINE
  5
2802
  8
0
 62
     0
 10
231.805896
 20
142.568171
 30
0.0
 11
232.889463
 21
142.637299
 31
0.0
  0
LINE
  5
2803
  8
0
 62
     0
 10
231.8059
 20
152.768172
 30
0.0
 11
230.3059
 21
152.768172
 31
0.0
  0
POLYLINE
  5
2804
  8
0
 62
     0
 66
     1
 10
0.0
 20
0.0
 30
0.0
  0
VERTEX
  5
2E32
  8
0
 62
     0
 10
231.8059
 20
149.568172
 30
0.0
  0
VERTEX
  5
2E33
  8
0
 62
     0
 10
231.754688
 20
149.585162
 30
0.0
  0
VERTEX
  5
2E34
  8
0
 62
     0
 10
231.608879
 20
149.632689
 30
0.0
  0
VERTEX
  5
2E35
  8
0
 62
     0
 10
231.386026
 20
149.703074
 30
0.0
  0
VERTEX
  5
2E36
  8
0
 62
     0
 10
231.109355
 20
149.787046
 30
0.0
  0
VERTEX
  5
2E37
  8
0
 62
     0
 10
230.8059
 20
149.875302
 30
0.0
  0
SEQEND
  5
2E38
  8
0
 62
     0
  0
LINE
  5
2805
  8
0
 62
     0
 10
232.6059
 20
147.768172
 30
0.0
 11
232.3059
 21
147.768172
 31
0.0
  0
LINE
  5
2806
  8
0
 62
     0
 10
232.3059
 20
152.435809
 30
0.0
 11
231.8059
 21
152.468037
 31
0.0
  0
LINE
  5
2807
  8
0
 62
     0
 10
231.8059
 20
152.868172
 30
0.0
 11
232.3059
 21
152.836166
 31
0.0
  0
LINE
  5
2808
  8
0
 62
     0
 10
232.3059
 20
152.736225
 30
0.0
 11
231.805896
 21
152.768172
 31
0.0
  0
LINE
  5
2809
  8
0
 62
     0
 10
219.105986
 20
166.048537
 30
0.0
 11
219.6059
 21
166.050718
 31
0.0
  0
LINE
  5
280A
  8
0
 62
     0
 10
219.1059
 20
165.748534
 30
0.0
 11
219.6059
 21
165.750715
 31
0.0
  0
POLYLINE
  5
280B
  8
0
 62
     0
 66
     1
 10
0.0
 20
0.0
 30
0.0
  0
VERTEX
  5
2E39
  8
0
 62
     0
 10
219.1059
 20
166.610098
 30
0.0
  0
VERTEX
  5
2E3A
  8
0
 62
     0
 10
219.044944
 20
166.62615
 30
0.0
  0
VERTEX
  5
2E3B
  8
0
 62
     0
 10
218.871477
 20
166.63975
 30
0.0
  0
VERTEX
  5
2E3C
  8
0
 62
     0
 10
218.611903
 20
166.648836
 30
0.0
  0
VERTEX
  5
2E3D
  8
0
 62
     0
 10
218.3059
 20
166.652024
 30
0.0
  0
SEQEND
  5
2E3E
  8
0
 62
     0
  0
LINE
  5
280C
  8
0
 62
     0
 10
218.3059
 20
166.652024
 30
0.0
 11
217.6059
 21
166.652024
 31
0.0
  0
LINE
  5
280D
  8
0
 62
     0
 10
219.6059
 20
167.359444
 30
0.0
 11
219.1059
 21
167.368172
 31
0.0
  0
LINE
  5
280E
  8
0
 62
     0
 10
219.1059
 20
166.918172
 30
0.0
 11
219.6059
 21
166.918172
 31
0.0
  0
LINE
  5
280F
  8
0
 62
     0
 10
266.3059
 20
137.368172
 30
0.0
 11
266.3059
 21
122.166033
 31
0.0
  0
LINE
  5
2810
  8
0
 62
     0
 10
265.3408
 20
140.768172
 30
0.0
 11
265.3408
 21
122.12557
 31
0.0
  0
LINE
  5
2811
  8
0
 62
     0
 10
242.934084
 20
140.768172
 30
0.0
 11
242.934084
 21
136.468172
 31
0.0
  0
LINE
  5
2812
  8
0
 62
     0
 10
241.244056
 20
136.468172
 30
0.0
 11
241.244056
 21
141.368172
 31
0.0
  0
LINE
  5
2813
  8
0
 62
     0
 10
240.357266
 20
122.068172
 30
0.0
 11
240.357266
 21
141.668172
 31
0.0
  0
LINE
  5
2814
  8
0
 62
     0
 10
265.3408
 20
122.12557
 30
0.0
 11
240.927598
 21
120.846128
 31
0.0
  0
LINE
  5
2815
  8
0
 62
     0
 10
239.1059
 20
120.550748
 30
0.0
 11
266.116367
 21
121.966307
 31
0.0
  0
LINE
  5
2816
  8
0
 62
     0
 10
260.0059
 20
120.046345
 30
0.0
 11
241.06228
 21
119.053552
 31
0.0
  0
LINE
  5
2817
  8
0
 62
     0
 10
241.067408
 20
118.853547
 30
0.0
 11
260.616367
 21
119.878064
 31
0.0
  0
POLYLINE
  5
2818
  8
0
 62
     0
 66
     1
 10
0.0
 20
0.0
 30
0.0
  0
VERTEX
  5
2E3F
  8
0
 62
     0
 10
236.337153
 20
115.518172
 30
0.0
  0
VERTEX
  5
2E40
  8
0
 62
     0
 10
236.348374
 20
116.179386
 30
0.0
  0
VERTEX
  5
2E41
  8
0
 62
     0
 10
236.381512
 20
116.814732
 30
0.0
  0
VERTEX
  5
2E42
  8
0
 62
     0
 10
236.434423
 20
117.393321
 30
0.0
  0
VERTEX
  5
2E43
  8
0
 62
     0
 10
236.504385
 20
117.893654
 30
0.0
  0
VERTEX
  5
2E44
  8
0
 62
     0
 10
236.586731
 20
118.289036
 30
0.0
  0
VERTEX
  5
2E45
  8
0
 62
     0
 10
236.677706
 20
118.565154
 30
0.0
  0
VERTEX
  5
2E46
  8
0
 62
     0
 10
236.771258
 20
118.705689
 30
0.0
  0
VERTEX
  5
2E47
  8
0
 62
     0
 10
236.817737
 20
118.723359
 30
0.0
  0
SEQEND
  5
2E48
  8
0
 62
     0
  0
LINE
  5
2819
  8
0
 62
     0
 10
241.1059
 20
118.853547
 30
0.0
 11
241.1059
 21
112.168172
 31
0.0
  0
LINE
  5
281A
  8
0
 62
     0
 10
240.61328
 20
114.699814
 30
0.0
 11
240.61328
 21
118.168172
 31
0.0
  0
LINE
  5
281B
  8
0
 62
     0
 10
239.716831
 20
114.659623
 30
0.0
 11
239.716831
 21
118.168172
 31
0.0
  0
LINE
  5
281C
  8
0
 62
     0
 10
239.1059
 20
117.168172
 30
0.0
 11
239.1059
 21
118.168172
 31
0.0
  0
LINE
  5
281D
  8
0
 62
     0
 10
238.3059
 20
121.168172
 30
0.0
 11
238.3059
 21
117.168172
 31
0.0
  0
LINE
  5
281E
  8
0
 62
     0
 10
237.341308
 20
121.462755
 30
0.0
 11
237.341308
 21
114.127782
 31
0.0
  0
LINE
  5
281F
  8
0
 62
     0
 10
237.338702
 20
121.462727
 30
0.0
 11
237.338702
 21
114.119254
 31
0.0
  0
LINE
  5
2820
  8
0
 62
     0
 10
236.175626
 20
108.018172
 30
0.0
 11
236.175626
 21
121.472877
 31
0.0
  0
POLYLINE
  5
2821
  8
0
 62
     0
 66
     1
 10
0.0
 20
0.0
 30
0.0
  0
VERTEX
  5
2E49
  8
0
 62
     0
 10
236.817737
 20
118.723359
 30
0.0
  0
VERTEX
  5
2E4A
  8
0
 62
     0
 10
236.863926
 20
118.706007
 30
0.0
  0
VERTEX
  5
2E4B
  8
0
 62
     0
 10
236.950378
 20
118.56633
 30
0.0
  0
VERTEX
  5
2E4C
  8
0
 62
     0
 10
237.028384
 20
118.291513
 30
0.0
  0
VERTEX
  5
2E4D
  8
0
 62
     0
 10
237.0944
 20
117.897539
 30
0.0
  0
VERTEX
  5
2E4E
  8
0
 62
     0
 10
237.147395
 20
117.398027
 30
0.0
  0
VERTEX
  5
2E4F
  8
0
 62
     0
 10
237.185728
 20
116.819294
 30
0.0
  0
VERTEX
  5
2E50
  8
0
 62
     0
 10
237.209027
 20
116.182525
 30
0.0
  0
VERTEX
  5
2E51
  8
0
 62
     0
 10
237.21681
 20
115.518172
 30
0.0
  0
SEQEND
  5
2E52
  8
0
 62
     0
  0
LINE
  5
2822
  8
0
 62
     0
 10
236.639443
 20
107.533852
 30
0.0
 11
236.765366
 21
107.585587
 31
0.0
  0
LINE
  5
2823
  8
0
 62
     0
 10
240.8559
 20
113.968172
 30
0.0
 11
240.8559
 21
106.052989
 31
0.0
  0
LINE
  5
2824
  8
0
 62
     0
 10
240.6559
 20
105.852989
 30
0.0
 11
240.6559
 21
114.168156
 31
0.0
  0
LINE
  5
2825
  8
0
 62
     0
 10
239.5059
 20
106.348928
 30
0.0
 11
239.5059
 21
114.858737
 31
0.0
  0
LINE
  5
2826
  8
0
 62
     0
 10
238.8059
 20
98.732314
 30
0.0
 11
238.8059
 21
107.568172
 31
0.0
  0
LINE
  5
2827
  8
0
 62
     0
 10
237.603601
 20
107.368172
 30
0.0
 11
237.603601
 21
108.368172
 31
0.0
  0
POLYLINE
  5
2828
  8
0
 62
     0
 66
     1
 10
0.0
 20
0.0
 30
0.0
  0
VERTEX
  5
2E53
  8
0
 62
     0
 10
236.515307
 20
107.518176
 30
0.0
  0
VERTEX
  5
2E54
  8
0
 62
     0
 10
236.611568
 20
107.527484
 30
0.0
  0
VERTEX
  5
2E55
  8
0
 62
     0
 10
236.751356
 20
107.577341
 30
0.0
  0
VERTEX
  5
2E56
  8
0
 62
     0
 10
236.869689
 20
107.665994
 30
0.0
  0
VERTEX
  5
2E57
  8
0
 62
     0
 10
236.956307
 20
107.785669
 30
0.0
  0
VERTEX
  5
2E58
  8
0
 62
     0
 10
237.00368
 20
107.925992
 30
0.0
  0
VERTEX
  5
2E59
  8
0
 62
     0
 10
237.01125
 20
108.02164
 30
0.0
  0
SEQEND
  5
2E5A
  8
0
 62
     0
  0
POLYLINE
  5
2829
  8
0
 62
     0
 66
     1
 10
0.0
 20
0.0
 30
0.0
  0
VERTEX
  5
2E5B
  8
0
 62
     0
 10
235.682775
 20
107.518172
 30
0.0
  0
VERTEX
  5
2E5C
  8
0
 62
     0
 10
235.871374
 20
107.556229
 30
0.0
  0
VERTEX
  5
2E5D
  8
0
 62
     0
 10
236.031266
 20
107.664611
 30
0.0
  0
VERTEX
  5
2E5E
  8
0
 62
     0
 10
236.138107
 20
107.826824
 30
0.0
  0
VERTEX
  5
2E5F
  8
0
 62
     0
 10
236.175626
 20
108.018172
 30
0.0
  0
SEQEND
  5
2E60
  8
0
 62
     0
  0
LINE
  5
282A
  8
0
 62
     0
 10
240.6559
 20
106.425345
 30
0.0
 11
239.5059
 21
106.425345
 31
0.0
  0
LINE
  5
282B
  8
0
 62
     0
 10
240.6559
 20
106.348871
 30
0.0
 11
239.5059
 21
106.348871
 31
0.0
  0
LINE
  5
282C
  8
0
 62
     0
 10
236.0059
 20
98.532314
 30
0.0
 11
236.0059
 21
107.368172
 31
0.0
  0
ARC
  5
282D
  8
0
 62
     0
 10
238.1059
 20
98.018172
 30
0.0
 40
1.0
 50
0.0
 51
90.0
  0
POLYLINE
  5
282E
  8
0
 62
     0
 66
     1
 10
0.0
 20
0.0
 30
0.0
  0
VERTEX
  5
2E61
  8
0
 62
     0
 10
237.658755
 20
107.351299
 30
0.0
  0
VERTEX
  5
2E62
  8
0
 62
     0
 10
237.714539
 20
107.315889
 30
0.0
  0
VERTEX
  5
2E63
  8
0
 62
     0
 10
237.753398
 20
107.270273
 30
0.0
  0
VERTEX
  5
2E64
  8
0
 62
     0
 10
237.776553
 20
107.219584
 30
0.0
  0
VERTEX
  5
2E65
  8
0
 62
     0
 10
237.785085
 20
107.168172
 30
0.0
  0
SEQEND
  5
2E66
  8
0
 62
     0
  0
LINE
  5
282F
  8
0
 62
     0
 10
237.585204
 20
107.368032
 30
0.0
 11
237.658755
 21
107.351299
 31
0.0
  0
POLYLINE
  5
2830
  8
0
 62
     0
 66
     1
 10
0.0
 20
0.0
 30
0.0
  0
VERTEX
  5
2E67
  8
0
 62
     0
 10
237.603601
 20
107.368172
 30
0.0
  0
VERTEX
  5
2E68
  8
0
 62
     0
 10
237.677718
 20
107.352864
 30
0.0
  0
VERTEX
  5
2E69
  8
0
 62
     0
 10
237.734352
 20
107.317715
 30
0.0
  0
VERTEX
  5
2E6A
  8
0
 62
     0
 10
237.773285
 20
107.271826
 30
0.0
  0
VERTEX
  5
2E6B
  8
0
 62
     0
 10
237.795982
 20
107.220489
 30
0.0
  0
VERTEX
  5
2E6C
  8
0
 62
     0
 10
237.803588
 20
107.168172
 30
0.0
  0
SEQEND
  5
2E6D
  8
0
 62
     0
  0
POLYLINE
  5
2831
  8
0
 62
     0
 66
     1
 10
0.0
 20
0.0
 30
0.0
  0
VERTEX
  5
2E6E
  8
0
 62
     0
 10
237.585204
 20
107.368032
 30
0.0
  0
VERTEX
  5
2E6F
  8
0
 62
     0
 10
237.582713
 20
107.36811
 30
0.0
  0
VERTEX
  5
2E70
  8
0
 62
     0
 10
237.580221
 20
107.368156
 30
0.0
  0
VERTEX
  5
2E71
  8
0
 62
     0
 10
237.577728
 20
107.368172
 30
0.0
  0
SEQEND
  5
2E72
  8
0
 62
     0
  0
LINE
  5
2832
  8
0
 62
     0
 10
236.0059
 20
107.368172
 30
0.0
 11
237.577728
 21
107.368172
 31
0.0
  0
LINE
  5
2833
  8
0
 62
     0
 10
237.785085
 20
107.168172
 30
0.0
 11
237.803588
 21
107.168172
 31
0.0
  0
LINE
  5
2834
  8
0
 62
     0
 10
236.515307
 20
107.518172
 30
0.0
 11
236.639443
 21
107.533852
 31
0.0
  0
POLYLINE
  5
2835
  8
0
 62
     0
 66
     1
 10
0.0
 20
0.0
 30
0.0
  0
VERTEX
  5
2E73
  8
0
 62
     0
 10
240.796184
 20
106.406321
 30
0.0
  0
VERTEX
  5
2E74
  8
0
 62
     0
 10
240.735501
 20
106.365394
 30
0.0
  0
VERTEX
  5
2E75
  8
0
 62
     0
 10
240.6559
 20
106.348871
 30
0.0
  0
SEQEND
  5
2E76
  8
0
 62
     0
  0
POLYLINE
  5
2836
  8
0
 62
     0
 66
     1
 10
0.0
 20
0.0
 30
0.0
  0
VERTEX
  5
2E77
  8
0
 62
     0
 10
240.850584
 20
106.522826
 30
0.0
  0
VERTEX
  5
2E78
  8
0
 62
     0
 10
240.835591
 20
106.495289
 30
0.0
  0
VERTEX
  5
2E79
  8
0
 62
     0
 10
240.812305
 20
106.470723
 30
0.0
  0
VERTEX
  5
2E7A
  8
0
 62
     0
 10
240.781507
 20
106.451356
 30
0.0
  0
VERTEX
  5
2E7B
  8
0
 62
     0
 10
240.745722
 20
106.439321
 30
0.0
  0
VERTEX
  5
2E7C
  8
0
 62
     0
 10
240.709961
 20
106.433534
 30
0.0
  0
VERTEX
  5
2E7D
  8
0
 62
     0
 10
240.679011
 20
106.429861
 30
0.0
  0
VERTEX
  5
2E7E
  8
0
 62
     0
 10
240.6559
 20
106.425345
 30
0.0
  0
SEQEND
  5
2E7F
  8
0
 62
     0
  0
POLYLINE
  5
2837
  8
0
 62
     0
 66
     1
 10
0.0
 20
0.0
 30
0.0
  0
VERTEX
  5
2E80
  8
0
 62
     0
 10
240.8559
 20
106.548871
 30
0.0
  0
VERTEX
  5
2E81
  8
0
 62
     0
 10
240.839383
 20
106.469285
 30
0.0
  0
VERTEX
  5
2E82
  8
0
 62
     0
 10
240.796184
 20
106.406321
 30
0.0
  0
SEQEND
  5
2E83
  8
0
 62
     0
  0
LINE
  5
2838
  8
0
 62
     0
 10
240.8559
 20
106.548871
 30
0.0
 11
240.850584
 21
106.522826
 31
0.0
  0
LINE
  5
2839
  8
0
 62
     0
 10
240.6059
 20
106.052989
 30
0.0
 11
240.6559
 21
106.052989
 31
0.0
  0
LINE
  5
283A
  8
0
 62
     0
 10
240.6059
 20
105.852989
 30
0.0
 11
240.6559
 21
105.852989
 31
0.0
  0
POLYLINE
  5
283B
  8
0
 62
     0
 66
     1
 10
0.0
 20
0.0
 30
0.0
  0
VERTEX
  5
2E84
  8
0
 62
     0
 10
240.8559
 20
106.052989
 30
0.0
  0
VERTEX
  5
2E85
  8
0
 62
     0
 10
240.846321
 20
106.051246
 30
0.0
  0
VERTEX
  5
2E86
  8
0
 62
     0
 10
240.816376
 20
106.053812
 30
0.0
  0
VERTEX
  5
2E87
  8
0
 62
     0
 10
240.768982
 20
106.053546
 30
0.0
  0
VERTEX
  5
2E88
  8
0
 62
     0
 10
240.71242
 20
106.051347
 30
0.0
  0
VERTEX
  5
2E89
  8
0
 62
     0
 10
240.6559
 20
106.052989
 30
0.0
  0
SEQEND
  5
2E8A
  8
0
 62
     0
  0
POLYLINE
  5
283C
  8
0
 62
     0
 66
     1
 10
0.0
 20
0.0
 30
0.0
  0
VERTEX
  5
2E8B
  8
0
 62
     0
 10
240.6559
 20
105.852989
 30
0.0
  0
VERTEX
  5
2E8C
  8
0
 62
     0
 10
240.732907
 20
105.868408
 30
0.0
  0
VERTEX
  5
2E8D
  8
0
 62
     0
 10
240.797389
 20
105.911635
 30
0.0
  0
VERTEX
  5
2E8E
  8
0
 62
     0
 10
240.840564
 20
105.976182
 30
0.0
  0
VERTEX
  5
2E8F
  8
0
 62
     0
 10
240.8559
 20
106.052989
 30
0.0
  0
SEQEND
  5
2E90
  8
0
 62
     0
  0
POLYLINE
  5
283D
  8
0
 62
     0
 66
     1
 10
0.0
 20
0.0
 30
0.0
  0
VERTEX
  5
2E91
  8
0
 62
     0
 10
239.716831
 20
114.659629
 30
0.0
  0
VERTEX
  5
2E92
  8
0
 62
     0
 10
239.897515
 20
114.657483
 30
0.0
  0
VERTEX
  5
2E93
  8
0
 62
     0
 10
240.079021
 20
114.648781
 30
0.0
  0
VERTEX
  5
2E94
  8
0
 62
     0
 10
240.229017
 20
114.629767
 30
0.0
  0
VERTEX
  5
2E95
  8
0
 62
     0
 10
240.331856
 20
114.599106
 30
0.0
  0
VERTEX
  5
2E96
  8
0
 62
     0
 10
240.389755
 20
114.559589
 30
0.0
  0
VERTEX
  5
2E97
  8
0
 62
     0
 10
240.414069
 20
114.514703
 30
0.0
  0
SEQEND
  5
2E98
  8
0
 62
     0
  0
POLYLINE
  5
283E
  8
0
 62
     0
 66
     1
 10
0.0
 20
0.0
 30
0.0
  0
VERTEX
  5
2E99
  8
0
 62
     0
 10
239.716831
 20
114.858737
 30
0.0
  0
VERTEX
  5
2E9A
  8
0
 62
     0
 10
239.949157
 20
114.856376
 30
0.0
  0
VERTEX
  5
2E9B
  8
0
 62
     0
 10
240.182567
 20
114.846777
 30
0.0
  0
VERTEX
  5
2E9C
  8
0
 62
     0
 10
240.375395
 20
114.825836
 30
0.0
  0
VERTEX
  5
2E9D
  8
0
 62
     0
 10
240.50759
 20
114.792147
 30
0.0
  0
VERTEX
  5
2E9E
  8
0
 62
     0
 10
240.582026
 20
114.748841
 30
0.0
  0
VERTEX
  5
2E9F
  8
0
 62
     0
 10
240.61328
 20
114.699814
 30
0.0
  0
SEQEND
  5
2EA0
  8
0
 62
     0
  0
LINE
  5
283F
  8
0
 62
     0
 10
239.5059
 20
114.168172
 30
0.0
 11
240.6559
 21
114.168172
 31
0.0
  0
LINE
  5
2840
  8
0
 62
     0
 10
239.5059
 20
109.668172
 30
0.0
 11
240.8559
 21
109.668172
 31
0.0
  0
POLYLINE
  5
2841
  8
0
 62
     0
 66
     1
 10
0.0
 20
0.0
 30
0.0
  0
VERTEX
  5
2EA1
  8
0
 62
     0
 10
237.21681
 20
115.518172
 30
0.0
  0
VERTEX
  5
2EA2
  8
0
 62
     0
 10
237.209027
 20
114.853824
 30
0.0
  0
VERTEX
  5
2EA3
  8
0
 62
     0
 10
237.185729
 20
114.217069
 30
0.0
  0
VERTEX
  5
2EA4
  8
0
 62
     0
 10
237.147396
 20
113.638325
 30
0.0
  0
VERTEX
  5
2EA5
  8
0
 62
     0
 10
237.0944
 20
113.138808
 30
0.0
  0
VERTEX
  5
2EA6
  8
0
 62
     0
 10
237.028385
 20
112.744833
 30
0.0
  0
VERTEX
  5
2EA7
  8
0
 62
     0
 10
236.950379
 20
112.470016
 30
0.0
  0
VERTEX
  5
2EA8
  8
0
 62
     0
 10
236.863926
 20
112.330337
 30
0.0
  0
VERTEX
  5
2EA9
  8
0
 62
     0
 10
236.817737
 20
112.312984
 30
0.0
  0
SEQEND
  5
2EAA
  8
0
 62
     0
  0
POLYLINE
  5
2842
  8
0
 62
     0
 66
     1
 10
0.0
 20
0.0
 30
0.0
  0
VERTEX
  5
2EAB
  8
0
 62
     0
 10
237.002655
 20
109.018172
 30
0.0
  0
VERTEX
  5
2EAC
  8
0
 62
     0
 10
237.009012
 20
109.87593
 30
0.0
  0
VERTEX
  5
2EAD
  8
0
 62
     0
 10
237.027642
 20
110.704858
 30
0.0
  0
VERTEX
  5
2EAE
  8
0
 62
     0
 10
237.056089
 20
111.453327
 30
0.0
  0
VERTEX
  5
2EAF
  8
0
 62
     0
 10
237.092466
 20
112.120553
 30
0.0
  0
VERTEX
  5
2EB0
  8
0
 62
     0
 10
237.135258
 20
112.704457
 30
0.0
  0
VERTEX
  5
2EB1
  8
0
 62
     0
 10
237.182971
 20
113.199695
 30
0.0
  0
VERTEX
  5
2EB2
  8
0
 62
     0
 10
237.233901
 20
113.598578
 30
0.0
  0
VERTEX
  5
2EB3
  8
0
 62
     0
 10
237.285658
 20
113.891591
 30
0.0
  0
VERTEX
  5
2EB4
  8
0
 62
     0
 10
237.328168
 20
114.052198
 30
0.0
  0
SEQEND
  5
2EB5
  8
0
 62
     0
  0
POLYLINE
  5
2843
  8
0
 62
     0
 66
     1
 10
0.0
 20
0.0
 30
0.0
  0
VERTEX
  5
2EB6
  8
0
 62
     0
 10
237.001085
 20
109.018172
 30
0.0
  0
VERTEX
  5
2EB7
  8
0
 62
     0
 10
237.003702
 20
109.569525
 30
0.0
  0
VERTEX
  5
2EB8
  8
0
 62
     0
 10
237.010551
 20
110.06446
 30
0.0
  0
VERTEX
  5
2EB9
  8
0
 62
     0
 10
237.020546
 20
110.511753
 30
0.0
  0
VERTEX
  5
2EBA
  8
0
 62
     0
 10
237.03274
 20
110.913201
 30
0.0
  0
VERTEX
  5
2EBB
  8
0
 62
     0
 10
237.046375
 20
111.27106
 30
0.0
  0
VERTEX
  5
2EBC
  8
0
 62
     0
 10
237.060982
 20
111.591709
 30
0.0
  0
VERTEX
  5
2EBD
  8
0
 62
     0
 10
237.076238
 20
111.880274
 30
0.0
  0
VERTEX
  5
2EBE
  8
0
 62
     0
 10
237.091339
 20
112.131655
 30
0.0
  0
VERTEX
  5
2EBF
  8
0
 62
     0
 10
237.105988
 20
112.350268
 30
0.0
  0
VERTEX
  5
2EC0
  8
0
 62
     0
 10
237.120495
 20
112.546623
 30
0.0
  0
VERTEX
  5
2EC1
  8
0
 62
     0
 10
237.13533
 20
112.729868
 30
0.0
  0
VERTEX
  5
2EC2
  8
0
 62
     0
 10
237.150793
 20
112.904513
 30
0.0
  0
VERTEX
  5
2EC3
  8
0
 62
     0
 10
237.167176
 20
113.073466
 30
0.0
  0
VERTEX
  5
2EC4
  8
0
 62
     0
 10
237.184754
 20
113.238357
 30
0.0
  0
VERTEX
  5
2EC5
  8
0
 62
     0
 10
237.203469
 20
113.397018
 30
0.0
  0
VERTEX
  5
2EC6
  8
0
 62
     0
 10
237.223055
 20
113.545984
 30
0.0
  0
VERTEX
  5
2EC7
  8
0
 62
     0
 10
237.24318
 20
113.682266
 30
0.0
  0
VERTEX
  5
2EC8
  8
0
 62
     0
 10
237.263487
 20
113.8035
 30
0.0
  0
VERTEX
  5
2EC9
  8
0
 62
     0
 10
237.283593
 20
113.908046
 30
0.0
  0
SEQEND
  5
2ECA
  8
0
 62
     0
  0
POLYLINE
  5
2844
  8
0
 62
     0
 66
     1
 10
0.0
 20
0.0
 30
0.0
  0
VERTEX
  5
2ECB
  8
0
 62
     0
 10
236.817737
 20
112.312984
 30
0.0
  0
VERTEX
  5
2ECC
  8
0
 62
     0
 10
236.771259
 20
112.330654
 30
0.0
  0
VERTEX
  5
2ECD
  8
0
 62
     0
 10
236.677707
 20
112.471187
 30
0.0
  0
VERTEX
  5
2ECE
  8
0
 62
     0
 10
236.586732
 20
112.747304
 30
0.0
  0
VERTEX
  5
2ECF
  8
0
 62
     0
 10
236.504385
 20
113.142684
 30
0.0
  0
VERTEX
  5
2ED0
  8
0
 62
     0
 10
236.434424
 20
113.643012
 30
0.0
  0
VERTEX
  5
2ED1
  8
0
 62
     0
 10
236.381514
 20
114.22159
 30
0.0
  0
VERTEX
  5
2ED2
  8
0
 62
     0
 10
236.348374
 20
114.856952
 30
0.0
  0
VERTEX
  5
2ED3
  8
0
 62
     0
 10
236.337153
 20
115.518172
 30
0.0
  0
SEQEND
  5
2ED4
  8
0
 62
     0
  0
LINE
  5
2845
  8
0
 62
     0
 10
239.5059
 20
109.368172
 30
0.0
 11
237.005249
 21
109.368172
 31
0.0
  0
LINE
  5
2846
  8
0
 62
     0
 10
237.004668
 20
108.568172
 30
0.0
 11
239.5059
 21
108.568172
 31
0.0
  0
LINE
  5
2847
  8
0
 62
     0
 10
236.765366
 20
107.585587
 30
0.0
 11
236.874406
 21
107.672018
 31
0.0
  0
LINE
  5
2848
  8
0
 62
     0
 10
236.874406
 20
107.672018
 30
0.0
 11
236.953316
 21
107.782551
 31
0.0
  0
LINE
  5
2849
  8
0
 62
     0
 10
237.009726
 20
108.018172
 30
0.0
 11
237.011252
 21
108.02164
 31
0.0
  0
LINE
  5
284A
  8
0
 62
     0
 10
236.953316
 20
107.782551
 30
0.0
 11
236.997443
 21
107.902685
 31
0.0
  0
LINE
  5
284B
  8
0
 62
     0
 10
236.997443
 20
107.902685
 30
0.0
 11
237.009726
 21
108.018172
 31
0.0
  0
POLYLINE
  5
284C
  8
0
 62
     0
 66
     1
 10
0.0
 20
0.0
 30
0.0
  0
VERTEX
  5
2ED5
  8
0
 62
     0
 10
237.009726
 20
108.018172
 30
0.0
  0
VERTEX
  5
2ED6
  8
0
 62
     0
 10
237.004961
 20
108.347304
 30
0.0
  0
VERTEX
  5
2ED7
  8
0
 62
     0
 10
237.002056
 20
108.68243
 30
0.0
  0
VERTEX
  5
2ED8
  8
0
 62
     0
 10
237.001085
 20
109.018172
 30
0.0
  0
SEQEND
  5
2ED9
  8
0
 62
     0
  0
POLYLINE
  5
284D
  8
0
 62
     0
 66
     1
 10
0.0
 20
0.0
 30
0.0
  0
VERTEX
  5
2EDA
  8
0
 62
     0
 10
237.011252
 20
108.021649
 30
0.0
  0
VERTEX
  5
2EDB
  8
0
 62
     0
 10
237.0067
 20
108.333467
 30
0.0
  0
VERTEX
  5
2EDC
  8
0
 62
     0
 10
237.003534
 20
108.699089
 30
0.0
  0
VERTEX
  5
2EDD
  8
0
 62
     0
 10
237.002655
 20
109.018172
 30
0.0
  0
SEQEND
  5
2EDE
  8
0
 62
     0
  0
POLYLINE
  5
284E
  8
0
 62
     0
 66
     1
 10
0.0
 20
0.0
 30
0.0
  0
VERTEX
  5
2EDF
  8
0
 62
     0
 10
237.603601
 20
108.368172
 30
0.0
  0
VERTEX
  5
2EE0
  8
0
 62
     0
 10
237.677231
 20
108.353065
 30
0.0
  0
VERTEX
  5
2EE1
  8
0
 62
     0
 10
237.734185
 20
108.317862
 30
0.0
  0
VERTEX
  5
2EE2
  8
0
 62
     0
 10
237.773409
 20
108.271625
 30
0.0
  0
VERTEX
  5
2EE3
  8
0
 62
     0
 10
237.796095
 20
108.220091
 30
0.0
  0
VERTEX
  5
2EE4
  8
0
 62
     0
 10
237.803588
 20
108.168172
 30
0.0
  0
SEQEND
  5
2EE5
  8
0
 62
     0
  0
LINE
  5
284F
  8
0
 62
     0
 10
237.001085
 20
109.018172
 30
0.0
 11
237.002655
 21
109.018172
 31
0.0
  0
LINE
  5
2850
  8
0
 62
     0
 10
237.0064
 20
108.368172
 30
0.0
 11
237.603601
 21
108.368172
 31
0.0
  0
LINE
  5
2851
  8
0
 62
     0
 10
238.8059
 20
107.568172
 30
0.0
 11
239.5059
 21
107.568172
 31
0.0
  0
LINE
  5
2852
  8
0
 62
     0
 10
237.328764
 20
114.053896
 30
0.0
 11
237.328168
 21
114.052198
 31
0.0
  0
LINE
  5
2853
  8
0
 62
     0
 10
237.321597
 20
114.065352
 30
0.0
 11
237.338702
 21
114.119254
 31
0.0
  0
LINE
  5
2854
  8
0
 62
     0
 10
237.338702
 20
114.119254
 30
0.0
 11
237.341306
 21
114.127786
 31
0.0
  0
LINE
  5
2855
  8
0
 62
     0
 10
237.328764
 20
114.053896
 30
0.0
 11
237.334857
 21
114.074561
 31
0.0
  0
LINE
  5
2856
  8
0
 62
     0
 10
237.303094
 20
113.995248
 30
0.0
 11
237.321597
 21
114.065352
 31
0.0
  0
LINE
  5
2857
  8
0
 62
     0
 10
237.283593
 20
113.908046
 30
0.0
 11
237.303094
 21
113.995248
 31
0.0
  0
LINE
  5
2858
  8
0
 62
     0
 10
237.338702
 20
114.119254
 30
0.0
 11
237.328764
 21
114.053896
 31
0.0
  0
LINE
  5
2859
  8
0
 62
     0
 10
237.334857
 20
114.074561
 30
0.0
 11
237.341307
 21
114.127969
 31
0.0
  0
LINE
  5
285A
  8
0
 62
     0
 10
237.341306
 20
114.127786
 30
0.0
 11
237.341308
 21
114.128058
 31
0.0
  0
LINE
  5
285B
  8
0
 62
     0
 10
238.3059
 20
117.168172
 30
0.0
 11
239.1059
 21
117.168172
 31
0.0
  0
LINE
  5
285C
  8
0
 62
     0
 10
239.5059
 20
114.858737
 30
0.0
 11
239.716831
 21
114.858737
 31
0.0
  0
LINE
  5
285D
  8
0
 62
     0
 10
239.5059
 20
114.659623
 30
0.0
 11
239.716831
 21
114.659623
 31
0.0
  0
LINE
  5
285E
  8
0
 62
     0
 10
241.10588
 20
112.168172
 30
0.0
 11
240.8559
 21
112.168172
 31
0.0
  0
ARC
  5
285F
  8
0
 62
     0
 10
240.6559
 20
113.968158
 30
0.0
 40
0.2
 50
0.003955
 51
90.0
  0
POLYLINE
  5
2860
  8
0
 62
     0
 66
     1
 10
0.0
 20
0.0
 30
0.0
  0
VERTEX
  5
2EE6
  8
0
 62
     0
 10
240.61328
 20
114.699814
 30
0.0
  0
VERTEX
  5
2EE7
  8
0
 62
     0
 10
240.584413
 20
114.609009
 30
0.0
  0
VERTEX
  5
2EE8
  8
0
 62
     0
 10
240.511791
 20
114.541528
 30
0.0
  0
VERTEX
  5
2EE9
  8
0
 62
     0
 10
240.414069
 20
114.514704
 30
0.0
  0
SEQEND
  5
2EEA
  8
0
 62
     0
  0
POLYLINE
  5
2861
  8
0
 62
     0
 66
     1
 10
0.0
 20
0.0
 30
0.0
  0
VERTEX
  5
2EEB
  8
0
 62
     0
 10
240.61328
 20
114.699814
 30
0.0
  0
VERTEX
  5
2EEC
  8
0
 62
     0
 10
240.631591
 20
114.603616
 30
0.0
  0
VERTEX
  5
2EED
  8
0
 62
     0
 10
240.650051
 20
114.479765
 30
0.0
  0
VERTEX
  5
2EEE
  8
0
 62
     0
 10
240.668099
 20
114.328904
 30
0.0
  0
VERTEX
  5
2EEF
  8
0
 62
     0
 10
240.684602
 20
114.160466
 30
0.0
  0
SEQEND
  5
2EF0
  8
0
 62
     0
  0
POLYLINE
  5
2862
  8
0
 62
     0
 66
     1
 10
0.0
 20
0.0
 30
0.0
  0
VERTEX
  5
2EF1
  8
0
 62
     0
 10
240.414069
 20
114.514704
 30
0.0
  0
VERTEX
  5
2EF2
  8
0
 62
     0
 10
240.431781
 20
114.429353
 30
0.0
  0
VERTEX
  5
2EF3
  8
0
 62
     0
 10
240.449639
 20
114.319537
 30
0.0
  0
VERTEX
  5
2EF4
  8
0
 62
     0
 10
240.46714
 20
114.185336
 30
0.0
  0
VERTEX
  5
2EF5
  8
0
 62
     0
 10
240.46897
 20
114.168172
 30
0.0
  0
SEQEND
  5
2EF6
  8
0
 62
     0
  0
LINE
  5
2863
  8
0
 62
     0
 10
242.934084
 20
127.668172
 30
0.0
 11
242.934084
 21
122.368172
 31
0.0
  0
LINE
  5
2864
  8
0
 62
     0
 10
241.244056
 20
122.368172
 30
0.0
 11
241.244056
 21
127.668172
 31
0.0
  0
LINE
  5
2865
  8
0
 62
     0
 10
239.1059
 20
118.168172
 30
0.0
 11
241.06228
 21
118.168172
 31
0.0
  0
LINE
  5
2866
  8
0
 62
     0
 10
239.861856
 20
120.590366
 30
0.0
 11
239.861856
 21
118.168172
 31
0.0
  0
LINE
  5
2867
  8
0
 62
     0
 10
239.716831
 20
120.582766
 30
0.0
 11
239.716831
 21
122.068172
 31
0.0
  0
LINE
  5
2868
  8
0
 62
     0
 10
239.359999
 20
120.564065
 30
0.0
 11
239.359999
 21
120.168172
 31
0.0
  0
LINE
  5
2869
  8
0
 62
     0
 10
239.1059
 20
120.550748
 30
0.0
 11
239.1059
 21
121.168172
 31
0.0
  0
LINE
  5
286A
  8
0
 62
     0
 10
239.1059
 20
121.168172
 30
0.0
 11
238.3059
 21
121.168172
 31
0.0
  0
LINE
  5
286B
  8
0
 62
     0
 10
239.861856
 20
120.168172
 30
0.0
 11
239.359999
 21
120.168172
 31
0.0
  0
POLYLINE
  5
286C
  8
0
 62
     0
 66
     1
 10
0.0
 20
0.0
 30
0.0
  0
VERTEX
  5
2EF7
  8
0
 62
     0
 10
242.934084
 20
122.368172
 30
0.0
  0
VERTEX
  5
2EF8
  8
0
 62
     0
 10
242.911237
 20
122.253516
 30
0.0
  0
VERTEX
  5
2EF9
  8
0
 62
     0
 10
242.846049
 20
122.156152
 30
0.0
  0
VERTEX
  5
2EFA
  8
0
 62
     0
 10
242.748448
 20
122.091069
 30
0.0
  0
VERTEX
  5
2EFB
  8
0
 62
     0
 10
242.633127
 20
122.068172
 30
0.0
  0
SEQEND
  5
2EFC
  8
0
 62
     0
  0
POLYLINE
  5
286D
  8
0
 62
     0
 66
     1
 10
0.0
 20
0.0
 30
0.0
  0
VERTEX
  5
2EFD
  8
0
 62
     0
 10
240.948459
 20
122.068172
 30
0.0
  0
VERTEX
  5
2EFE
  8
0
 62
     0
 10
241.061573
 20
122.091005
 30
0.0
  0
VERTEX
  5
2EFF
  8
0
 62
     0
 10
241.157471
 20
122.156034
 30
0.0
  0
VERTEX
  5
2F00
  8
0
 62
     0
 10
241.221553
 20
122.253361
 30
0.0
  0
VERTEX
  5
2F01
  8
0
 62
     0
 10
241.244056
 20
122.368172
 30
0.0
  0
SEQEND
  5
2F02
  8
0
 62
     0
  0
LINE
  5
286E
  8
0
 62
     0
 10
241.06228
 20
118.168172
 30
0.0
 11
241.06228
 21
119.053552
 31
0.0
  0
LINE
  5
286F
  8
0
 62
     0
 10
240.927598
 20
122.068172
 30
0.0
 11
240.927598
 21
120.846128
 31
0.0
  0
LINE
  5
2870
  8
0
 62
     0
 10
240.61328
 20
120.629747
 30
0.0
 11
240.61328
 21
122.068172
 31
0.0
  0
POLYLINE
  5
2871
  8
0
 62
     0
 66
     1
 10
0.0
 20
0.0
 30
0.0
  0
VERTEX
  5
2F03
  8
0
 62
     0
 10
240.938144
 20
120.646772
 30
0.0
  0
VERTEX
  5
2F04
  8
0
 62
     0
 10
240.934144
 20
120.661783
 30
0.0
  0
VERTEX
  5
2F05
  8
0
 62
     0
 10
240.930717
 20
120.704962
 30
0.0
  0
VERTEX
  5
2F06
  8
0
 62
     0
 10
240.92841
 20
120.769747
 30
0.0
  0
VERTEX
  5
2F07
  8
0
 62
     0
 10
240.927598
 20
120.846128
 30
0.0
  0
SEQEND
  5
2F08
  8
0
 62
     0
  0
LINE
  5
2872
  8
0
 62
     0
 10
243.4059
 20
136.168172
 30
0.0
 11
243.4059
 21
127.968172
 31
0.0
  0
LINE
  5
2873
  8
0
 62
     0
 10
243.1059
 20
136.468172
 30
0.0
 11
243.1059
 21
127.668172
 31
0.0
  0
LINE
  5
2874
  8
0
 62
     0
 10
241.244678
 20
127.668172
 30
0.0
 11
241.244678
 21
136.468172
 31
0.0
  0
LINE
  5
2875
  8
0
 62
     0
 10
243.1059
 20
127.668172
 30
0.0
 11
241.244678
 21
127.668172
 31
0.0
  0
ARC
  5
2876
  8
0
 62
     0
 10
243.1059
 20
127.968172
 30
0.0
 40
0.3
 50
270.0
 51
0.0
  0
LINE
  5
2877
  8
0
 62
     0
 10
243.1059
 20
136.468172
 30
0.0
 11
241.244685
 21
136.468172
 31
0.0
  0
ARC
  5
2878
  8
0
 62
     0
 10
243.1059
 20
136.168172
 30
0.0
 40
0.3
 50
0.0
 51
90.0
  0
ARC
  5
2879
  8
0
 62
     0
 10
260.6059
 20
120.07779
 30
0.0
 40
0.2
 50
273.0
 51
0.0
  0
LINE
  5
287A
  8
0
 62
     0
 10
260.8059
 20
120.07779
 30
0.0
 11
260.8059
 21
121.687997
 31
0.0
  0
LINE
  5
287B
  8
0
 62
     0
 10
260.0059
 20
120.046345
 30
0.0
 11
260.0059
 21
121.646071
 31
0.0
  0
POLYLINE
  5
287C
  8
0
 62
     0
 66
     1
 10
0.0
 20
0.0
 30
0.0
  0
VERTEX
  5
2F09
  8
0
 62
     0
 10
260.53505
 20
119.873803
 30
0.0
  0
VERTEX
  5
2F0A
  8
0
 62
     0
 10
260.454486
 20
119.879577
 30
0.0
  0
VERTEX
  5
2F0B
  8
0
 62
     0
 10
260.360145
 20
119.902694
 30
0.0
  0
VERTEX
  5
2F0C
  8
0
 62
     0
 10
260.253389
 20
119.940167
 30
0.0
  0
VERTEX
  5
2F0D
  8
0
 62
     0
 10
260.132676
 20
119.990123
 30
0.0
  0
VERTEX
  5
2F0E
  8
0
 62
     0
 10
260.0059
 20
120.046345
 30
0.0
  0
SEQEND
  5
2F0F
  8
0
 62
     0
  0
ARC
  5
287D
  8
0
 62
     0
 10
266.1059
 20
122.166033
 30
0.0
 40
0.2
 50
273.0
 51
0.0
  0
POLYLINE
  5
287E
  8
0
 62
     0
 66
     1
 10
0.0
 20
0.0
 30
0.0
  0
VERTEX
  5
2F10
  8
0
 62
     0
 10
265.344287
 20
121.925844
 30
0.0
  0
VERTEX
  5
2F11
  8
0
 62
     0
 10
265.346365
 20
121.952724
 30
0.0
  0
VERTEX
  5
2F12
  8
0
 62
     0
 10
265.345088
 20
122.025812
 30
0.0
  0
VERTEX
  5
2F13
  8
0
 62
     0
 10
265.3408
 20
122.12557
 30
0.0
  0
SEQEND
  5
2F14
  8
0
 62
     0
  0
LINE
  5
287F
  8
0
 62
     0
 10
266.3059
 20
122.166033
 30
0.0
 11
265.3408
 21
122.12557
 31
0.0
  0
LINE
  5
2880
  8
0
 62
     0
 10
242.959208
 20
141.268172
 30
0.0
 11
265.8059
 21
141.268172
 31
0.0
  0
LINE
  5
2881
  8
0
 62
     0
 10
242.934084
 20
140.768172
 30
0.0
 11
266.3059
 21
140.768172
 31
0.0
  0
ARC
  5
2882
  8
0
 62
     0
 10
239.90223
 20
157.668172
 30
0.0
 40
2.1
 50
209.011719
 51
245.0
  0
ARC
  5
2883
  8
0
 62
     0
 10
239.90223
 20
157.668172
 30
0.0
 40
1.8
 50
190.03863
 51
330.0
  0
LINE
  5
2884
  8
0
 62
     0
 10
237.092441
 20
147.514354
 30
0.0
 11
239.9059
 21
173.968172
 31
0.0
  0
LINE
  5
2885
  8
0
 62
     0
 10
236.794123
 20
147.546082
 30
0.0
 11
239.6059
 21
173.98408
 31
0.0
  0
LINE
  5
2886
  8
0
 62
     0
 10
243.1059
 20
160.802146
 30
0.0
 11
243.1059
 21
150.568172
 31
0.0
  0
LINE
  5
2887
  8
0
 62
     0
 10
241.689791
 20
160.802146
 30
0.0
 11
241.689791
 21
154.324853
 31
0.0
  0
POLYLINE
  5
2888
  8
0
 62
     0
 66
     1
 10
0.0
 20
0.0
 30
0.0
  0
VERTEX
  5
2F15
  8
0
 62
     0
 10
237.846645
 20
144.117144
 30
0.0
  0
VERTEX
  5
2F16
  8
0
 62
     0
 10
238.770088
 20
144.748933
 30
0.0
  0
VERTEX
  5
2F17
  8
0
 62
     0
 10
239.490701
 20
145.441905
 30
0.0
  0
VERTEX
  5
2F18
  8
0
 62
     0
 10
240.000787
 20
146.173769
 30
0.0
  0
VERTEX
  5
2F19
  8
0
 62
     0
 10
240.296059
 20
146.905556
 30
0.0
  0
VERTEX
  5
2F1A
  8
0
 62
     0
 10
240.397668
 20
147.647067
 30
0.0
  0
VERTEX
  5
2F1B
  8
0
 62
     0
 10
240.306887
 20
148.389253
 30
0.0
  0
VERTEX
  5
2F1C
  8
0
 62
     0
 10
240.023013
 20
149.121042
 30
0.0
  0
VERTEX
  5
2F1D
  8
0
 62
     0
 10
239.525466
 20
149.853558
 30
0.0
  0
VERTEX
  5
2F1E
  8
0
 62
     0
 10
238.81633
 20
150.54967
 30
0.0
  0
VERTEX
  5
2F1F
  8
0
 62
     0
 10
237.904422
 20
151.185259
 30
0.0
  0
VERTEX
  5
2F20
  8
0
 62
     0
 10
237.504249
 20
151.386415
 30
0.0
  0
SEQEND
  5
2F21
  8
0
 62
     0
  0
LINE
  5
2889
  8
0
 62
     0
 10
242.9059
 20
150.568172
 30
0.0
 11
242.9059
 21
142.168172
 31
0.0
  0
LINE
  5
288A
  8
0
 62
     0
 10
241.249699
 20
150.568172
 30
0.0
 11
241.249699
 21
143.698649
 31
0.0
  0
LINE
  5
288B
  8
0
 62
     0
 10
240.741297
 20
143.788294
 30
0.0
 11
240.741297
 21
154.739139
 31
0.0
  0
POLYLINE
  5
288C
  8
0
 62
     0
 66
     1
 10
0.0
 20
0.0
 30
0.0
  0
VERTEX
  5
2F22
  8
0
 62
     0
 10
237.518001
 20
151.515724
 30
0.0
  0
VERTEX
  5
2F23
  8
0
 62
     0
 10
238.114473
 20
151.199799
 30
0.0
  0
VERTEX
  5
2F24
  8
0
 62
     0
 10
239.105771
 20
150.476835
 30
0.0
  0
VERTEX
  5
2F25
  8
0
 62
     0
 10
239.860599
 20
149.663235
 30
0.0
  0
VERTEX
  5
2F26
  8
0
 62
     0
 10
240.301612
 20
148.904935
 30
0.0
  0
VERTEX
  5
2F27
  8
0
 62
     0
 10
240.527157
 20
148.146255
 30
0.0
  0
VERTEX
  5
2F28
  8
0
 62
     0
 10
240.551836
 20
147.377913
 30
0.0
  0
VERTEX
  5
2F29
  8
0
 62
     0
 10
240.398273
 20
146.680264
 30
0.0
  0
VERTEX
  5
2F2A
  8
0
 62
     0
 10
240.134974
 20
146.096522
 30
0.0
  0
VERTEX
  5
2F2B
  8
0
 62
     0
 10
239.726939
 20
145.500532
 30
0.0
  0
VERTEX
  5
2F2C
  8
0
 62
     0
 10
239.081141
 20
144.837972
 30
0.0
  0
VERTEX
  5
2F2D
  8
0
 62
     0
 10
238.257982
 20
144.226169
 30
0.0
  0
SEQEND
  5
2F2E
  8
0
 62
     0
  0
POLYLINE
  5
288D
  8
0
 62
     0
 66
     1
 10
0.0
 20
0.0
 30
0.0
  0
VERTEX
  5
2F2F
  8
0
 62
     0
 10
237.518002
 20
151.515732
 30
0.0
  0
VERTEX
  5
2F30
  8
0
 62
     0
 10
238.111199
 20
151.201796
 30
0.0
  0
VERTEX
  5
2F31
  8
0
 62
     0
 10
239.102083
 20
150.480075
 30
0.0
  0
VERTEX
  5
2F32
  8
0
 62
     0
 10
239.858351
 20
149.666285
 30
0.0
  0
VERTEX
  5
2F33
  8
0
 62
     0
 10
240.300469
 20
148.907564
 30
0.0
  0
VERTEX
  5
2F34
  8
0
 62
     0
 10
240.526768
 20
148.148622
 30
0.0
  0
VERTEX
  5
2F35
  8
0
 62
     0
 10
240.552032
 20
147.379899
 30
0.0
  0
VERTEX
  5
2F36
  8
0
 62
     0
 10
240.39864
 20
146.681335
 30
0.0
  0
VERTEX
  5
2F37
  8
0
 62
     0
 10
240.135494
 20
146.097447
 30
0.0
  0
VERTEX
  5
2F38
  8
0
 62
     0
 10
239.727651
 20
145.501408
 30
0.0
  0
VERTEX
  5
2F39
  8
0
 62
     0
 10
239.081282
 20
144.838095
 30
0.0
  0
SEQEND
  5
2F3A
  8
0
 62
     0
  0
POLYLINE
  5
288E
  8
0
 62
     0
 66
     1
 10
0.0
 20
0.0
 30
0.0
  0
VERTEX
  5
2F3B
  8
0
 62
     0
 10
240.750616
 20
142.168172
 30
0.0
  0
VERTEX
  5
2F3C
  8
0
 62
     0
 10
240.586304
 20
142.200403
 30
0.0
  0
VERTEX
  5
2F3D
  8
0
 62
     0
 10
240.408306
 20
142.273546
 30
0.0
  0
VERTEX
  5
2F3E
  8
0
 62
     0
 10
240.223225
 20
142.366948
 30
0.0
  0
VERTEX
  5
2F3F
  8
0
 62
     0
 10
240.036473
 20
142.468172
 30
0.0
  0
SEQEND
  5
2F40
  8
0
 62
     0
  0
LINE
  5
288F
  8
0
 62
     0
 10
238.257983
 20
144.226169
 30
0.0
 11
241.249699
 21
143.698649
 31
0.0
  0
LINE
  5
2890
  8
0
 62
     0
 10
236.711231
 20
143.438933
 30
0.0
 11
236.711231
 21
143.457113
 31
0.0
  0
LINE
  5
2891
  8
0
 62
     0
 10
236.451074
 20
143.468172
 30
0.0
 11
236.740542
 21
143.468172
 31
0.0
  0
LINE
  5
2892
  8
0
 62
     0
 10
236.278048
 20
143.408343
 30
0.0
 11
236.586247
 21
143.409957
 31
0.0
  0
LINE
  5
2893
  8
0
 62
     0
 10
239.081282
 20
144.838095
 30
0.0
 11
238.257982
 21
144.226169
 31
0.0
  0
LINE
  5
2894
  8
0
 62
     0
 10
240.088299
 20
142.168172
 30
0.0
 11
240.088299
 21
143.903435
 31
0.0
  0
LINE
  5
2895
  8
0
 62
     0
 10
240.068758
 20
146.342224
 30
0.0
 11
240.068758
 21
145.999915
 31
0.0
  0
LINE
  5
2896
  8
0
 62
     0
 10
240.036473
 20
142.468172
 30
0.0
 11
240.036473
 21
143.912573
 31
0.0
  0
LINE
  5
2897
  8
0
 62
     0
 10
239.711231
 20
145.758318
 30
0.0
 11
239.711231
 21
145.481315
 31
0.0
  0
LINE
  5
2898
  8
0
 62
     0
 10
239.3059
 20
145.068601
 30
0.0
 11
239.3059
 21
145.264192
 31
0.0
  0
POLYLINE
  5
2899
  8
0
 62
     0
 66
     1
 10
0.0
 20
0.0
 30
0.0
  0
VERTEX
  5
2F41
  8
0
 62
     0
 10
240.948459
 20
141.668172
 30
0.0
  0
VERTEX
  5
2F42
  8
0
 62
     0
 10
241.061579
 20
141.645336
 30
0.0
  0
VERTEX
  5
2F43
  8
0
 62
     0
 10
241.157477
 20
141.580304
 30
0.0
  0
VERTEX
  5
2F44
  8
0
 62
     0
 10
241.221555
 20
141.482977
 30
0.0
  0
VERTEX
  5
2F45
  8
0
 62
     0
 10
241.244056
 20
141.368172
 30
0.0
  0
SEQEND
  5
2F46
  8
0
 62
     0
  0
ARC
  5
289A
  8
0
 62
     0
 10
242.8059
 20
141.368172
 30
0.0
 40
0.3
 50
0.0
 51
90.0
  0
POLYLINE
  5
289B
  8
0
 62
     0
 66
     1
 10
0.0
 20
0.0
 30
0.0
  0
VERTEX
  5
2F47
  8
0
 62
     0
 10
242.934084
 20
140.768172
 30
0.0
  0
VERTEX
  5
2F48
  8
0
 62
     0
 10
242.935348
 20
140.921977
 30
0.0
  0
VERTEX
  5
2F49
  8
0
 62
     0
 10
242.939057
 20
141.062658
 30
0.0
  0
VERTEX
  5
2F4A
  8
0
 62
     0
 10
242.944627
 20
141.171929
 30
0.0
  0
VERTEX
  5
2F4B
  8
0
 62
     0
 10
242.951665
 20
141.243784
 30
0.0
  0
VERTEX
  5
2F4C
  8
0
 62
     0
 10
242.959202
 20
141.268172
 30
0.0
  0
SEQEND
  5
2F4D
  8
0
 62
     0
  0
LINE
  5
289C
  8
0
 62
     0
 10
243.1059
 20
141.368172
 30
0.0
 11
243.1059
 21
141.268172
 31
0.0
  0
LINE
  5
289D
  8
0
 62
     0
 10
242.1059
 20
142.168172
 30
0.0
 11
242.1059
 21
141.868172
 31
0.0
  0
LINE
  5
289E
  8
0
 62
     0
 10
241.073907
 20
142.468172
 30
0.0
 11
241.073907
 21
143.729645
 31
0.0
  0
LINE
  5
289F
  8
0
 62
     0
 10
241.021672
 20
142.168172
 30
0.0
 11
241.021672
 21
143.738856
 31
0.0
  0
LINE
  5
28A0
  8
0
 62
     0
 10
240.42556
 20
141.868172
 30
0.0
 11
240.42556
 21
142.168172
 31
0.0
  0
LINE
  5
28A1
  8
0
 62
     0
 10
240.375798
 20
141.868172
 30
0.0
 11
240.375798
 21
142.168172
 31
0.0
  0
LINE
  5
28A2
  8
0
 62
     0
 10
242.105846
 20
141.868172
 30
0.0
 11
240.42556
 21
141.868172
 31
0.0
  0
LINE
  5
28A3
  8
0
 62
     0
 10
239.014731
 20
155.764925
 30
0.0
 11
241.689791
 21
154.517524
 31
0.0
  0
LINE
  5
28A4
  8
0
 62
     0
 10
240.741297
 20
154.739139
 30
0.0
 11
238.930208
 21
155.583664
 31
0.0
  0
LINE
  5
28A5
  8
0
 62
     0
 10
240.741297
 20
154.628801
 30
0.0
 11
238.887946
 21
155.493033
 31
0.0
  0
LINE
  5
28A6
  8
0
 62
     0
 10
236.794123
 20
147.546082
 30
0.0
 11
237.092441
 21
147.514354
 31
0.0
  0
LINE
  5
28A7
  8
0
 62
     0
 10
240.068758
 20
149.349919
 30
0.0
 11
240.068758
 21
149.00312
 31
0.0
  0
LINE
  5
28A8
  8
0
 62
     0
 10
239.711231
 20
149.855029
 30
0.0
 11
239.711231
 21
149.580065
 31
0.0
  0
LINE
  5
28A9
  8
0
 62
     0
 10
238.591549
 20
150.70634
 30
0.0
 11
238.211176
 21
151.128976
 31
0.0
  0
ARC
  5
28AA
  8
0
 62
     0
 10
239.90223
 20
157.668172
 30
0.0
 40
2.399999
 50
217.893828
 51
245.0
  0
ARC
  5
28AB
  8
0
 62
     0
 10
239.90223
 20
157.668172
 30
0.0
 40
2.299999
 50
215.16057
 51
245.0
  0
LINE
  5
28AC
  8
0
 62
     0
 10
238.887946
 20
155.493033
 30
0.0
 11
239.014731
 21
155.764925
 31
0.0
  0
LINE
  5
28AD
  8
0
 62
     0
 10
241.531418
 20
150.568172
 30
0.0
 11
241.531418
 21
154.591375
 31
0.0
  0
LINE
  5
28AE
  8
0
 62
     0
 10
243.105852
 20
150.568172
 30
0.0
 11
241.249704
 21
150.568172
 31
0.0
  0
LINE
  5
28AF
  8
0
 62
     0
 10
241.668361
 20
154.436072
 30
0.0
 11
241.689791
 21
154.324853
 31
0.0
  0
LINE
  5
28B0
  8
0
 62
     0
 10
240.741297
 20
154.628801
 30
0.0
 11
240.868082
 21
154.900693
 31
0.0
  0
LINE
  5
28B1
  8
0
 62
     0
 10
241.689791
 20
154.324853
 30
0.0
 11
241.531418
 21
154.398527
 31
0.0
  0
LINE
  5
28B2
  8
0
 62
     0
 10
241.531418
 20
154.398527
 30
0.0
 11
240.741297
 21
154.628801
 31
0.0
  0
POLYLINE
  5
28B3
  8
0
 62
     0
 66
     1
 10
0.0
 20
0.0
 30
0.0
  0
VERTEX
  5
2F4E
  8
0
 62
     0
 10
240.741297
 20
154.739139
 30
0.0
  0
VERTEX
  5
2F4F
  8
0
 62
     0
 10
240.932769
 20
154.753124
 30
0.0
  0
VERTEX
  5
2F50
  8
0
 62
     0
 10
241.113836
 20
154.751181
 30
0.0
  0
VERTEX
  5
2F51
  8
0
 62
     0
 10
241.270447
 20
154.713068
 30
0.0
  0
SEQEND
  5
2F52
  8
0
 62
     0
  0
LINE
  5
28B4
  8
0
 62
     0
 10
239.90223
 20
173.168172
 30
0.0
 11
239.001387
 21
165.463401
 31
0.0
  0
LINE
  5
28B5
  8
0
 62
     0
 10
243.056073
 20
162.718727
 30
0.0
 11
243.056073
 21
169.601107
 31
0.0
  0
LINE
  5
28B6
  8
0
 62
     0
 10
240.17274
 20
161.668172
 30
0.0
 11
241.689791
 21
160.802146
 31
0.0
  0
LINE
  5
28B7
  8
0
 62
     0
 10
240.17274
 20
161.668172
 30
0.0
 11
241.6059
 21
161.668172
 31
0.0
  0
LINE
  5
28B8
  8
0
 62
     0
 10
241.6059
 20
161.668172
 30
0.0
 11
243.1059
 21
160.802146
 31
0.0
  0
LINE
  5
28B9
  8
0
 62
     0
 10
241.689791
 20
160.802146
 30
0.0
 11
243.1059
 21
160.802146
 31
0.0
  0
ARC
  5
28BA
  8
0
 62
     0
 10
239.90223
 20
157.668172
 30
0.0
 40
1.8
 50
13.469477
 51
17.070147
  0
LINE
  5
28BB
  8
0
 62
     0
 10
241.461075
 20
156.768172
 30
0.0
 11
241.652719
 21
157.100109
 31
0.0
  0
LINE
  5
28BC
  8
0
 62
     0
 10
241.652719
 20
157.100109
 30
0.0
 11
241.652719
 21
158.087441
 31
0.0
  0
LINE
  5
28BD
  8
0
 62
     0
 10
241.756073
 20
161.968172
 30
0.0
 11
243.056073
 21
162.718727
 31
0.0
  0
LINE
  5
28BE
  8
0
 62
     0
 10
241.6059
 20
161.668172
 30
0.0
 11
241.6059
 21
161.968172
 31
0.0
  0
LINE
  5
28BF
  8
0
 62
     0
 10
240.484043
 20
161.968172
 30
0.0
 11
241.756073
 21
161.968172
 31
0.0
  0
LINE
  5
28C0
  8
0
 62
     0
 10
239.90223
 20
173.168172
 30
0.0
 11
239.90223
 21
173.933658
 31
0.0
  0
LINE
  5
28C1
  8
0
 62
     0
 10
239.9059
 20
173.968172
 30
0.0
 11
239.6059
 21
173.98408
 31
0.0
  0
ARC
  5
28C2
  8
0
 62
     0
 10
242.8059
 20
171.368172
 30
0.0
 40
1.1
 50
270.0
 51
90.0
  0
ARC
  5
28C3
  8
0
 62
     0
 10
242.8059
 20
171.368172
 30
0.0
 40
1.8
 50
270.0
 51
90.0
  0
POLYLINE
  5
28C4
  8
0
 62
     0
 66
     1
 10
0.0
 20
0.0
 30
0.0
  0
VERTEX
  5
2F53
  8
0
 62
     0
 10
242.566254
 20
169.077876
 30
0.0
  0
VERTEX
  5
2F54
  8
0
 62
     0
 10
242.506121
 20
169.264473
 30
0.0
  0
VERTEX
  5
2F55
  8
0
 62
     0
 10
242.452467
 20
169.5099
 30
0.0
  0
VERTEX
  5
2F56
  8
0
 62
     0
 10
242.40514
 20
169.805223
 30
0.0
  0
VERTEX
  5
2F57
  8
0
 62
     0
 10
242.366409
 20
170.132457
 30
0.0
  0
VERTEX
  5
2F58
  8
0
 62
     0
 10
242.337342
 20
170.476896
 30
0.0
  0
VERTEX
  5
2F59
  8
0
 62
     0
 10
242.317994
 20
170.831646
 30
0.0
  0
VERTEX
  5
2F5A
  8
0
 62
     0
 10
242.308309
 20
171.19589
 30
0.0
  0
VERTEX
  5
2F5B
  8
0
 62
     0
 10
242.308523
 20
171.559052
 30
0.0
  0
VERTEX
  5
2F5C
  8
0
 62
     0
 10
242.318604
 20
171.921201
 30
0.0
  0
VERTEX
  5
2F5D
  8
0
 62
     0
 10
242.338269
 20
172.27219
 30
0.0
  0
VERTEX
  5
2F5E
  8
0
 62
     0
 10
242.367583
 20
172.6117
 30
0.0
  0
VERTEX
  5
2F5F
  8
0
 62
     0
 10
242.406443
 20
172.932655
 30
0.0
  0
VERTEX
  5
2F60
  8
0
 62
     0
 10
242.453704
 20
173.220572
 30
0.0
  0
VERTEX
  5
2F61
  8
0
 62
     0
 10
242.507086
 20
173.458526
 30
0.0
  0
SEQEND
  5
2F62
  8
0
 62
     0
  0
LINE
  5
28C5
  8
0
 62
     0
 10
243.056073
 20
170.304141
 30
0.0
 11
243.056073
 21
172.432202
 31
0.0
  0
POLYLINE
  5
28C6
  8
0
 62
     0
 66
     1
 10
0.0
 20
0.0
 30
0.0
  0
VERTEX
  5
2F63
  8
0
 62
     0
 10
242.881558
 20
172.342288
 30
0.0
  0
VERTEX
  5
2F64
  8
0
 62
     0
 10
242.89276
 20
171.95969
 30
0.0
  0
VERTEX
  5
2F65
  8
0
 62
     0
 10
242.898175
 20
171.567809
 30
0.0
  0
VERTEX
  5
2F66
  8
0
 62
     0
 10
242.898223
 20
171.178468
 30
0.0
  0
VERTEX
  5
2F67
  8
0
 62
     0
 10
242.892876
 20
170.783593
 30
0.0
  0
VERTEX
  5
2F68
  8
0
 62
     0
 10
242.881594
 20
170.393845
 30
0.0
  0
SEQEND
  5
2F69
  8
0
 62
     0
  0
POLYLINE
  5
28C7
  8
0
 62
     0
 66
     1
 10
0.0
 20
0.0
 30
0.0
  0
VERTEX
  5
2F6A
  8
0
 62
     0
 10
242.825295
 20
169.565939
 30
0.0
  0
VERTEX
  5
2F6B
  8
0
 62
     0
 10
242.80363
 20
169.377707
 30
0.0
  0
VERTEX
  5
2F6C
  8
0
 62
     0
 10
242.758635
 20
169.141087
 30
0.0
  0
VERTEX
  5
2F6D
  8
0
 62
     0
 10
242.701405
 20
168.994831
 30
0.0
  0
VERTEX
  5
2F6E
  8
0
 62
     0
 10
242.63134
 20
168.975344
 30
0.0
  0
SEQEND
  5
2F6F
  8
0
 62
     0
  0
LINE
  5
28C8
  8
0
 62
     0
 10
242.354956
 20
170.268172
 30
0.0
 11
242.8059
 21
170.268172
 31
0.0
  0
LINE
  5
28C9
  8
0
 62
     0
 10
242.8059
 20
169.568172
 30
0.0
 11
242.443129
 21
169.568172
 31
0.0
  0
LINE
  5
28CA
  8
0
 62
     0
 10
242.63134
 20
168.975344
 30
0.0
 11
242.566254
 21
169.077876
 31
0.0
  0
LINE
  5
28CB
  8
0
 62
     0
 10
242.513545
 20
169.241436
 30
0.0
 11
242.593093
 21
169.168172
 31
0.0
  0
LINE
  5
28CC
  8
0
 62
     0
 10
242.593093
 20
169.168172
 30
0.0
 11
242.537155
 21
169.168172
 31
0.0
  0
LINE
  5
28CD
  8
0
 62
     0
 10
242.881594
 20
170.393845
 30
0.0
 11
242.876038
 21
170.278256
 31
0.0
  0
POLYLINE
  5
28CE
  8
0
 62
     0
 66
     1
 10
0.0
 20
0.0
 30
0.0
  0
VERTEX
  5
2F70
  8
0
 62
     0
 10
242.63134
 20
173.73763
 30
0.0
  0
VERTEX
  5
2F71
  8
0
 62
     0
 10
242.701235
 20
173.718842
 30
0.0
  0
VERTEX
  5
2F72
  8
0
 62
     0
 10
242.758454
 20
173.576377
 30
0.0
  0
VERTEX
  5
2F73
  8
0
 62
     0
 10
242.803506
 20
173.344714
 30
0.0
  0
VERTEX
  5
2F74
  8
0
 62
     0
 10
242.823965
 20
173.170291
 30
0.0
  0
SEQEND
  5
2F75
  8
0
 62
     0
  0
LINE
  5
28CF
  8
0
 62
     0
 10
242.8059
 20
173.168172
 30
0.0
 11
242.445103
 21
173.168172
 31
0.0
  0
LINE
  5
28D0
  8
0
 62
     0
 10
242.8059
 20
172.468172
 30
0.0
 11
242.355191
 21
172.468172
 31
0.0
  0
POLYLINE
  5
28D1
  8
0
 62
     0
 66
     1
 10
0.0
 20
0.0
 30
0.0
  0
VERTEX
  5
2F76
  8
0
 62
     0
 10
242.507086
 20
173.458526
 30
0.0
  0
VERTEX
  5
2F77
  8
0
 62
     0
 10
242.566795
 20
173.638752
 30
0.0
  0
VERTEX
  5
2F78
  8
0
 62
     0
 10
242.63134
 20
173.73763
 30
0.0
  0
SEQEND
  5
2F79
  8
0
 62
     0
  0
LINE
  5
28D2
  8
0
 62
     0
 10
242.617563
 20
173.568172
 30
0.0
 11
242.512308
 21
173.474287
 31
0.0
  0
LINE
  5
28D3
  8
0
 62
     0
 10
242.543412
 20
173.568172
 30
0.0
 11
242.617563
 21
173.568172
 31
0.0
  0
LINE
  5
28D4
  8
0
 62
     0
 10
242.875926
 20
172.458103
 30
0.0
 11
242.881558
 21
172.342288
 31
0.0
  0
ARC
  5
28D5
  8
0
 62
     0
 10
267.0559
 20
138.368172
 30
0.0
 40
1.25
 50
126.869898
 51
233.130102
  0
ARC
  5
28D6
  8
0
 62
     0
 10
265.8059
 20
140.768172
 30
0.0
 40
0.5
 50
0.0
 51
90.0
  0
LINE
  5
28D7
  8
0
 62
     0
 10
266.3059
 20
140.768172
 30
0.0
 11
266.3059
 21
139.368172
 31
0.0
  0
LINE
  5
28D8
  8
0
 62
     0
 10
266.0559
 20
137.624771
 30
0.0
 11
266.0559
 21
139.111692
 31
0.0
  0
POLYLINE
  5
28D9
  8
0
 62
     0
 66
     1
 10
0.0
 20
0.0
 30
0.0
  0
VERTEX
  5
2F7A
  8
0
 62
     0
 10
265.32335
 20
141.268172
 30
0.0
  0
VERTEX
  5
2F7B
  8
0
 62
     0
 10
265.330027
 20
141.230114
 30
0.0
  0
VERTEX
  5
2F7C
  8
0
 62
     0
 10
265.335689
 20
141.121731
 30
0.0
  0
VERTEX
  5
2F7D
  8
0
 62
     0
 10
265.339471
 20
140.959519
 30
0.0
  0
VERTEX
  5
2F7E
  8
0
 62
     0
 10
265.3408
 20
140.768172
 30
0.0
  0
SEQEND
  5
2F7F
  8
0
 62
     0
  0
ARC
  5
28DA
  8
0
 62
     0
 10
234.8059
 20
190.702471
 30
0.0
 40
1.6
 50
243.0
 51
328.571288
  0
ARC
  5
28DB
  8
0
 62
     0
 10
234.8059
 20
190.702471
 30
0.0
 40
1.3
 50
243.0
 51
335.732347
  0
LINE
  5
28DC
  8
0
 62
     0
 10
217.6059
 20
228.168172
 30
0.0
 11
243.1059
 21
228.168172
 31
0.0
  0
LINE
  5
28DD
  8
0
 62
     0
 10
218.3059
 20
206.068172
 30
0.0
 11
243.105956
 21
206.068172
 31
0.0
  0
LINE
  5
28DE
  8
0
 62
     0
 10
222.1059
 20
205.568172
 30
0.0
 11
242.105843
 21
205.568172
 31
0.0
  0
LINE
  5
28DF
  8
0
 62
     0
 10
219.8059
 20
205.268172
 30
0.0
 11
242.805743
 21
205.268172
 31
0.0
  0
LINE
  5
28E0
  8
0
 62
     0
 10
219.6059
 20
204.968172
 30
0.0
 11
243.1059
 21
204.968172
 31
0.0
  0
LINE
  5
28E1
  8
0
 62
     0
 10
240.282642
 20
190.912705
 30
0.0
 11
230.8059
 21
190.912705
 31
0.0
  0
LINE
  5
28E2
  8
0
 62
     0
 10
240.282642
 20
190.613116
 30
0.0
 11
231.504326
 21
190.613116
 31
0.0
  0
LINE
  5
28E3
  8
0
 62
     0
 10
238.5059
 20
190.596571
 30
0.0
 11
231.722415
 21
190.596571
 31
0.0
  0
LINE
  5
28E4
  8
0
 62
     0
 10
219.6059
 20
182.168172
 30
0.0
 11
219.1059
 21
182.168172
 31
0.0
  0
LINE
  5
28E5
  8
0
 62
     0
 10
231.9059
 20
189.268739
 30
0.0
 11
231.9059
 21
190.596571
 31
0.0
  0
LINE
  5
28E6
  8
0
 62
     0
 10
231.722415
 20
190.596571
 30
0.0
 11
231.722415
 21
190.418695
 31
0.0
  0
ARC
  5
28E7
  8
0
 62
     0
 10
233.3059
 20
189.168172
 30
0.0
 40
0.7
 50
113.202134
 51
180.0
  0
ARC
  5
28E8
  8
0
 62
     0
 10
233.3059
 20
189.168172
 30
0.0
 40
1.0
 50
104.577672
 51
180.0
  0
LINE
  5
28E9
  8
0
 62
     0
 10
231.9059
 20
189.268739
 30
0.0
 11
232.26987
 21
188.268739
 31
0.0
  0
POLYLINE
  5
28EA
  8
0
 62
     0
 66
     1
 10
0.0
 20
0.0
 30
0.0
  0
VERTEX
  5
2F80
  8
0
 62
     0
 10
231.722415
 20
190.418695
 30
0.0
  0
VERTEX
  5
2F81
  8
0
 62
     0
 10
231.768493
 20
190.41314
 30
0.0
  0
VERTEX
  5
2F82
  8
0
 62
     0
 10
231.796502
 20
190.406843
 30
0.0
  0
VERTEX
  5
2F83
  8
0
 62
     0
 10
231.8059
 20
190.399921
 30
0.0
  0
SEQEND
  5
2F84
  8
0
 62
     0
  0
LINE
  5
28EB
  8
0
 62
     0
 10
232.6059
 20
189.168172
 30
0.0
 11
232.3059
 21
189.168172
 31
0.0
  0
LINE
  5
28EC
  8
0
 62
     0
 10
232.3059
 20
188.268739
 30
0.0
 11
232.26987
 21
188.268739
 31
0.0
  0
LINE
  5
28ED
  8
0
 62
     0
 10
232.3059
 20
187.668172
 30
0.0
 11
231.8059
 21
187.668172
 31
0.0
  0
LINE
  5
28EE
  8
0
 62
     0
 10
232.3059
 20
187.368172
 30
0.0
 11
231.8059
 21
187.368172
 31
0.0
  0
LINE
  5
28EF
  8
0
 62
     0
 10
231.9059
 20
190.342274
 30
0.0
 11
231.8059
 21
190.339652
 31
0.0
  0
LINE
  5
28F0
  8
0
 62
     0
 10
234.215713
 20
189.544163
 30
0.0
 11
233.054208
 21
190.135979
 31
0.0
  0
LINE
  5
28F1
  8
0
 62
     0
 10
234.079515
 20
189.276861
 30
0.0
 11
233.030117
 21
189.811556
 31
0.0
  0
POLYLINE
  5
28F2
  8
0
 62
     0
 66
     1
 10
0.0
 20
0.0
 30
0.0
  0
VERTEX
  5
2F85
  8
0
 62
     0
 10
233.030117
 20
189.811556
 30
0.0
  0
VERTEX
  5
2F86
  8
0
 62
     0
 10
233.036067
 20
189.930634
 30
0.0
  0
VERTEX
  5
2F87
  8
0
 62
     0
 10
233.044246
 20
190.0357
 30
0.0
  0
VERTEX
  5
2F88
  8
0
 62
     0
 10
233.051354
 20
190.109146
 30
0.0
  0
VERTEX
  5
2F89
  8
0
 62
     0
 10
233.054208
 20
190.135979
 30
0.0
  0
SEQEND
  5
2F8A
  8
0
 62
     0
  0
LINE
  5
28F3
  8
0
 62
     0
 10
234.079515
 20
189.276861
 30
0.0
 11
234.215713
 21
189.544163
 31
0.0
  0
POLYLINE
  5
28F4
  8
0
 62
     0
 66
     1
 10
0.0
 20
0.0
 30
0.0
  0
VERTEX
  5
2F8B
  8
0
 62
     0
 10
231.504307
 20
190.613116
 30
0.0
  0
VERTEX
  5
2F8C
  8
0
 62
     0
 10
231.342493
 20
190.649437
 30
0.0
  0
VERTEX
  5
2F8D
  8
0
 62
     0
 10
231.168442
 20
190.722465
 30
0.0
  0
VERTEX
  5
2F8E
  8
0
 62
     0
 10
230.98798
 20
190.813961
 30
0.0
  0
VERTEX
  5
2F8F
  8
0
 62
     0
 10
230.8059
 20
190.912705
 30
0.0
  0
SEQEND
  5
2F90
  8
0
 62
     0
  0
POLYLINE
  5
28F5
  8
0
 62
     0
 66
     1
 10
0.0
 20
0.0
 30
0.0
  0
VERTEX
  5
2F91
  8
0
 62
     0
 10
231.504326
 20
190.613116
 30
0.0
  0
VERTEX
  5
2F92
  8
0
 62
     0
 10
231.62791
 20
190.605452
 30
0.0
  0
VERTEX
  5
2F93
  8
0
 62
     0
 10
231.722415
 20
190.596571
 30
0.0
  0
SEQEND
  5
2F94
  8
0
 62
     0
  0
ARC
  5
28F6
  8
0
 62
     0
 10
219.8059
 20
205.068172
 30
0.0
 40
0.2
 50
90.0
 51
180.0
  0
LINE
  5
28F7
  8
0
 62
     0
 10
222.1059
 20
205.568172
 30
0.0
 11
222.1059
 21
205.268172
 31
0.0
  0
LINE
  5
28F8
  8
0
 62
     0
 10
221.9059
 20
206.068172
 30
0.0
 11
221.9059
 21
205.268172
 31
0.0
  0
LINE
  5
28F9
  8
0
 62
     0
 10
221.1059
 20
206.068172
 30
0.0
 11
221.1059
 21
205.268172
 31
0.0
  0
ARC
  5
28FA
  8
0
 62
     0
 10
229.2059
 20
205.168172
 30
0.0
 40
0.6
 50
90.0
 51
137.605906
  0
LINE
  5
28FB
  8
0
 62
     0
 10
229.2059
 20
205.768172
 30
0.0
 11
230.4059
 21
205.768172
 31
0.0
  0
LINE
  5
28FC
  8
0
 62
     0
 10
230.4059
 20
205.568172
 30
0.0
 11
230.4059
 21
205.768172
 31
0.0
  0
LINE
  5
28FD
  8
0
 62
     0
 10
232.265546
 20
205.268172
 30
0.0
 11
232.265546
 21
205.568172
 31
0.0
  0
LINE
  5
28FE
  8
0
 62
     0
 10
232.072662
 20
205.568172
 30
0.0
 11
232.072662
 21
205.268172
 31
0.0
  0
POLYLINE
  5
28FF
  8
0
 62
     0
 66
     1
 10
0.0
 20
0.0
 30
0.0
  0
VERTEX
  5
2F95
  8
0
 62
     0
 10
217.6059
 20
228.168172
 30
0.0
  0
VERTEX
  5
2F96
  8
0
 62
     0
 10
217.615898
 20
228.190525
 30
0.0
  0
VERTEX
  5
2F97
  8
0
 62
     0
 10
217.636835
 20
228.20747
 30
0.0
  0
VERTEX
  5
2F98
  8
0
 62
     0
 10
217.66248
 20
228.221284
 30
0.0
  0
VERTEX
  5
2F99
  8
0
 62
     0
 10
217.691674
 20
228.233519
 30
0.0
  0
VERTEX
  5
2F9A
  8
0
 62
     0
 10
217.72353
 20
228.244637
 30
0.0
  0
VERTEX
  5
2F9B
  8
0
 62
     0
 10
217.758337
 20
228.255142
 30
0.0
  0
VERTEX
  5
2F9C
  8
0
 62
     0
 10
217.796326
 20
228.265283
 30
0.0
  0
VERTEX
  5
2F9D
  8
0
 62
     0
 10
217.837734
 20
228.275211
 30
0.0
  0
VERTEX
  5
2F9E
  8
0
 62
     0
 10
217.882774
 20
228.285014
 30
0.0
  0
VERTEX
  5
2F9F
  8
0
 62
     0
 10
217.931731
 20
228.294766
 30
0.0
  0
VERTEX
  5
2FA0
  8
0
 62
     0
 10
217.984826
 20
228.304507
 30
0.0
  0
VERTEX
  5
2FA1
  8
0
 62
     0
 10
218.042265
 20
228.314261
 30
0.0
  0
VERTEX
  5
2FA2
  8
0
 62
     0
 10
218.10443
 20
228.324073
 30
0.0
  0
VERTEX
  5
2FA3
  8
0
 62
     0
 10
218.171973
 20
228.334011
 30
0.0
  0
VERTEX
  5
2FA4
  8
0
 62
     0
 10
218.245464
 20
228.344114
 30
0.0
  0
VERTEX
  5
2FA5
  8
0
 62
     0
 10
218.324494
 20
228.354287
 30
0.0
  0
VERTEX
  5
2FA6
  8
0
 62
     0
 10
218.408178
 20
228.364398
 30
0.0
  0
VERTEX
  5
2FA7
  8
0
 62
     0
 10
218.496706
 20
228.374464
 30
0.0
  0
VERTEX
  5
2FA8
  8
0
 62
     0
 10
218.591064
 20
228.384578
 30
0.0
  0
VERTEX
  5
2FA9
  8
0
 62
     0
 10
218.692256
 20
228.394815
 30
0.0
  0
VERTEX
  5
2FAA
  8
0
 62
     0
 10
218.801288
 20
228.405231
 30
0.0
  0
VERTEX
  5
2FAB
  8
0
 62
     0
 10
218.919168
 20
228.415864
 30
0.0
  0
VERTEX
  5
2FAC
  8
0
 62
     0
 10
219.046899
 20
228.426742
 30
0.0
  0
VERTEX
  5
2FAD
  8
0
 62
     0
 10
219.18548
 20
228.437878
 30
0.0
  0
VERTEX
  5
2FAE
  8
0
 62
     0
 10
219.335848
 20
228.449269
 30
0.0
  0
VERTEX
  5
2FAF
  8
0
 62
     0
 10
219.498838
 20
228.460898
 30
0.0
  0
VERTEX
  5
2FB0
  8
0
 62
     0
 10
219.675273
 20
228.472742
 30
0.0
  0
VERTEX
  5
2FB1
  8
0
 62
     0
 10
219.865977
 20
228.484769
 30
0.0
  0
VERTEX
  5
2FB2
  8
0
 62
     0
 10
220.071833
 20
228.496949
 30
0.0
  0
VERTEX
  5
2FB3
  8
0
 62
     0
 10
220.294121
 20
228.509265
 30
0.0
  0
VERTEX
  5
2FB4
  8
0
 62
     0
 10
220.534269
 20
228.521697
 30
0.0
  0
VERTEX
  5
2FB5
  8
0
 62
     0
 10
220.793714
 20
228.534212
 30
0.0
  0
VERTEX
  5
2FB6
  8
0
 62
     0
 10
221.074018
 20
228.546769
 30
0.0
  0
VERTEX
  5
2FB7
  8
0
 62
     0
 10
221.376872
 20
228.559321
 30
0.0
  0
VERTEX
  5
2FB8
  8
0
 62
     0
 10
221.70401
 20
228.571804
 30
0.0
  0
VERTEX
  5
2FB9
  8
0
 62
     0
 10
222.057424
 20
228.584148
 30
0.0
  0
VERTEX
  5
2FBA
  8
0
 62
     0
 10
222.439225
 20
228.596265
 30
0.0
  0
VERTEX
  5
2FBB
  8
0
 62
     0
 10
222.851724
 20
228.608052
 30
0.0
  0
VERTEX
  5
2FBC
  8
0
 62
     0
 10
223.297402
 20
228.619383
 30
0.0
  0
VERTEX
  5
2FBD
  8
0
 62
     0
 10
223.778976
 20
228.63011
 30
0.0
  0
VERTEX
  5
2FBE
  8
0
 62
     0
 10
224.29937
 20
228.640048
 30
0.0
  0
VERTEX
  5
2FBF
  8
0
 62
     0
 10
224.861782
 20
228.648978
 30
0.0
  0
VERTEX
  5
2FC0
  8
0
 62
     0
 10
225.469687
 20
228.65663
 30
0.0
  0
VERTEX
  5
2FC1
  8
0
 62
     0
 10
226.126859
 20
228.662673
 30
0.0
  0
VERTEX
  5
2FC2
  8
0
 62
     0
 10
226.837426
 20
228.666693
 30
0.0
  0
VERTEX
  5
2FC3
  8
0
 62
     0
 10
227.6059
 20
228.668172
 30
0.0
  0
SEQEND
  5
2FC4
  8
0
 62
     0
  0
LINE
  5
2900
  8
0
 62
     0
 10
258.6059
 20
216.183364
 30
0.0
 11
258.6059
 21
214.602709
 31
0.0
  0
POLYLINE
  5
2901
  8
0
 62
     0
 66
     1
 10
0.0
 20
0.0
 30
0.0
  0
VERTEX
  5
2FC5
  8
0
 62
     0
 10
258.6059
 20
216.183364
 30
0.0
  0
VERTEX
  5
2FC6
  8
0
 62
     0
 10
258.527477
 20
215.599978
 30
0.0
  0
VERTEX
  5
2FC7
  8
0
 62
     0
 10
258.292377
 20
215.017862
 30
0.0
  0
VERTEX
  5
2FC8
  8
0
 62
     0
 10
257.901114
 20
214.438286
 30
0.0
  0
SEQEND
  5
2FC9
  8
0
 62
     0
  0
LINE
  5
2902
  8
0
 62
     0
 10
243.9059
 20
208.918172
 30
0.0
 11
243.9059
 21
225.418172
 31
0.0
  0
LINE
  5
2903
  8
0
 62
     0
 10
242.2059
 20
210.109993
 30
0.0
 11
242.2059
 21
224.226288
 31
0.0
  0
LINE
  5
2904
  8
0
 62
     0
 10
241.9059
 20
212.699246
 30
0.0
 11
241.9059
 21
221.637097
 31
0.0
  0
LINE
  5
2905
  8
0
 62
     0
 10
241.304622
 20
206.068172
 30
0.0
 11
241.304622
 21
228.168172
 31
0.0
  0
LINE
  5
2906
  8
0
 62
     0
 10
240.318478
 20
206.068172
 30
0.0
 11
240.318478
 21
228.668172
 31
0.0
  0
POLYLINE
  5
2907
  8
0
 62
     0
 66
     1
 10
0.0
 20
0.0
 30
0.0
  0
VERTEX
  5
2FCA
  8
0
 62
     0
 10
257.892915
 20
216.397005
 30
0.0
  0
VERTEX
  5
2FCB
  8
0
 62
     0
 10
257.83705
 20
216.304232
 30
0.0
  0
VERTEX
  5
2FCC
  8
0
 62
     0
 10
257.782123
 20
216.194512
 30
0.0
  0
VERTEX
  5
2FCD
  8
0
 62
     0
 10
257.730544
 20
216.065227
 30
0.0
  0
VERTEX
  5
2FCE
  8
0
 62
     0
 10
257.685555
 20
215.913638
 30
0.0
  0
VERTEX
  5
2FCF
  8
0
 62
     0
 10
257.651374
 20
215.736689
 30
0.0
  0
VERTEX
  5
2FD0
  8
0
 62
     0
 10
257.633596
 20
215.530821
 30
0.0
  0
VERTEX
  5
2FD1
  8
0
 62
     0
 10
257.639809
 20
215.293599
 30
0.0
  0
VERTEX
  5
2FD2
  8
0
 62
     0
 10
257.679048
 20
215.027539
 30
0.0
  0
VERTEX
  5
2FD3
  8
0
 62
     0
 10
257.760445
 20
214.738895
 30
0.0
  0
VERTEX
  5
2FD4
  8
0
 62
     0
 10
257.89291
 20
214.4369
 30
0.0
  0
SEQEND
  5
2FD5
  8
0
 62
     0
  0
POLYLINE
  5
2908
  8
0
 62
     0
 66
     1
 10
0.0
 20
0.0
 30
0.0
  0
VERTEX
  5
2FD6
  8
0
 62
     0
 10
257.716879
 20
216.362276
 30
0.0
  0
VERTEX
  5
2FD7
  8
0
 62
     0
 10
257.649256
 20
216.255584
 30
0.0
  0
VERTEX
  5
2FD8
  8
0
 62
     0
 10
257.583689
 20
216.128086
 30
0.0
  0
VERTEX
  5
2FD9
  8
0
 62
     0
 10
257.523968
 20
215.976505
 30
0.0
  0
VERTEX
  5
2FDA
  8
0
 62
     0
 10
257.475218
 20
215.7974
 30
0.0
  0
VERTEX
  5
2FDB
  8
0
 62
     0
 10
257.444209
 20
215.586485
 30
0.0
  0
VERTEX
  5
2FDC
  8
0
 62
     0
 10
257.44042
 20
215.339744
 30
0.0
  0
VERTEX
  5
2FDD
  8
0
 62
     0
 10
257.476064
 20
215.058413
 30
0.0
  0
VERTEX
  5
2FDE
  8
0
 62
     0
 10
257.564045
 20
214.749246
 30
0.0
  0
VERTEX
  5
2FDF
  8
0
 62
     0
 10
257.716864
 20
214.423473
 30
0.0
  0
SEQEND
  5
2FE0
  8
0
 62
     0
  0
LINE
  5
2909
  8
0
 62
     0
 10
243.9059
 20
214.433101
 30
0.0
 11
257.706086
 21
214.422971
 31
0.0
  0
POLYLINE
  5
290A
  8
0
 62
     0
 66
     1
 10
0.0
 20
0.0
 30
0.0
  0
VERTEX
  5
2FE1
  8
0
 62
     0
 10
243.9059
 20
211.793381
 30
0.0
  0
VERTEX
  5
2FE2
  8
0
 62
     0
 10
248.545531
 20
211.888964
 30
0.0
  0
VERTEX
  5
2FE3
  8
0
 62
     0
 10
253.214421
 20
211.985237
 30
0.0
  0
VERTEX
  5
2FE4
  8
0
 62
     0
 10
257.776159
 20
212.079387
 30
0.0
  0
SEQEND
  5
2FE5
  8
0
 62
     0
  0
POLYLINE
  5
290B
  8
0
 62
     0
 66
     1
 10
0.0
 20
0.0
 30
0.0
  0
VERTEX
  5
2FE6
  8
0
 62
     0
 10
243.9059
 20
211.893004
 30
0.0
  0
VERTEX
  5
2FE7
  8
0
 62
     0
 10
248.564148
 20
211.990049
 30
0.0
  0
VERTEX
  5
2FE8
  8
0
 62
     0
 10
253.187292
 20
212.086467
 30
0.0
  0
VERTEX
  5
2FE9
  8
0
 62
     0
 10
257.77546
 20
212.182262
 30
0.0
  0
SEQEND
  5
2FEA
  8
0
 62
     0
  0
LINE
  5
290C
  8
0
 62
     0
 10
243.078653
 20
195.385238
 30
0.0
 11
243.08272
 21
195.676274
 31
0.0
  0
LINE
  5
290D
  8
0
 62
     0
 10
243.076544
 20
195.235312
 30
0.0
 11
243.080693
 21
195.530945
 31
0.0
  0
POLYLINE
  5
290E
  8
0
 62
     0
 66
     1
 10
0.0
 20
0.0
 30
0.0
  0
VERTEX
  5
2FEB
  8
0
 62
     0
 10
243.060613
 20
194.101744
 30
0.0
  0
VERTEX
  5
2FEC
  8
0
 62
     0
 10
243.065362
 20
194.451525
 30
0.0
  0
VERTEX
  5
2FED
  8
0
 62
     0
 10
243.080897
 20
195.551918
 30
0.0
  0
VERTEX
  5
2FEE
  8
0
 62
     0
 10
243.093603
 20
196.499388
 30
0.0
  0
VERTEX
  5
2FEF
  8
0
 62
     0
 10
243.102146
 20
197.267574
 30
0.0
  0
VERTEX
  5
2FF0
  8
0
 62
     0
 10
243.105774
 20
197.83745
 30
0.0
  0
SEQEND
  5
2FF1
  8
0
 62
     0
  0
POLYLINE
  5
290F
  8
0
 62
     0
 66
     1
 10
0.0
 20
0.0
 30
0.0
  0
VERTEX
  5
2FF2
  8
0
 62
     0
 10
243.060613
 20
194.101744
 30
0.0
  0
VERTEX
  5
2FF3
  8
0
 62
     0
 10
243.065926
 20
194.491599
 30
0.0
  0
VERTEX
  5
2FF4
  8
0
 62
     0
 10
243.081383
 20
195.586756
 30
0.0
  0
VERTEX
  5
2FF5
  8
0
 62
     0
 10
243.093943
 20
196.526657
 30
0.0
  0
VERTEX
  5
2FF6
  8
0
 62
     0
 10
243.102323
 20
197.287109
 30
0.0
  0
VERTEX
  5
2FF7
  8
0
 62
     0
 10
243.1058
 20
197.849362
 30
0.0
  0
SEQEND
  5
2FF8
  8
0
 62
     0
  0
LINE
  5
2910
  8
0
 62
     0
 10
241.268229
 20
204.968172
 30
0.0
 11
241.268229
 21
190.968172
 31
0.0
  0
LINE
  5
2911
  8
0
 62
     0
 10
240.282642
 20
205.268172
 30
0.0
 11
240.282642
 21
190.613116
 31
0.0
  0
ARC
  5
2912
  8
0
 62
     0
 10
242.8059
 20
186.268172
 30
0.0
 40
1.8
 50
304.541713
 51
44.154553
  0
POLYLINE
  5
2913
  8
0
 62
     0
 66
     1
 10
0.0
 20
0.0
 30
0.0
  0
VERTEX
  5
2FF9
  8
0
 62
     0
 10
243.876157
 20
184.016148
 30
0.0
  0
VERTEX
  5
2FFA
  8
0
 62
     0
 10
243.838907
 20
184.154815
 30
0.0
  0
VERTEX
  5
2FFB
  8
0
 62
     0
 10
243.820016
 20
184.341748
 30
0.0
  0
VERTEX
  5
2FFC
  8
0
 62
     0
 10
243.814685
 20
184.568006
 30
0.0
  0
VERTEX
  5
2FFD
  8
0
 62
     0
 10
243.819755
 20
184.828279
 30
0.0
  0
VERTEX
  5
2FFE
  8
0
 62
     0
 10
243.833371
 20
185.121464
 30
0.0
  0
VERTEX
  5
2FFF
  8
0
 62
     0
 10
243.855059
 20
185.447688
 30
0.0
  0
VERTEX
  5
3000
  8
0
 62
     0
 10
243.884303
 20
185.801483
 30
0.0
  0
VERTEX
  5
3001
  8
0
 62
     0
 10
243.920694
 20
186.177857
 30
0.0
  0
VERTEX
  5
3002
  8
0
 62
     0
 10
243.958996
 20
186.527666
 30
0.0
  0
VERTEX
  5
3003
  8
0
 62
     0
 10
243.996588
 20
186.83743
 30
0.0
  0
VERTEX
  5
3004
  8
0
 62
     0
 10
244.035464
 20
187.128311
 30
0.0
  0
VERTEX
  5
3005
  8
0
 62
     0
 10
244.076496
 20
187.406845
 30
0.0
  0
VERTEX
  5
3006
  8
0
 62
     0
 10
244.119803
 20
187.67151
 30
0.0
  0
VERTEX
  5
3007
  8
0
 62
     0
 10
244.164978
 20
187.917011
 30
0.0
  0
VERTEX
  5
3008
  8
0
 62
     0
 10
244.21303
 20
188.141563
 30
0.0
  0
VERTEX
  5
3009
  8
0
 62
     0
 10
244.265113
 20
188.341366
 30
0.0
  0
VERTEX
  5
300A
  8
0
 62
     0
 10
244.322308
 20
188.508925
 30
0.0
  0
VERTEX
  5
300B
  8
0
 62
     0
 10
244.385134
 20
188.630875
 30
0.0
  0
VERTEX
  5
300C
  8
0
 62
     0
 10
244.455554
 20
188.693338
 30
0.0
  0
SEQEND
  5
300D
  8
0
 62
     0
  0
POLYLINE
  5
2914
  8
0
 62
     0
 66
     1
 10
0.0
 20
0.0
 30
0.0
  0
VERTEX
  5
300E
  8
0
 62
     0
 10
242.443494
 20
190.396575
 30
0.0
  0
VERTEX
  5
300F
  8
0
 62
     0
 10
242.562325
 20
189.992771
 30
0.0
  0
VERTEX
  5
3010
  8
0
 62
     0
 10
242.682631
 20
189.50088
 30
0.0
  0
VERTEX
  5
3011
  8
0
 62
     0
 10
242.78898
 20
188.935134
 30
0.0
  0
VERTEX
  5
3012
  8
0
 62
     0
 10
242.867893
 20
188.310028
 30
0.0
  0
VERTEX
  5
3013
  8
0
 62
     0
 10
242.908478
 20
187.641643
 30
0.0
  0
VERTEX
  5
3014
  8
0
 62
     0
 10
242.90328
 20
186.94743
 30
0.0
  0
VERTEX
  5
3015
  8
0
 62
     0
 10
242.848906
 20
186.245691
 30
0.0
  0
VERTEX
  5
3016
  8
0
 62
     0
 10
242.746346
 20
185.55488
 30
0.0
  0
VERTEX
  5
3017
  8
0
 62
     0
 10
242.600968
 20
184.892794
 30
0.0
  0
VERTEX
  5
3018
  8
0
 62
     0
 10
242.422136
 20
184.275796
 30
0.0
  0
VERTEX
  5
3019
  8
0
 62
     0
 10
242.222573
 20
183.718381
 30
0.0
  0
VERTEX
  5
301A
  8
0
 62
     0
 10
242.017531
 20
183.233026
 30
0.0
  0
VERTEX
  5
301B
  8
0
 62
     0
 10
241.824395
 20
182.83148
 30
0.0
  0
SEQEND
  5
301C
  8
0
 62
     0
  0
POLYLINE
  5
2915
  8
0
 62
     0
 66
     1
 10
0.0
 20
0.0
 30
0.0
  0
VERTEX
  5
301D
  8
0
 62
     0
 10
242.16228
 20
190.307257
 30
0.0
  0
VERTEX
  5
301E
  8
0
 62
     0
 10
242.277699
 20
189.915471
 30
0.0
  0
VERTEX
  5
301F
  8
0
 62
     0
 10
242.394576
 20
189.438124
 30
0.0
  0
VERTEX
  5
3020
  8
0
 62
     0
 10
242.497899
 20
188.889082
 30
0.0
  0
VERTEX
  5
3021
  8
0
 62
     0
 10
242.574573
 20
188.282403
 30
0.0
  0
VERTEX
  5
3022
  8
0
 62
     0
 10
242.61401
 20
187.633695
 30
0.0
  0
VERTEX
  5
3023
  8
0
 62
     0
 10
242.608964
 20
186.959899
 30
0.0
  0
VERTEX
  5
3024
  8
0
 62
     0
 10
242.556133
 20
186.278793
 30
0.0
  0
VERTEX
  5
3025
  8
0
 62
     0
 10
242.456483
 20
185.608309
 30
0.0
  0
VERTEX
  5
3026
  8
0
 62
     0
 10
242.315237
 20
184.965746
 30
0.0
  0
VERTEX
  5
3027
  8
0
 62
     0
 10
242.141501
 20
184.366988
 30
0.0
  0
VERTEX
  5
3028
  8
0
 62
     0
 10
241.947641
 20
183.826097
 30
0.0
  0
VERTEX
  5
3029
  8
0
 62
     0
 10
241.748475
 20
183.355166
 30
0.0
  0
VERTEX
  5
302A
  8
0
 62
     0
 10
241.560924
 20
182.965653
 30
0.0
  0
SEQEND
  5
302B
  8
0
 62
     0
  0
POLYLINE
  5
2916
  8
0
 62
     0
 66
     1
 10
0.0
 20
0.0
 30
0.0
  0
VERTEX
  5
302C
  8
0
 62
     0
 10
243.27447
 20
185.29532
 30
0.0
  0
VERTEX
  5
302D
  8
0
 62
     0
 10
243.259956
 20
185.30398
 30
0.0
  0
VERTEX
  5
302E
  8
0
 62
     0
 10
243.23091
 20
185.38099
 30
0.0
  0
VERTEX
  5
302F
  8
0
 62
     0
 10
243.219566
 20
185.530439
 30
0.0
  0
VERTEX
  5
3030
  8
0
 62
     0
 10
243.224227
 20
185.740197
 30
0.0
  0
VERTEX
  5
3031
  8
0
 62
     0
 10
243.241538
 20
185.99286
 30
0.0
  0
VERTEX
  5
3032
  8
0
 62
     0
 10
243.267831
 20
186.268172
 30
0.0
  0
SEQEND
  5
3033
  8
0
 62
     0
  0
POLYLINE
  5
2917
  8
0
 62
     0
 66
     1
 10
0.0
 20
0.0
 30
0.0
  0
VERTEX
  5
3034
  8
0
 62
     0
 10
243.589799
 20
186.268172
 30
0.0
  0
VERTEX
  5
3035
  8
0
 62
     0
 10
243.549602
 20
185.991663
 30
0.0
  0
VERTEX
  5
3036
  8
0
 62
     0
 10
243.493988
 20
185.739778
 30
0.0
  0
VERTEX
  5
3037
  8
0
 62
     0
 10
243.429606
 20
185.531692
 30
0.0
  0
VERTEX
  5
3038
  8
0
 62
     0
 10
243.364293
 20
185.383012
 30
0.0
  0
VERTEX
  5
3039
  8
0
 62
     0
 10
243.305723
 20
185.305009
 30
0.0
  0
VERTEX
  5
303A
  8
0
 62
     0
 10
243.27447
 20
185.29532
 30
0.0
  0
SEQEND
  5
303B
  8
0
 62
     0
  0
POLYLINE
  5
2918
  8
0
 62
     0
 66
     1
 10
0.0
 20
0.0
 30
0.0
  0
VERTEX
  5
303C
  8
0
 62
     0
 10
244.968191
 20
186.268172
 30
0.0
  0
VERTEX
  5
303D
  8
0
 62
     0
 10
244.93402
 20
185.995294
 30
0.0
  0
VERTEX
  5
303E
  8
0
 62
     0
 10
244.896566
 20
185.750763
 30
0.0
  0
VERTEX
  5
303F
  8
0
 62
     0
 10
244.861988
 20
185.55772
 30
0.0
  0
VERTEX
  5
3040
  8
0
 62
     0
 10
244.836647
 20
185.433871
 30
0.0
  0
VERTEX
  5
3041
  8
0
 62
     0
 10
244.825506
 20
185.391119
 30
0.0
  0
SEQEND
  5
3042
  8
0
 62
     0
  0
POLYLINE
  5
2919
  8
0
 62
     0
 66
     1
 10
0.0
 20
0.0
 30
0.0
  0
VERTEX
  5
3043
  8
0
 62
     0
 10
244.825506
 20
185.391119
 30
0.0
  0
VERTEX
  5
3044
  8
0
 62
     0
 10
244.830808
 20
185.433714
 30
0.0
  0
VERTEX
  5
3045
  8
0
 62
     0
 10
244.850949
 20
185.557898
 30
0.0
  0
VERTEX
  5
3046
  8
0
 62
     0
 10
244.881282
 20
185.750712
 30
0.0
  0
VERTEX
  5
3047
  8
0
 62
     0
 10
244.915971
 20
185.995424
 30
0.0
  0
VERTEX
  5
3048
  8
0
 62
     0
 10
244.949008
 20
186.268172
 30
0.0
  0
SEQEND
  5
3049
  8
0
 62
     0
  0
POLYLINE
  5
291A
  8
0
 62
     0
 66
     1
 10
0.0
 20
0.0
 30
0.0
  0
VERTEX
  5
304A
  8
0
 62
     0
 10
244.455554
 20
188.693338
 30
0.0
  0
VERTEX
  5
304B
  8
0
 62
     0
 10
244.53025
 20
188.682486
 30
0.0
  0
VERTEX
  5
304C
  8
0
 62
     0
 10
244.60361
 20
188.604681
 30
0.0
  0
VERTEX
  5
304D
  8
0
 62
     0
 10
244.673299
 20
188.473013
 30
0.0
  0
VERTEX
  5
304E
  8
0
 62
     0
 10
244.735407
 20
188.302823
 30
0.0
  0
VERTEX
  5
304F
  8
0
 62
     0
 10
244.787638
 20
188.107475
 30
0.0
  0
VERTEX
  5
3050
  8
0
 62
     0
 10
244.83063
 20
187.888284
 30
0.0
  0
VERTEX
  5
3051
  8
0
 62
     0
 10
244.863359
 20
187.651309
 30
0.0
  0
VERTEX
  5
3052
  8
0
 62
     0
 10
244.885362
 20
187.401067
 30
0.0
  0
VERTEX
  5
3053
  8
0
 62
     0
 10
244.896369
 20
187.13717
 30
0.0
  0
VERTEX
  5
3054
  8
0
 62
     0
 10
244.895606
 20
186.855858
 30
0.0
  0
VERTEX
  5
3055
  8
0
 62
     0
 10
244.880967
 20
186.548538
 30
0.0
  0
VERTEX
  5
3056
  8
0
 62
     0
 10
244.847301
 20
186.19795
 30
0.0
  0
VERTEX
  5
3057
  8
0
 62
     0
 10
244.791306
 20
185.823294
 30
0.0
  0
VERTEX
  5
3058
  8
0
 62
     0
 10
244.72073
 20
185.478741
 30
0.0
  0
VERTEX
  5
3059
  8
0
 62
     0
 10
244.639919
 20
185.167972
 30
0.0
  0
VERTEX
  5
305A
  8
0
 62
     0
 10
244.548772
 20
184.880987
 30
0.0
  0
VERTEX
  5
305B
  8
0
 62
     0
 10
244.449056
 20
184.619541
 30
0.0
  0
VERTEX
  5
305C
  8
0
 62
     0
 10
244.344047
 20
184.389871
 30
0.0
  0
VERTEX
  5
305D
  8
0
 62
     0
 10
244.236035
 20
184.196397
 30
0.0
  0
VERTEX
  5
305E
  8
0
 62
     0
 10
244.127682
 20
184.046414
 30
0.0
  0
VERTEX
  5
305F
  8
0
 62
     0
 10
244.026109
 20
183.95616
 30
0.0
  0
VERTEX
  5
3060
  8
0
 62
     0
 10
243.938405
 20
183.943481
 30
0.0
  0
SEQEND
  5
3061
  8
0
 62
     0
  0
POLYLINE
  5
291B
  8
0
 62
     0
 66
     1
 10
0.0
 20
0.0
 30
0.0
  0
VERTEX
  5
3062
  8
0
 62
     0
 10
239.914788
 20
181.871268
 30
0.0
  0
VERTEX
  5
3063
  8
0
 62
     0
 10
239.961959
 20
181.991721
 30
0.0
  0
VERTEX
  5
3064
  8
0
 62
     0
 10
240.045149
 20
182.090906
 30
0.0
  0
VERTEX
  5
3065
  8
0
 62
     0
 10
240.155815
 20
182.158399
 30
0.0
  0
VERTEX
  5
3066
  8
0
 62
     0
 10
240.282486
 20
182.186966
 30
0.0
  0
VERTEX
  5
3067
  8
0
 62
     0
 10
240.367481
 20
182.182878
 30
0.0
  0
SEQEND
  5
3068
  8
0
 62
     0
  0
POLYLINE
  5
291C
  8
0
 62
     0
 66
     1
 10
0.0
 20
0.0
 30
0.0
  0
VERTEX
  5
3069
  8
0
 62
     0
 10
241.6059
 20
181.847349
 30
0.0
  0
VERTEX
  5
306A
  8
0
 62
     0
 10
241.538819
 20
181.848799
 30
0.0
  0
VERTEX
  5
306B
  8
0
 62
     0
 10
241.001828
 20
181.860403
 30
0.0
  0
VERTEX
  5
306C
  8
0
 62
     0
 10
239.929939
 20
181.884905
 30
0.0
  0
SEQEND
  5
306D
  8
0
 62
     0
  0
POLYLINE
  5
291D
  8
0
 62
     0
 66
     1
 10
0.0
 20
0.0
 30
0.0
  0
VERTEX
  5
306E
  8
0
 62
     0
 10
241.6059
 20
181.84735
 30
0.0
  0
VERTEX
  5
306F
  8
0
 62
     0
 10
241.539386
 20
181.848788
 30
0.0
  0
VERTEX
  5
3070
  8
0
 62
     0
 10
241.006931
 20
181.860288
 30
0.0
  0
VERTEX
  5
3071
  8
0
 62
     0
 10
239.94374
 20
181.884588
 30
0.0
  0
SEQEND
  5
3072
  8
0
 62
     0
  0
POLYLINE
  5
291E
  8
0
 62
     0
 66
     1
 10
0.0
 20
0.0
 30
0.0
  0
VERTEX
  5
3073
  8
0
 62
     0
 10
240.413702
 20
182.4793
 30
0.0
  0
VERTEX
  5
3074
  8
0
 62
     0
 10
240.211064
 20
182.481198
 30
0.0
  0
VERTEX
  5
3075
  8
0
 62
     0
 10
240.018077
 20
182.42571
 30
0.0
  0
VERTEX
  5
3076
  8
0
 62
     0
 10
239.850061
 20
182.318809
 30
0.0
  0
VERTEX
  5
3077
  8
0
 62
     0
 10
239.719086
 20
182.169145
 30
0.0
  0
VERTEX
  5
3078
  8
0
 62
     0
 10
239.635085
 20
181.987409
 30
0.0
  0
VERTEX
  5
3079
  8
0
 62
     0
 10
239.6059
 20
181.78735
 30
0.0
  0
SEQEND
  5
307A
  8
0
 62
     0
  0
LINE
  5
291F
  8
0
 62
     0
 10
240.180766
 20
180.668172
 30
0.0
 11
244.836705
 21
180.668172
 31
0.0
  0
LINE
  5
2920
  8
0
 62
     0
 10
240.915165
 20
180.668172
 30
0.0
 11
239.90223
 21
179.668172
 31
0.0
  0
LINE
  5
2921
  8
0
 62
     0
 10
239.94374
 20
181.884593
 30
0.0
 11
239.94374
 21
179.709149
 31
0.0
  0
LINE
  5
2922
  8
0
 62
     0
 10
239.929939
 20
181.884908
 30
0.0
 11
239.929939
 21
179.695526
 31
0.0
  0
LINE
  5
2923
  8
0
 62
     0
 10
239.930609
 20
181.884894
 30
0.0
 11
239.925087
 21
181.897565
 31
0.0
  0
LINE
  5
2924
  8
0
 62
     0
 10
239.944721
 20
181.884564
 30
0.0
 11
239.931497
 21
181.913934
 31
0.0
  0
LINE
  5
2925
  8
0
 62
     0
 10
239.906638
 20
181.811626
 30
0.0
 11
239.914788
 21
181.871268
 31
0.0
  0
LINE
  5
2926
  8
0
 62
     0
 10
239.906637
 20
181.811614
 30
0.0
 11
239.9059
 21
181.78735
 31
0.0
  0
LINE
  5
2927
  8
0
 62
     0
 10
239.9059
 20
181.78735
 30
0.0
 11
239.6059
 21
181.78735
 31
0.0
  0
LINE
  5
2928
  8
0
 62
     0
 10
239.919062
 20
181.882181
 30
0.0
 11
239.929939
 21
181.884908
 31
0.0
  0
LINE
  5
2929
  8
0
 62
     0
 10
239.917416
 20
181.877977
 30
0.0
 11
239.94374
 21
181.884593
 31
0.0
  0
LINE
  5
292A
  8
0
 62
     0
 10
241.6059
 20
180.668172
 30
0.0
 11
241.6059
 21
181.848799
 31
0.0
  0
POLYLINE
  5
292B
  8
0
 62
     0
 66
     1
 10
0.0
 20
0.0
 30
0.0
  0
VERTEX
  5
307B
  8
0
 62
     0
 10
243.013821
 20
176.095592
 30
0.0
  0
VERTEX
  5
307C
  8
0
 62
     0
 10
243.024015
 20
176.041883
 30
0.0
  0
VERTEX
  5
307D
  8
0
 62
     0
 10
243.033686
 20
176.090742
 30
0.0
  0
SEQEND
  5
307E
  8
0
 62
     0
  0
LINE
  5
292C
  8
0
 62
     0
 10
243.003852
 20
176.228922
 30
0.0
 11
243.013821
 21
176.095592
 31
0.0
  0
POLYLINE
  5
292D
  8
0
 62
     0
 66
     1
 10
0.0
 20
0.0
 30
0.0
  0
VERTEX
  5
307F
  8
0
 62
     0
 10
243.035266
 20
176.126879
 30
0.0
  0
VERTEX
  5
3080
  8
0
 62
     0
 10
243.034444
 20
176.118325
 30
0.0
  0
VERTEX
  5
3081
  8
0
 62
     0
 10
243.034944
 20
176.121582
 30
0.0
  0
VERTEX
  5
3082
  8
0
 62
     0
 10
243.040095
 20
176.146287
 30
0.0
  0
VERTEX
  5
3083
  8
0
 62
     0
 10
243.055097
 20
176.19257
 30
0.0
  0
SEQEND
  5
3084
  8
0
 62
     0
  0
LINE
  5
292E
  8
0
 62
     0
 10
243.033686
 20
176.090742
 30
0.0
 11
243.035577
 21
176.126863
 31
0.0
  0
POLYLINE
  5
292F
  8
0
 62
     0
 66
     1
 10
0.0
 20
0.0
 30
0.0
  0
VERTEX
  5
3085
  8
0
 62
     0
 10
243.075764
 20
180.668172
 30
0.0
  0
VERTEX
  5
3086
  8
0
 62
     0
 10
243.070073
 20
180.504779
 30
0.0
  0
VERTEX
  5
3087
  8
0
 62
     0
 10
243.06442
 20
180.328793
 30
0.0
  0
VERTEX
  5
3088
  8
0
 62
     0
 10
243.058695
 20
180.138698
 30
0.0
  0
VERTEX
  5
3089
  8
0
 62
     0
 10
243.053139
 20
179.932717
 30
0.0
  0
VERTEX
  5
308A
  8
0
 62
     0
 10
243.047875
 20
179.709457
 30
0.0
  0
VERTEX
  5
308B
  8
0
 62
     0
 10
243.042667
 20
179.468036
 30
0.0
  0
VERTEX
  5
308C
  8
0
 62
     0
 10
243.037954
 20
179.211352
 30
0.0
  0
VERTEX
  5
308D
  8
0
 62
     0
 10
243.033684
 20
178.937041
 30
0.0
  0
VERTEX
  5
308E
  8
0
 62
     0
 10
243.029547
 20
178.640829
 30
0.0
  0
VERTEX
  5
308F
  8
0
 62
     0
 10
243.025319
 20
178.318812
 30
0.0
  0
VERTEX
  5
3090
  8
0
 62
     0
 10
243.021606
 20
177.969753
 30
0.0
  0
VERTEX
  5
3091
  8
0
 62
     0
 10
243.019563
 20
177.603659
 30
0.0
  0
VERTEX
  5
3092
  8
0
 62
     0
 10
243.0196
 20
177.261915
 30
0.0
  0
VERTEX
  5
3093
  8
0
 62
     0
 10
243.020819
 20
176.970828
 30
0.0
  0
VERTEX
  5
3094
  8
0
 62
     0
 10
243.023186
 20
176.725515
 30
0.0
  0
VERTEX
  5
3095
  8
0
 62
     0
 10
243.026953
 20
176.516852
 30
0.0
  0
VERTEX
  5
3096
  8
0
 62
     0
 10
243.032642
 20
176.346258
 30
0.0
  0
VERTEX
  5
3097
  8
0
 62
     0
 10
243.040883
 20
176.22756
 30
0.0
  0
VERTEX
  5
3098
  8
0
 62
     0
 10
243.051829
 20
176.18749
 30
0.0
  0
VERTEX
  5
3099
  8
0
 62
     0
 10
243.055114
 20
176.192611
 30
0.0
  0
SEQEND
  5
309A
  8
0
 62
     0
  0
POLYLINE
  5
2930
  8
0
 62
     0
 66
     1
 10
0.0
 20
0.0
 30
0.0
  0
VERTEX
  5
309B
  8
0
 62
     0
 10
242.915156
 20
180.668172
 30
0.0
  0
VERTEX
  5
309C
  8
0
 62
     0
 10
242.916936
 20
180.50601
 30
0.0
  0
VERTEX
  5
309D
  8
0
 62
     0
 10
242.918896
 20
180.331205
 30
0.0
  0
VERTEX
  5
309E
  8
0
 62
     0
 10
242.921076
 20
180.141908
 30
0.0
  0
VERTEX
  5
309F
  8
0
 62
     0
 10
242.923522
 20
179.936552
 30
0.0
  0
VERTEX
  5
30A0
  8
0
 62
     0
 10
242.926276
 20
179.713477
 30
0.0
  0
VERTEX
  5
30A1
  8
0
 62
     0
 10
242.929399
 20
179.471054
 30
0.0
  0
VERTEX
  5
30A2
  8
0
 62
     0
 10
242.932924
 20
179.211171
 30
0.0
  0
VERTEX
  5
30A3
  8
0
 62
     0
 10
242.936894
 20
178.934159
 30
0.0
  0
VERTEX
  5
30A4
  8
0
 62
     0
 10
242.941437
 20
178.635175
 30
0.0
  0
VERTEX
  5
30A5
  8
0
 62
     0
 10
242.946774
 20
178.30905
 30
0.0
  0
VERTEX
  5
30A6
  8
0
 62
     0
 10
242.953219
 20
177.953181
 30
0.0
  0
VERTEX
  5
30A7
  8
0
 62
     0
 10
242.960973
 20
177.575379
 30
0.0
  0
VERTEX
  5
30A8
  8
0
 62
     0
 10
242.96947
 20
177.212511
 30
0.0
  0
VERTEX
  5
30A9
  8
0
 62
     0
 10
242.977863
 20
176.900337
 30
0.0
  0
VERTEX
  5
30AA
  8
0
 62
     0
 10
242.986118
 20
176.638077
 30
0.0
  0
VERTEX
  5
30AB
  8
0
 62
     0
 10
242.994665
 20
176.414293
 30
0.0
  0
VERTEX
  5
30AC
  8
0
 62
     0
 10
243.003852
 20
176.228922
 30
0.0
  0
SEQEND
  5
30AD
  8
0
 62
     0
  0
POLYLINE
  5
2931
  8
0
 62
     0
 66
     1
 10
0.0
 20
0.0
 30
0.0
  0
VERTEX
  5
30AE
  8
0
 62
     0
 10
243.055095
 20
176.192603
 30
0.0
  0
VERTEX
  5
30AF
  8
0
 62
     0
 10
243.725252
 20
177.876969
 30
0.0
  0
VERTEX
  5
30B0
  8
0
 62
     0
 10
244.333876
 20
179.406062
 30
0.0
  0
VERTEX
  5
30B1
  8
0
 62
     0
 10
244.83654
 20
180.668172
 30
0.0
  0
SEQEND
  5
30B2
  8
0
 62
     0
  0
LINE
  5
2932
  8
0
 62
     0
 10
243.935801
 20
182.822544
 30
0.0
 11
241.824395
 21
182.83148
 31
0.0
  0
LINE
  5
2933
  8
0
 62
     0
 10
242.866992
 20
182.168172
 30
0.0
 11
240.557342
 21
182.168172
 31
0.0
  0
LINE
  5
2934
  8
0
 62
     0
 10
241.6059
 20
181.847507
 30
0.0
 11
241.464703
 21
182.168172
 31
0.0
  0
LINE
  5
2935
  8
0
 62
     0
 10
241.6059
 20
181.847507
 30
0.0
 11
241.464642
 21
182.168172
 31
0.0
  0
LINE
  5
2936
  8
0
 62
     0
 10
240.367481
 20
182.182878
 30
0.0
 11
240.413702
 21
182.4793
 31
0.0
  0
LINE
  5
2937
  8
0
 62
     0
 10
240.74102
 20
182.168172
 30
0.0
 11
240.74102
 21
182.468172
 31
0.0
  0
LINE
  5
2938
  8
0
 62
     0
 10
240.557335
 20
182.168172
 30
0.0
 11
240.557335
 21
182.468172
 31
0.0
  0
LINE
  5
2939
  8
0
 62
     0
 10
241.824395
 20
182.83148
 30
0.0
 11
241.560924
 21
182.965653
 31
0.0
  0
POLYLINE
  5
293A
  8
0
 62
     0
 66
     1
 10
0.0
 20
0.0
 30
0.0
  0
VERTEX
  5
30B3
  8
0
 62
     0
 10
240.367484
 20
182.182901
 30
0.0
  0
VERTEX
  5
30B4
  8
0
 62
     0
 10
240.410903
 20
182.176934
 30
0.0
  0
VERTEX
  5
30B5
  8
0
 62
     0
 10
240.513607
 20
182.168988
 30
0.0
  0
VERTEX
  5
30B6
  8
0
 62
     0
 10
240.557335
 20
182.168201
 30
0.0
  0
SEQEND
  5
30B7
  8
0
 62
     0
  0
POLYLINE
  5
293B
  8
0
 62
     0
 66
     1
 10
0.0
 20
0.0
 30
0.0
  0
VERTEX
  5
30B8
  8
0
 62
     0
 10
241.560924
 20
182.965653
 30
0.0
  0
VERTEX
  5
30B9
  8
0
 62
     0
 10
241.51987
 20
182.89352
 30
0.0
  0
VERTEX
  5
30BA
  8
0
 62
     0
 10
241.463466
 20
182.814163
 30
0.0
  0
VERTEX
  5
30BB
  8
0
 62
     0
 10
241.390771
 20
182.733283
 30
0.0
  0
VERTEX
  5
30BC
  8
0
 62
     0
 10
241.30224
 20
182.656537
 30
0.0
  0
VERTEX
  5
30BD
  8
0
 62
     0
 10
241.199991
 20
182.589089
 30
0.0
  0
VERTEX
  5
30BE
  8
0
 62
     0
 10
241.087717
 20
182.535012
 30
0.0
  0
VERTEX
  5
30BF
  8
0
 62
     0
 10
240.970248
 20
182.49676
 30
0.0
  0
VERTEX
  5
30C0
  8
0
 62
     0
 10
240.852907
 20
182.474899
 30
0.0
  0
VERTEX
  5
30C1
  8
0
 62
     0
 10
240.74102
 20
182.468172
 30
0.0
  0
SEQEND
  5
30C2
  8
0
 62
     0
  0
POLYLINE
  5
293C
  8
0
 62
     0
 66
     1
 10
0.0
 20
0.0
 30
0.0
  0
VERTEX
  5
30C3
  8
0
 62
     0
 10
241.824395
 20
182.83148
 30
0.0
  0
VERTEX
  5
30C4
  8
0
 62
     0
 10
241.770154
 20
182.735319
 30
0.0
  0
VERTEX
  5
30C5
  8
0
 62
     0
 10
241.695649
 20
182.629545
 30
0.0
  0
VERTEX
  5
30C6
  8
0
 62
     0
 10
241.599626
 20
182.521732
 30
0.0
  0
VERTEX
  5
30C7
  8
0
 62
     0
 10
241.48267
 20
182.419408
 30
0.0
  0
VERTEX
  5
30C8
  8
0
 62
     0
 10
241.347567
 20
182.329459
 30
0.0
  0
VERTEX
  5
30C9
  8
0
 62
     0
 10
241.199197
 20
182.257331
 30
0.0
  0
VERTEX
  5
30CA
  8
0
 62
     0
 10
241.043958
 20
182.206307
 30
0.0
  0
VERTEX
  5
30CB
  8
0
 62
     0
 10
240.888905
 20
182.177149
 30
0.0
  0
VERTEX
  5
30CC
  8
0
 62
     0
 10
240.74102
 20
182.168173
 30
0.0
  0
SEQEND
  5
30CD
  8
0
 62
     0
  0
POLYLINE
  5
293D
  8
0
 62
     0
 66
     1
 10
0.0
 20
0.0
 30
0.0
  0
VERTEX
  5
30CE
  8
0
 62
     0
 10
240.557335
 20
182.468172
 30
0.0
  0
VERTEX
  5
30CF
  8
0
 62
     0
 10
240.485035
 20
182.471014
 30
0.0
  0
VERTEX
  5
30D0
  8
0
 62
     0
 10
240.413702
 20
182.4793
 30
0.0
  0
SEQEND
  5
30D1
  8
0
 62
     0
  0
LINE
  5
293E
  8
0
 62
     0
 10
240.74102
 20
182.468172
 30
0.0
 11
240.557335
 21
182.468172
 31
0.0
  0
ARC
  5
293F
  8
0
 62
     0
 10
235.029302
 20
187.369441
 30
0.0
 40
10.0
 50
332.95503
 51
348.583218
  0
ARC
  5
2940
  8
0
 62
     0
 10
242.867021
 20
183.368172
 30
0.0
 40
1.2
 50
270.0
 51
332.95503
  0
LINE
  5
2941
  8
0
 62
     0
 10
243.938405
 20
183.943481
 30
0.0
 11
243.876157
 21
184.016148
 31
0.0
  0
LINE
  5
2942
  8
0
 62
     0
 10
243.851997
 20
184.106087
 30
0.0
 11
243.932231
 21
184.068172
 31
0.0
  0
LINE
  5
2943
  8
0
 62
     0
 10
243.932231
 20
184.068172
 30
0.0
 11
243.862182
 21
184.068172
 31
0.0
  0
POLYLINE
  5
2944
  8
0
 62
     0
 66
     1
 10
0.0
 20
0.0
 30
0.0
  0
VERTEX
  5
30D2
  8
0
 62
     0
 10
240.657342
 20
190.607418
 30
0.0
  0
VERTEX
  5
30D3
  8
0
 62
     0
 10
240.476945
 20
190.611674
 30
0.0
  0
VERTEX
  5
30D4
  8
0
 62
     0
 10
240.282642
 20
190.613116
 30
0.0
  0
SEQEND
  5
30D5
  8
0
 62
     0
  0
LINE
  5
2945
  8
0
 62
     0
 10
238.5059
 20
190.515339
 30
0.0
 11
240.700573
 21
190.515339
 31
0.0
  0
LINE
  5
2946
  8
0
 62
     0
 10
235.991026
 20
190.168172
 30
0.0
 11
241.239682
 21
190.168172
 31
0.0
  0
LINE
  5
2947
  8
0
 62
     0
 10
236.171164
 20
189.868172
 30
0.0
 11
241.384962
 21
189.868172
 31
0.0
  0
POLYLINE
  5
2948
  8
0
 62
     0
 66
     1
 10
0.0
 20
0.0
 30
0.0
  0
VERTEX
  5
30D6
  8
0
 62
     0
 10
240.807947
 20
190.937929
 30
0.0
  0
VERTEX
  5
30D7
  8
0
 62
     0
 10
240.543662
 20
190.911433
 30
0.0
  0
VERTEX
  5
30D8
  8
0
 62
     0
 10
240.282642
 20
190.912705
 30
0.0
  0
SEQEND
  5
30D9
  8
0
 62
     0
  0
LINE
  5
2949
  8
0
 62
     0
 10
238.5059
 20
190.596571
 30
0.0
 11
238.5059
 21
190.515339
 31
0.0
  0
LINE
  5
294A
  8
0
 62
     0
 10
238.4059
 20
190.596571
 30
0.0
 11
238.4059
 21
190.168172
 31
0.0
  0
LINE
  5
294B
  8
0
 62
     0
 10
238.485943
 20
190.599287
 30
0.0
 11
238.475087
 21
190.519532
 31
0.0
  0
LINE
  5
294C
  8
0
 62
     0
 10
238.48595
 20
190.599286
 30
0.0
 11
238.475094
 21
190.519532
 31
0.0
  0
POLYLINE
  5
294D
  8
0
 62
     0
 66
     1
 10
0.0
 20
0.0
 30
0.0
  0
VERTEX
  5
30DA
  8
0
 62
     0
 10
235.991026
 20
190.168172
 30
0.0
  0
VERTEX
  5
30DB
  8
0
 62
     0
 10
236.002155
 20
190.150867
 30
0.0
  0
VERTEX
  5
30DC
  8
0
 62
     0
 10
236.031609
 20
190.104283
 30
0.0
  0
VERTEX
  5
30DD
  8
0
 62
     0
 10
236.073241
 20
190.036508
 30
0.0
  0
VERTEX
  5
30DE
  8
0
 62
     0
 10
236.121446
 20
189.955206
 30
0.0
  0
VERTEX
  5
30DF
  8
0
 62
     0
 10
236.171164
 20
189.868172
 30
0.0
  0
SEQEND
  5
30E0
  8
0
 62
     0
  0
LINE
  5
294E
  8
0
 62
     0
 10
238.5059
 20
190.515339
 30
0.0
 11
238.4059
 21
190.512716
 31
0.0
  0
ARC
  5
294F
  8
0
 62
     0
 10
244.078765
 20
190.260324
 30
0.0
 40
0.5
 50
17.716265
 51
90.263229
  0
LINE
  5
2950
  8
0
 62
     0
 10
241.593822
 20
190.582533
 30
0.0
 11
241.815859
 21
190.380792
 31
0.0
  0
POLYLINE
  5
2951
  8
0
 62
     0
 66
     1
 10
0.0
 20
0.0
 30
0.0
  0
VERTEX
  5
30E1
  8
0
 62
     0
 10
240.657342
 20
190.607418
 30
0.0
  0
VERTEX
  5
30E2
  8
0
 62
     0
 10
240.753008
 20
190.572248
 30
0.0
  0
VERTEX
  5
30E3
  8
0
 62
     0
 10
240.845194
 20
190.537031
 30
0.0
  0
VERTEX
  5
30E4
  8
0
 62
     0
 10
240.933893
 20
190.501769
 30
0.0
  0
SEQEND
  5
30E5
  8
0
 62
     0
  0
POLYLINE
  5
2952
  8
0
 62
     0
 66
     1
 10
0.0
 20
0.0
 30
0.0
  0
VERTEX
  5
30E6
  8
0
 62
     0
 10
241.964769
 20
190.747654
 30
0.0
  0
VERTEX
  5
30E7
  8
0
 62
     0
 10
242.027374
 20
190.744084
 30
0.0
  0
VERTEX
  5
30E8
  8
0
 62
     0
 10
242.152373
 20
190.712106
 30
0.0
  0
VERTEX
  5
30E9
  8
0
 62
     0
 10
242.261345
 20
190.651701
 30
0.0
  0
VERTEX
  5
30EA
  8
0
 62
     0
 10
242.34718
 20
190.571838
 30
0.0
  0
VERTEX
  5
30EB
  8
0
 62
     0
 10
242.40725
 20
190.483388
 30
0.0
  0
VERTEX
  5
30EC
  8
0
 62
     0
 10
242.443493
 20
190.396575
 30
0.0
  0
SEQEND
  5
30ED
  8
0
 62
     0
  0
POLYLINE
  5
2953
  8
0
 62
     0
 66
     1
 10
0.0
 20
0.0
 30
0.0
  0
VERTEX
  5
30EE
  8
0
 62
     0
 10
241.593825
 20
190.58253
 30
0.0
  0
VERTEX
  5
30EF
  8
0
 62
     0
 10
241.452944
 20
190.423734
 30
0.0
  0
VERTEX
  5
30F0
  8
0
 62
     0
 10
241.280523
 20
190.21862
 30
0.0
  0
VERTEX
  5
30F1
  8
0
 62
     0
 10
241.239682
 20
190.168172
 30
0.0
  0
SEQEND
  5
30F2
  8
0
 62
     0
  0
LINE
  5
2954
  8
0
 62
     0
 10
243.57371
 20
190.405162
 30
0.0
 11
242.443495
 21
190.396575
 31
0.0
  0
POLYLINE
  5
2955
  8
0
 62
     0
 66
     1
 10
0.0
 20
0.0
 30
0.0
  0
VERTEX
  5
30F3
  8
0
 62
     0
 10
241.239682
 20
190.168172
 30
0.0
  0
VERTEX
  5
30F4
  8
0
 62
     0
 10
241.251944
 20
190.142609
 30
0.0
  0
VERTEX
  5
30F5
  8
0
 62
     0
 10
241.285002
 20
190.073915
 30
0.0
  0
VERTEX
  5
30F6
  8
0
 62
     0
 10
241.331877
 20
189.977064
 30
0.0
  0
VERTEX
  5
30F7
  8
0
 62
     0
 10
241.384962
 20
189.868172
 30
0.0
  0
SEQEND
  5
30F8
  8
0
 62
     0
  0
POLYLINE
  5
2956
  8
0
 62
     0
 66
     1
 10
0.0
 20
0.0
 30
0.0
  0
VERTEX
  5
30F9
  8
0
 62
     0
 10
240.748986
 20
190.573754
 30
0.0
  0
VERTEX
  5
30FA
  8
0
 62
     0
 10
240.837441
 20
190.540047
 30
0.0
  0
VERTEX
  5
30FB
  8
0
 62
     0
 10
240.922702
 20
190.506298
 30
0.0
  0
SEQEND
  5
30FC
  8
0
 62
     0
  0
POLYLINE
  5
2957
  8
0
 62
     0
 66
     1
 10
0.0
 20
0.0
 30
0.0
  0
VERTEX
  5
30FD
  8
0
 62
     0
 10
240.700573
 20
190.515339
 30
0.0
  0
VERTEX
  5
30FE
  8
0
 62
     0
 10
240.785607
 20
190.514583
 30
0.0
  0
VERTEX
  5
30FF
  8
0
 62
     0
 10
240.85458
 20
190.512557
 30
0.0
  0
VERTEX
  5
3100
  8
0
 62
     0
 10
240.901369
 20
190.509649
 30
0.0
  0
VERTEX
  5
3101
  8
0
 62
     0
 10
240.922702
 20
190.506298
 30
0.0
  0
SEQEND
  5
3102
  8
0
 62
     0
  0
POLYLINE
  5
2958
  8
0
 62
     0
 66
     1
 10
0.0
 20
0.0
 30
0.0
  0
VERTEX
  5
3103
  8
0
 62
     0
 10
240.600946
 20
190.515339
 30
0.0
  0
VERTEX
  5
3104
  8
0
 62
     0
 10
240.726508
 20
190.514238
 30
0.0
  0
VERTEX
  5
3105
  8
0
 62
     0
 10
240.82973
 20
190.511252
 30
0.0
  0
VERTEX
  5
3106
  8
0
 62
     0
 10
240.901844
 20
190.506807
 30
0.0
  0
VERTEX
  5
3107
  8
0
 62
     0
 10
240.933893
 20
190.501769
 30
0.0
  0
SEQEND
  5
3108
  8
0
 62
     0
  0
LINE
  5
2959
  8
0
 62
     0
 10
240.922702
 20
190.506298
 30
0.0
 11
240.738903
 21
190.168172
 31
0.0
  0
LINE
  5
295A
  8
0
 62
     0
 10
240.933893
 20
190.501769
 30
0.0
 11
240.754084
 21
190.168172
 31
0.0
  0
LINE
  5
295B
  8
0
 62
     0
 10
240.700573
 20
190.515339
 30
0.0
 11
240.520534
 21
190.168172
 31
0.0
  0
LINE
  5
295C
  8
0
 62
     0
 10
240.600945
 20
190.515339
 30
0.0
 11
240.422369
 21
190.168172
 31
0.0
  0
POLYLINE
  5
295D
  8
0
 62
     0
 66
     1
 10
0.0
 20
0.0
 30
0.0
  0
VERTEX
  5
3109
  8
0
 62
     0
 10
241.384962
 20
189.868172
 30
0.0
  0
VERTEX
  5
310A
  8
0
 62
     0
 10
241.595084
 20
190.128149
 30
0.0
  0
VERTEX
  5
310B
  8
0
 62
     0
 10
241.815859
 20
190.380792
 30
0.0
  0
SEQEND
  5
310C
  8
0
 62
     0
  0
POLYLINE
  5
295E
  8
0
 62
     0
 66
     1
 10
0.0
 20
0.0
 30
0.0
  0
VERTEX
  5
310D
  8
0
 62
     0
 10
241.815859
 20
190.380792
 30
0.0
  0
VERTEX
  5
310E
  8
0
 62
     0
 10
241.847061
 20
190.408688
 30
0.0
  0
VERTEX
  5
310F
  8
0
 62
     0
 10
241.888878
 20
190.432012
 30
0.0
  0
VERTEX
  5
3110
  8
0
 62
     0
 10
241.938901
 20
190.445634
 30
0.0
  0
VERTEX
  5
3111
  8
0
 62
     0
 10
241.992266
 20
190.446231
 30
0.0
  0
VERTEX
  5
3112
  8
0
 62
     0
 10
242.043367
 20
190.433427
 30
0.0
  0
VERTEX
  5
3113
  8
0
 62
     0
 10
242.087891
 20
190.409261
 30
0.0
  0
VERTEX
  5
3114
  8
0
 62
     0
 10
242.122948
 20
190.377327
 30
0.0
  0
VERTEX
  5
3115
  8
0
 62
     0
 10
242.147478
 20
190.341967
 30
0.0
  0
VERTEX
  5
3116
  8
0
 62
     0
 10
242.16228
 20
190.307257
 30
0.0
  0
SEQEND
  5
3117
  8
0
 62
     0
  0
LINE
  5
295F
  8
0
 62
     0
 10
242.443494
 20
190.396575
 30
0.0
 11
242.16228
 21
190.307257
 31
0.0
  0
ARC
  5
2960
  8
0
 62
     0
 10
235.029302
 20
187.369441
 30
0.0
 40
10.0
 50
359.182704
 51
17.716265
  0
POLYLINE
  5
2961
  8
0
 62
     0
 66
     1
 10
0.0
 20
0.0
 30
0.0
  0
VERTEX
  5
3118
  8
0
 62
     0
 10
245.022168
 20
187.227075
 30
0.0
  0
VERTEX
  5
3119
  8
0
 62
     0
 10
245.023349
 20
187.216928
 30
0.0
  0
VERTEX
  5
311A
  8
0
 62
     0
 10
245.02392
 20
187.13797
 30
0.0
  0
VERTEX
  5
311B
  8
0
 62
     0
 10
245.020642
 20
186.987794
 30
0.0
  0
VERTEX
  5
311C
  8
0
 62
     0
 10
245.01121
 20
186.779223
 30
0.0
  0
VERTEX
  5
311D
  8
0
 62
     0
 10
244.993782
 20
186.531518
 30
0.0
  0
VERTEX
  5
311E
  8
0
 62
     0
 10
244.968191
 20
186.268172
 30
0.0
  0
SEQEND
  5
311F
  8
0
 62
     0
  0
POLYLINE
  5
2962
  8
0
 62
     0
 66
     1
 10
0.0
 20
0.0
 30
0.0
  0
VERTEX
  5
3120
  8
0
 62
     0
 10
243.491404
 20
187.268067
 30
0.0
  0
VERTEX
  5
3121
  8
0
 62
     0
 10
243.514111
 20
187.258275
 30
0.0
  0
VERTEX
  5
3122
  8
0
 62
     0
 10
243.556669
 20
187.178173
 30
0.0
  0
VERTEX
  5
3123
  8
0
 62
     0
 10
243.590401
 20
187.023635
 30
0.0
  0
VERTEX
  5
3124
  8
0
 62
     0
 10
243.609828
 20
186.806841
 30
0.0
  0
VERTEX
  5
3125
  8
0
 62
     0
 10
243.61025
 20
186.546709
 30
0.0
  0
VERTEX
  5
3126
  8
0
 62
     0
 10
243.589799
 20
186.268172
 30
0.0
  0
SEQEND
  5
3127
  8
0
 62
     0
  0
POLYLINE
  5
2963
  8
0
 62
     0
 66
     1
 10
0.0
 20
0.0
 30
0.0
  0
VERTEX
  5
3128
  8
0
 62
     0
 10
243.267831
 20
186.268172
 30
0.0
  0
VERTEX
  5
3129
  8
0
 62
     0
 10
243.300096
 20
186.543981
 30
0.0
  0
VERTEX
  5
312A
  8
0
 62
     0
 10
243.337058
 20
186.802055
 30
0.0
  0
VERTEX
  5
312B
  8
0
 62
     0
 10
243.377987
 20
187.01993
 30
0.0
  0
VERTEX
  5
312C
  8
0
 62
     0
 10
243.421767
 20
187.175419
 30
0.0
  0
VERTEX
  5
312D
  8
0
 62
     0
 10
243.467829
 20
187.257236
 30
0.0
  0
VERTEX
  5
312E
  8
0
 62
     0
 10
243.491404
 20
187.268067
 30
0.0
  0
SEQEND
  5
312F
  8
0
 62
     0
  0
POLYLINE
  5
2964
  8
0
 62
     0
 66
     1
 10
0.0
 20
0.0
 30
0.0
  0
VERTEX
  5
3130
  8
0
 62
     0
 10
244.949008
 20
186.268172
 30
0.0
  0
VERTEX
  5
3131
  8
0
 62
     0
 10
244.975113
 20
186.530862
 30
0.0
  0
VERTEX
  5
3132
  8
0
 62
     0
 10
244.994703
 20
186.778569
 30
0.0
  0
VERTEX
  5
3133
  8
0
 62
     0
 10
245.007793
 20
186.988628
 30
0.0
  0
VERTEX
  5
3134
  8
0
 62
     0
 10
245.015732
 20
187.138717
 30
0.0
  0
VERTEX
  5
3135
  8
0
 62
     0
 10
245.020534
 20
187.217159
 30
0.0
  0
VERTEX
  5
3136
  8
0
 62
     0
 10
245.022168
 20
187.227075
 30
0.0
  0
SEQEND
  5
3137
  8
0
 62
     0
  0
LINE
  5
2965
  8
0
 62
     0
 10
244.555053
 20
190.412476
 30
0.0
 11
243.57371
 21
190.405162
 31
0.0
  0
LINE
  5
2966
  8
0
 62
     0
 10
241.034509
 20
190.968172
 30
0.0
 11
243.022982
 21
190.968172
 31
0.0
  0
LINE
  5
2967
  8
0
 62
     0
 10
243.12893
 20
190.754712
 30
0.0
 11
241.964237
 21
190.74765
 31
0.0
  0
LINE
  5
2968
  8
0
 62
     0
 10
240.649619
 20
190.626783
 30
0.0
 11
240.657344
 21
190.607418
 31
0.0
  0
LINE
  5
2969
  8
0
 62
     0
 10
240.700181
 20
190.668172
 30
0.0
 11
240.688198
 21
190.678737
 31
0.0
  0
POLYLINE
  5
296A
  8
0
 62
     0
 66
     1
 10
0.0
 20
0.0
 30
0.0
  0
VERTEX
  5
3138
  8
0
 62
     0
 10
240.688198
 20
190.678737
 30
0.0
  0
VERTEX
  5
3139
  8
0
 62
     0
 10
240.691968
 20
190.711225
 30
0.0
  0
VERTEX
  5
313A
  8
0
 62
     0
 10
240.711206
 20
190.763231
 30
0.0
  0
VERTEX
  5
313B
  8
0
 62
     0
 10
240.743873
 20
190.82972
 30
0.0
  0
VERTEX
  5
313C
  8
0
 62
     0
 10
240.814929
 20
190.968172
 30
0.0
  0
SEQEND
  5
313D
  8
0
 62
     0
  0
POLYLINE
  5
296B
  8
0
 62
     0
 66
     1
 10
0.0
 20
0.0
 30
0.0
  0
VERTEX
  5
313E
  8
0
 62
     0
 10
240.691957
 20
190.711184
 30
0.0
  0
VERTEX
  5
313F
  8
0
 62
     0
 10
240.711189
 20
190.763192
 30
0.0
  0
VERTEX
  5
3140
  8
0
 62
     0
 10
240.743866
 20
190.829708
 30
0.0
  0
VERTEX
  5
3141
  8
0
 62
     0
 10
240.814929
 20
190.968172
 30
0.0
  0
SEQEND
  5
3142
  8
0
 62
     0
  0
POLYLINE
  5
296C
  8
0
 62
     0
 66
     1
 10
0.0
 20
0.0
 30
0.0
  0
VERTEX
  5
3143
  8
0
 62
     0
 10
241.268229
 20
190.968172
 30
0.0
  0
VERTEX
  5
3144
  8
0
 62
     0
 10
241.245722
 20
190.853367
 30
0.0
  0
VERTEX
  5
3145
  8
0
 62
     0
 10
241.181628
 20
190.75604
 30
0.0
  0
SEQEND
  5
3146
  8
0
 62
     0
  0
LINE
  5
296D
  8
0
 62
     0
 10
240.700184
 20
190.668172
 30
0.0
 11
241.707688
 21
190.668172
 31
0.0
  0
LINE
  5
296E
  8
0
 62
     0
 10
240.807947
 20
190.937929
 30
0.0
 11
240.543674
 21
190.911433
 31
0.0
  0
LINE
  5
296F
  8
0
 62
     0
 10
240.807947
 20
190.937929
 30
0.0
 11
241.034509
 21
190.968172
 31
0.0
  0
POLYLINE
  5
2970
  8
0
 62
     0
 66
     1
 10
0.0
 20
0.0
 30
0.0
  0
VERTEX
  5
3147
  8
0
 62
     0
 10
241.96423
 20
190.74765
 30
0.0
  0
VERTEX
  5
3148
  8
0
 62
     0
 10
241.814592
 20
190.723948
 30
0.0
  0
VERTEX
  5
3149
  8
0
 62
     0
 10
241.659574
 20
190.643069
 30
0.0
  0
VERTEX
  5
314A
  8
0
 62
     0
 10
241.593822
 20
190.582533
 30
0.0
  0
SEQEND
  5
314B
  8
0
 62
     0
  0
LINE
  5
2971
  8
0
 62
     0
 10
241.085703
 20
190.691008
 30
0.0
 11
240.972553
 21
190.668172
 31
0.0
  0
POLYLINE
  5
2972
  8
0
 62
     0
 66
     1
 10
0.0
 20
0.0
 30
0.0
  0
VERTEX
  5
314C
  8
0
 62
     0
 10
240.787506
 20
190.907686
 30
0.0
  0
VERTEX
  5
314D
  8
0
 62
     0
 10
240.731419
 20
190.817211
 30
0.0
  0
VERTEX
  5
314E
  8
0
 62
     0
 10
240.688582
 20
190.73691
 30
0.0
  0
VERTEX
  5
314F
  8
0
 62
     0
 10
240.660531
 20
190.671474
 30
0.0
  0
SEQEND
  5
3150
  8
0
 62
     0
  0
POLYLINE
  5
2973
  8
0
 62
     0
 66
     1
 10
0.0
 20
0.0
 30
0.0
  0
VERTEX
  5
3151
  8
0
 62
     0
 10
240.787506
 20
190.907686
 30
0.0
  0
VERTEX
  5
3152
  8
0
 62
     0
 10
240.731435
 20
190.817238
 30
0.0
  0
VERTEX
  5
3153
  8
0
 62
     0
 10
240.688589
 20
190.736925
 30
0.0
  0
VERTEX
  5
3154
  8
0
 62
     0
 10
240.660528
 20
190.671467
 30
0.0
  0
VERTEX
  5
3155
  8
0
 62
     0
 10
240.649619
 20
190.626783
 30
0.0
  0
SEQEND
  5
3156
  8
0
 62
     0
  0
LINE
  5
2974
  8
0
 62
     0
 10
241.181628
 20
190.75604
 30
0.0
 11
241.085703
 21
190.691008
 31
0.0
  0
LINE
  5
2975
  8
0
 62
     0
 10
243.022982
 20
190.968172
 30
0.0
 11
243.023164
 21
190.965364
 31
0.0
  0
LINE
  5
2976
  8
0
 62
     0
 10
243.023164
 20
190.965363
 30
0.0
 11
242.999738
 21
190.851921
 31
0.0
  0
LINE
  5
2977
  8
0
 62
     0
 10
243.000161
 20
190.853367
 30
0.0
 11
243.022982
 21
190.968172
 31
0.0
  0
LINE
  5
2978
  8
0
 62
     0
 10
243.076529
 20
195.234168
 30
0.0
 11
243.078635
 21
195.384018
 31
0.0
  0
POLYLINE
  5
2979
  8
0
 62
     0
 66
     1
 10
0.0
 20
0.0
 30
0.0
  0
VERTEX
  5
3157
  8
0
 62
     0
 10
243.065341
 20
194.440957
 30
0.0
  0
VERTEX
  5
3158
  8
0
 62
     0
 10
243.067661
 20
194.605903
 30
0.0
  0
VERTEX
  5
3159
  8
0
 62
     0
 10
243.069945
 20
194.767779
 30
0.0
  0
SEQEND
  5
315A
  8
0
 62
     0
  0
POLYLINE
  5
297A
  8
0
 62
     0
 66
     1
 10
0.0
 20
0.0
 30
0.0
  0
VERTEX
  5
315B
  8
0
 62
     0
 10
243.060606
 20
194.101205
 30
0.0
  0
VERTEX
  5
315C
  8
0
 62
     0
 10
243.067649
 20
194.605068
 30
0.0
  0
VERTEX
  5
315D
  8
0
 62
     0
 10
243.069932
 20
194.766862
 30
0.0
  0
VERTEX
  5
315E
  8
0
 62
     0
 10
243.072175
 20
194.925622
 30
0.0
  0
SEQEND
  5
315F
  8
0
 62
     0
  0
LINE
  5
297B
  8
0
 62
     0
 10
243.072188
 20
194.926617
 30
0.0
 11
243.074389
 21
195.08245
 31
0.0
  0
POLYLINE
  5
297C
  8
0
 62
     0
 66
     1
 10
0.0
 20
0.0
 30
0.0
  0
VERTEX
  5
3160
  8
0
 62
     0
 10
243.069945
 20
194.767779
 30
0.0
  0
VERTEX
  5
3161
  8
0
 62
     0
 10
243.074375
 20
195.081381
 30
0.0
  0
VERTEX
  5
3162
  8
0
 62
     0
 10
243.076544
 20
195.235312
 30
0.0
  0
SEQEND
  5
3163
  8
0
 62
     0
  0
LINE
  5
297D
  8
0
 62
     0
 10
243.058209
 20
193.926967
 30
0.0
 11
243.06299
 21
194.272915
 31
0.0
  0
LINE
  5
297E
  8
0
 62
     0
 10
243.053355
 20
193.568785
 30
0.0
 11
243.058214
 21
193.927402
 31
0.0
  0
LINE
  5
297F
  8
0
 62
     0
 10
243.049193
 20
193.266569
 30
0.0
 11
243.058209
 21
193.926967
 31
0.0
  0
LINE
  5
2980
  8
0
 62
     0
 10
243.050907
 20
193.38475
 30
0.0
 11
243.053358
 21
193.569006
 31
0.0
  0
LINE
  5
2981
  8
0
 62
     0
 10
243.048452
 20
193.197363
 30
0.0
 11
243.050909
 21
193.384861
 31
0.0
  0
LINE
  5
2982
  8
0
 62
     0
 10
243.045993
 20
193.006453
 30
0.0
 11
243.048452
 21
193.197358
 31
0.0
  0
LINE
  5
2983
  8
0
 62
     0
 10
243.043539
 20
192.812102
 30
0.0
 11
243.045995
 21
193.00658
 31
0.0
  0
LINE
  5
2984
  8
0
 62
     0
 10
243.046008
 20
193.007618
 30
0.0
 11
243.049193
 21
193.266569
 31
0.0
  0
LINE
  5
2985
  8
0
 62
     0
 10
243.041093
 20
192.614253
 30
0.0
 11
243.043542
 21
192.812356
 31
0.0
  0
POLYLINE
  5
2986
  8
0
 62
     0
 66
     1
 10
0.0
 20
0.0
 30
0.0
  0
VERTEX
  5
3164
  8
0
 62
     0
 10
243.034146
 20
192.041205
 30
0.0
  0
VERTEX
  5
3165
  8
0
 62
     0
 10
243.048621
 20
193.222758
 30
0.0
  0
VERTEX
  5
3166
  8
0
 62
     0
 10
243.053355
 20
193.568785
 30
0.0
  0
SEQEND
  5
3167
  8
0
 62
     0
  0
LINE
  5
2987
  8
0
 62
     0
 10
243.038661
 20
192.412854
 30
0.0
 11
243.041098
 21
192.614635
 31
0.0
  0
LINE
  5
2988
  8
0
 62
     0
 10
243.036248
 20
192.207852
 30
0.0
 11
243.038667
 21
192.413367
 31
0.0
  0
LINE
  5
2989
  8
0
 62
     0
 10
243.03386
 20
191.999199
 30
0.0
 11
243.036255
 21
192.208499
 31
0.0
  0
LINE
  5
298A
  8
0
 62
     0
 10
243.031504
 20
191.786847
 30
0.0
 11
243.033868
 21
191.999985
 31
0.0
  0
LINE
  5
298B
  8
0
 62
     0
 10
243.029189
 20
191.570749
 30
0.0
 11
243.031514
 21
191.787776
 31
0.0
  0
LINE
  5
298C
  8
0
 62
     0
 10
243.022982
 20
190.968172
 30
0.0
 11
243.034146
 21
192.041205
 31
0.0
  0
LINE
  5
298D
  8
0
 62
     0
 10
243.022982
 20
190.968172
 30
0.0
 11
243.03443
 21
192.066154
 31
0.0
  0
POLYLINE
  5
298E
  8
0
 62
     0
 66
     1
 10
0.0
 20
0.0
 30
0.0
  0
VERTEX
  5
3168
  8
0
 62
     0
 10
243.024705
 20
191.127121
 30
0.0
  0
VERTEX
  5
3169
  8
0
 62
     0
 10
243.02692
 20
191.350856
 30
0.0
  0
VERTEX
  5
316A
  8
0
 62
     0
 10
243.0292
 20
191.571827
 30
0.0
  0
SEQEND
  5
316B
  8
0
 62
     0
  0
POLYLINE
  5
298F
  8
0
 62
     0
 66
     1
 10
0.0
 20
0.0
 30
0.0
  0
VERTEX
  5
316C
  8
0
 62
     0
 10
243.023164
 20
190.965363
 30
0.0
  0
VERTEX
  5
316D
  8
0
 62
     0
 10
243.024719
 20
191.128506
 30
0.0
  0
VERTEX
  5
316E
  8
0
 62
     0
 10
243.026933
 20
191.352085
 30
0.0
  0
SEQEND
  5
316F
  8
0
 62
     0
  0
LINE
  5
2990
  8
0
 62
     0
 10
244.076468
 20
190.760319
 30
0.0
 11
243.83887
 21
190.758924
 31
0.0
  0
LINE
  5
2991
  8
0
 62
     0
 10
244.076468
 20
190.760319
 30
0.0
 11
242.930956
 21
190.753513
 31
0.0
  0
LINE
  5
2992
  8
0
 62
     0
 10
242.935579
 20
190.75665
 30
0.0
 11
243.000161
 21
190.853367
 31
0.0
  0
LINE
  5
2993
  8
0
 62
     0
 10
242.999738
 20
190.851921
 30
0.0
 11
242.936614
 21
190.757353
 31
0.0
  0
ARC
  5
2994
  8
0
 62
     0
 10
242.8059
 20
204.968172
 30
0.0
 40
0.3
 50
0.0
 51
90.0
  0
POLYLINE
  5
2995
  8
0
 62
     0
 66
     1
 10
0.0
 20
0.0
 30
0.0
  0
VERTEX
  5
3170
  8
0
 62
     0
 10
241.085703
 20
205.245336
 30
0.0
  0
VERTEX
  5
3171
  8
0
 62
     0
 10
241.181628
 20
205.180304
 30
0.0
  0
VERTEX
  5
3172
  8
0
 62
     0
 10
241.245722
 20
205.082977
 30
0.0
  0
VERTEX
  5
3173
  8
0
 62
     0
 10
241.268229
 20
204.968172
 30
0.0
  0
SEQEND
  5
3174
  8
0
 62
     0
  0
POLYLINE
  5
2996
  8
0
 62
     0
 66
     1
 10
0.0
 20
0.0
 30
0.0
  0
VERTEX
  5
3175
  8
0
 62
     0
 10
243.105588
 20
197.772763
 30
0.0
  0
VERTEX
  5
3176
  8
0
 62
     0
 10
243.105794
 20
197.84526
 30
0.0
  0
VERTEX
  5
3177
  8
0
 62
     0
 10
243.105899
 20
197.913563
 30
0.0
  0
VERTEX
  5
3178
  8
0
 62
     0
 10
243.1059
 20
204.968172
 30
0.0
  0
SEQEND
  5
3179
  8
0
 62
     0
  0
LINE
  5
2997
  8
0
 62
     0
 10
243.080693
 20
195.530945
 30
0.0
 11
243.086544
 21
195.955175
 31
0.0
  0
LINE
  5
2998
  8
0
 62
     0
 10
243.084645
 20
195.815849
 30
0.0
 11
243.088336
 21
196.088416
 31
0.0
  0
LINE
  5
2999
  8
0
 62
     0
 10
243.086544
 20
195.955175
 30
0.0
 11
243.091738
 21
196.348233
 31
0.0
  0
LINE
  5
299A
  8
0
 62
     0
 10
243.090092
 20
196.221511
 30
0.0
 11
243.093352
 21
196.474946
 31
0.0
  0
POLYLINE
  5
299B
  8
0
 62
     0
 66
     1
 10
0.0
 20
0.0
 30
0.0
  0
VERTEX
  5
317A
  8
0
 62
     0
 10
243.091738
 20
196.348233
 30
0.0
  0
VERTEX
  5
317B
  8
0
 62
     0
 10
243.093328
 20
196.473257
 30
0.0
  0
VERTEX
  5
317C
  8
0
 62
     0
 10
243.094868
 20
196.59671
 30
0.0
  0
SEQEND
  5
317D
  8
0
 62
     0
  0
LINE
  5
299C
  8
0
 62
     0
 10
243.094843
 20
196.594976
 30
0.0
 11
243.096298
 21
196.715069
 31
0.0
  0
POLYLINE
  5
299D
  8
0
 62
     0
 66
     1
 10
0.0
 20
0.0
 30
0.0
  0
VERTEX
  5
317E
  8
0
 62
     0
 10
243.096298
 20
196.715069
 30
0.0
  0
VERTEX
  5
317F
  8
0
 62
     0
 10
243.097635
 20
196.82995
 30
0.0
  0
VERTEX
  5
3180
  8
0
 62
     0
 10
243.098878
 20
196.941291
 30
0.0
  0
VERTEX
  5
3181
  8
0
 62
     0
 10
243.100026
 20
197.049037
 30
0.0
  0
VERTEX
  5
3182
  8
0
 62
     0
 10
243.101079
 20
197.153144
 30
0.0
  0
VERTEX
  5
3183
  8
0
 62
     0
 10
243.102043
 20
197.253581
 30
0.0
  0
VERTEX
  5
3184
  8
0
 62
     0
 10
243.102909
 20
197.350283
 30
0.0
  0
VERTEX
  5
3185
  8
0
 62
     0
 10
243.10367
 20
197.443139
 30
0.0
  0
VERTEX
  5
3186
  8
0
 62
     0
 10
243.104318
 20
197.532047
 30
0.0
  0
SEQEND
  5
3187
  8
0
 62
     0
  0
POLYLINE
  5
299E
  8
0
 62
     0
 66
     1
 10
0.0
 20
0.0
 30
0.0
  0
VERTEX
  5
3188
  8
0
 62
     0
 10
243.096275
 20
196.713314
 30
0.0
  0
VERTEX
  5
3189
  8
0
 62
     0
 10
243.097617
 20
196.828189
 30
0.0
  0
VERTEX
  5
318A
  8
0
 62
     0
 10
243.098863
 20
196.939531
 30
0.0
  0
VERTEX
  5
318B
  8
0
 62
     0
 10
243.100012
 20
197.047278
 30
0.0
  0
VERTEX
  5
318C
  8
0
 62
     0
 10
243.101064
 20
197.15138
 30
0.0
  0
VERTEX
  5
318D
  8
0
 62
     0
 10
243.102022
 20
197.251794
 30
0.0
  0
VERTEX
  5
318E
  8
0
 62
     0
 10
243.102888
 20
197.348483
 30
0.0
  0
VERTEX
  5
318F
  8
0
 62
     0
 10
243.103652
 20
197.441358
 30
0.0
  0
VERTEX
  5
3190
  8
0
 62
     0
 10
243.104308
 20
197.530307
 30
0.0
  0
VERTEX
  5
3191
  8
0
 62
     0
 10
243.104853
 20
197.616928
 30
0.0
  0
SEQEND
  5
3192
  8
0
 62
     0
  0
POLYLINE
  5
299F
  8
0
 62
     0
 66
     1
 10
0.0
 20
0.0
 30
0.0
  0
VERTEX
  5
3193
  8
0
 62
     0
 10
243.104853
 20
197.616928
 30
0.0
  0
VERTEX
  5
3194
  8
0
 62
     0
 10
243.105275
 20
197.697716
 30
0.0
  0
VERTEX
  5
3195
  8
0
 62
     0
 10
243.105589
 20
197.774362
 30
0.0
  0
SEQEND
  5
3196
  8
0
 62
     0
  0
POLYLINE
  5
29A0
  8
0
 62
     0
 66
     1
 10
0.0
 20
0.0
 30
0.0
  0
VERTEX
  5
3197
  8
0
 62
     0
 10
243.104849
 20
197.615238
 30
0.0
  0
VERTEX
  5
3198
  8
0
 62
     0
 10
243.105274
 20
197.696076
 30
0.0
  0
VERTEX
  5
3199
  8
0
 62
     0
 10
243.105588
 20
197.772763
 30
0.0
  0
SEQEND
  5
319A
  8
0
 62
     0
  0
POLYLINE
  5
29A1
  8
0
 62
     0
 66
     1
 10
0.0
 20
0.0
 30
0.0
  0
VERTEX
  5
319B
  8
0
 62
     0
 10
243.105589
 20
197.774362
 30
0.0
  0
VERTEX
  5
319C
  8
0
 62
     0
 10
243.105802
 20
197.846849
 30
0.0
  0
VERTEX
  5
319D
  8
0
 62
     0
 10
243.105907
 20
197.915135
 30
0.0
  0
SEQEND
  5
319E
  8
0
 62
     0
  0
LINE
  5
29A2
  8
0
 62
     0
 10
243.105899
 20
197.913563
 30
0.0
 11
243.1059
 21
197.939243
 31
0.0
  0
LINE
  5
29A3
  8
0
 62
     0
 10
243.105774
 20
197.83745
 30
0.0
 11
243.10588
 21
197.923206
 31
0.0
  0
LINE
  5
29A4
  8
0
 62
     0
 10
243.105907
 20
197.915135
 30
0.0
 11
243.105917
 21
197.944219
 31
0.0
  0
ARC
  5
29A5
  8
0
 62
     0
 10
225.6059
 20
214.057179
 30
0.0
 40
19.0
 50
345.963757
 51
353.190353
  0
POLYLINE
  5
29A6
  8
0
 62
     0
 66
     1
 10
0.0
 20
0.0
 30
0.0
  0
VERTEX
  5
319F
  8
0
 62
     0
 10
242.377702
 20
209.21146
 30
0.0
  0
VERTEX
  5
31A0
  8
0
 62
     0
 10
242.205174
 20
210.113793
 30
0.0
  0
VERTEX
  5
31A1
  8
0
 62
     0
 10
242.044493
 20
211.286469
 30
0.0
  0
SEQEND
  5
31A2
  8
0
 62
     0
  0
LINE
  5
29A7
  8
0
 62
     0
 10
244.038608
 20
209.449002
 30
0.0
 11
244.038608
 21
211.796115
 31
0.0
  0
LINE
  5
29A8
  8
0
 62
     0
 10
243.9059
 20
208.918172
 30
0.0
 11
242.463993
 21
208.918172
 31
0.0
  0
POLYLINE
  5
29A9
  8
0
 62
     0
 66
     1
 10
0.0
 20
0.0
 30
0.0
  0
VERTEX
  5
31A3
  8
0
 62
     0
 10
242.898921
 20
208.918172
 30
0.0
  0
VERTEX
  5
31A4
  8
0
 62
     0
 10
242.824272
 20
208.556115
 30
0.0
  0
VERTEX
  5
31A5
  8
0
 62
     0
 10
242.712918
 20
208.418023
 30
0.0
  0
SEQEND
  5
31A6
  8
0
 62
     0
  0
LINE
  5
29AA
  8
0
 62
     0
 10
242.546707
 20
208.63704
 30
0.0
 11
242.377702
 21
209.21146
 31
0.0
  0
LINE
  5
29AB
  8
0
 62
     0
 10
240.972553
 20
205.268172
 30
0.0
 11
241.085703
 21
205.245336
 31
0.0
  0
POLYLINE
  5
29AC
  8
0
 62
     0
 66
     1
 10
0.0
 20
0.0
 30
0.0
  0
VERTEX
  5
31A7
  8
0
 62
     0
 10
242.712918
 20
208.418023
 30
0.0
  0
VERTEX
  5
31A8
  8
0
 62
     0
 10
242.69751
 20
208.420375
 30
0.0
  0
VERTEX
  5
31A9
  8
0
 62
     0
 10
242.546707
 20
208.63704
 30
0.0
  0
SEQEND
  5
31AA
  8
0
 62
     0
  0
LINE
  5
29AD
  8
0
 62
     0
 10
242.1059
 20
205.268172
 30
0.0
 11
242.1059
 21
205.568172
 31
0.0
  0
LINE
  5
29AE
  8
0
 62
     0
 10
240.375798
 20
205.568172
 30
0.0
 11
240.375798
 21
205.268172
 31
0.0
  0
LINE
  5
29AF
  8
0
 62
     0
 10
243.1059
 20
208.918172
 30
0.0
 11
243.1059
 21
206.068172
 31
0.0
  0
LINE
  5
29B0
  8
0
 62
     0
 10
244.038608
 20
209.449002
 30
0.0
 11
243.9059
 21
208.918172
 31
0.0
  0
LINE
  5
29B1
  8
0
 62
     0
 10
242.044493
 20
211.286469
 30
0.0
 11
241.9059
 21
212.699246
 31
0.0
  0
POLYLINE
  5
29B2
  8
0
 62
     0
 66
     1
 10
0.0
 20
0.0
 30
0.0
  0
VERTEX
  5
31AB
  8
0
 62
     0
 10
257.775593
 20
212.182265
 30
0.0
  0
VERTEX
  5
31AC
  8
0
 62
     0
 10
257.776253
 20
212.130638
 30
0.0
  0
VERTEX
  5
31AD
  8
0
 62
     0
 10
257.776642
 20
212.094939
 30
0.0
  0
VERTEX
  5
31AE
  8
0
 62
     0
 10
257.776249
 20
212.079692
 30
0.0
  0
VERTEX
  5
31AF
  8
0
 62
     0
 10
257.775978
 20
212.079383
 30
0.0
  0
SEQEND
  5
31B0
  8
0
 62
     0
  0
POLYLINE
  5
29B3
  8
0
 62
     0
 66
     1
 10
0.0
 20
0.0
 30
0.0
  0
VERTEX
  5
31B1
  8
0
 62
     0
 10
257.77546
 20
212.182262
 30
0.0
  0
VERTEX
  5
31B2
  8
0
 62
     0
 10
257.7555
 20
212.625206
 30
0.0
  0
VERTEX
  5
31B3
  8
0
 62
     0
 10
257.735635
 20
213.15667
 30
0.0
  0
VERTEX
  5
31B4
  8
0
 62
     0
 10
257.71848
 20
213.76098
 30
0.0
  0
VERTEX
  5
31B5
  8
0
 62
     0
 10
257.706086
 20
214.422971
 30
0.0
  0
SEQEND
  5
31B6
  8
0
 62
     0
  0
POLYLINE
  5
29B4
  8
0
 62
     0
 66
     1
 10
0.0
 20
0.0
 30
0.0
  0
VERTEX
  5
31B7
  8
0
 62
     0
 10
257.970337
 20
212.274759
 30
0.0
  0
VERTEX
  5
31B8
  8
0
 62
     0
 10
257.954437
 20
212.611258
 30
0.0
  0
VERTEX
  5
31B9
  8
0
 62
     0
 10
257.938374
 20
213.003328
 30
0.0
  0
VERTEX
  5
31BA
  8
0
 62
     0
 10
257.923424
 20
213.443096
 30
0.0
  0
VERTEX
  5
31BB
  8
0
 62
     0
 10
257.910688
 20
213.923859
 30
0.0
  0
VERTEX
  5
31BC
  8
0
 62
     0
 10
257.901114
 20
214.438286
 30
0.0
  0
SEQEND
  5
31BD
  8
0
 62
     0
  0
POLYLINE
  5
29B5
  8
0
 62
     0
 66
     1
 10
0.0
 20
0.0
 30
0.0
  0
VERTEX
  5
31BE
  8
0
 62
     0
 10
257.89291
 20
214.4369
 30
0.0
  0
VERTEX
  5
31BF
  8
0
 62
     0
 10
257.896383
 20
214.436288
 30
0.0
  0
VERTEX
  5
31C0
  8
0
 62
     0
 10
257.899115
 20
214.436768
 30
0.0
  0
VERTEX
  5
31C1
  8
0
 62
     0
 10
257.901114
 20
214.438286
 30
0.0
  0
SEQEND
  5
31C2
  8
0
 62
     0
  0
LINE
  5
29B6
  8
0
 62
     0
 10
258.564156
 20
214.0693
 30
0.0
 11
258.605894
 21
214.615524
 31
0.0
  0
POLYLINE
  5
29B7
  8
0
 62
     0
 66
     1
 10
0.0
 20
0.0
 30
0.0
  0
VERTEX
  5
31C3
  8
0
 62
     0
 10
258.6059
 20
214.615538
 30
0.0
  0
VERTEX
  5
31C4
  8
0
 62
     0
 10
258.5893
 20
214.28623
 30
0.0
  0
VERTEX
  5
31C5
  8
0
 62
     0
 10
258.391574
 20
213.341624
 30
0.0
  0
VERTEX
  5
31C6
  8
0
 62
     0
 10
257.970337
 20
212.274759
 30
0.0
  0
SEQEND
  5
31C7
  8
0
 62
     0
  0
POLYLINE
  5
29B8
  8
0
 62
     0
 66
     1
 10
0.0
 20
0.0
 30
0.0
  0
VERTEX
  5
31C8
  8
0
 62
     0
 10
257.892915
 20
214.436903
 30
0.0
  0
VERTEX
  5
31C9
  8
0
 62
     0
 10
257.855001
 20
214.438438
 30
0.0
  0
VERTEX
  5
31CA
  8
0
 62
     0
 10
257.793761
 20
214.432142
 30
0.0
  0
VERTEX
  5
31CB
  8
0
 62
     0
 10
257.716864
 20
214.423477
 30
0.0
  0
SEQEND
  5
31CC
  8
0
 62
     0
  0
POLYLINE
  5
29B9
  8
0
 62
     0
 66
     1
 10
0.0
 20
0.0
 30
0.0
  0
VERTEX
  5
31CD
  8
0
 62
     0
 10
257.716864
 20
214.423473
 30
0.0
  0
VERTEX
  5
31CE
  8
0
 62
     0
 10
257.713275
 20
214.423187
 30
0.0
  0
VERTEX
  5
31CF
  8
0
 62
     0
 10
257.709682
 20
214.423025
 30
0.0
  0
VERTEX
  5
31D0
  8
0
 62
     0
 10
257.706086
 20
214.422971
 30
0.0
  0
SEQEND
  5
31D1
  8
0
 62
     0
  0
LINE
  5
29BA
  8
0
 62
     0
 10
257.801685
 20
212.081545
 30
0.0
 11
257.775959
 21
212.079384
 31
0.0
  0
POLYLINE
  5
29BB
  8
0
 62
     0
 66
     1
 10
0.0
 20
0.0
 30
0.0
  0
VERTEX
  5
31D2
  8
0
 62
     0
 10
257.775593
 20
212.182265
 30
0.0
  0
VERTEX
  5
31D3
  8
0
 62
     0
 10
257.845175
 20
212.191651
 30
0.0
  0
VERTEX
  5
31D4
  8
0
 62
     0
 10
257.905546
 20
212.212088
 30
0.0
  0
SEQEND
  5
31D5
  8
0
 62
     0
  0
LINE
  5
29BC
  8
0
 62
     0
 10
257.952802
 20
212.193626
 30
0.0
 11
257.952973
 21
212.193987
 31
0.0
  0
POLYLINE
  5
29BD
  8
0
 62
     0
 66
     1
 10
0.0
 20
0.0
 30
0.0
  0
VERTEX
  5
31D6
  8
0
 62
     0
 10
257.952973
 20
212.193987
 30
0.0
  0
VERTEX
  5
31D7
  8
0
 62
     0
 10
257.956637
 20
212.202283
 30
0.0
  0
VERTEX
  5
31D8
  8
0
 62
     0
 10
257.970338
 20
212.274741
 30
0.0
  0
SEQEND
  5
31D9
  8
0
 62
     0
  0
POLYLINE
  5
29BE
  8
0
 62
     0
 66
     1
 10
0.0
 20
0.0
 30
0.0
  0
VERTEX
  5
31DA
  8
0
 62
     0
 10
257.952938
 20
212.193914
 30
0.0
  0
VERTEX
  5
31DB
  8
0
 62
     0
 10
258.348592
 20
213.175889
 30
0.0
  0
VERTEX
  5
31DC
  8
0
 62
     0
 10
258.564156
 20
214.0693
 30
0.0
  0
SEQEND
  5
31DD
  8
0
 62
     0
  0
LINE
  5
29BF
  8
0
 62
     0
 10
257.949097
 20
212.240999
 30
0.0
 11
257.970338
 21
212.274741
 31
0.0
  0
POLYLINE
  5
29C0
  8
0
 62
     0
 66
     1
 10
0.0
 20
0.0
 30
0.0
  0
VERTEX
  5
31DE
  8
0
 62
     0
 10
257.952802
 20
212.193626
 30
0.0
  0
VERTEX
  5
31DF
  8
0
 62
     0
 10
257.931556
 20
212.158619
 30
0.0
  0
VERTEX
  5
31E0
  8
0
 62
     0
 10
257.876285
 20
212.108623
 30
0.0
  0
SEQEND
  5
31E1
  8
0
 62
     0
  0
LINE
  5
29C1
  8
0
 62
     0
 10
257.905546
 20
212.212088
 30
0.0
 11
257.949097
 21
212.240999
 31
0.0
  0
LINE
  5
29C2
  8
0
 62
     0
 10
257.876285
 20
212.108623
 30
0.0
 11
257.801685
 21
212.081545
 31
0.0
  0
LINE
  5
29C3
  8
0
 62
     0
 10
256.036191
 20
223.771239
 30
0.0
 11
244.931014
 21
224.007254
 31
0.0
  0
LINE
  5
29C4
  8
0
 62
     0
 10
256.035396
 20
223.763476
 30
0.0
 11
244.930503
 21
223.999408
 31
0.0
  0
POLYLINE
  5
29C5
  8
0
 62
     0
 66
     1
 10
0.0
 20
0.0
 30
0.0
  0
VERTEX
  5
31E2
  8
0
 62
     0
 10
257.775475
 20
218.782515
 30
0.0
  0
VERTEX
  5
31E3
  8
0
 62
     0
 10
253.187292
 20
218.859476
 30
0.0
  0
VERTEX
  5
31E4
  8
0
 62
     0
 10
248.564148
 20
218.937063
 30
0.0
  0
VERTEX
  5
31E5
  8
0
 62
     0
 10
243.9059
 20
219.015281
 30
0.0
  0
SEQEND
  5
31E6
  8
0
 62
     0
  0
POLYLINE
  5
29C6
  8
0
 62
     0
 66
     1
 10
0.0
 20
0.0
 30
0.0
  0
VERTEX
  5
31E7
  8
0
 62
     0
 10
257.775581
 20
218.950612
 30
0.0
  0
VERTEX
  5
31E8
  8
0
 62
     0
 10
253.187291
 20
219.026338
 30
0.0
  0
VERTEX
  5
31E9
  8
0
 62
     0
 10
248.564147
 20
219.102697
 30
0.0
  0
VERTEX
  5
31EA
  8
0
 62
     0
 10
243.9059
 20
219.179695
 30
0.0
  0
SEQEND
  5
31EB
  8
0
 62
     0
  0
LINE
  5
29C7
  8
0
 62
     0
 10
243.9059
 20
216.266732
 30
0.0
 11
257.706085
 21
216.362608
 31
0.0
  0
ARC
  5
29C8
  8
0
 62
     0
 10
225.6059
 20
220.279165
 30
0.0
 40
19.0
 50
0.471844
 51
14.036243
  0
LINE
  5
29C9
  8
0
 62
     0
 10
244.038608
 20
219.569907
 30
0.0
 11
244.038608
 21
224.887342
 31
0.0
  0
LINE
  5
29CA
  8
0
 62
     0
 10
242.205109
 20
224.22215
 30
0.0
 11
242.377829
 21
225.125429
 31
0.0
  0
POLYLINE
  5
29CB
  8
0
 62
     0
 66
     1
 10
0.0
 20
0.0
 30
0.0
  0
VERTEX
  5
31EC
  8
0
 62
     0
 10
244.568821
 20
220.980023
 30
0.0
  0
VERTEX
  5
31ED
  8
0
 62
     0
 10
244.619697
 20
220.909408
 30
0.0
  0
VERTEX
  5
31EE
  8
0
 62
     0
 10
244.685515
 20
220.796854
 30
0.0
  0
VERTEX
  5
31EF
  8
0
 62
     0
 10
244.738512
 20
220.67542
 30
0.0
  0
VERTEX
  5
31F0
  8
0
 62
     0
 10
244.773039
 20
220.556345
 30
0.0
  0
VERTEX
  5
31F1
  8
0
 62
     0
 10
244.790987
 20
220.449113
 30
0.0
  0
VERTEX
  5
31F2
  8
0
 62
     0
 10
244.798799
 20
220.352419
 30
0.0
  0
VERTEX
  5
31F3
  8
0
 62
     0
 10
244.801414
 20
220.266694
 30
0.0
  0
VERTEX
  5
31F4
  8
0
 62
     0
 10
244.802025
 20
220.193345
 30
0.0
  0
VERTEX
  5
31F5
  8
0
 62
     0
 10
244.802006
 20
220.130512
 30
0.0
  0
VERTEX
  5
31F6
  8
0
 62
     0
 10
244.801555
 20
220.075485
 30
0.0
  0
VERTEX
  5
31F7
  8
0
 62
     0
 10
244.8005
 20
220.0283
 30
0.0
  0
VERTEX
  5
31F8
  8
0
 62
     0
 10
244.79865
 20
219.987067
 30
0.0
  0
VERTEX
  5
31F9
  8
0
 62
     0
 10
244.795799
 20
219.949434
 30
0.0
  0
VERTEX
  5
31FA
  8
0
 62
     0
 10
244.791611
 20
219.913248
 30
0.0
  0
VERTEX
  5
31FB
  8
0
 62
     0
 10
244.785488
 20
219.87658
 30
0.0
  0
VERTEX
  5
31FC
  8
0
 62
     0
 10
244.776416
 20
219.837713
 30
0.0
  0
VERTEX
  5
31FD
  8
0
 62
     0
 10
244.762758
 20
219.79519
 30
0.0
  0
VERTEX
  5
31FE
  8
0
 62
     0
 10
244.742475
 20
219.74882
 30
0.0
  0
VERTEX
  5
31FF
  8
0
 62
     0
 10
244.713253
 20
219.699166
 30
0.0
  0
VERTEX
  5
3200
  8
0
 62
     0
 10
244.671329
 20
219.645641
 30
0.0
  0
VERTEX
  5
3201
  8
0
 62
     0
 10
244.613025
 20
219.589169
 30
0.0
  0
VERTEX
  5
3202
  8
0
 62
     0
 10
244.544986
 20
219.537814
 30
0.0
  0
VERTEX
  5
3203
  8
0
 62
     0
 10
244.470797
 20
219.492479
 30
0.0
  0
VERTEX
  5
3204
  8
0
 62
     0
 10
244.392403
 20
219.452464
 30
0.0
  0
VERTEX
  5
3205
  8
0
 62
     0
 10
244.311423
 20
219.4171
 30
0.0
  0
VERTEX
  5
3206
  8
0
 62
     0
 10
244.229146
 20
219.385774
 30
0.0
  0
SEQEND
  5
3207
  8
0
 62
     0
  0
POLYLINE
  5
29CC
  8
0
 62
     0
 66
     1
 10
0.0
 20
0.0
 30
0.0
  0
VERTEX
  5
3208
  8
0
 62
     0
 10
244.605531
 20
220.385823
 30
0.0
  0
VERTEX
  5
3209
  8
0
 62
     0
 10
244.605501
 20
220.327319
 30
0.0
  0
VERTEX
  5
320A
  8
0
 62
     0
 10
244.605055
 20
220.271857
 30
0.0
  0
VERTEX
  5
320B
  8
0
 62
     0
 10
244.60401
 20
220.223972
 30
0.0
  0
VERTEX
  5
320C
  8
0
 62
     0
 10
244.60218
 20
220.181933
 30
0.0
  0
VERTEX
  5
320D
  8
0
 62
     0
 10
244.599359
 20
220.143453
 30
0.0
  0
VERTEX
  5
320E
  8
0
 62
     0
 10
244.595214
 20
220.10639
 30
0.0
  0
VERTEX
  5
320F
  8
0
 62
     0
 10
244.589155
 20
220.068805
 30
0.0
  0
VERTEX
  5
3210
  8
0
 62
     0
 10
244.580177
 20
220.028967
 30
0.0
  0
VERTEX
  5
3211
  8
0
 62
     0
 10
244.566661
 20
219.985414
 30
0.0
  0
VERTEX
  5
3212
  8
0
 62
     0
 10
244.54659
 20
219.937988
 30
0.0
  0
VERTEX
  5
3213
  8
0
 62
     0
 10
244.517672
 20
219.8873
 30
0.0
  0
VERTEX
  5
3214
  8
0
 62
     0
 10
244.476189
 20
219.83279
 30
0.0
  0
VERTEX
  5
3215
  8
0
 62
     0
 10
244.418506
 20
219.775432
 30
0.0
  0
VERTEX
  5
3216
  8
0
 62
     0
 10
244.351174
 20
219.723382
 30
0.0
  0
VERTEX
  5
3217
  8
0
 62
     0
 10
244.277757
 20
219.677528
 30
0.0
  0
VERTEX
  5
3218
  8
0
 62
     0
 10
244.200179
 20
219.637124
 30
0.0
  0
VERTEX
  5
3219
  8
0
 62
     0
 10
244.120043
 20
219.601464
 30
0.0
  0
VERTEX
  5
321A
  8
0
 62
     0
 10
244.038608
 20
219.569907
 30
0.0
  0
SEQEND
  5
321B
  8
0
 62
     0
  0
POLYLINE
  5
29CD
  8
0
 62
     0
 66
     1
 10
0.0
 20
0.0
 30
0.0
  0
VERTEX
  5
321C
  8
0
 62
     0
 10
244.038609
 20
219.569907
 30
0.0
  0
VERTEX
  5
321D
  8
0
 62
     0
 10
244.05791
 20
219.500009
 30
0.0
  0
VERTEX
  5
321E
  8
0
 62
     0
 10
244.100188
 20
219.441286
 30
0.0
  0
VERTEX
  5
321F
  8
0
 62
     0
 10
244.159883
 20
219.401462
 30
0.0
  0
VERTEX
  5
3220
  8
0
 62
     0
 10
244.229146
 20
219.385774
 30
0.0
  0
SEQEND
  5
3221
  8
0
 62
     0
  0
POLYLINE
  5
29CE
  8
0
 62
     0
 66
     1
 10
0.0
 20
0.0
 30
0.0
  0
VERTEX
  5
3222
  8
0
 62
     0
 10
244.038608
 20
219.569907
 30
0.0
  0
VERTEX
  5
3223
  8
0
 62
     0
 10
243.972383
 20
219.547327
 30
0.0
  0
VERTEX
  5
3224
  8
0
 62
     0
 10
243.9059
 20
219.525395
 30
0.0
  0
SEQEND
  5
3225
  8
0
 62
     0
  0
POLYLINE
  5
29CF
  8
0
 62
     0
 66
     1
 10
0.0
 20
0.0
 30
0.0
  0
VERTEX
  5
3226
  8
0
 62
     0
 10
244.229146
 20
219.385774
 30
0.0
  0
VERTEX
  5
3227
  8
0
 62
     0
 10
244.06806
 20
219.330554
 30
0.0
  0
VERTEX
  5
3228
  8
0
 62
     0
 10
243.9059
 20
219.279393
 30
0.0
  0
SEQEND
  5
3229
  8
0
 62
     0
  0
POLYLINE
  5
29D0
  8
0
 62
     0
 66
     1
 10
0.0
 20
0.0
 30
0.0
  0
VERTEX
  5
322A
  8
0
 62
     0
 10
241.9059
 20
221.637097
 30
0.0
  0
VERTEX
  5
322B
  8
0
 62
     0
 10
242.044266
 20
223.047927
 30
0.0
  0
VERTEX
  5
322C
  8
0
 62
     0
 10
242.205109
 20
224.22215
 30
0.0
  0
SEQEND
  5
322D
  8
0
 62
     0
  0
LINE
  5
29D1
  8
0
 62
     0
 10
244.605344
 20
220.424541
 30
0.0
 11
244.605531
 21
220.385823
 31
0.0
  0
LINE
  5
29D2
  8
0
 62
     0
 10
244.930503
 20
223.999408
 30
0.0
 11
244.931014
 21
224.007226
 31
0.0
  0
POLYLINE
  5
29D3
  8
0
 62
     0
 66
     1
 10
0.0
 20
0.0
 30
0.0
  0
VERTEX
  5
322E
  8
0
 62
     0
 10
244.930503
 20
223.999408
 30
0.0
  0
VERTEX
  5
322F
  8
0
 62
     0
 10
244.794498
 20
223.087553
 30
0.0
  0
VERTEX
  5
3230
  8
0
 62
     0
 10
244.478269
 20
222.33302
 30
0.0
  0
SEQEND
  5
3231
  8
0
 62
     0
  0
LINE
  5
29D4
  8
0
 62
     0
 10
242.3059
 20
229.518172
 30
0.0
 11
239.844515
 21
229.265023
 31
0.0
  0
ARC
  5
29D5
  8
0
 62
     0
 10
239.9059
 20
228.668172
 30
0.0
 40
0.6
 50
95.872106
 51
180.000279
  0
LINE
  5
29D6
  8
0
 62
     0
 10
243.0559
 20
231.443172
 30
0.0
 11
243.0559
 21
228.377382
 31
0.0
  0
LINE
  5
29D7
  8
0
 62
     0
 10
242.3059
 20
231.443172
 30
0.0
 11
242.3059
 21
228.668172
 31
0.0
  0
ARC
  5
29D8
  8
0
 62
     0
 10
242.6059
 20
228.168172
 30
0.0
 40
0.5
 50
0.0
 51
90.0
  0
POLYLINE
  5
29D9
  8
0
 62
     0
 66
     1
 10
0.0
 20
0.0
 30
0.0
  0
VERTEX
  5
3232
  8
0
 62
     0
 10
242.7129
 20
225.918266
 30
0.0
  0
VERTEX
  5
3233
  8
0
 62
     0
 10
242.824283
 20
225.780198
 30
0.0
  0
VERTEX
  5
3234
  8
0
 62
     0
 10
242.89889
 20
225.418172
 30
0.0
  0
SEQEND
  5
3235
  8
0
 62
     0
  0
LINE
  5
29DA
  8
0
 62
     0
 10
243.9059
 20
225.418172
 30
0.0
 11
242.463981
 21
225.418172
 31
0.0
  0
POLYLINE
  5
29DB
  8
0
 62
     0
 66
     1
 10
0.0
 20
0.0
 30
0.0
  0
VERTEX
  5
3236
  8
0
 62
     0
 10
240.81155
 20
228.668172
 30
0.0
  0
VERTEX
  5
3237
  8
0
 62
     0
 10
241.00024
 20
228.630112
 30
0.0
  0
VERTEX
  5
3238
  8
0
 62
     0
 10
241.160204
 20
228.521725
 30
0.0
  0
VERTEX
  5
3239
  8
0
 62
     0
 10
241.267089
 20
228.359514
 30
0.0
  0
VERTEX
  5
323A
  8
0
 62
     0
 10
241.304622
 20
228.168172
 30
0.0
  0
SEQEND
  5
323B
  8
0
 62
     0
  0
POLYLINE
  5
29DC
  8
0
 62
     0
 66
     1
 10
0.0
 20
0.0
 30
0.0
  0
VERTEX
  5
323C
  8
0
 62
     0
 10
242.377829
 20
225.125429
 30
0.0
  0
VERTEX
  5
323D
  8
0
 62
     0
 10
242.546742
 20
225.699388
 30
0.0
  0
VERTEX
  5
323E
  8
0
 62
     0
 10
242.697319
 20
225.915914
 30
0.0
  0
VERTEX
  5
323F
  8
0
 62
     0
 10
242.7129
 20
225.918266
 30
0.0
  0
SEQEND
  5
3240
  8
0
 62
     0
  0
LINE
  5
29DD
  8
0
 62
     0
 10
244.038608
 20
224.887342
 30
0.0
 11
243.9059
 21
225.418172
 31
0.0
  0
LINE
  5
29DE
  8
0
 62
     0
 10
243.1059
 20
228.168172
 30
0.0
 11
243.1059
 21
225.418172
 31
0.0
  0
LINE
  5
29DF
  8
0
 62
     0
 10
243.0559
 20
231.443172
 30
0.0
 11
242.3059
 21
231.443172
 31
0.0
  0
POLYLINE
  5
29E0
  8
0
 62
     0
 66
     1
 10
0.0
 20
0.0
 30
0.0
  0
VERTEX
  5
3241
  8
0
 62
     0
 10
253.505819
 20
222.297651
 30
0.0
  0
VERTEX
  5
3242
  8
0
 62
     0
 10
253.491191
 20
222.370293
 30
0.0
  0
VERTEX
  5
3243
  8
0
 62
     0
 10
253.373041
 20
222.529767
 30
0.0
  0
VERTEX
  5
3244
  8
0
 62
     0
 10
253.140315
 20
222.686463
 30
0.0
  0
VERTEX
  5
3245
  8
0
 62
     0
 10
252.801006
 20
222.83436
 30
0.0
  0
VERTEX
  5
3246
  8
0
 62
     0
 10
252.367
 20
222.967497
 30
0.0
  0
VERTEX
  5
3247
  8
0
 62
     0
 10
251.852867
 20
223.080503
 30
0.0
  0
VERTEX
  5
3248
  8
0
 62
     0
 10
251.275172
 20
223.168733
 30
0.0
  0
VERTEX
  5
3249
  8
0
 62
     0
 10
250.652519
 20
223.228348
 30
0.0
  0
VERTEX
  5
324A
  8
0
 62
     0
 10
250.0059
 20
223.256544
 30
0.0
  0
SEQEND
  5
324B
  8
0
 62
     0
  0
POLYLINE
  5
29E1
  8
0
 62
     0
 66
     1
 10
0.0
 20
0.0
 30
0.0
  0
VERTEX
  5
324C
  8
0
 62
     0
 10
250.009391
 20
221.719543
 30
0.0
  0
VERTEX
  5
324D
  8
0
 62
     0
 10
250.693942
 20
221.721222
 30
0.0
  0
VERTEX
  5
324E
  8
0
 62
     0
 10
251.353065
 20
221.749817
 30
0.0
  0
VERTEX
  5
324F
  8
0
 62
     0
 10
251.963662
 20
221.804544
 30
0.0
  0
VERTEX
  5
3250
  8
0
 62
     0
 10
252.50635
 20
221.884128
 30
0.0
  0
VERTEX
  5
3251
  8
0
 62
     0
 10
252.964096
 20
221.986801
 30
0.0
  0
VERTEX
  5
3252
  8
0
 62
     0
 10
253.322059
 20
222.110154
 30
0.0
  0
SEQEND
  5
3253
  8
0
 62
     0
  0
POLYLINE
  5
29E2
  8
0
 62
     0
 66
     1
 10
0.0
 20
0.0
 30
0.0
  0
VERTEX
  5
3254
  8
0
 62
     0
 10
253.505808
 20
222.297643
 30
0.0
  0
VERTEX
  5
3255
  8
0
 62
     0
 10
253.504557
 20
222.285748
 30
0.0
  0
VERTEX
  5
3256
  8
0
 62
     0
 10
253.458776
 20
222.22865
 30
0.0
  0
VERTEX
  5
3257
  8
0
 62
     0
 10
253.295971
 20
222.125259
 30
0.0
  0
VERTEX
  5
3258
  8
0
 62
     0
 10
252.991124
 20
222.008938
 30
0.0
  0
VERTEX
  5
3259
  8
0
 62
     0
 10
252.548881
 20
221.901184
 30
0.0
  0
VERTEX
  5
325A
  8
0
 62
     0
 10
251.988948
 20
221.814081
 30
0.0
  0
VERTEX
  5
325B
  8
0
 62
     0
 10
251.344401
 20
221.754506
 30
0.0
  0
VERTEX
  5
325C
  8
0
 62
     0
 10
250.657414
 20
221.725087
 30
0.0
  0
VERTEX
  5
325D
  8
0
 62
     0
 10
250.00934
 20
221.724028
 30
0.0
  0
SEQEND
  5
325E
  8
0
 62
     0
  0
POLYLINE
  5
29E3
  8
0
 62
     0
 66
     1
 10
0.0
 20
0.0
 30
0.0
  0
VERTEX
  5
325F
  8
0
 62
     0
 10
253.322059
 20
222.110154
 30
0.0
  0
VERTEX
  5
3260
  8
0
 62
     0
 10
253.568012
 20
222.250909
 30
0.0
  0
VERTEX
  5
3261
  8
0
 62
     0
 10
253.693453
 20
222.405017
 30
0.0
  0
VERTEX
  5
3262
  8
0
 62
     0
 10
253.693831
 20
222.567586
 30
0.0
  0
VERTEX
  5
3263
  8
0
 62
     0
 10
253.568876
 20
222.733137
 30
0.0
  0
VERTEX
  5
3264
  8
0
 62
     0
 10
253.322757
 20
222.895592
 30
0.0
  0
VERTEX
  5
3265
  8
0
 62
     0
 10
252.963932
 20
223.048731
 30
0.0
  0
VERTEX
  5
3266
  8
0
 62
     0
 10
252.504976
 20
223.186412
 30
0.0
  0
VERTEX
  5
3267
  8
0
 62
     0
 10
251.961303
 20
223.303114
 30
0.0
  0
VERTEX
  5
3268
  8
0
 62
     0
 10
251.350433
 20
223.394068
 30
0.0
  0
VERTEX
  5
3269
  8
0
 62
     0
 10
250.692049
 20
223.455344
 30
0.0
  0
VERTEX
  5
326A
  8
0
 62
     0
 10
250.009391
 20
223.484049
 30
0.0
  0
SEQEND
  5
326B
  8
0
 62
     0
  0
POLYLINE
  5
29E4
  8
0
 62
     0
 66
     1
 10
0.0
 20
0.0
 30
0.0
  0
VERTEX
  5
326C
  8
0
 62
     0
 10
246.449617
 20
222.374415
 30
0.0
  0
VERTEX
  5
326D
  8
0
 62
     0
 10
246.695279
 20
222.224884
 30
0.0
  0
VERTEX
  5
326E
  8
0
 62
     0
 10
247.053305
 20
222.088933
 30
0.0
  0
VERTEX
  5
326F
  8
0
 62
     0
 10
247.511351
 20
221.970293
 30
0.0
  0
VERTEX
  5
3270
  8
0
 62
     0
 10
248.05442
 20
221.871896
 30
0.0
  0
VERTEX
  5
3271
  8
0
 62
     0
 10
248.665368
 20
221.796082
 30
0.0
  0
VERTEX
  5
3272
  8
0
 62
     0
 10
249.324757
 20
221.744778
 30
0.0
  0
VERTEX
  5
3273
  8
0
 62
     0
 10
250.009391
 20
221.719543
 30
0.0
  0
SEQEND
  5
3274
  8
0
 62
     0
  0
POLYLINE
  5
29E5
  8
0
 62
     0
 66
     1
 10
0.0
 20
0.0
 30
0.0
  0
VERTEX
  5
3275
  8
0
 62
     0
 10
250.00934
 20
221.724028
 30
0.0
  0
VERTEX
  5
3276
  8
0
 62
     0
 10
249.361723
 20
221.747359
 30
0.0
  0
VERTEX
  5
3277
  8
0
 62
     0
 10
248.675347
 20
221.800331
 30
0.0
  0
VERTEX
  5
3278
  8
0
 62
     0
 10
248.031261
 20
221.881953
 30
0.0
  0
VERTEX
  5
3279
  8
0
 62
     0
 10
247.471362
 20
221.988193
 30
0.0
  0
VERTEX
  5
327A
  8
0
 62
     0
 10
247.028448
 20
222.111171
 30
0.0
  0
VERTEX
  5
327B
  8
0
 62
     0
 10
246.721947
 20
222.238444
 30
0.0
  0
VERTEX
  5
327C
  8
0
 62
     0
 10
246.556267
 20
222.349193
 30
0.0
  0
VERTEX
  5
327D
  8
0
 62
     0
 10
246.507544
 20
222.411917
 30
0.0
  0
VERTEX
  5
327E
  8
0
 62
     0
 10
246.505979
 20
222.424632
 30
0.0
  0
SEQEND
  5
327F
  8
0
 62
     0
  0
POLYLINE
  5
29E6
  8
0
 62
     0
 66
     1
 10
0.0
 20
0.0
 30
0.0
  0
VERTEX
  5
3280
  8
0
 62
     0
 10
250.0059
 20
223.256544
 30
0.0
  0
VERTEX
  5
3281
  8
0
 62
     0
 10
249.359446
 20
223.251959
 30
0.0
  0
VERTEX
  5
3282
  8
0
 62
     0
 10
248.737457
 20
223.215134
 30
0.0
  0
VERTEX
  5
3283
  8
0
 62
     0
 10
248.160597
 20
223.148151
 30
0.0
  0
VERTEX
  5
3284
  8
0
 62
     0
 10
247.64714
 20
223.054158
 30
0.0
  0
VERTEX
  5
3285
  8
0
 62
     0
 10
247.213382
 20
222.937144
 30
0.0
  0
VERTEX
  5
3286
  8
0
 62
     0
 10
246.873768
 20
222.801866
 30
0.0
  0
VERTEX
  5
3287
  8
0
 62
     0
 10
246.640264
 20
222.653776
 30
0.0
  0
VERTEX
  5
3288
  8
0
 62
     0
 10
246.521107
 20
222.498569
 30
0.0
  0
VERTEX
  5
3289
  8
0
 62
     0
 10
246.505968
 20
222.424637
 30
0.0
  0
SEQEND
  5
328A
  8
0
 62
     0
  0
POLYLINE
  5
29E7
  8
0
 62
     0
 66
     1
 10
0.0
 20
0.0
 30
0.0
  0
VERTEX
  5
328B
  8
0
 62
     0
 10
250.009391
 20
223.484049
 30
0.0
  0
VERTEX
  5
328C
  8
0
 62
     0
 10
249.326837
 20
223.47892
 30
0.0
  0
VERTEX
  5
328D
  8
0
 62
     0
 10
248.669157
 20
223.440438
 30
0.0
  0
VERTEX
  5
328E
  8
0
 62
     0
 10
248.059174
 20
223.370738
 30
0.0
  0
VERTEX
  5
328F
  8
0
 62
     0
 10
247.516222
 20
223.273063
 30
0.0
  0
VERTEX
  5
3290
  8
0
 62
     0
 10
247.057537
 20
223.15152
 30
0.0
  0
VERTEX
  5
3291
  8
0
 62
     0
 10
246.698402
 20
223.011013
 30
0.0
  0
VERTEX
  5
3292
  8
0
 62
     0
 10
246.451473
 20
222.857172
 30
0.0
  0
VERTEX
  5
3293
  8
0
 62
     0
 10
246.325469
 20
222.69589
 30
0.0
  0
VERTEX
  5
3294
  8
0
 62
     0
 10
246.324862
 20
222.533123
 30
0.0
  0
VERTEX
  5
3295
  8
0
 62
     0
 10
246.449617
 20
222.374415
 30
0.0
  0
SEQEND
  5
3296
  8
0
 62
     0
  0
LINE
  5
29E8
  8
0
 62
     0
 10
246.505968
 20
222.424637
 30
0.0
 11
246.5059
 21
222.419353
 31
0.0
  0
LINE
  5
29E9
  8
0
 62
     0
 10
253.5059
 20
222.291864
 30
0.0
 11
253.505819
 21
222.297651
 31
0.0
  0
POLYLINE
  5
29EA
  8
0
 62
     0
 66
     1
 10
0.0
 20
0.0
 30
0.0
  0
VERTEX
  5
3297
  8
0
 62
     0
 10
258.605895
 20
219.718634
 30
0.0
  0
VERTEX
  5
3298
  8
0
 62
     0
 10
258.597135
 20
219.889874
 30
0.0
  0
VERTEX
  5
3299
  8
0
 62
     0
 10
258.392239
 20
220.647459
 30
0.0
  0
VERTEX
  5
329A
  8
0
 62
     0
 10
257.916764
 20
221.53996
 30
0.0
  0
VERTEX
  5
329B
  8
0
 62
     0
 10
257.171663
 20
222.568305
 30
0.0
  0
VERTEX
  5
329C
  8
0
 62
     0
 10
256.178091
 20
223.707811
 30
0.0
  0
SEQEND
  5
329D
  8
0
 62
     0
  0
POLYLINE
  5
29EB
  8
0
 62
     0
 66
     1
 10
0.0
 20
0.0
 30
0.0
  0
VERTEX
  5
329E
  8
0
 62
     0
 10
257.775581
 20
218.950612
 30
0.0
  0
VERTEX
  5
329F
  8
0
 62
     0
 10
258.195637
 20
219.268453
 30
0.0
  0
VERTEX
  5
32A0
  8
0
 62
     0
 10
258.392832
 20
219.712257
 30
0.0
  0
VERTEX
  5
32A1
  8
0
 62
     0
 10
258.367412
 20
220.280922
 30
0.0
  0
VERTEX
  5
32A2
  8
0
 62
     0
 10
258.119404
 20
220.972897
 30
0.0
  0
VERTEX
  5
32A3
  8
0
 62
     0
 10
257.648477
 20
221.786029
 30
0.0
  0
VERTEX
  5
32A4
  8
0
 62
     0
 10
256.954087
 20
222.71741
 30
0.0
  0
SEQEND
  5
32A5
  8
0
 62
     0
  0
POLYLINE
  5
29EC
  8
0
 62
     0
 66
     1
 10
0.0
 20
0.0
 30
0.0
  0
VERTEX
  5
32A6
  8
0
 62
     0
 10
258.6059
 20
216.183364
 30
0.0
  0
VERTEX
  5
32A7
  8
0
 62
     0
 10
258.441612
 20
216.489677
 30
0.0
  0
VERTEX
  5
32A8
  8
0
 62
     0
 10
258.340198
 20
216.822172
 30
0.0
  0
VERTEX
  5
32A9
  8
0
 62
     0
 10
258.317617
 20
217.049972
 30
0.0
  0
SEQEND
  5
32AA
  8
0
 62
     0
  0
POLYLINE
  5
29ED
  8
0
 62
     0
 66
     1
 10
0.0
 20
0.0
 30
0.0
  0
VERTEX
  5
32AB
  8
0
 62
     0
 10
257.775593
 20
218.950612
 30
0.0
  0
VERTEX
  5
32AC
  8
0
 62
     0
 10
257.850471
 20
218.933757
 30
0.0
  0
VERTEX
  5
32AD
  8
0
 62
     0
 10
257.914236
 20
218.889032
 30
0.0
  0
VERTEX
  5
32AE
  8
0
 62
     0
 10
257.956333
 20
218.82327
 30
0.0
  0
VERTEX
  5
32AF
  8
0
 62
     0
 10
257.970338
 20
218.746475
 30
0.0
  0
SEQEND
  5
32B0
  8
0
 62
     0
  0
LINE
  5
29EE
  8
0
 62
     0
 10
258.6059
 20
219.733634
 30
0.0
 11
258.6059
 21
218.152979
 31
0.0
  0
POLYLINE
  5
29EF
  8
0
 62
     0
 66
     1
 10
0.0
 20
0.0
 30
0.0
  0
VERTEX
  5
32B1
  8
0
 62
     0
 10
257.775593
 20
218.782513
 30
0.0
  0
VERTEX
  5
32B2
  8
0
 62
     0
 10
257.844209
 20
218.777348
 30
0.0
  0
VERTEX
  5
32B3
  8
0
 62
     0
 10
257.904564
 20
218.769062
 30
0.0
  0
VERTEX
  5
32B4
  8
0
 62
     0
 10
257.948967
 20
218.758049
 30
0.0
  0
VERTEX
  5
32B5
  8
0
 62
     0
 10
257.970338
 20
218.746475
 30
0.0
  0
SEQEND
  5
32B6
  8
0
 62
     0
  0
POLYLINE
  5
29F0
  8
0
 62
     0
 66
     1
 10
0.0
 20
0.0
 30
0.0
  0
VERTEX
  5
32B7
  8
0
 62
     0
 10
257.716879
 20
216.362276
 30
0.0
  0
VERTEX
  5
32B8
  8
0
 62
     0
 10
257.713284
 20
216.362476
 30
0.0
  0
VERTEX
  5
32B9
  8
0
 62
     0
 10
257.709686
 20
216.362587
 30
0.0
  0
VERTEX
  5
32BA
  8
0
 62
     0
 10
257.706085
 20
216.362608
 30
0.0
  0
SEQEND
  5
32BB
  8
0
 62
     0
  0
POLYLINE
  5
29F1
  8
0
 62
     0
 66
     1
 10
0.0
 20
0.0
 30
0.0
  0
VERTEX
  5
32BC
  8
0
 62
     0
 10
257.716879
 20
216.362276
 30
0.0
  0
VERTEX
  5
32BD
  8
0
 62
     0
 10
257.793769
 20
216.360935
 30
0.0
  0
VERTEX
  5
32BE
  8
0
 62
     0
 10
257.855004
 20
216.371604
 30
0.0
  0
VERTEX
  5
32BF
  8
0
 62
     0
 10
257.892915
 20
216.397005
 30
0.0
  0
SEQEND
  5
32C0
  8
0
 62
     0
  0
POLYLINE
  5
29F2
  8
0
 62
     0
 66
     1
 10
0.0
 20
0.0
 30
0.0
  0
VERTEX
  5
32C1
  8
0
 62
     0
 10
258.6059
 20
218.152979
 30
0.0
  0
VERTEX
  5
32C2
  8
0
 62
     0
 10
258.527477
 20
217.569593
 30
0.0
  0
VERTEX
  5
32C3
  8
0
 62
     0
 10
258.292377
 20
216.987478
 30
0.0
  0
VERTEX
  5
32C4
  8
0
 62
     0
 10
258.118834
 20
216.70117
 30
0.0
  0
SEQEND
  5
32C5
  8
0
 62
     0
  0
POLYLINE
  5
29F3
  8
0
 62
     0
 66
     1
 10
0.0
 20
0.0
 30
0.0
  0
VERTEX
  5
32C6
  8
0
 62
     0
 10
257.901114
 20
216.407901
 30
0.0
  0
VERTEX
  5
32C7
  8
0
 62
     0
 10
257.913336
 20
217.0651
 30
0.0
  0
VERTEX
  5
32C8
  8
0
 62
     0
 10
257.93017
 20
217.685623
 30
0.0
  0
VERTEX
  5
32C9
  8
0
 62
     0
 10
257.949884
 20
218.25242
 30
0.0
  0
VERTEX
  5
32CA
  8
0
 62
     0
 10
257.970337
 20
218.746456
 30
0.0
  0
SEQEND
  5
32CB
  8
0
 62
     0
  0
POLYLINE
  5
29F4
  8
0
 62
     0
 66
     1
 10
0.0
 20
0.0
 30
0.0
  0
VERTEX
  5
32CC
  8
0
 62
     0
 10
257.706085
 20
216.362608
 30
0.0
  0
VERTEX
  5
32CD
  8
0
 62
     0
 10
257.718182
 20
217.042507
 30
0.0
  0
VERTEX
  5
32CE
  8
0
 62
     0
 10
257.73506
 20
217.685015
 30
0.0
  0
VERTEX
  5
32CF
  8
0
 62
     0
 10
257.754937
 20
218.271763
 30
0.0
  0
VERTEX
  5
32D0
  8
0
 62
     0
 10
257.775475
 20
218.782515
 30
0.0
  0
SEQEND
  5
32D1
  8
0
 62
     0
  0
POLYLINE
  5
29F5
  8
0
 62
     0
 66
     1
 10
0.0
 20
0.0
 30
0.0
  0
VERTEX
  5
32D2
  8
0
 62
     0
 10
258.604213
 20
218.10772
 30
0.0
  0
VERTEX
  5
32D3
  8
0
 62
     0
 10
258.602512
 20
217.987053
 30
0.0
  0
VERTEX
  5
32D4
  8
0
 62
     0
 10
258.600812
 20
217.810998
 30
0.0
  0
VERTEX
  5
32D5
  8
0
 62
     0
 10
258.599557
 20
217.589584
 30
0.0
  0
VERTEX
  5
32D6
  8
0
 62
     0
 10
258.599099
 20
217.339897
 30
0.0
  0
VERTEX
  5
32D7
  8
0
 62
     0
 10
258.599561
 20
217.077489
 30
0.0
  0
VERTEX
  5
32D8
  8
0
 62
     0
 10
258.600813
 20
216.822405
 30
0.0
  0
VERTEX
  5
32D9
  8
0
 62
     0
 10
258.602519
 20
216.590988
 30
0.0
  0
VERTEX
  5
32DA
  8
0
 62
     0
 10
258.604215
 20
216.399582
 30
0.0
  0
VERTEX
  5
32DB
  8
0
 62
     0
 10
258.605451
 20
216.260612
 30
0.0
  0
VERTEX
  5
32DC
  8
0
 62
     0
 10
258.6059
 20
216.183364
 30
0.0
  0
SEQEND
  5
32DD
  8
0
 62
     0
  0
POLYLINE
  5
29F6
  8
0
 62
     0
 66
     1
 10
0.0
 20
0.0
 30
0.0
  0
VERTEX
  5
32DE
  8
0
 62
     0
 10
257.775593
 20
218.782513
 30
0.0
  0
VERTEX
  5
32DF
  8
0
 62
     0
 10
257.776317
 20
218.845981
 30
0.0
  0
VERTEX
  5
32E0
  8
0
 62
     0
 10
257.776568
 20
218.898797
 30
0.0
  0
VERTEX
  5
32E1
  8
0
 62
     0
 10
257.776317
 20
218.935029
 30
0.0
  0
VERTEX
  5
32E2
  8
0
 62
     0
 10
257.775593
 20
218.950612
 30
0.0
  0
SEQEND
  5
32E3
  8
0
 62
     0
  0
LINE
  5
29F7
  8
0
 62
     0
 10
258.118834
 20
216.70117
 30
0.0
 11
257.901114
 21
216.407901
 31
0.0
  0
POLYLINE
  5
29F8
  8
0
 62
     0
 66
     1
 10
0.0
 20
0.0
 30
0.0
  0
VERTEX
  5
32E4
  8
0
 62
     0
 10
257.892915
 20
216.397005
 30
0.0
  0
VERTEX
  5
32E5
  8
0
 62
     0
 10
257.896383
 20
216.401727
 30
0.0
  0
VERTEX
  5
32E6
  8
0
 62
     0
 10
257.899115
 20
216.405354
 30
0.0
  0
VERTEX
  5
32E7
  8
0
 62
     0
 10
257.901114
 20
216.407901
 30
0.0
  0
SEQEND
  5
32E8
  8
0
 62
     0
  0
POLYLINE
  5
29F9
  8
0
 62
     0
 66
     1
 10
0.0
 20
0.0
 30
0.0
  0
VERTEX
  5
32E9
  8
0
 62
     0
 10
257.970337
 20
218.746456
 30
0.0
  0
VERTEX
  5
32EA
  8
0
 62
     0
 10
258.391574
 20
219.06677
 30
0.0
  0
VERTEX
  5
32EB
  8
0
 62
     0
 10
258.5893
 20
219.513188
 30
0.0
  0
VERTEX
  5
32EC
  8
0
 62
     0
 10
258.6059
 20
219.718654
 30
0.0
  0
SEQEND
  5
32ED
  8
0
 62
     0
  0
LINE
  5
29FA
  8
0
 62
     0
 10
256.954087
 20
222.71741
 30
0.0
 11
256.035396
 21
223.763476
 31
0.0
  0
LINE
  5
29FB
  8
0
 62
     0
 10
256.178159
 20
223.707739
 30
0.0
 11
256.178439
 21
223.707438
 31
0.0
  0
POLYLINE
  5
29FC
  8
0
 62
     0
 66
     1
 10
0.0
 20
0.0
 30
0.0
  0
VERTEX
  5
32EE
  8
0
 62
     0
 10
256.109102
 20
223.752988
 30
0.0
  0
VERTEX
  5
32EF
  8
0
 62
     0
 10
256.171592
 20
223.714403
 30
0.0
  0
VERTEX
  5
32F0
  8
0
 62
     0
 10
256.178159
 20
223.707739
 30
0.0
  0
SEQEND
  5
32F1
  8
0
 62
     0
  0
POLYLINE
  5
29FD
  8
0
 62
     0
 66
     1
 10
0.0
 20
0.0
 30
0.0
  0
VERTEX
  5
32F2
  8
0
 62
     0
 10
256.103977
 20
223.75786
 30
0.0
  0
VERTEX
  5
32F3
  8
0
 62
     0
 10
256.162354
 20
223.722915
 30
0.0
  0
VERTEX
  5
32F4
  8
0
 62
     0
 10
256.178439
 20
223.707438
 30
0.0
  0
SEQEND
  5
32F5
  8
0
 62
     0
  0
LINE
  5
29FE
  8
0
 62
     0
 10
256.036191
 20
223.771239
 30
0.0
 11
256.103977
 21
223.75786
 31
0.0
  0
LINE
  5
29FF
  8
0
 62
     0
 10
256.03543
 20
223.763475
 30
0.0
 11
256.109102
 21
223.752988
 31
0.0
  0
LINE
  5
2A00
  8
0
 62
     0
 10
256.03543
 20
223.763475
 30
0.0
 11
256.036191
 21
223.771239
 31
0.0
  0
ENDSEC
  0
EOF
