  0
SECTION
  2
HEADER
  9
$ACADVER
  1
AC1009
  9
$INSBASE
 10
402.590624
 20
-1.041018
 30
0.0
  9
$EXTMIN
 10
181.47302
 20
14.429664
 30
0.0
  9
$EXTMAX
 10
290.261066
 20
71.367777
 30
0.0
  9
$LIMMIN
 10
-407.970438
 20
-367.832444
  9
$LIMMAX
 10
429.804077
 20
234.370848
  9
$ORTHOMODE
 70
     1
  9
$REGENMODE
 70
     1
  9
$FILLMODE
 70
     1
  9
$QTEXTMODE
 70
     0
  9
$MIRRTEXT
 70
     1
  9
$DRAGMODE
 70
     2
  9
$LTSCALE
 40
10.0
  9
$OSMODE
 70
   161
  9
$ATTMODE
 70
     1
  9
$TEXTSIZE
 40
6.0
  9
$TRACEWID
 40
1.0
  9
$TEXTSTYLE
  7
ROMANS
  9
$CLAYER
  8
ALPHA
  9
$CELTYPE
  6
BYLAYER
  9
$CECOLOR
 62
   256
  9
$DIMSCALE
 40
1.0
  9
$DIMASZ
 40
5.0
  9
$DIMEXO
 40
2.0
  9
$DIMDLI
 40
0.38
  9
$DIMRND
 40
0.0
  9
$DIMDLE
 40
0.0
  9
$DIMEXE
 40
2.5
  9
$DIMTP
 40
0.0
  9
$DIMTM
 40
0.0
  9
$DIMTXT
 40
2.5
  9
$DIMCEN
 40
0.0
  9
$DIMTSZ
 40
0.0
  9
$DIMTOL
 70
     0
  9
$DIMLIM
 70
     0
  9
$DIMTIH
 70
     1
  9
$DIMTOH
 70
     1
  9
$DIMSE1
 70
     0
  9
$DIMSE2
 70
     0
  9
$DIMTAD
 70
     1
  9
$DIMZIN
 70
    12
  9
$DIMBLK
  1
OPEN30
  9
$DIMASO
 70
     1
  9
$DIMSHO
 70
     1
  9
$DIMPOST
  1

  9
$DIMAPOST
  1

  9
$DIMALT
 70
     0
  9
$DIMALTD
 70
     2
  9
$DIMALTF
 40
25.4
  9
$DIMLFAC
 40
1.0
  9
$DIMTOFL
 70
     0
  9
$DIMTVP
 40
0.0
  9
$DIMTIX
 70
     0
  9
$DIMSOXD
 70
     0
  9
$DIMSAH
 70
     0
  9
$DIMBLK1
  1

  9
$DIMBLK2
  1

  9
$DIMSTYLE
  2
SC_DEFAUT
  9
$DIMCLRD
 70
     0
  9
$DIMCLRE
 70
     0
  9
$DIMCLRT
 70
     0
  9
$DIMTFAC
 40
1.0
  9
$DIMGAP
 40
2.0
  9
$LUNITS
 70
     2
  9
$LUPREC
 70
     1
  9
$SKETCHINC
 40
0.1
  9
$FILLETRAD
 40
0.0
  9
$AUNITS
 70
     0
  9
$AUPREC
 70
     0
  9
$MENU
  1
acad
  9
$ELEVATION
 40
0.0
  9
$PELEVATION
 40
0.0
  9
$THICKNESS
 40
0.0
  9
$LIMCHECK
 70
     0
  9
$BLIPMODE
 70
     0
  9
$CHAMFERA
 40
0.0
  9
$CHAMFERB
 40
0.0
  9
$SKPOLY
 70
     0
  9
$TDCREATE
 40
2450373.687919
  9
$TDUPDATE
 40
2453031.637874
  9
$TDINDWG
 40
1.038835
  9
$TDUSRTIMER
 40
1.038835
  9
$USRTIMER
 70
     1
  9
$ANGBASE
 50
0.0
  9
$ANGDIR
 70
     0
  9
$PDMODE
 70
    32
  9
$PDSIZE
 40
0.0
  9
$PLINEWID
 40
0.0
  9
$COORDS
 70
     1
  9
$SPLFRAME
 70
     0
  9
$SPLINETYPE
 70
     6
  9
$SPLINESEGS
 70
     8
  9
$ATTDIA
 70
     0
  9
$ATTREQ
 70
     1
  9
$HANDLING
 70
     1
  9
$HANDSEED
  5
97CA
  9
$SURFTAB1
 70
     6
  9
$SURFTAB2
 70
     6
  9
$SURFTYPE
 70
     6
  9
$SURFU
 70
     6
  9
$SURFV
 70
     6
  9
$UCSNAME
  2

  9
$UCSORG
 10
0.0
 20
0.0
 30
0.0
  9
$UCSXDIR
 10
1.0
 20
0.0
 30
0.0
  9
$UCSYDIR
 10
0.0
 20
1.0
 30
0.0
  9
$PUCSNAME
  2

  9
$PUCSORG
 10
0.0
 20
0.0
 30
0.0
  9
$PUCSXDIR
 10
1.0
 20
0.0
 30
0.0
  9
$PUCSYDIR
 10
0.0
 20
1.0
 30
0.0
  9
$USERI1
 70
     0
  9
$USERI2
 70
     0
  9
$USERI3
 70
     0
  9
$USERI4
 70
     0
  9
$USERI5
 70
     0
  9
$USERR1
 40
0.0
  9
$USERR2
 40
0.0
  9
$USERR3
 40
0.0
  9
$USERR4
 40
0.0
  9
$USERR5
 40
0.0
  9
$WORLDVIEW
 70
     1
  9
$SHADEDGE
 70
     3
  9
$SHADEDIF
 70
    70
  9
$TILEMODE
 70
     1
  9
$MAXACTVP
 70
    16
  9
$PLIMCHECK
 70
     0
  9
$PEXTMIN
 10
-1.452248
 20
-0.437698
 30
0.0
  9
$PEXTMAX
 10
12.749749
 20
8.310198
 30
0.0
  9
$PLIMMIN
 10
0.0
 20
0.0
  9
$PLIMMAX
 10
12.0
 20
9.0
  9
$UNITMODE
 70
     0
  9
$VISRETAIN
 70
     0
  9
$PLINEGEN
 70
     0
  9
$PSLTSCALE
 70
     0
  0
ENDSEC
  0
SECTION
  2
TABLES
  0
TABLE
  2
VPORT
 70
     2
  0
VPORT
  2
*ACTIVE
 70
     0
 10
0.0
 20
0.0
 11
1.0
 21
1.0
 12
235.873136
 22
42.892697
 13
0.0
 23
0.0
 14
1.0
 24
1.0
 15
10.0
 25
10.0
 16
0.0
 26
0.0
 36
1.0
 17
0.0
 27
0.0
 37
0.0
 40
74.597358
 41
1.466346
 42
50.0
 43
0.0
 44
0.0
 50
0.0
 51
0.0
 71
     0
 72
   100
 73
     1
 74
     0
 75
     0
 76
     0
 77
     0
 78
     0
  0
ENDTAB
  0
TABLE
  2
LTYPE
 70
     2
  0
LTYPE
  2
CONTINUOUS
 70
     0
  3
Solid line
 72
    65
 73
     0
 40
0.0
  0
LTYPE
  2
AXES2
 70
     0
  3
___ _ ___ _ ___ _ ___ _ ___ _ ___ _ ___ _ ___ _
 72
    65
 73
     4
 40
1.125
 49
0.75
 49
-0.125
 49
0.125
 49
-0.125
  0
ENDTAB
  0
TABLE
  2
LAYER
 70
     5
  0
LAYER
  2
0
 70
     0
 62
   255
  6
CONTINUOUS
  0
LAYER
  2
COTATION1
 70
     0
 62
     2
  6
CONTINUOUS
  0
LAYER
  2
AXE
 70
     0
 62
    80
  6
AXES2
  0
LAYER
  2
DEFPOINTS
 70
     0
 62
     7
  6
CONTINUOUS
  0
LAYER
  2
ALPHA
 70
     0
 62
   254
  6
CONTINUOUS
  0
ENDTAB
  0
TABLE
  2
STYLE
 70
     2
  0
STYLE
  2
ROMANS
 70
     0
 40
0.0
 41
1.0
 50
0.0
 71
     0
 42
6.0
  3
romans
  4

  0
STYLE
  2
STANDARD
 70
     0
 40
0.0
 41
1.0
 50
0.0
 71
     0
 42
0.2
  3
txt
  4

  0
ENDTAB
  0
TABLE
  2
VIEW
 70
     0
  0
ENDTAB
  0
TABLE
  2
UCS
 70
     0
  0
ENDTAB
  0
TABLE
  2
APPID
 70
     1
  0
APPID
  2
ACAD
 70
     0
  0
ENDTAB
  0
TABLE
  2
DIMSTYLE
 70
     2
  0
DIMSTYLE
  2
SC_DEFAUT
 70
     0
  3

  4

  5
OPEN30
  6

  7

 40
1.0
 41
5.0
 42
2.0
 43
0.38
 44
2.5
 45
0.0
 46
0.0
 47
0.0
 48
0.0
140
2.5
141
0.0
142
0.0
143
25.4
144
1.0
145
0.0
146
1.0
147
2.0
 71
     0
 72
     0
 73
     1
 74
     1
 75
     0
 76
     0
 77
     1
 78
    12
170
     0
171
     2
172
     0
173
     0
174
     0
175
     0
176
     0
177
     0
178
     0
  0
DIMSTYLE
  2
STANDARD
 70
     0
  3

  4

  5

  6

  7

 40
1.0
 41
0.18
 42
0.0625
 43
0.38
 44
0.18
 45
0.0
 46
0.0
 47
0.0
 48
0.0
140
0.18
141
0.09
142
0.0
143
25.4
144
1.0
145
0.0
146
1.0
147
0.09
 71
     0
 72
     0
 73
     1
 74
     1
 75
     0
 76
     0
 77
     0
 78
     0
170
     0
171
     2
172
     0
173
     0
174
     0
175
     0
176
     0
177
     0
178
     0
  0
ENDTAB
  0
ENDSEC
  0
SECTION
  2
BLOCKS
  0
BLOCK
  8
0
  2
$MODEL_SPACE
 70
     0
 10
0.0
 20
0.0
 30
0.0
  3
$MODEL_SPACE
  1

  0
ENDBLK
  5
9793
  8
0
  0
BLOCK
 67
     1
  8
0
  2
$PAPER_SPACE
 70
     0
 10
0.0
 20
0.0
 30
0.0
  3
$PAPER_SPACE
  1

  0
ENDBLK
  5
9791
 67
     1
  8
0
  0
BLOCK
  8
0
  2
COTE
 70
     0
 10
0.0
 20
0.0
 30
0.0
  3
COTE
  1

  0
ENDBLK
  5
F
  8
0
  0
BLOCK
  8
0
  2
FOND
 70
     0
 10
0.0
 20
0.0
 30
0.0
  3
FOND
  1

  0
ENDBLK
  5
75
  8
0
  0
BLOCK
  8
0
  2
_OPEN30
 70
     0
 10
0.0
 20
0.0
 30
0.0
  3
_OPEN30
  1

  0
LINE
  5
4B05
  8
COTATION1
 62
     0
 10
-1.0
 20
0.267949
 30
0.0
 11
0.0
 21
0.0
 31
0.0
1001
ACAD
1000
RTLwPs
1070
   158
  0
LINE
  5
4B06
  8
COTATION1
 62
     0
 10
0.0
 20
0.0
 30
0.0
 11
-1.0
 21
-0.267949
 31
0.0
1001
ACAD
1000
RTLwPs
1070
   158
  0
LINE
  5
4B07
  8
COTATION1
 62
     0
 10
0.0
 20
0.0
 30
0.0
 11
-1.0
 21
0.0
 31
0.0
1001
ACAD
1000
RTLwPs
1070
   158
  0
ENDBLK
  5
4B09
  8
0
  0
BLOCK
  8
0
  2
*D3
 70
     1
 10
0.0
 20
0.0
 30
0.0
  3
*D3
  1

  0
LINE
  5
96EC
  8
COTATION1
 62
     0
 10
248.071318
 20
44.908844
 30
0.0
 11
289.130113
 21
44.908844
 31
0.0
1001
ACAD
1000
RTLwPs
1070
   158
  0
LINE
  5
96ED
  8
COTATION1
 62
     0
 10
249.079597
 20
27.458844
 30
0.0
 11
289.130113
 21
27.458844
 31
0.0
1001
ACAD
1000
RTLwPs
1070
   158
  0
LINE
  5
96EE
  8
COTATION1
 62
     0
 10
286.630113
 20
39.908844
 30
0.0
 11
286.630113
 21
39.433844
 31
0.0
1001
ACAD
1000
RTLwPs
1070
   158
  0
LINE
  5
96EF
  8
COTATION1
 62
     0
 10
286.630113
 20
32.458844
 30
0.0
 11
286.630113
 21
32.933844
 31
0.0
1001
ACAD
1000
RTLwPs
1070
   158
  0
TEXT
  5
96F0
  8
COTATION1
 62
     0
 10
282.284875
 20
34.933844
 30
0.0
 40
2.5
  1
17.5
1001
ACAD
1000
MTEXTBEGIN
1070
    73
1070
     1
1070
    44
1040
1.0
1070
    74
1070
     0
1000
MTEXTEND
  0
INSERT
  5
96F1
  8
COTATION1
 62
     0
  2
_OPEN30
 10
286.630113
 20
44.908844
 30
0.0
 41
5.0
 42
5.0
 43
5.0
 50
90.0
1001
ACAD
1000
RTLwPs
1070
   158
  0
INSERT
  5
96F2
  8
COTATION1
 62
     0
  2
_OPEN30
 10
286.630113
 20
27.458844
 30
0.0
 41
5.0
 42
5.0
 43
5.0
 50
270.0
1001
ACAD
1000
RTLwPs
1070
   158
  0
POINT
  5
96F3
  8
DEFPOINTS
 62
     0
 10
246.071318
 20
44.908844
 30
0.0
  0
POINT
  5
96F4
  8
DEFPOINTS
 62
     0
 10
247.079597
 20
27.458844
 30
0.0
  0
POINT
  5
96F5
  8
DEFPOINTS
 62
     0
 10
286.630113
 20
27.458844
 30
0.0
  0
ENDBLK
  5
8D7E
  8
0
  0
BLOCK
  8
0
  2
*D4
 70
     1
 10
0.0
 20
0.0
 30
0.0
  3
*D4
  1

  0
LINE
  5
945C
  8
COTATION1
 62
     0
 10
222.179597
 20
30.908844
 30
0.0
 11
222.179597
 21
57.408844
 31
0.0
1001
ACAD
1000
RTLwPs
1070
   158
  0
LINE
  5
945D
  8
COTATION1
 62
     0
 10
252.079597
 20
40.908844
 30
0.0
 11
252.079597
 21
57.408844
 31
0.0
1001
ACAD
1000
RTLwPs
1070
   158
  0
LINE
  5
945E
  8
COTATION1
 62
     0
 10
227.179597
 20
54.908844
 30
0.0
 11
247.079597
 21
54.908844
 31
0.0
1001
ACAD
1000
RTLwPs
1070
   158
  0
INSERT
  5
945F
  8
COTATION1
 62
     0
  2
_OPEN30
 10
222.179597
 20
54.908844
 30
0.0
 41
5.0
 42
5.0
 43
5.0
 50
180.0
1001
ACAD
1000
RTLwPs
1070
   158
  0
INSERT
  5
9460
  8
COTATION1
 62
     0
  2
_OPEN30
 10
252.079597
 20
54.908844
 30
0.0
 41
5.0
 42
5.0
 43
5.0
1001
ACAD
1000
RTLwPs
1070
   158
  0
TEXT
  5
9461
  8
COTATION1
 62
     0
 10
233.022454
 20
56.908844
 30
0.0
 40
2.5
  1
29.9
1001
ACAD
1000
MTEXTBEGIN
1070
    73
1070
     1
1070
    44
1040
1.0
1070
    74
1070
     0
1000
MTEXTEND
  0
POINT
  5
9462
  8
DEFPOINTS
 62
     0
 10
222.179597
 20
28.908844
 30
0.0
  0
POINT
  5
9463
  8
DEFPOINTS
 62
     0
 10
252.079597
 20
38.908844
 30
0.0
  0
POINT
  5
9464
  8
DEFPOINTS
 62
     0
 10
252.079597
 20
54.908844
 30
0.0
  0
ENDBLK
  5
937D
  8
0
  0
ENDSEC
  0
SECTION
  2
ENTITIES
  0
INSERT
  5
A
  8
0
  2
COTE
 10
0.0
 20
0.0
 30
0.0
  0
INSERT
  5
17
  8
0
  2
COTE
 10
284.010391
 20
6.373258
 30
0.0
  0
INSERT
  5
72
  8
0
  2
FOND
 10
0.0
 20
0.0
 30
0.0
  0
DIMENSION
  5
8D71
  8
COTATION1
  2
*D3
 10
286.630113
 20
27.458844
 30
0.0
 11
286.630113
 21
36.183844
 31
0.0
 70
   128
 13
246.071318
 23
44.908844
 33
0.0
 14
247.079597
 24
27.458844
 34
0.0
 50
90.0
  0
LINE
  5
9220
  8
ALPHA
 10
236.707968
 20
30.158844
 30
0.0
 11
233.485505
 21
30.016011
 31
0.0
  0
LINE
  5
9221
  8
ALPHA
 10
234.729597
 20
44.908844
 30
0.0
 11
225.229597
 21
44.908844
 31
0.0
  0
LINE
  5
9222
  8
ALPHA
 10
224.929597
 20
43.958844
 30
0.0
 11
234.729597
 21
43.958844
 31
0.0
  0
LINE
  5
9223
  8
ALPHA
 10
236.579597
 20
39.408844
 30
0.0
 11
225.189421
 21
39.408844
 31
0.0
  0
LINE
  5
9224
  8
ALPHA
 10
224.179597
 20
39.258844
 30
0.0
 11
236.579597
 21
39.258844
 31
0.0
  0
LINE
  5
9225
  8
ALPHA
 10
223.429597
 20
39.208844
 30
0.0
 11
250.729597
 21
39.208844
 31
0.0
  0
LINE
  5
9226
  8
ALPHA
 10
223.229597
 20
39.093374
 30
0.0
 11
250.929597
 21
39.093374
 31
0.0
  0
LINE
  5
9227
  8
ALPHA
 10
223.229597
 20
39.058844
 30
0.0
 11
250.929597
 21
39.058844
 31
0.0
  0
LINE
  5
9228
  8
ALPHA
 10
252.079597
 20
38.908844
 30
0.0
 11
223.080474
 21
38.908844
 31
0.0
  0
LINE
  5
9229
  8
ALPHA
 10
252.079597
 20
37.808844
 30
0.0
 11
223.079597
 21
37.808844
 31
0.0
  0
LINE
  5
922A
  8
ALPHA
 10
252.079597
 20
37.758844
 30
0.0
 11
223.079597
 21
37.758844
 31
0.0
  0
LINE
  5
922B
  8
ALPHA
 10
241.579597
 20
31.058844
 30
0.0
 11
232.579597
 21
31.058844
 31
0.0
  0
LINE
  5
922C
  8
ALPHA
 10
241.078429
 20
30.762813
 30
0.0
 11
233.080765
 21
30.762813
 31
0.0
  0
LINE
  5
922D
  8
ALPHA
 10
230.034292
 20
30.458844
 30
0.0
 11
244.124902
 21
30.458844
 31
0.0
  0
LINE
  5
922E
  8
ALPHA
 10
231.64392
 20
29.546557
 30
0.0
 11
236.787937
 21
29.546557
 31
0.0
  0
LINE
  5
922F
  8
ALPHA
 10
233.080765
 20
30.762813
 30
0.0
 11
234.930962
 21
30.458844
 31
0.0
  0
LINE
  5
9230
  8
ALPHA
 10
230.179606
 20
28.758844
 30
0.0
 11
243.979588
 21
28.758844
 31
0.0
  0
LINE
  5
9231
  8
ALPHA
 10
245.329597
 20
28.658844
 30
0.0
 11
228.829597
 21
28.658844
 31
0.0
  0
LINE
  5
9232
  8
ALPHA
 10
247.079597
 20
27.458844
 30
0.0
 11
223.379597
 21
27.458844
 31
0.0
  0
LINE
  5
9245
  8
ALPHA
 10
224.679597
 20
37.758844
 30
0.0
 11
224.679597
 21
28.908844
 31
0.0
  0
LINE
  5
9246
  8
ALPHA
 10
223.079597
 20
37.758844
 30
0.0
 11
223.079597
 21
28.908844
 31
0.0
  0
ARC
  5
9260
  8
ALPHA
 10
223.379597
 20
28.658844
 30
0.0
 40
1.2
 50
180.0
 51
270.0
  0
LINE
  5
9261
  8
ALPHA
 10
222.179597
 20
28.908844
 30
0.0
 11
224.679597
 21
28.908844
 31
0.0
  0
LINE
  5
9262
  8
ALPHA
 10
223.079597
 20
30.428868
 30
0.0
 11
223.069597
 21
30.428868
 31
0.0
  0
LINE
  5
9263
  8
ALPHA
 10
223.069597
 20
28.908844
 30
0.0
 11
223.069597
 21
30.428716
 31
0.0
  0
LINE
  5
9264
  8
ALPHA
 10
222.179597
 20
28.908844
 30
0.0
 11
222.179597
 21
28.658844
 31
0.0
  0
POLYLINE
  5
9265
  8
ALPHA
 66
     1
 10
0.0
 20
0.0
 30
0.0
 70
   128
210
0.0
220
0.0
230
-1.0
  0
VERTEX
  5
9799
  8
ALPHA
 10
-229.362022
 20
29.274784
 30
0.0
  0
VERTEX
  5
979A
  8
ALPHA
 10
-229.96101
 20
29.532222
 30
0.0
  0
VERTEX
  5
979B
  8
ALPHA
 10
-230.593542
 20
29.695978
 30
0.0
  0
VERTEX
  5
979C
  8
ALPHA
 10
-231.881064
 20
29.916631
 30
0.0
  0
SEQEND
  5
979D
  8
ALPHA
  0
LINE
  5
9266
  8
ALPHA
 10
230.27907
 20
29.150868
 30
0.0
 11
230.179597
 21
29.058844
 31
0.0
  0
LINE
  5
9267
  8
ALPHA
 10
230.190338
 20
29.227876
 30
0.0
 11
230.276999
 21
29.30802
 31
0.0
  0
POLYLINE
  5
9268
  8
ALPHA
 66
     1
 10
0.0
 20
0.0
 30
0.0
 70
   128
  0
VERTEX
  5
979E
  8
ALPHA
 10
230.253465
 20
30.458844
 30
0.0
  0
VERTEX
  5
979F
  8
ALPHA
 10
229.896745
 20
30.384394
 30
0.0
  0
VERTEX
  5
97A0
  8
ALPHA
 10
229.597896
 20
30.175134
 30
0.0
  0
VERTEX
  5
97A1
  8
ALPHA
 10
229.401731
 20
29.867363
 30
0.0
  0
VERTEX
  5
97A2
  8
ALPHA
 10
229.333652
 20
29.509007
 30
0.0
  0
SEQEND
  5
97A3
  8
ALPHA
  0
LINE
  5
9269
  8
ALPHA
 10
230.277005
 20
29.308026
 30
0.0
 11
229.251154
 21
29.175813
 31
0.0
  0
LINE
  5
926A
  8
ALPHA
 10
228.829597
 20
30.958844
 30
0.0
 11
232.579597
 21
30.958844
 31
0.0
  0
LINE
  5
926B
  8
ALPHA
 10
228.829597
 20
30.708844
 30
0.0
 11
233.409261
 21
30.708844
 31
0.0
  0
LINE
  5
926C
  8
ALPHA
 10
231.643836
 20
28.958845
 30
0.0
 11
230.179597
 21
28.958844
 31
0.0
  0
LINE
  5
926D
  8
ALPHA
 10
229.335202
 20
29.444214
 30
0.0
 11
229.362022
 21
29.274784
 31
0.0
  0
LINE
  5
926E
  8
ALPHA
 10
229.333653
 20
29.509007
 30
0.0
 11
229.335202
 21
29.444214
 31
0.0
  0
LINE
  5
926F
  8
ALPHA
 10
229.315258
 20
29.239187
 30
0.0
 11
229.362019
 21
29.274784
 31
0.0
  0
LINE
  5
9270
  8
ALPHA
 10
229.251154
 20
29.175813
 30
0.0
 11
229.315258
 21
29.239187
 31
0.0
  0
LINE
  5
9271
  8
ALPHA
 10
229.188174
 20
29.099855
 30
0.0
 11
229.251154
 21
29.175813
 31
0.0
  0
LINE
  5
9272
  8
ALPHA
 10
229.17254
 20
29.080945
 30
0.0
 11
229.188174
 21
29.099855
 31
0.0
  0
LINE
  5
9273
  8
ALPHA
 10
230.179597
 20
29.217918
 30
0.0
 11
230.190338
 21
29.227876
 31
0.0
  0
LINE
  5
9274
  8
ALPHA
 10
229.179692
 20
29.077514
 30
0.0
 11
229.172728
 21
29.077401
 31
0.0
  0
LINE
  5
9275
  8
ALPHA
 10
230.179597
 20
29.088282
 30
0.0
 11
229.179692
 21
29.077514
 31
0.0
  0
LINE
  5
9276
  8
ALPHA
 10
229.1254
 20
29.216516
 30
0.0
 11
229.126096
 21
29.214516
 31
0.0
  0
LINE
  5
9277
  8
ALPHA
 10
229.126096
 20
29.214516
 30
0.0
 11
229.126273
 21
29.214007
 31
0.0
  0
LINE
  5
9278
  8
ALPHA
 10
229.128253
 20
29.208341
 30
0.0
 11
229.126273
 21
29.214007
 31
0.0
  0
LINE
  5
9279
  8
ALPHA
 10
229.172728
 20
29.077402
 30
0.0
 11
229.171652
 21
29.080647
 31
0.0
  0
LINE
  5
927A
  8
ALPHA
 10
229.179955
 20
29.058844
 30
0.0
 11
229.172728
 21
29.077402
 31
0.0
  0
LINE
  5
927B
  8
ALPHA
 10
229.166643
 20
29.095716
 30
0.0
 11
229.17254
 21
29.080945
 31
0.0
  0
LINE
  5
927C
  8
ALPHA
 10
230.179597
 20
29.228707
 30
0.0
 11
229.17254
 21
29.080945
 31
0.0
  0
POLYLINE
  5
927D
  8
ALPHA
 66
     1
 10
0.0
 20
0.0
 30
0.0
 70
   128
  0
VERTEX
  5
97A4
  8
ALPHA
 10
230.029597
 20
30.458844
 30
0.0
  0
VERTEX
  5
97A5
  8
ALPHA
 10
229.66611
 20
30.386826
 30
0.0
  0
VERTEX
  5
97A6
  8
ALPHA
 10
229.357916
 20
30.180667
 30
0.0
  0
VERTEX
  5
97A7
  8
ALPHA
 10
229.151673
 20
29.872526
 30
0.0
  0
VERTEX
  5
97A8
  8
ALPHA
 10
229.07962
 20
29.509041
 30
0.0
  0
SEQEND
  5
97A9
  8
ALPHA
  0
LINE
  5
927E
  8
ALPHA
 10
229.07962
 20
29.509041
 30
0.0
 11
229.11867
 21
29.239187
 31
0.0
  0
LINE
  5
927F
  8
ALPHA
 10
229.126273
 20
29.214007
 30
0.0
 11
229.166643
 21
29.095716
 31
0.0
  0
LINE
  5
9280
  8
ALPHA
 10
229.125712
 20
29.215624
 30
0.0
 11
229.126273
 21
29.214007
 31
0.0
  0
LINE
  5
9281
  8
ALPHA
 10
229.125712
 20
29.215624
 30
0.0
 11
229.1254
 21
29.216516
 31
0.0
  0
LINE
  5
9282
  8
ALPHA
 10
228.829597
 20
29.658844
 30
0.0
 11
229.096548
 21
29.658844
 31
0.0
  0
LINE
  5
9283
  8
ALPHA
 10
229.333653
 20
29.509041
 30
0.0
 11
229.07962
 21
29.509041
 31
0.0
  0
LINE
  5
9284
  8
ALPHA
 10
229.315258
 20
29.239187
 30
0.0
 11
229.11867
 21
29.239187
 31
0.0
  0
LINE
  5
9285
  8
ALPHA
 10
230.179597
 20
29.058844
 30
0.0
 11
229.179955
 21
29.058844
 31
0.0
  0
LINE
  5
9286
  8
ALPHA
 10
230.179597
 20
28.758844
 30
0.0
 11
230.179597
 21
29.228707
 31
0.0
  0
LINE
  5
9287
  8
ALPHA
 10
229.11867
 20
29.239187
 30
0.0
 11
229.125971
 21
29.214473
 31
0.0
  0
LINE
  5
9288
  8
ALPHA
 10
228.829597
 20
28.658844
 30
0.0
 11
228.829597
 21
30.958844
 31
0.0
  0
POLYLINE
  5
9289
  8
ALPHA
 66
     1
 10
0.0
 20
0.0
 30
0.0
 70
   128
  0
VERTEX
  5
97AA
  8
ALPHA
 10
233.446862
 20
29.896533
 30
0.0
  0
VERTEX
  5
97AB
  8
ALPHA
 10
231.820904
 20
29.674267
 30
0.0
  0
VERTEX
  5
97AC
  8
ALPHA
 10
231.02212
 20
29.488598
 30
0.0
  0
VERTEX
  5
97AD
  8
ALPHA
 10
230.279073
 20
29.150864
 30
0.0
  0
SEQEND
  5
97AE
  8
ALPHA
  0
LINE
  5
928A
  8
ALPHA
 10
231.881064
 20
29.916631
 30
0.0
 11
233.295521
 21
30.046656
 31
0.0
  0
POLYLINE
  5
928B
  8
ALPHA
 66
     1
 10
0.0
 20
0.0
 30
0.0
 70
   128
210
0.0
220
0.0
230
-1.0
  0
VERTEX
  5
97AF
  8
ALPHA
 10
-230.277005
 20
29.308026
 30
0.0
  0
VERTEX
  5
97B0
  8
ALPHA
 10
-231.018957
 20
29.646197
 30
0.0
  0
VERTEX
  5
97B1
  8
ALPHA
 10
-231.818722
 20
29.830732
 30
0.0
  0
VERTEX
  5
97B2
  8
ALPHA
 10
-233.445393
 20
30.052476
 30
0.0
  0
SEQEND
  5
97B3
  8
ALPHA
  0
LINE
  5
928C
  8
ALPHA
 10
231.643648
 20
28.958851
 30
0.0
 11
231.64392
 21
29.546557
 31
0.0
  0
POLYLINE
  5
928D
  8
ALPHA
 66
     1
 10
0.0
 20
0.0
 30
0.0
 70
   128
  0
VERTEX
  5
97B4
  8
ALPHA
 10
232.204856
 20
30.458844
 30
0.0
  0
VERTEX
  5
97B5
  8
ALPHA
 10
232.046116
 20
30.395044
 30
0.0
  0
VERTEX
  5
97B6
  8
ALPHA
 10
231.943384
 20
30.255764
 30
0.0
  0
VERTEX
  5
97B7
  8
ALPHA
 10
231.881064
 20
29.916631
 30
0.0
  0
SEQEND
  5
97B8
  8
ALPHA
  0
LINE
  5
928E
  8
ALPHA
 10
231.643836
 20
28.758844
 30
0.0
 11
231.643648
 21
28.958851
 31
0.0
  0
LINE
  5
928F
  8
ALPHA
 10
230.279073
 20
29.150864
 30
0.0
 11
230.277005
 21
29.308026
 31
0.0
  0
LINE
  5
9290
  8
ALPHA
 10
230.283447
 20
28.958844
 30
0.0
 11
230.279073
 21
29.150864
 31
0.0
  0
LINE
  5
9291
  8
ALPHA
 10
233.496633
 20
30.057503
 30
0.0
 11
233.485505
 21
30.016011
 31
0.0
  0
LINE
  5
9292
  8
ALPHA
 10
233.434866
 20
30.05437
 30
0.0
 11
233.496633
 21
30.057503
 31
0.0
  0
LINE
  5
9293
  8
ALPHA
 10
233.485505
 20
30.016011
 30
0.0
 11
233.446504
 21
29.895433
 31
0.0
  0
LINE
  5
9294
  8
ALPHA
 10
233.359195
 20
29.546557
 30
0.0
 11
233.446862
 21
29.896533
 31
0.0
  0
POLYLINE
  5
9295
  8
ALPHA
 66
     1
 10
0.0
 20
0.0
 30
0.0
 70
   128
210
0.0
220
0.0
230
-1.0
  0
VERTEX
  5
97B9
  8
ALPHA
 10
-233.169806
 20
30.458844
 30
0.0
  0
VERTEX
  5
97BA
  8
ALPHA
 10
-233.38586
 20
30.316432
 30
0.0
  0
VERTEX
  5
97BB
  8
ALPHA
 10
-233.434866
 20
30.05437
 30
0.0
  0
SEQEND
  5
97BC
  8
ALPHA
  0
LINE
  5
9296
  8
ALPHA
 10
233.295521
 20
30.046656
 30
0.0
 11
233.434866
 21
30.05437
 31
0.0
  0
ARC
  5
9297
  8
ALPHA
 10
233.804698
 20
28.458844
 30
0.0
 40
0.3
 50
42.178929
 51
90.0
  0
LINE
  5
9298
  8
ALPHA
 10
233.445393
 20
30.052476
 30
0.0
 11
233.496633
 21
30.057503
 31
0.0
  0
LINE
  5
9299
  8
ALPHA
 10
233.445393
 20
30.052476
 30
0.0
 11
233.295521
 21
30.046656
 31
0.0
  0
LINE
  5
929A
  8
ALPHA
 10
233.1294
 20
31.058844
 30
0.0
 11
233.080765
 21
30.762813
 31
0.0
  0
LINE
  5
929B
  8
ALPHA
 10
232.729597
 20
28.658844
 30
0.0
 11
232.729597
 21
28.758844
 31
0.0
  0
LINE
  5
929C
  8
ALPHA
 10
232.579597
 20
31.058844
 30
0.0
 11
232.579597
 21
30.958844
 31
0.0
  0
LINE
  5
929D
  8
ALPHA
 10
233.446504
 20
29.895433
 30
0.0
 11
233.445393
 21
30.052476
 31
0.0
  0
LINE
  5
92DB
  8
ALPHA
 10
225.229597
 20
44.908844
 30
0.0
 11
225.229597
 21
39.558844
 31
0.0
  0
LINE
  5
92DC
  8
ALPHA
 10
224.429597
 20
39.408844
 30
0.0
 11
224.429597
 21
43.458844
 31
0.0
  0
ARC
  5
92DD
  8
ALPHA
 10
223.079597
 20
39.058844
 30
0.0
 40
0.15
 50
287.86364
 51
0.0
  0
LINE
  5
92DE
  8
ALPHA
 10
223.429597
 20
39.208844
 30
0.0
 11
223.229597
 21
39.093374
 31
0.0
  0
LINE
  5
92DF
  8
ALPHA
 10
224.079597
 20
37.808844
 30
0.0
 11
224.079597
 21
37.758844
 31
0.0
  0
LINE
  5
92E0
  8
ALPHA
 10
223.229597
 20
39.058844
 30
0.0
 11
223.229597
 21
39.093374
 31
0.0
  0
LINE
  5
92E1
  8
ALPHA
 10
223.079597
 20
37.808844
 30
0.0
 11
223.079597
 21
38.908855
 31
0.0
  0
ARC
  5
92E2
  8
ALPHA
 10
224.279597
 20
39.408844
 30
0.0
 40
0.15
 50
270.0
 51
0.0
  0
ARC
  5
92E3
  8
ALPHA
 10
224.929597
 20
39.558844
 30
0.0
 40
0.3
 50
270.0
 51
0.0
  0
LINE
  5
92E4
  8
ALPHA
 10
224.179597
 20
39.258844
 30
0.0
 11
224.150729
 21
39.208844
 31
0.0
  0
LINE
  5
92E5
  8
ALPHA
 10
224.679597
 20
37.808844
 30
0.0
 11
224.679597
 21
39.258844
 31
0.0
  0
LINE
  5
92E6
  8
ALPHA
 10
224.579597
 20
37.808844
 30
0.0
 11
224.579597
 21
37.758844
 31
0.0
  0
ARC
  5
92E7
  8
ALPHA
 10
224.929597
 20
43.458844
 30
0.0
 40
0.5
 50
90.0
 51
180.0
  0
ARC
  5
92E8
  8
ALPHA
 10
255.093286
 20
47.443096
 30
0.0
 40
16.3
 50
300.380423
 51
329.619577
  0
ARC
  5
92E9
  8
ALPHA
 10
255.093286
 20
47.443096
 30
0.0
 40
23.7
 50
300.380423
 51
329.619577
  0
LINE
  5
92EA
  8
ALPHA
 10
252.079597
 20
38.908844
 30
0.0
 11
252.079597
 21
32.458844
 31
0.0
  0
ARC
  5
92EB
  8
ALPHA
 10
257.621981
 20
43.129664
 30
0.0
 40
18.7
 50
236.889493
 51
300.380423
  0
ARC
  5
92EC
  8
ALPHA
 10
247.079597
 20
32.458844
 30
0.0
 40
5.0
 50
270.0
 51
0.0
  0
LINE
  5
92ED
  8
ALPHA
 10
241.579597
 20
30.958844
 30
0.0
 11
245.329597
 21
30.958844
 31
0.0
  0
LINE
  5
92EE
  8
ALPHA
 10
240.749933
 20
30.708844
 30
0.0
 11
243.597007
 21
30.708844
 31
0.0
  0
LINE
  5
92EF
  8
ALPHA
 10
245.079574
 20
29.509041
 30
0.0
 11
240.973541
 21
29.509041
 31
0.0
  0
LINE
  5
92F0
  8
ALPHA
 10
245.040524
 20
29.239187
 30
0.0
 11
240.801112
 21
29.239187
 31
0.0
  0
LINE
  5
92F1
  8
ALPHA
 10
242.29376
 20
29.058844
 30
0.0
 11
244.979239
 21
29.058844
 31
0.0
  0
LINE
  5
92F2
  8
ALPHA
 10
236.684497
 20
30.458844
 30
0.0
 11
236.707968
 21
30.158844
 31
0.0
  0
LINE
  5
92F3
  8
ALPHA
 10
237.070608
 20
30.458844
 30
0.0
 11
236.707968
 21
30.158844
 31
0.0
  0
LINE
  5
92F4
  8
ALPHA
 10
237.860198
 20
28.758844
 30
0.0
 11
237.860198
 21
30.458844
 31
0.0
  0
LINE
  5
92F5
  8
ALPHA
 10
237.07605
 20
28.758844
 30
0.0
 11
237.07605
 21
30.458844
 31
0.0
  0
LINE
  5
92F6
  8
ALPHA
 10
236.787937
 20
29.546557
 30
0.0
 11
236.787937
 21
28.758844
 31
0.0
  0
LINE
  5
92F7
  8
ALPHA
 10
236.707968
 20
30.155771
 30
0.0
 11
236.707968
 21
30.158844
 31
0.0
  0
LINE
  5
92F8
  8
ALPHA
 10
236.707968
 20
29.546557
 30
0.0
 11
236.707968
 21
30.155771
 31
0.0
  0
POLYLINE
  5
92F9
  8
ALPHA
 66
     1
 10
0.0
 20
0.0
 30
0.0
 70
   128
  0
VERTEX
  5
97BD
  8
ALPHA
 10
240.57605
 20
30.249599
 30
0.0
  0
VERTEX
  5
97BE
  8
ALPHA
 10
240.419798
 20
30.411404
 30
0.0
  0
VERTEX
  5
97BF
  8
ALPHA
 10
240.177746
 20
30.433538
 30
0.0
  0
VERTEX
  5
97C0
  8
ALPHA
 10
239.936091
 20
30.408253
 30
0.0
  0
VERTEX
  5
97C1
  8
ALPHA
 10
239.791587
 20
30.237069
 30
0.0
  0
SEQEND
  5
97C2
  8
ALPHA
  0
LINE
  5
92FA
  8
ALPHA
 10
241.078429
 20
30.762813
 30
0.0
 11
239.228232
 21
30.458844
 31
0.0
  0
ARC
  5
92FB
  8
ALPHA
 10
240.354496
 20
28.458844
 30
0.0
 40
0.3
 50
90.0
 51
137.821071
  0
LINE
  5
92FC
  8
ALPHA
 10
239.791587
 20
28.758844
 30
0.0
 11
239.791587
 21
30.458844
 31
0.0
  0
LINE
  5
92FD
  8
ALPHA
 10
240.801112
 20
29.239187
 30
0.0
 11
240.638836
 21
28.758844
 31
0.0
  0
LINE
  5
92FE
  8
ALPHA
 10
240.801112
 20
29.239187
 30
0.0
 11
240.973541
 21
29.509041
 31
0.0
  0
LINE
  5
92FF
  8
ALPHA
 10
240.973541
 20
29.509041
 30
0.0
 11
240.57605
 21
30.249599
 31
0.0
  0
LINE
  5
9300
  8
ALPHA
 10
242.29376
 20
30.458844
 30
0.0
 11
242.29376
 21
29.058844
 31
0.0
  0
LINE
  5
9301
  8
ALPHA
 10
241.579597
 20
30.958844
 30
0.0
 11
241.579597
 21
31.058844
 31
0.0
  0
LINE
  5
9302
  8
ALPHA
 10
241.029794
 20
31.058844
 30
0.0
 11
241.078429
 21
30.762813
 31
0.0
  0
LINE
  5
9303
  8
ALPHA
 10
240.973541
 20
30.458844
 30
0.0
 11
240.973541
 21
29.239187
 31
0.0
  0
LINE
  5
9304
  8
ALPHA
 10
240.57605
 20
28.758844
 30
0.0
 11
240.57605
 21
30.249599
 31
0.0
  0
POLYLINE
  5
9305
  8
ALPHA
 66
     1
 10
0.0
 20
0.0
 30
0.0
 70
   128
210
0.0
220
0.0
230
-1.0
  0
VERTEX
  5
97C3
  8
ALPHA
 10
-243.763206
 20
30.458844
 30
0.0
  0
VERTEX
  5
97C4
  8
ALPHA
 10
-244.115886
 20
30.383189
 30
0.0
  0
VERTEX
  5
97C5
  8
ALPHA
 10
-244.408478
 20
30.171583
 30
0.0
  0
VERTEX
  5
97C6
  8
ALPHA
 10
-244.598716
 20
29.864365
 30
0.0
  0
VERTEX
  5
97C7
  8
ALPHA
 10
-244.663812
 20
29.509041
 30
0.0
  0
SEQEND
  5
97C8
  8
ALPHA
  0
LINE
  5
9306
  8
ALPHA
 10
245.329597
 20
30.837279
 30
0.0
 11
244.399084
 21
29.906767
 31
0.0
  0
LINE
  5
9307
  8
ALPHA
 10
244.626792
 20
29.239187
 30
0.0
 11
244.576285
 21
29.058844
 31
0.0
  0
LINE
  5
9308
  8
ALPHA
 10
242.587013
 20
29.055712
 30
0.0
 11
242.652122
 21
28.758844
 31
0.0
  0
LINE
  5
9309
  8
ALPHA
 10
242.586315
 20
29.058844
 30
0.0
 11
242.587013
 21
29.055712
 31
0.0
  0
LINE
  5
930A
  8
ALPHA
 10
243.979597
 20
28.758844
 30
0.0
 11
243.979597
 21
29.058844
 31
0.0
  0
LINE
  5
930B
  8
ALPHA
 10
243.347007
 20
30.958844
 30
0.0
 11
243.847007
 21
30.458844
 31
0.0
  0
LINE
  5
930C
  8
ALPHA
 10
244.663812
 20
29.509041
 30
0.0
 11
244.626792
 21
29.239187
 31
0.0
  0
LINE
  5
930D
  8
ALPHA
 10
245.033802
 20
29.216539
 30
0.0
 11
245.033108
 21
29.214546
 31
0.0
  0
LINE
  5
930E
  8
ALPHA
 10
245.033108
 20
29.214546
 30
0.0
 11
245.032908
 21
29.213972
 31
0.0
  0
LINE
  5
930F
  8
ALPHA
 10
245.007766
 20
29.140939
 30
0.0
 11
245.032908
 21
29.213972
 31
0.0
  0
LINE
  5
9310
  8
ALPHA
 10
244.986466
 20
29.077402
 30
0.0
 11
245.007766
 21
29.140939
 31
0.0
  0
LINE
  5
9311
  8
ALPHA
 10
244.979239
 20
29.058844
 30
0.0
 11
244.986466
 21
29.077402
 31
0.0
  0
LINE
  5
9312
  8
ALPHA
 10
245.058784
 20
29.311112
 30
0.0
 11
245.040524
 21
29.239187
 31
0.0
  0
LINE
  5
9313
  8
ALPHA
 10
245.030946
 20
29.208353
 30
0.0
 11
245.032908
 21
29.213972
 31
0.0
  0
LINE
  5
9314
  8
ALPHA
 10
245.033505
 20
29.215692
 30
0.0
 11
245.032908
 21
29.213972
 31
0.0
  0
LINE
  5
9315
  8
ALPHA
 10
245.033505
 20
29.215692
 30
0.0
 11
245.033802
 21
29.216539
 31
0.0
  0
ARC
  5
9316
  8
ALPHA
 10
257.621981
 20
43.129664
 30
0.0
 40
18.7
 50
227.722725
 51
228.844183
  0
LINE
  5
9317
  8
ALPHA
 10
245.040524
 20
29.239187
 30
0.0
 11
245.033232
 21
29.214503
 31
0.0
  0
LINE
  5
9318
  8
ALPHA
 10
245.329597
 20
30.958844
 30
0.0
 11
245.329597
 21
28.658844
 31
0.0
  0
ARC
  5
9319
  8
ALPHA
 10
257.621981
 20
43.129664
 30
0.0
 40
11.3
 50
240.579772
 51
300.380423
  0
LINE
  5
931A
  8
ALPHA
 10
263.336832
 20
33.381306
 30
0.0
 11
267.079301
 21
26.997426
 31
0.0
  0
LINE
  5
931B
  8
ALPHA
 10
250.929597
 20
39.093374
 30
0.0
 11
250.729597
 21
39.208844
 31
0.0
  0
LINE
  5
931C
  8
ALPHA
 10
246.071318
 20
44.908844
 30
0.0
 11
239.429597
 21
44.908844
 31
0.0
  0
LINE
  5
931D
  8
ALPHA
 10
249.229597
 20
43.958844
 30
0.0
 11
239.429597
 21
43.958844
 31
0.0
  0
LINE
  5
931E
  8
ALPHA
 10
249.729597
 20
39.408844
 30
0.0
 11
237.579597
 21
39.408844
 31
0.0
  0
LINE
  5
931F
  8
ALPHA
 10
237.579597
 20
39.258844
 30
0.0
 11
249.979597
 21
39.258844
 31
0.0
  0
LINE
  5
9320
  8
ALPHA
 10
235.514597
 20
42.708844
 30
0.0
 11
238.644597
 21
42.708844
 31
0.0
  0
LINE
  5
9321
  8
ALPHA
 10
239.429597
 20
39.908844
 30
0.0
 11
237.579597
 21
39.908844
 31
0.0
  0
LINE
  5
9322
  8
ALPHA
 10
237.579597
 20
39.208844
 30
0.0
 11
237.579597
 21
40.408844
 31
0.0
  0
LINE
  5
9323
  8
ALPHA
 10
236.579597
 20
39.208844
 30
0.0
 11
236.579597
 21
40.408844
 31
0.0
  0
LINE
  5
9324
  8
ALPHA
 10
236.579597
 20
39.908844
 30
0.0
 11
234.729597
 21
39.908844
 31
0.0
  0
LINE
  5
9325
  8
ALPHA
 10
236.014597
 20
42.708844
 30
0.0
 11
236.014597
 21
39.908844
 31
0.0
  0
LINE
  5
9326
  8
ALPHA
 10
235.514597
 20
42.708844
 30
0.0
 11
235.514597
 21
39.908844
 31
0.0
  0
LINE
  5
9327
  8
ALPHA
 10
234.729597
 20
39.908844
 30
0.0
 11
234.729597
 21
44.908844
 31
0.0
  0
LINE
  5
9328
  8
ALPHA
 10
236.679597
 20
42.208844
 30
0.0
 11
237.479597
 21
42.208844
 31
0.0
  0
LINE
  5
9329
  8
ALPHA
 10
237.579597
 20
40.408844
 30
0.0
 11
236.579597
 21
40.408844
 31
0.0
  0
LINE
  5
932A
  8
ALPHA
 10
237.579597
 20
39.889229
 30
0.0
 11
236.579597
 21
39.889229
 31
0.0
  0
LINE
  5
932B
  8
ALPHA
 10
238.144597
 20
42.708844
 30
0.0
 11
238.144597
 21
39.908844
 31
0.0
  0
LINE
  5
932C
  8
ALPHA
 10
237.479597
 20
40.408844
 30
0.0
 11
237.479597
 21
42.708844
 31
0.0
  0
LINE
  5
932D
  8
ALPHA
 10
236.679597
 20
40.408844
 30
0.0
 11
236.679597
 21
42.708844
 31
0.0
  0
LINE
  5
932E
  8
ALPHA
 10
238.644597
 20
41.908844
 30
0.0
 11
239.429597
 21
41.908844
 31
0.0
  0
LINE
  5
932F
  8
ALPHA
 10
239.429597
 20
39.908844
 30
0.0
 11
239.429597
 21
44.908844
 31
0.0
  0
LINE
  5
9330
  8
ALPHA
 10
238.644597
 20
39.908844
 30
0.0
 11
238.644597
 21
42.708844
 31
0.0
  0
LINE
  5
9331
  8
ALPHA
 10
248.829597
 20
44.561331
 30
0.0
 11
246.271318
 21
44.561331
 31
0.0
  0
ARC
  5
9332
  8
ALPHA
 10
246.071318
 20
44.708844
 30
0.0
 40
0.2
 50
0.0
 51
90.0
  0
LINE
  5
9333
  8
ALPHA
 10
246.399675
 20
43.958844
 30
0.0
 11
246.399675
 21
44.561331
 31
0.0
  0
LINE
  5
9334
  8
ALPHA
 10
246.271318
 20
43.958844
 30
0.0
 11
246.271318
 21
44.708844
 31
0.0
  0
LINE
  5
9335
  8
ALPHA
 10
249.729597
 20
43.458844
 30
0.0
 11
249.729597
 21
39.408844
 31
0.0
  0
LINE
  5
9336
  8
ALPHA
 10
249.429597
 20
43.917102
 30
0.0
 11
249.429597
 21
39.258844
 31
0.0
  0
ARC
  5
9337
  8
ALPHA
 10
249.879597
 20
39.408844
 30
0.0
 40
0.15
 50
180.0
 51
270.0
  0
LINE
  5
9338
  8
ALPHA
 10
249.979597
 20
39.258844
 30
0.0
 11
250.008464
 21
39.208844
 31
0.0
  0
LINE
  5
9339
  8
ALPHA
 10
249.479597
 20
38.908844
 30
0.0
 11
249.479597
 21
39.258844
 31
0.0
  0
ARC
  5
933A
  8
ALPHA
 10
249.229597
 20
43.458844
 30
0.0
 40
0.5
 50
0.0
 51
90.0
  0
LINE
  5
933B
  8
ALPHA
 10
248.829597
 20
44.561331
 30
0.0
 11
248.829597
 21
43.958844
 31
0.0
  0
ARC
  5
933C
  8
ALPHA
 10
251.079597
 20
39.058844
 30
0.0
 40
0.15
 50
180.0
 51
270.0
  0
LINE
  5
933D
  8
ALPHA
 10
251.029597
 20
37.808844
 30
0.0
 11
251.029597
 21
37.758844
 31
0.0
  0
LINE
  5
933E
  8
ALPHA
 10
250.929597
 20
39.058844
 30
0.0
 11
250.929597
 21
39.093374
 31
0.0
  0
LINE
  5
933F
  8
ALPHA
 10
269.155076
 20
39.19955
 30
0.0
 11
275.538957
 21
35.457081
 31
0.0
  0
DIMENSION
  5
9370
  8
COTATION1
  2
*D4
 10
252.079597
 20
54.908844
 30
0.0
 11
237.129597
 21
58.158844
 31
0.0
 13
222.179597
 23
28.908844
 33
0.0
 14
252.079597
 24
38.908844
 34
0.0
  0
LINE
  5
939F
  8
AXE
 10
237.079597
 20
14.429664
 30
0.0
 11
237.079597
 21
49.908844
 31
0.0
  0
TEXT
  5
93A0
  8
AXE
 10
232.031978
 20
14.429664
 30
0.0
 40
5.0
  1
Y
 72
     2
 11
236.079597
 21
14.429664
 31
0.0
  0
LINE
  5
93A1
  8
AXE
 10
218.079597
 20
35.608844
 30
0.0
 11
262.259597
 21
35.608844
 31
0.0
  0
TEXT
  5
93A2
  8
AXE
 10
258.211978
 20
36.608844
 30
0.0
 40
5.0
  1
X
 72
     2
 11
262.259597
 21
36.608844
 31
0.0
  0
LINE
  5
96C7
  8
COTATION1
 10
194.72302
 20
41.408855
 30
0.0
 11
194.72302
 21
66.367777
 31
0.0
  0
LINE
  5
96C8
  8
COTATION1
 10
186.622667
 20
38.908855
 30
0.0
 11
223.079597
 21
38.908855
 31
0.0
  0
SOLID
  5
96C9
  8
COTATION1
 10
196.166396
 20
38.908855
 30
0.0
 11
193.279644
 21
38.908855
 31
0.0
 12
194.72302
 22
41.408855
 32
0.0
 13
194.72302
 23
41.408855
 33
0.0
  0
LINE
  5
96CA
  8
COTATION1
 10
207.97302
 20
66.367777
 30
0.0
 11
181.47302
 21
66.367777
 31
0.0
  0
LINE
  5
96CB
  8
COTATION1
 10
181.47302
 20
71.367777
 30
0.0
 11
207.97302
 21
71.367777
 31
0.0
  0
LINE
  5
96CC
  8
COTATION1
 10
181.47302
 20
66.367777
 30
0.0
 11
181.47302
 21
71.367777
 31
0.0
  0
TEXT
  5
96CD
  8
COTATION1
 10
182.72302
 20
67.617777
 30
0.0
 40
2.5
  1
PLANE_TO_LINE_UP
 41
0.626087
  7
STANDARD
 72
     5
 11
206.72302
 21
67.617777
 31
0.0
  0
LINE
  5
96CE
  8
COTATION1
 10
207.97302
 20
71.367777
 30
0.0
 11
207.97302
 21
66.367777
 31
0.0
  0
VIEWPORT
  5
494D
 67
     1
  8
0
 10
4.995325
 20
6.556512
 30
0.0
 40
22.70986
 41
13.988421
 68
    -1
 69
     1
1001
ACAD
1000
MVIEW
1002
{
1070
    16
1010
0.0
1020
0.0
1030
0.0
1010
0.0
1020
0.0
1030
1.0
1040
0.0
1040
13.988421
1040
4.995325
1040
6.556512
1040
50.0
1040
0.0
1040
0.0
1070
     0
1070
   100
1070
     1
1070
     1
1070
     0
1070
     0
1070
     0
1070
     0
1040
0.0
1040
0.0
1040
0.0
1040
10.0
1040
10.0
1040
10.0
1040
10.0
1070
     0
1002
{
1002
}
1002
}
  0
ENDSEC
  0
EOF
