  0
SECTION
  2
HEADER
  9
$ACADVER
  1
AC1009
  9
$INSBASE
 10
402.590624
 20
-1.041018
 30
0.0
  9
$EXTMIN
 10
103.682195
 20
-211.151624
 30
0.0
  9
$EXTMAX
 10
139.682195
 20
-123.622443
 30
0.0
  9
$LIMMIN
 10
-407.970438
 20
-367.832444
  9
$LIMMAX
 10
429.804077
 20
234.370848
  9
$ORTHOMODE
 70
     1
  9
$REGENMODE
 70
     1
  9
$FILLMODE
 70
     1
  9
$QTEXTMODE
 70
     0
  9
$MIRRTEXT
 70
     1
  9
$DRAGMODE
 70
     2
  9
$LTSCALE
 40
10.0
  9
$OSMODE
 70
    32
  9
$ATTMODE
 70
     1
  9
$TEXTSIZE
 40
6.0
  9
$TRACEWID
 40
1.0
  9
$TEXTSTYLE
  7
ROMANS
  9
$CLAYER
  8
ALPHA
  9
$CELTYPE
  6
BYLAYER
  9
$CECOLOR
 62
   256
  9
$DIMSCALE
 40
1.0
  9
$DIMASZ
 40
5.0
  9
$DIMEXO
 40
2.0
  9
$DIMDLI
 40
0.38
  9
$DIMRND
 40
0.0
  9
$DIMDLE
 40
0.0
  9
$DIMEXE
 40
2.5
  9
$DIMTP
 40
0.0
  9
$DIMTM
 40
0.0
  9
$DIMTXT
 40
2.5
  9
$DIMCEN
 40
0.0
  9
$DIMTSZ
 40
0.0
  9
$DIMTOL
 70
     0
  9
$DIMLIM
 70
     0
  9
$DIMTIH
 70
     1
  9
$DIMTOH
 70
     1
  9
$DIMSE1
 70
     0
  9
$DIMSE2
 70
     0
  9
$DIMTAD
 70
     1
  9
$DIMZIN
 70
    12
  9
$DIMBLK
  1
OPEN30
  9
$DIMASO
 70
     1
  9
$DIMSHO
 70
     1
  9
$DIMPOST
  1

  9
$DIMAPOST
  1

  9
$DIMALT
 70
     0
  9
$DIMALTD
 70
     2
  9
$DIMALTF
 40
25.4
  9
$DIMLFAC
 40
1.0
  9
$DIMTOFL
 70
     0
  9
$DIMTVP
 40
0.0
  9
$DIMTIX
 70
     0
  9
$DIMSOXD
 70
     0
  9
$DIMSAH
 70
     0
  9
$DIMBLK1
  1

  9
$DIMBLK2
  1

  9
$DIMSTYLE
  2
SC_DEFAUT
  9
$DIMCLRD
 70
     0
  9
$DIMCLRE
 70
     0
  9
$DIMCLRT
 70
     0
  9
$DIMTFAC
 40
1.0
  9
$DIMGAP
 40
2.0
  9
$LUNITS
 70
     2
  9
$LUPREC
 70
     1
  9
$SKETCHINC
 40
0.1
  9
$FILLETRAD
 40
0.0
  9
$AUNITS
 70
     0
  9
$AUPREC
 70
     0
  9
$MENU
  1
acad
  9
$ELEVATION
 40
0.0
  9
$PELEVATION
 40
0.0
  9
$THICKNESS
 40
0.0
  9
$LIMCHECK
 70
     0
  9
$BLIPMODE
 70
     0
  9
$CHAMFERA
 40
0.0
  9
$CHAMFERB
 40
0.0
  9
$SKPOLY
 70
     0
  9
$TDCREATE
 40
2450373.687919
  9
$TDUPDATE
 40
2453028.640511
  9
$TDINDWG
 40
1.084208
  9
$TDUSRTIMER
 40
1.084208
  9
$USRTIMER
 70
     1
  9
$ANGBASE
 50
0.0
  9
$ANGDIR
 70
     0
  9
$PDMODE
 70
    32
  9
$PDSIZE
 40
0.0
  9
$PLINEWID
 40
0.0
  9
$COORDS
 70
     1
  9
$SPLFRAME
 70
     0
  9
$SPLINETYPE
 70
     6
  9
$SPLINESEGS
 70
     8
  9
$ATTDIA
 70
     0
  9
$ATTREQ
 70
     1
  9
$HANDLING
 70
     1
  9
$HANDSEED
  5
B3C6
  9
$SURFTAB1
 70
     6
  9
$SURFTAB2
 70
     6
  9
$SURFTYPE
 70
     6
  9
$SURFU
 70
     6
  9
$SURFV
 70
     6
  9
$UCSNAME
  2

  9
$UCSORG
 10
0.0
 20
0.0
 30
0.0
  9
$UCSXDIR
 10
1.0
 20
0.0
 30
0.0
  9
$UCSYDIR
 10
0.0
 20
1.0
 30
0.0
  9
$PUCSNAME
  2

  9
$PUCSORG
 10
0.0
 20
0.0
 30
0.0
  9
$PUCSXDIR
 10
1.0
 20
0.0
 30
0.0
  9
$PUCSYDIR
 10
0.0
 20
1.0
 30
0.0
  9
$USERI1
 70
     0
  9
$USERI2
 70
     0
  9
$USERI3
 70
     0
  9
$USERI4
 70
     0
  9
$USERI5
 70
     0
  9
$USERR1
 40
0.0
  9
$USERR2
 40
0.0
  9
$USERR3
 40
0.0
  9
$USERR4
 40
0.0
  9
$USERR5
 40
0.0
  9
$WORLDVIEW
 70
     1
  9
$SHADEDGE
 70
     3
  9
$SHADEDIF
 70
    70
  9
$TILEMODE
 70
     1
  9
$MAXACTVP
 70
    16
  9
$PLIMCHECK
 70
     0
  9
$PEXTMIN
 10
-1.452248
 20
-0.437698
 30
0.0
  9
$PEXTMAX
 10
12.749749
 20
8.310198
 30
0.0
  9
$PLIMMIN
 10
0.0
 20
0.0
  9
$PLIMMAX
 10
12.0
 20
9.0
  9
$UNITMODE
 70
     0
  9
$VISRETAIN
 70
     0
  9
$PLINEGEN
 70
     0
  9
$PSLTSCALE
 70
     0
  0
ENDSEC
  0
SECTION
  2
TABLES
  0
TABLE
  2
VPORT
 70
     2
  0
VPORT
  2
*ACTIVE
 70
     0
 10
0.0
 20
0.0
 11
1.0
 21
1.0
 12
121.685196
 22
-167.39512
 13
0.0
 23
0.0
 14
1.0
 24
1.0
 15
10.0
 25
10.0
 16
0.0
 26
0.0
 36
1.0
 17
0.0
 27
0.0
 37
0.0
 40
88.200907
 41
1.466346
 42
50.0
 43
0.0
 44
0.0
 50
0.0
 51
0.0
 71
     0
 72
   100
 73
     1
 74
     0
 75
     0
 76
     0
 77
     0
 78
     0
  0
ENDTAB
  0
TABLE
  2
LTYPE
 70
     2
  0
LTYPE
  2
CONTINUOUS
 70
     0
  3
Solid line
 72
    65
 73
     0
 40
0.0
  0
LTYPE
  2
AXES2
 70
     0
  3
___ _ ___ _ ___ _ ___ _ ___ _ ___ _ ___ _ ___ _
 72
    65
 73
     4
 40
1.125
 49
0.75
 49
-0.125
 49
0.125
 49
-0.125
  0
ENDTAB
  0
TABLE
  2
LAYER
 70
     5
  0
LAYER
  2
0
 70
     0
 62
   255
  6
CONTINUOUS
  0
LAYER
  2
COTATION1
 70
     0
 62
     2
  6
CONTINUOUS
  0
LAYER
  2
AXE
 70
     0
 62
    80
  6
AXES2
  0
LAYER
  2
DEFPOINTS
 70
     0
 62
     7
  6
CONTINUOUS
  0
LAYER
  2
ALPHA
 70
     0
 62
   254
  6
CONTINUOUS
  0
ENDTAB
  0
TABLE
  2
STYLE
 70
     2
  0
STYLE
  2
ROMANS
 70
     0
 40
0.0
 41
1.0
 50
0.0
 71
     0
 42
6.0
  3
romans
  4

  0
STYLE
  2
STANDARD
 70
     0
 40
0.0
 41
1.0
 50
0.0
 71
     0
 42
0.2
  3
txt
  4

  0
ENDTAB
  0
TABLE
  2
VIEW
 70
     0
  0
ENDTAB
  0
TABLE
  2
UCS
 70
     0
  0
ENDTAB
  0
TABLE
  2
APPID
 70
     1
  0
APPID
  2
ACAD
 70
     0
  0
ENDTAB
  0
TABLE
  2
DIMSTYLE
 70
     2
  0
DIMSTYLE
  2
SC_DEFAUT
 70
     0
  3

  4

  5
OPEN30
  6

  7

 40
1.0
 41
5.0
 42
2.0
 43
0.38
 44
2.5
 45
0.0
 46
0.0
 47
0.0
 48
0.0
140
2.5
141
0.0
142
0.0
143
25.4
144
1.0
145
0.0
146
1.0
147
2.0
 71
     0
 72
     0
 73
     1
 74
     1
 75
     0
 76
     0
 77
     1
 78
    12
170
     0
171
     2
172
     0
173
     0
174
     0
175
     0
176
     0
177
     0
178
     0
  0
DIMSTYLE
  2
STANDARD
 70
     0
  3

  4

  5

  6

  7

 40
1.0
 41
3.0
 42
0.0625
 43
0.38
 44
0.18
 45
0.0
 46
0.0
 47
0.01
 48
0.01
140
3.5
141
0.09
142
0.0
143
25.4
144
1.0
145
0.0
146
1.0
147
0.09
 71
     1
 72
     0
 73
     0
 74
     0
 75
     0
 76
     0
 77
     1
 78
     8
170
     0
171
     2
172
     0
173
     0
174
     0
175
     0
176
     0
177
     0
178
     0
  0
ENDTAB
  0
ENDSEC
  0
SECTION
  2
BLOCKS
  0
BLOCK
  8
0
  2
$MODEL_SPACE
 70
     0
 10
0.0
 20
0.0
 30
0.0
  3
$MODEL_SPACE
  1

  0
ENDBLK
  5
B33D
  8
0
  0
BLOCK
 67
     1
  8
0
  2
$PAPER_SPACE
 70
     0
 10
0.0
 20
0.0
 30
0.0
  3
$PAPER_SPACE
  1

  0
ENDBLK
  5
B33B
 67
     1
  8
0
  0
BLOCK
  8
0
  2
COTE
 70
     0
 10
0.0
 20
0.0
 30
0.0
  3
COTE
  1

  0
ENDBLK
  5
F
  8
0
  0
BLOCK
  8
0
  2
FOND
 70
     0
 10
0.0
 20
0.0
 30
0.0
  3
FOND
  1

  0
ENDBLK
  5
75
  8
0
  0
BLOCK
  8
0
  2
_OPEN30
 70
     0
 10
0.0
 20
0.0
 30
0.0
  3
_OPEN30
  1

  0
LINE
  5
4B05
  8
COTATION1
 62
     0
 10
-1.0
 20
0.267949
 30
0.0
 11
0.0
 21
0.0
 31
0.0
1001
ACAD
1000
RTLwPs
1070
   158
  0
LINE
  5
4B06
  8
COTATION1
 62
     0
 10
0.0
 20
0.0
 30
0.0
 11
-1.0
 21
-0.267949
 31
0.0
1001
ACAD
1000
RTLwPs
1070
   158
  0
LINE
  5
4B07
  8
COTATION1
 62
     0
 10
0.0
 20
0.0
 30
0.0
 11
-1.0
 21
0.0
 31
0.0
1001
ACAD
1000
RTLwPs
1070
   158
  0
ENDBLK
  5
4B09
  8
0
  0
BLOCK
  8
0
  2
*D3
 70
     1
 10
0.0
 20
0.0
 30
0.0
  3
*D3
  1

  0
LINE
  5
B0DD
  8
COTATION1
 62
     0
 10
108.282195
 20
-142.400424
 30
0.0
 11
108.282195
 21
-125.622443
 31
0.0
1001
ACAD
1000
RTLwPs
1070
   158
  0
LINE
  5
B0DE
  8
COTATION1
 62
     0
 10
124.682195
 20
-141.122443
 30
0.0
 11
124.682195
 21
-125.622443
 31
0.0
1001
ACAD
1000
RTLwPs
1070
   158
  0
LINE
  5
B0DF
  8
COTATION1
 62
     0
 10
113.282195
 20
-128.122443
 30
0.0
 11
119.682195
 21
-128.122443
 31
0.0
1001
ACAD
1000
RTLwPs
1070
   158
  0
INSERT
  5
B0E0
  8
COTATION1
 62
     0
  2
_OPEN30
 10
108.282195
 20
-128.122443
 30
0.0
 41
5.0
 42
5.0
 43
5.0
 50
180.0
1001
ACAD
1000
RTLwPs
1070
   158
  0
INSERT
  5
B0E1
  8
COTATION1
 62
     0
  2
_OPEN30
 10
124.682195
 20
-128.122443
 30
0.0
 41
5.0
 42
5.0
 43
5.0
1001
ACAD
1000
RTLwPs
1070
   158
  0
TEXT
  5
B0E2
  8
COTATION1
 62
     0
 10
112.077433
 20
-126.122443
 30
0.0
 40
2.5
  1
16.4
1001
ACAD
1000
MTEXTBEGIN
1070
    73
1070
     1
1070
    44
1040
1.0
1070
    74
1070
     0
1000
MTEXTEND
  0
POINT
  5
B0E3
  8
DEFPOINTS
 62
     0
 10
108.282195
 20
-144.400424
 30
0.0
  0
POINT
  5
B0E4
  8
DEFPOINTS
 62
     0
 10
124.682195
 20
-143.122443
 30
0.0
  0
POINT
  5
B0E5
  8
DEFPOINTS
 62
     0
 10
124.682195
 20
-128.122443
 30
0.0
  0
ENDBLK
  5
A0BD
  8
0
  0
ENDSEC
  0
SECTION
  2
ENTITIES
  0
INSERT
  5
A
  8
0
  2
COTE
 10
0.0
 20
0.0
 30
0.0
  0
INSERT
  5
17
  8
0
  2
COTE
 10
284.010391
 20
6.373258
 30
0.0
  0
INSERT
  5
72
  8
0
  2
FOND
 10
0.0
 20
0.0
 30
0.0
  0
LINE
  5
A0AD
  8
AXE
 10
116.682195
 20
-138.122443
 30
0.0
 11
116.682195
 21
-211.151624
 31
0.0
  0
TEXT
  5
A0AE
  8
AXE
 10
109.206005
 20
-211.151624
 30
0.0
 40
8.0
  1
Y
 72
     2
 11
115.682195
 21
-211.151624
 31
0.0
  0
LINE
  5
A0AF
  8
AXE
 10
103.682195
 20
-166.724484
 30
0.0
 11
139.682195
 21
-166.724484
 31
0.0
  0
TEXT
  5
A0B0
  8
AXE
 10
133.206005
 20
-165.724484
 30
0.0
 40
8.0
  1
Z
 72
     2
 11
139.682195
 21
-165.724484
 31
0.0
  0
DIMENSION
  5
A0B1
  8
COTATION1
  2
*D3
 10
124.682195
 20
-128.122443
 30
0.0
 11
116.482195
 21
-124.872443
 31
0.0
 13
108.282195
 23
-144.400424
 33
0.0
 14
124.682195
 24
-143.122443
 34
0.0
  0
LINE
  5
AF22
  8
ALPHA
 10
116.682195
 20
-143.639201
 30
0.0
 11
112.061614
 21
-143.469699
 31
0.0
  0
POLYLINE
  5
AF23
  8
ALPHA
 66
     1
 10
0.0
 20
0.0
 30
0.0
 70
   128
210
0.0
220
0.0
230
-1.0
  0
VERTEX
  5
B343
  8
ALPHA
 10
-113.010728
 20
-192.839512
 30
0.0
  0
VERTEX
  5
B344
  8
ALPHA
 10
-112.918324
 20
-193.039991
 30
0.0
  0
VERTEX
  5
B345
  8
ALPHA
 10
-112.713568
 20
-193.122443
 30
0.0
  0
SEQEND
  5
B346
  8
ALPHA
  0
POLYLINE
  5
AF24
  8
ALPHA
 66
     1
 10
0.0
 20
0.0
 30
0.0
 70
   128
210
0.0
220
0.0
230
-1.0
  0
VERTEX
  5
B347
  8
ALPHA
 10
-112.982195
 20
-192.795772
 30
0.0
  0
VERTEX
  5
B348
  8
ALPHA
 10
-112.893917
 20
-193.006902
 30
0.0
  0
VERTEX
  5
B349
  8
ALPHA
 10
-112.682195
 20
-193.09407
 30
0.0
  0
SEQEND
  5
B34A
  8
ALPHA
  0
ARC
  5
AF25
  8
ALPHA
 10
116.682195
 20
-188.622443
 30
0.0
 40
4.0
 50
0.0
 51
180.0
  0
LINE
  5
AF26
  8
ALPHA
 10
124.681977
 20
-143.122443
 30
0.0
 11
108.682413
 21
-143.122443
 31
0.0
  0
LINE
  5
AF27
  8
ALPHA
 10
124.297524
 20
-144.840028
 30
0.0
 11
109.066866
 21
-144.840028
 31
0.0
  0
LINE
  5
AF28
  8
ALPHA
 10
123.982195
 20
-145.326561
 30
0.0
 11
109.382195
 21
-145.326561
 31
0.0
  0
LINE
  5
AF29
  8
ALPHA
 10
123.687257
 20
-181.572443
 30
0.0
 11
109.677134
 21
-181.572443
 31
0.0
  0
LINE
  5
AF2A
  8
ALPHA
 10
123.582195
 20
-181.672443
 30
0.0
 11
109.782195
 21
-181.672443
 31
0.0
  0
LINE
  5
AF2B
  8
ALPHA
 10
112.032195
 20
-188.622443
 30
0.0
 11
112.982195
 21
-188.622443
 31
0.0
  0
LINE
  5
AF2C
  8
ALPHA
 10
112.032195
 20
-188.672443
 30
0.0
 11
112.982195
 21
-188.672443
 31
0.0
  0
LINE
  5
AF2D
  8
ALPHA
 10
109.782195
 20
-193.122443
 30
0.0
 11
113.055786
 21
-193.122443
 31
0.0
  0
LINE
  5
AF2E
  8
ALPHA
 10
109.636817
 20
-193.122443
 30
0.0
 11
109.677134
 21
-181.572443
 31
0.0
  0
LINE
  5
AF2F
  8
ALPHA
 10
109.782195
 20
-181.672443
 30
0.0
 11
109.782195
 21
-182.772443
 31
0.0
  0
LINE
  5
AF30
  8
ALPHA
 10
109.382195
 20
-145.326561
 30
0.0
 11
109.382195
 21
-188.122408
 31
0.0
  0
LINE
  5
AF31
  8
ALPHA
 10
108.682195
 20
-192.822443
 30
0.0
 11
108.682195
 21
-143.122443
 31
0.0
  0
LINE
  5
AF32
  8
ALPHA
 10
108.682195
 20
-189.057466
 30
0.0
 11
109.28171
 21
-189.184852
 31
0.0
  0
POLYLINE
  5
AF33
  8
ALPHA
 66
     1
 10
0.0
 20
0.0
 30
0.0
 70
   128
  0
VERTEX
  5
B34B
  8
ALPHA
 10
108.682195
 20
-190.436623
 30
0.0
  0
VERTEX
  5
B34C
  8
ALPHA
 10
108.877556
 20
-190.614944
 30
0.0
  0
VERTEX
  5
B34D
  8
ALPHA
 10
109.147204
 20
-190.673914
 30
0.0
  0
SEQEND
  5
B34E
  8
ALPHA
  0
POLYLINE
  5
AF34
  8
ALPHA
 66
     1
 10
0.0
 20
0.0
 30
0.0
 70
   128
210
0.0
220
0.0
230
-1.0
  0
VERTEX
  5
B34F
  8
ALPHA
 10
-108.682195
 20
-189.057466
 30
0.0
  0
VERTEX
  5
B350
  8
ALPHA
 10
-108.876682
 20
-188.473334
 30
0.0
  0
VERTEX
  5
B351
  8
ALPHA
 10
-109.382195
 20
-188.122443
 30
0.0
  0
SEQEND
  5
B352
  8
ALPHA
  0
ARC
  5
AF35
  8
ALPHA
 10
108.982195
 20
-192.822443
 30
0.0
 40
0.3
 50
180.0
 51
270.0
  0
LINE
  5
AF36
  8
ALPHA
 10
112.032195
 20
-182.772443
 30
0.0
 11
112.032195
 21
-188.672443
 31
0.0
  0
LINE
  5
AF37
  8
ALPHA
 10
109.782195
 20
-182.822443
 30
0.0
 11
109.782195
 21
-193.122443
 31
0.0
  0
LINE
  5
AF38
  8
ALPHA
 10
109.782195
 20
-188.122443
 30
0.0
 11
112.032195
 21
-188.122443
 31
0.0
  0
LINE
  5
AF39
  8
ALPHA
 10
109.28171
 20
-189.184852
 30
0.0
 11
109.382197
 21
-188.122408
 31
0.0
  0
LINE
  5
AF3A
  8
ALPHA
 10
109.147204
 20
-190.673914
 30
0.0
 11
109.28171
 21
-189.184852
 31
0.0
  0
LINE
  5
AF3B
  8
ALPHA
 10
108.982195
 20
-193.122443
 30
0.0
 11
109.147204
 21
-190.673914
 31
0.0
  0
LINE
  5
AF3C
  8
ALPHA
 10
109.65427
 20
-188.122443
 30
0.0
 11
109.382195
 21
-188.122408
 31
0.0
  0
LINE
  5
AF3D
  8
ALPHA
 10
109.642227
 20
-191.572443
 30
0.0
 11
109.782195
 21
-191.572443
 31
0.0
  0
LINE
  5
AF3E
  8
ALPHA
 10
109.636817
 20
-193.122443
 30
0.0
 11
108.982195
 21
-193.122443
 31
0.0
  0
LINE
  5
AF3F
  8
ALPHA
 10
112.682195
 20
-193.09407
 30
0.0
 11
112.713568
 21
-193.122443
 31
0.0
  0
LINE
  5
AF40
  8
ALPHA
 10
112.682195
 20
-188.672443
 30
0.0
 11
112.682195
 21
-193.09407
 31
0.0
  0
LINE
  5
AF41
  8
ALPHA
 10
112.182195
 20
-188.672443
 30
0.0
 11
112.182195
 21
-188.622443
 31
0.0
  0
LINE
  5
AF42
  8
ALPHA
 10
109.782195
 20
-182.772443
 30
0.0
 11
112.032195
 21
-182.772443
 31
0.0
  0
LINE
  5
AF43
  8
ALPHA
 10
112.032195
 20
-182.822443
 30
0.0
 11
109.782195
 21
-182.822443
 31
0.0
  0
LINE
  5
AF44
  8
ALPHA
 10
110.582195
 20
-182.772443
 30
0.0
 11
110.582195
 21
-182.822443
 31
0.0
  0
LINE
  5
AF45
  8
ALPHA
 10
109.782195
 20
-182.122443
 30
0.0
 11
109.682195
 21
-182.122443
 31
0.0
  0
LINE
  5
AF46
  8
ALPHA
 10
111.332195
 20
-181.672443
 30
0.0
 11
111.332195
 21
-181.572443
 31
0.0
  0
LINE
  5
AF47
  8
ALPHA
 10
108.582195
 20
-149.182953
 30
0.0
 11
108.582195
 21
-144.400424
 31
0.0
  0
LINE
  5
AF48
  8
ALPHA
 10
108.282195
 20
-149.182953
 30
0.0
 11
108.282195
 21
-144.400424
 31
0.0
  0
LINE
  5
AF49
  8
ALPHA
 10
108.69461
 20
-153.122443
 30
0.0
 11
108.682195
 21
-153.929057
 31
0.0
  0
LINE
  5
AF4A
  8
ALPHA
 10
108.689268
 20
-153.122443
 30
0.0
 11
108.682151
 21
-153.929083
 31
0.0
  0
LINE
  5
AF4B
  8
ALPHA
 10
108.682195
 20
-152.31583
 30
0.0
 11
108.69461
 21
-153.122443
 31
0.0
  0
LINE
  5
AF4C
  8
ALPHA
 10
108.682154
 20
-152.315802
 30
0.0
 11
108.689278
 21
-153.122443
 31
0.0
  0
POLYLINE
  5
AF4D
  8
ALPHA
 66
     1
 10
0.0
 20
0.0
 30
0.0
  0
VERTEX
  5
B353
  8
ALPHA
 10
108.682195
 20
-148.580734
 30
0.0
  0
VERTEX
  5
B354
  8
ALPHA
 10
108.65127
 20
-148.575999
 30
0.0
  0
VERTEX
  5
B355
  8
ALPHA
 10
108.623407
 20
-148.562279
 30
0.0
  0
VERTEX
  5
B356
  8
ALPHA
 10
108.601301
 20
-148.540926
 30
0.0
  0
VERTEX
  5
B357
  8
ALPHA
 10
108.587097
 20
-148.514012
 30
0.0
  0
VERTEX
  5
B358
  8
ALPHA
 10
108.582195
 20
-148.484141
 30
0.0
  0
SEQEND
  5
B359
  8
ALPHA
  0
POLYLINE
  5
AF4E
  8
ALPHA
 66
     1
 10
0.0
 20
0.0
 30
0.0
  0
VERTEX
  5
B35A
  8
ALPHA
 10
108.682195
 20
-149.279545
 30
0.0
  0
VERTEX
  5
B35B
  8
ALPHA
 10
108.65127
 20
-149.27481
 30
0.0
  0
VERTEX
  5
B35C
  8
ALPHA
 10
108.623407
 20
-149.261091
 30
0.0
  0
VERTEX
  5
B35D
  8
ALPHA
 10
108.601301
 20
-149.239738
 30
0.0
  0
VERTEX
  5
B35E
  8
ALPHA
 10
108.587097
 20
-149.212824
 30
0.0
  0
VERTEX
  5
B35F
  8
ALPHA
 10
108.582195
 20
-149.182953
 30
0.0
  0
SEQEND
  5
B360
  8
ALPHA
  0
POLYLINE
  5
AF4F
  8
ALPHA
 66
     1
 10
0.0
 20
0.0
 30
0.0
  0
VERTEX
  5
B361
  8
ALPHA
 10
108.282195
 20
-149.182953
 30
0.0
  0
VERTEX
  5
B362
  8
ALPHA
 10
108.295845
 20
-149.283023
 30
0.0
  0
VERTEX
  5
B363
  8
ALPHA
 10
108.335747
 20
-149.376074
 30
0.0
  0
VERTEX
  5
B364
  8
ALPHA
 10
108.399353
 20
-149.456158
 30
0.0
  0
VERTEX
  5
B365
  8
ALPHA
 10
108.482261
 20
-149.517596
 30
0.0
  0
VERTEX
  5
B366
  8
ALPHA
 10
108.578594
 20
-149.556139
 30
0.0
  0
VERTEX
  5
B367
  8
ALPHA
 10
108.682195
 20
-149.569323
 30
0.0
  0
SEQEND
  5
B368
  8
ALPHA
  0
POLYLINE
  5
AF50
  8
ALPHA
 66
     1
 10
0.0
 20
0.0
 30
0.0
 70
   128
210
0.0
220
0.0
230
-1.0
  0
VERTEX
  5
B369
  8
ALPHA
 10
-108.682195
 20
-145.074165
 30
0.0
  0
VERTEX
  5
B36A
  8
ALPHA
 10
-108.771519
 20
-144.866143
 30
0.0
  0
VERTEX
  5
B36B
  8
ALPHA
 10
-108.982195
 20
-144.78197
 30
0.0
  0
SEQEND
  5
B36C
  8
ALPHA
  0
LINE
  5
AF51
  8
ALPHA
 10
108.775303
 20
-143.227038
 30
0.0
 11
108.982195
 21
-143.169599
 31
0.0
  0
LINE
  5
AF52
  8
ALPHA
 10
108.682195
 20
-145.074165
 30
0.0
 11
108.83037
 21
-145.131948
 31
0.0
  0
LINE
  5
AF53
  8
ALPHA
 10
108.682195
 20
-143.432443
 30
0.0
 11
108.775303
 21
-143.227038
 31
0.0
  0
LINE
  5
AF54
  8
ALPHA
 10
108.582195
 20
-144.400424
 30
0.0
 11
108.682195
 21
-144.299673
 31
0.0
  0
LINE
  5
AF55
  8
ALPHA
 10
108.673541
 20
-144.634772
 30
0.0
 11
108.682195
 21
-144.634377
 31
0.0
  0
LINE
  5
AF56
  8
ALPHA
 10
108.582195
 20
-144.738556
 30
0.0
 11
108.673541
 21
-144.634772
 31
0.0
  0
POLYLINE
  5
AF57
  8
ALPHA
 66
     1
 10
0.0
 20
0.0
 30
0.0
 70
   128
210
0.0
220
0.0
230
-1.0
  0
VERTEX
  5
B36D
  8
ALPHA
 10
-108.282195
 20
-144.400424
 30
0.0
  0
VERTEX
  5
B36E
  8
ALPHA
 10
-108.398824
 20
-144.115991
 30
0.0
  0
VERTEX
  5
B36F
  8
ALPHA
 10
-108.682195
 20
-143.99742
 30
0.0
  0
SEQEND
  5
B370
  8
ALPHA
  0
LINE
  5
AF58
  8
ALPHA
 10
108.582195
 20
-144.827185
 30
0.0
 11
108.282195
 21
-144.827185
 31
0.0
  0
LINE
  5
AF59
  8
ALPHA
 10
108.582195
 20
-144.956595
 30
0.0
 11
108.282195
 21
-144.956595
 31
0.0
  0
LINE
  5
AF5A
  8
ALPHA
 10
110.890255
 20
-143.373069
 30
0.0
 11
108.982195
 21
-143.169599
 31
0.0
  0
LINE
  5
AF5B
  8
ALPHA
 10
109.382195
 20
-145.326561
 30
0.0
 11
109.066866
 21
-144.840028
 31
0.0
  0
POLYLINE
  5
AF5C
  8
ALPHA
 66
     1
 10
0.0
 20
0.0
 30
0.0
 70
   128
210
0.0
220
0.0
230
-1.0
  0
VERTEX
  5
B371
  8
ALPHA
 10
-108.83037
 20
-145.131948
 30
0.0
  0
VERTEX
  5
B372
  8
ALPHA
 10
-108.903159
 20
-144.948002
 30
0.0
  0
VERTEX
  5
B373
  8
ALPHA
 10
-109.066866
 20
-144.840028
 30
0.0
  0
SEQEND
  5
B374
  8
ALPHA
  0
LINE
  5
AF5D
  8
ALPHA
 10
109.382195
 20
-145.326561
 30
0.0
 11
108.83037
 21
-145.131948
 31
0.0
  0
LINE
  5
AF5E
  8
ALPHA
 10
108.982195
 20
-144.78197
 30
0.0
 11
109.066866
 21
-144.840028
 31
0.0
  0
LINE
  5
AF5F
  8
ALPHA
 10
108.982195
 20
-144.78197
 30
0.0
 11
108.982195
 21
-143.169599
 31
0.0
  0
LINE
  5
AF60
  8
ALPHA
 10
110.923824
 20
-143.376139
 30
0.0
 11
110.890255
 21
-143.373069
 31
0.0
  0
LINE
  5
AF61
  8
ALPHA
 10
112.061614
 20
-143.469699
 30
0.0
 11
110.923824
 21
-143.376139
 31
0.0
  0
LINE
  5
AF62
  8
ALPHA
 10
124.682195
 20
-192.822443
 30
0.0
 11
124.682195
 21
-143.122443
 31
0.0
  0
LINE
  5
AF63
  8
ALPHA
 10
123.982195
 20
-188.122443
 30
0.0
 11
123.982195
 21
-145.326561
 31
0.0
  0
LINE
  5
AF64
  8
ALPHA
 10
123.582195
 20
-182.772443
 30
0.0
 11
123.582195
 21
-181.672443
 31
0.0
  0
LINE
  5
AF65
  8
ALPHA
 10
123.727574
 20
-193.122443
 30
0.0
 11
123.687257
 21
-181.572443
 31
0.0
  0
LINE
  5
AF6C
  8
ALPHA
 10
120.382195
 20
-188.622443
 30
0.0
 11
121.332195
 21
-188.622443
 31
0.0
  0
LINE
  5
AF6D
  8
ALPHA
 10
120.382195
 20
-188.672443
 30
0.0
 11
121.332195
 21
-188.672443
 31
0.0
  0
LINE
  5
AF6E
  8
ALPHA
 10
120.308604
 20
-193.122443
 30
0.0
 11
123.582195
 21
-193.122443
 31
0.0
  0
POLYLINE
  5
AF6F
  8
ALPHA
 66
     1
 10
0.0
 20
0.0
 30
0.0
 70
   128
210
0.0
220
0.0
230
-1.0
  0
VERTEX
  5
B375
  8
ALPHA
 10
-116.682195
 20
-195.336907
 30
0.0
  0
VERTEX
  5
B376
  8
ALPHA
 10
-115.971841
 20
-195.27137
 30
0.0
  0
VERTEX
  5
B377
  8
ALPHA
 10
-115.286343
 20
-195.07237
 30
0.0
  0
VERTEX
  5
B378
  8
ALPHA
 10
-114.650359
 20
-194.749321
 30
0.0
  0
VERTEX
  5
B379
  8
ALPHA
 10
-114.087961
 20
-194.310368
 30
0.0
  0
VERTEX
  5
B37A
  8
ALPHA
 10
-113.621906
 20
-193.77027
 30
0.0
  0
VERTEX
  5
B37B
  8
ALPHA
 10
-113.272344
 20
-193.148397
 30
0.0
  0
VERTEX
  5
B37C
  8
ALPHA
 10
-113.0554
 20
-192.468776
 30
0.0
  0
VERTEX
  5
B37D
  8
ALPHA
 10
-112.982201
 20
-191.759453
 30
0.0
  0
SEQEND
  5
B37E
  8
ALPHA
  0
POLYLINE
  5
AF70
  8
ALPHA
 66
     1
 10
0.0
 20
0.0
 30
0.0
 70
   128
210
0.0
220
0.0
230
-1.0
  0
VERTEX
  5
B37F
  8
ALPHA
 10
-120.382189
 20
-191.759453
 30
0.0
  0
VERTEX
  5
B380
  8
ALPHA
 10
-120.30899
 20
-192.468776
 30
0.0
  0
VERTEX
  5
B381
  8
ALPHA
 10
-120.092047
 20
-193.148397
 30
0.0
  0
VERTEX
  5
B382
  8
ALPHA
 10
-119.742484
 20
-193.77027
 30
0.0
  0
VERTEX
  5
B383
  8
ALPHA
 10
-119.27643
 20
-194.310368
 30
0.0
  0
VERTEX
  5
B384
  8
ALPHA
 10
-118.714032
 20
-194.749321
 30
0.0
  0
VERTEX
  5
B385
  8
ALPHA
 10
-118.078047
 20
-195.07237
 30
0.0
  0
VERTEX
  5
B386
  8
ALPHA
 10
-117.39255
 20
-195.27137
 30
0.0
  0
VERTEX
  5
B387
  8
ALPHA
 10
-116.682195
 20
-195.336907
 30
0.0
  0
SEQEND
  5
B388
  8
ALPHA
  0
ARC
  5
AF71
  8
ALPHA
 10
116.682195
 20
-192.451624
 30
0.0
 40
3.7
 50
180.0
 51
0.0
  0
POLYLINE
  5
AF72
  8
ALPHA
 66
     1
 10
0.0
 20
0.0
 30
0.0
 70
   128
210
0.0
220
0.0
230
-1.0
  0
VERTEX
  5
B389
  8
ALPHA
 10
-116.682195
 20
-188.180177
 30
0.0
  0
VERTEX
  5
B38A
  8
ALPHA
 10
-117.392687
 20
-188.245811
 30
0.0
  0
VERTEX
  5
B38B
  8
ALPHA
 10
-118.078262
 20
-188.445072
 30
0.0
  0
VERTEX
  5
B38C
  8
ALPHA
 10
-118.714236
 20
-188.768467
 30
0.0
  0
VERTEX
  5
B38D
  8
ALPHA
 10
-119.276556
 20
-189.207759
 30
0.0
  0
VERTEX
  5
B38E
  8
ALPHA
 10
-119.742519
 20
-189.748133
 30
0.0
  0
VERTEX
  5
B38F
  8
ALPHA
 10
-120.092029
 20
-190.370207
 30
0.0
  0
VERTEX
  5
B390
  8
ALPHA
 10
-120.308975
 20
-191.049983
 30
0.0
  0
VERTEX
  5
B391
  8
ALPHA
 10
-120.382189
 20
-191.759453
 30
0.0
  0
SEQEND
  5
B392
  8
ALPHA
  0
ARC
  5
AF73
  8
ALPHA
 10
116.682195
 20
-188.622443
 30
0.0
 40
3.7
 50
0.0
 51
180.0
  0
POLYLINE
  5
AF74
  8
ALPHA
 66
     1
 10
0.0
 20
0.0
 30
0.0
  0
VERTEX
  5
B393
  8
ALPHA
 10
119.87247
 20
-186.752912
 30
0.0
  0
VERTEX
  5
B394
  8
ALPHA
 10
119.634859
 20
-186.481556
 30
0.0
  0
VERTEX
  5
B395
  8
ALPHA
 10
119.174869
 20
-186.12476
 30
0.0
  0
VERTEX
  5
B396
  8
ALPHA
 10
118.629994
 20
-185.833807
 30
0.0
  0
VERTEX
  5
B397
  8
ALPHA
 10
118.018789
 20
-185.618603
 30
0.0
  0
VERTEX
  5
B398
  8
ALPHA
 10
117.362068
 20
-185.486478
 30
0.0
  0
VERTEX
  5
B399
  8
ALPHA
 10
116.682195
 20
-185.441931
 30
0.0
  0
SEQEND
  5
B39A
  8
ALPHA
  0
POLYLINE
  5
AF75
  8
ALPHA
 66
     1
 10
0.0
 20
0.0
 30
0.0
 70
   128
210
0.0
220
0.0
230
-1.0
  0
VERTEX
  5
B39B
  8
ALPHA
 10
-112.982201
 20
-191.759453
 30
0.0
  0
VERTEX
  5
B39C
  8
ALPHA
 10
-113.055415
 20
-191.049983
 30
0.0
  0
VERTEX
  5
B39D
  8
ALPHA
 10
-113.272362
 20
-190.370206
 30
0.0
  0
VERTEX
  5
B39E
  8
ALPHA
 10
-113.621871
 20
-189.748133
 30
0.0
  0
VERTEX
  5
B39F
  8
ALPHA
 10
-114.087835
 20
-189.207759
 30
0.0
  0
VERTEX
  5
B3A0
  8
ALPHA
 10
-114.650154
 20
-188.768467
 30
0.0
  0
VERTEX
  5
B3A1
  8
ALPHA
 10
-115.286128
 20
-188.445072
 30
0.0
  0
VERTEX
  5
B3A2
  8
ALPHA
 10
-115.971703
 20
-188.245811
 30
0.0
  0
VERTEX
  5
B3A3
  8
ALPHA
 10
-116.682195
 20
-188.180177
 30
0.0
  0
SEQEND
  5
B3A4
  8
ALPHA
  0
LINE
  5
AF76
  8
ALPHA
 10
112.982195
 20
-192.795772
 30
0.0
 11
113.005476
 21
-192.822193
 31
0.0
  0
LINE
  5
AF77
  8
ALPHA
 10
112.982195
 20
-192.450535
 30
0.0
 11
112.982195
 21
-188.672443
 31
0.0
  0
LINE
  5
AF78
  8
ALPHA
 10
112.982195
 20
-192.451624
 30
0.0
 11
112.982195
 21
-192.795772
 31
0.0
  0
POLYLINE
  5
AF79
  8
ALPHA
 66
     1
 10
0.0
 20
0.0
 30
0.0
  0
VERTEX
  5
B3A5
  8
ALPHA
 10
116.682195
 20
-185.441931
 30
0.0
  0
VERTEX
  5
B3A6
  8
ALPHA
 10
116.002322
 20
-185.486478
 30
0.0
  0
VERTEX
  5
B3A7
  8
ALPHA
 10
115.345601
 20
-185.618603
 30
0.0
  0
VERTEX
  5
B3A8
  8
ALPHA
 10
114.734396
 20
-185.833807
 30
0.0
  0
VERTEX
  5
B3A9
  8
ALPHA
 10
114.189521
 20
-186.12476
 30
0.0
  0
VERTEX
  5
B3AA
  8
ALPHA
 10
113.729532
 20
-186.481556
 30
0.0
  0
VERTEX
  5
B3AB
  8
ALPHA
 10
113.500064
 20
-186.743612
 30
0.0
  0
SEQEND
  5
B3AC
  8
ALPHA
  0
LINE
  5
AF7A
  8
ALPHA
 10
120.358914
 20
-192.822193
 30
0.0
 11
120.382195
 21
-192.795772
 31
0.0
  0
POLYLINE
  5
AF7B
  8
ALPHA
 66
     1
 10
0.0
 20
0.0
 30
0.0
 70
   128
  0
VERTEX
  5
B3AD
  8
ALPHA
 10
120.382195
 20
-192.795772
 30
0.0
  0
VERTEX
  5
B3AE
  8
ALPHA
 10
120.470474
 20
-193.006902
 30
0.0
  0
VERTEX
  5
B3AF
  8
ALPHA
 10
120.682195
 20
-193.09407
 30
0.0
  0
SEQEND
  5
B3B0
  8
ALPHA
  0
LINE
  5
AF7C
  8
ALPHA
 10
120.650822
 20
-193.122443
 30
0.0
 11
120.682195
 21
-193.09407
 31
0.0
  0
POLYLINE
  5
AF7D
  8
ALPHA
 66
     1
 10
0.0
 20
0.0
 30
0.0
 70
   128
210
0.0
220
0.0
230
-1.0
  0
VERTEX
  5
B3B1
  8
ALPHA
 10
-120.650822
 20
-193.122443
 30
0.0
  0
VERTEX
  5
B3B2
  8
ALPHA
 10
-120.446067
 20
-193.039991
 30
0.0
  0
VERTEX
  5
B3B3
  8
ALPHA
 10
-120.353663
 20
-192.839512
 30
0.0
  0
SEQEND
  5
B3B4
  8
ALPHA
  0
LINE
  5
AF7E
  8
ALPHA
 10
120.682195
 20
-188.672443
 30
0.0
 11
120.682195
 21
-193.09407
 31
0.0
  0
LINE
  5
AF7F
  8
ALPHA
 10
120.382195
 20
-192.450535
 30
0.0
 11
120.382195
 21
-188.672443
 31
0.0
  0
LINE
  5
AF80
  8
ALPHA
 10
120.382195
 20
-192.451624
 30
0.0
 11
120.382195
 21
-192.795772
 31
0.0
  0
LINE
  5
AF81
  8
ALPHA
 10
123.582195
 20
-182.822443
 30
0.0
 11
123.582195
 21
-193.122443
 31
0.0
  0
LINE
  5
AF82
  8
ALPHA
 10
121.332195
 20
-188.672443
 30
0.0
 11
121.332195
 21
-182.772443
 31
0.0
  0
LINE
  5
AF83
  8
ALPHA
 10
121.332195
 20
-188.122443
 30
0.0
 11
123.582195
 21
-188.122443
 31
0.0
  0
LINE
  5
AF84
  8
ALPHA
 10
121.182195
 20
-188.672443
 30
0.0
 11
121.182195
 21
-188.622443
 31
0.0
  0
LINE
  5
AF85
  8
ALPHA
 10
123.982195
 20
-188.122443
 30
0.0
 11
124.082722
 21
-189.185064
 31
0.0
  0
POLYLINE
  5
AF86
  8
ALPHA
 66
     1
 10
0.0
 20
0.0
 30
0.0
 70
   128
210
0.0
220
0.0
230
-1.0
  0
VERTEX
  5
B3B5
  8
ALPHA
 10
-123.982195
 20
-188.122443
 30
0.0
  0
VERTEX
  5
B3B6
  8
ALPHA
 10
-124.48776
 20
-188.473412
 30
0.0
  0
VERTEX
  5
B3B7
  8
ALPHA
 10
-124.682195
 20
-189.057661
 30
0.0
  0
SEQEND
  5
B3B8
  8
ALPHA
  0
POLYLINE
  5
AF87
  8
ALPHA
 66
     1
 10
0.0
 20
0.0
 30
0.0
 70
   128
210
0.0
220
0.0
230
-1.0
  0
VERTEX
  5
B3B9
  8
ALPHA
 10
-124.682195
 20
-190.436623
 30
0.0
  0
VERTEX
  5
B3BA
  8
ALPHA
 10
-124.486842
 20
-190.614957
 30
0.0
  0
VERTEX
  5
B3BB
  8
ALPHA
 10
-124.217187
 20
-190.673914
 30
0.0
  0
SEQEND
  5
B3BC
  8
ALPHA
  0
LINE
  5
AF88
  8
ALPHA
 10
124.217187
 20
-190.673914
 30
0.0
 11
124.382195
 21
-193.122443
 31
0.0
  0
LINE
  5
AF89
  8
ALPHA
 10
124.682195
 20
-189.057661
 30
0.0
 11
124.082722
 21
-189.185064
 31
0.0
  0
LINE
  5
AF8A
  8
ALPHA
 10
124.082722
 20
-189.185064
 30
0.0
 11
124.217187
 21
-190.673914
 31
0.0
  0
ARC
  5
AF8B
  8
ALPHA
 10
124.382195
 20
-192.822443
 30
0.0
 40
0.3
 50
270.0
 51
0.0
  0
LINE
  5
AF8C
  8
ALPHA
 10
123.982195
 20
-188.122443
 30
0.0
 11
123.710121
 21
-188.122443
 31
0.0
  0
LINE
  5
AF8D
  8
ALPHA
 10
123.582195
 20
-191.572443
 30
0.0
 11
123.722163
 21
-191.572443
 31
0.0
  0
LINE
  5
AF8E
  8
ALPHA
 10
124.382195
 20
-193.122443
 30
0.0
 11
123.727574
 21
-193.122443
 31
0.0
  0
LINE
  5
AF8F
  8
ALPHA
 10
121.332195
 20
-182.772443
 30
0.0
 11
123.582195
 21
-182.772443
 31
0.0
  0
LINE
  5
AF90
  8
ALPHA
 10
123.582195
 20
-182.822443
 30
0.0
 11
121.332195
 21
-182.822443
 31
0.0
  0
LINE
  5
AF91
  8
ALPHA
 10
122.782195
 20
-182.772443
 30
0.0
 11
122.782195
 21
-182.822443
 31
0.0
  0
LINE
  5
AFD9
  8
ALPHA
 10
122.032195
 20
-181.672443
 30
0.0
 11
122.032195
 21
-181.572443
 31
0.0
  0
LINE
  5
AFDA
  8
ALPHA
 10
123.682195
 20
-181.572443
 30
0.0
 11
123.682195
 21
-182.122443
 31
0.0
  0
LINE
  5
AFDB
  8
ALPHA
 10
123.682195
 20
-182.122443
 30
0.0
 11
123.582195
 21
-182.122443
 31
0.0
  0
LINE
  5
AFDC
  8
ALPHA
 10
121.302776
 20
-143.469699
 30
0.0
 11
116.682195
 21
-143.639201
 31
0.0
  0
LINE
  5
AFDD
  8
ALPHA
 10
124.682195
 20
-153.929057
 30
0.0
 11
124.66978
 21
-153.122443
 31
0.0
  0
LINE
  5
AFDE
  8
ALPHA
 10
124.682238
 20
-153.929085
 30
0.0
 11
124.675123
 21
-153.122443
 31
0.0
  0
LINE
  5
AFDF
  8
ALPHA
 10
124.66978
 20
-153.122443
 30
0.0
 11
124.682195
 21
-152.31583
 31
0.0
  0
LINE
  5
AFE0
  8
ALPHA
 10
124.675111
 20
-153.122443
 30
0.0
 11
124.682243
 21
-152.315803
 31
0.0
  0
LINE
  5
AFE1
  8
ALPHA
 10
124.382195
 20
-143.169599
 30
0.0
 11
122.474054
 21
-143.373076
 31
0.0
  0
LINE
  5
AFE2
  8
ALPHA
 10
122.440566
 20
-143.376139
 30
0.0
 11
121.302776
 21
-143.469699
 31
0.0
  0
LINE
  5
AFE3
  8
ALPHA
 10
122.474054
 20
-143.373076
 30
0.0
 11
122.440566
 21
-143.376139
 31
0.0
  0
POLYLINE
  5
AFE4
  8
ALPHA
 66
     1
 10
0.0
 20
0.0
 30
0.0
 70
   128
  0
VERTEX
  5
B3BD
  8
ALPHA
 10
124.534021
 20
-145.131948
 30
0.0
  0
VERTEX
  5
B3BE
  8
ALPHA
 10
124.461232
 20
-144.948002
 30
0.0
  0
VERTEX
  5
B3BF
  8
ALPHA
 10
124.297524
 20
-144.840028
 30
0.0
  0
SEQEND
  5
B3C0
  8
ALPHA
  0
LINE
  5
AFE5
  8
ALPHA
 10
124.297524
 20
-144.840028
 30
0.0
 11
123.982195
 21
-145.326561
 31
0.0
  0
LINE
  5
AFE6
  8
ALPHA
 10
124.534021
 20
-145.131948
 30
0.0
 11
123.982195
 21
-145.326561
 31
0.0
  0
POLYLINE
  5
AFE7
  8
ALPHA
 66
     1
 10
0.0
 20
0.0
 30
0.0
 70
   128
  0
VERTEX
  5
B3C1
  8
ALPHA
 10
124.682195
 20
-145.074165
 30
0.0
  0
VERTEX
  5
B3C2
  8
ALPHA
 10
124.592872
 20
-144.866143
 30
0.0
  0
VERTEX
  5
B3C3
  8
ALPHA
 10
124.382195
 20
-144.78197
 30
0.0
  0
SEQEND
  5
B3C4
  8
ALPHA
  0
LINE
  5
AFE8
  8
ALPHA
 10
124.382195
 20
-144.78197
 30
0.0
 11
124.297524
 21
-144.840028
 31
0.0
  0
LINE
  5
AFE9
  8
ALPHA
 10
124.589088
 20
-143.227038
 30
0.0
 11
124.382195
 21
-143.169599
 31
0.0
  0
LINE
  5
AFEA
  8
ALPHA
 10
124.682195
 20
-143.432443
 30
0.0
 11
124.589088
 21
-143.227038
 31
0.0
  0
LINE
  5
AFEB
  8
ALPHA
 10
124.682195
 20
-145.074165
 30
0.0
 11
124.534021
 21
-145.131948
 31
0.0
  0
LINE
  5
AFEC
  8
ALPHA
 10
124.382195
 20
-144.78197
 30
0.0
 11
124.382195
 21
-143.169599
 31
0.0
  0
VIEWPORT
  5
494D
 67
     1
  8
0
 10
4.995325
 20
6.556512
 30
0.0
 40
22.70986
 41
13.988421
 68
    -1
 69
     1
1001
ACAD
1000
MVIEW
1002
{
1070
    16
1010
0.0
1020
0.0
1030
0.0
1010
0.0
1020
0.0
1030
1.0
1040
0.0
1040
13.988421
1040
4.995325
1040
6.556512
1040
50.0
1040
0.0
1040
0.0
1070
     0
1070
   100
1070
     1
1070
     1
1070
     0
1070
     0
1070
     0
1070
     0
1040
0.0
1040
0.0
1040
0.0
1040
10.0
1040
10.0
1040
10.0
1040
10.0
1070
     0
1002
{
1002
}
1002
}
  0
ENDSEC
  0
EOF
