  0
SECTION
  2
HEADER
  9
$ACADVER
  1
AC1014
  9
$ACADMAINTVER
 70
     0
  9
$DWGCODEPAGE
  3
ANSI_1252
  9
$INSBASE
 10
93.894301
 20
236.06014
 30
0.0
  9
$EXTMIN
 10
39.230885
 20
35.723804
 30
-0.001526
  9
$EXTMAX
 10
105.325887
 20
179.279628
 30
0.0
  9
$LIMMIN
 10
0.0
 20
0.0
  9
$LIMMAX
 10
210.0
 20
297.0
  9
$ORTHOMODE
 70
     1
  9
$REGENMODE
 70
     1
  9
$FILLMODE
 70
     1
  9
$QTEXTMODE
 70
     0
  9
$MIRRTEXT
 70
     0
  9
$DRAGMODE
 70
     1
  9
$LTSCALE
 40
7.0
  9
$OSMODE
 70
  4095
  9
$ATTMODE
 70
     1
  9
$TEXTSIZE
 40
2.5
  9
$TRACEWID
 40
0.05
  9
$TEXTSTYLE
  7
STANDARD
  9
$CLAYER
  8
COTATION1
  9
$CELTYPE
  6
BYLAYER
  9
$CECOLOR
 62
   256
  9
$CELTSCALE
 40
1.0
  9
$DELOBJ
 70
     1
  9
$DISPSILH
 70
     0
  9
$DIMSCALE
 40
1.0
  9
$DIMASZ
 40
3.0
  9
$DIMEXO
 40
0.0625
  9
$DIMDLI
 40
0.38
  9
$DIMRND
 40
0.01
  9
$DIMDLE
 40
0.0
  9
$DIMEXE
 40
0.18
  9
$DIMTP
 40
0.0
  9
$DIMTM
 40
0.0
  9
$DIMTXT
 40
2.5
  9
$DIMCEN
 40
0.09
  9
$DIMTSZ
 40
0.0
  9
$DIMTOL
 70
     0
  9
$DIMLIM
 70
     0
  9
$DIMTIH
 70
     0
  9
$DIMTOH
 70
     0
  9
$DIMSE1
 70
     0
  9
$DIMSE2
 70
     0
  9
$DIMTAD
 70
     1
  9
$DIMZIN
 70
    12
  9
$DIMBLK
  1

  9
$DIMASO
 70
     1
  9
$DIMSHO
 70
     0
  9
$DIMPOST
  1

  9
$DIMAPOST
  1

  9
$DIMALT
 70
     0
  9
$DIMALTD
 70
     2
  9
$DIMALTF
 40
25.4
  9
$DIMLFAC
 40
1.0
  9
$DIMTOFL
 70
     1
  9
$DIMTVP
 40
0.0
  9
$DIMTIX
 70
     0
  9
$DIMSOXD
 70
     0
  9
$DIMSAH
 70
     0
  9
$DIMBLK1
  1

  9
$DIMBLK2
  1

  9
$DIMSTYLE
  2
SC_STAND
  9
$DIMCLRD
 70
     0
  9
$DIMCLRE
 70
     0
  9
$DIMCLRT
 70
     0
  9
$DIMTFAC
 40
1.0
  9
$DIMGAP
 40
1.0
  9
$DIMJUST
 70
     0
  9
$DIMSD1
 70
     0
  9
$DIMSD2
 70
     0
  9
$DIMTOLJ
 70
     1
  9
$DIMTZIN
 70
    12
  9
$DIMALTZ
 70
    12
  9
$DIMALTTZ
 70
    12
  9
$DIMFIT
 70
     5
  9
$DIMUPT
 70
     0
  9
$DIMUNIT
 70
     2
  9
$DIMDEC
 70
     3
  9
$DIMTDEC
 70
     3
  9
$DIMALTU
 70
     2
  9
$DIMALTTD
 70
     2
  9
$DIMTXSTY
  7
STANDARD
  9
$DIMAUNIT
 70
     0
  9
$LUNITS
 70
     2
  9
$LUPREC
 70
     3
  9
$SKETCHINC
 40
0.1
  9
$FILLETRAD
 40
0.0625
  9
$AUNITS
 70
     0
  9
$AUPREC
 70
     0
  9
$MENU
  1
ACAD
  9
$ELEVATION
 40
0.0
  9
$PELEVATION
 40
0.0
  9
$THICKNESS
 40
0.0
  9
$LIMCHECK
 70
     0
  9
$BLIPMODE
 70
     1
  9
$CHAMFERA
 40
0.0
  9
$CHAMFERB
 40
0.0
  9
$CHAMFERC
 40
0.0
  9
$CHAMFERD
 40
0.0
  9
$SKPOLY
 70
     0
  9
$TDCREATE
 40
2450953.590960648
  9
$TDUPDATE
 40
2453531.461656898
  9
$TDINDWG
 40
0.0113023380
  9
$TDUSRTIMER
 40
0.0113023380
  9
$USRTIMER
 70
     1
  9
$ANGBASE
 50
0.0
  9
$ANGDIR
 70
     0
  9
$PDMODE
 70
     0
  9
$PDSIZE
 40
0.0
  9
$PLINEWID
 40
0.0
  9
$COORDS
 70
     0
  9
$SPLFRAME
 70
     0
  9
$SPLINETYPE
 70
     6
  9
$SPLINESEGS
 70
     8
  9
$ATTDIA
 70
     0
  9
$ATTREQ
 70
     1
  9
$HANDLING
 70
     1
  9
$HANDSEED
  5
1FFD
  9
$SURFTAB1
 70
     6
  9
$SURFTAB2
 70
     6
  9
$SURFTYPE
 70
     6
  9
$SURFU
 70
     6
  9
$SURFV
 70
     6
  9
$UCSNAME
  2

  9
$UCSORG
 10
0.0
 20
0.0
 30
0.0
  9
$UCSXDIR
 10
1.0
 20
0.0
 30
0.0
  9
$UCSYDIR
 10
0.0
 20
1.0
 30
0.0
  9
$PUCSNAME
  2

  9
$PUCSORG
 10
0.0
 20
0.0
 30
0.0
  9
$PUCSXDIR
 10
1.0
 20
0.0
 30
0.0
  9
$PUCSYDIR
 10
0.0
 20
1.0
 30
0.0
  9
$USERI1
 70
     0
  9
$USERI2
 70
     0
  9
$USERI3
 70
     0
  9
$USERI4
 70
     0
  9
$USERI5
 70
     0
  9
$USERR1
 40
0.0
  9
$USERR2
 40
0.0
  9
$USERR3
 40
0.0
  9
$USERR4
 40
0.0
  9
$USERR5
 40
0.0
  9
$WORLDVIEW
 70
     1
  9
$SHADEDGE
 70
     3
  9
$SHADEDIF
 70
    70
  9
$TILEMODE
 70
     1
  9
$MAXACTVP
 70
    32
  9
$PINSBASE
 10
0.0
 20
0.0
 30
0.0
  9
$PLIMCHECK
 70
     0
  9
$PEXTMIN
 10
1.000000E+20
 20
1.000000E+20
 30
1.000000E+20
  9
$PEXTMAX
 10
-1.000000E+20
 20
-1.000000E+20
 30
-1.000000E+20
  9
$PLIMMIN
 10
-3.175
 20
-3.175
  9
$PLIMMAX
 10
203.812115
 20
370.276807
  9
$UNITMODE
 70
     0
  9
$VISRETAIN
 70
     0
  9
$PLINEGEN
 70
     0
  9
$PSLTSCALE
 70
     1
  9
$TREEDEPTH
 70
  3020
  9
$PICKSTYLE
 70
     1
  9
$CMLSTYLE
  2
STANDARD
  9
$CMLJUST
 70
     0
  9
$CMLSCALE
 40
1.0
  9
$PROXYGRAPHICS
 70
     1
  9
$MEASUREMENT
 70
     0
  0
ENDSEC
  0
SECTION
  2
CLASSES
  0
CLASS
  1
DICTIONARYVAR
  2
AcDbDictionaryVar
  3
"AutoCAD"
 90
        0
280
     0
281
     0
  0
CLASS
  1
HATCH
  2
AcDbHatch
  3
"ACAD_SEDONA"
 90
        0
280
     0
281
     1
  0
ENDSEC
  0
SECTION
  2
TABLES
  0
TABLE
  2
VPORT
  5
F4
100
AcDbSymbolTable
 70
     2
  0
VPORT
  5
1FFC
100
AcDbSymbolTableRecord
100
AcDbViewportTableRecord
  2
*ACTIVE
 70
     0
 10
0.0
 20
0.0
 11
1.0
 21
1.0
 12
72.278386
 22
107.501716
 13
0.0
 23
0.0
 14
1.0
 24
1.0
 15
10.0
 25
10.0
 16
0.0
 26
0.0
 36
1.0
 17
0.0
 27
0.0
 37
0.0
 40
144.678816
 41
1.643603
 42
50.0
 43
0.0
 44
0.0
 50
0.0
 51
0.0
 71
     0
 72
   100
 73
     1
 74
     1
 75
     0
 76
     1
 77
     0
 78
     0
  0
ENDTAB
  0
TABLE
  2
LTYPE
  5
F1
100
AcDbSymbolTable
 70
     1
  0
LTYPE
  5
FD
100
AcDbSymbolTableRecord
100
AcDbLinetypeTableRecord
  2
BYBLOCK
 70
     0
  3

 72
    65
 73
     0
 40
0.0
  0
LTYPE
  5
FE
100
AcDbSymbolTableRecord
100
AcDbLinetypeTableRecord
  2
BYLAYER
 70
     0
  3

 72
    65
 73
     0
 40
0.0
  0
LTYPE
  5
FF
100
AcDbSymbolTableRecord
100
AcDbLinetypeTableRecord
  2
CONTINUOUS
 70
     0
  3
Solid line
 72
    65
 73
     0
 40
0.0
  0
ENDTAB
  0
TABLE
  2
LAYER
  5
EE
100
AcDbSymbolTable
 70
     5
  0
LAYER
  5
FA
100
AcDbSymbolTableRecord
100
AcDbLayerTableRecord
  2
0
 70
     0
 62
     7
  6
CONTINUOUS
  0
LAYER
  5
12C
100
AcDbSymbolTableRecord
100
AcDbLayerTableRecord
  2
ALPHA
 70
     0
 62
   255
  6
CONTINUOUS
  0
LAYER
  5
12F
100
AcDbSymbolTableRecord
100
AcDbLayerTableRecord
  2
COTATION1
 70
     0
 62
     2
  6
CONTINUOUS
  0
LAYER
  5
13B
100
AcDbSymbolTableRecord
100
AcDbLayerTableRecord
  2
ASHADE
 70
     0
 62
     7
  6
CONTINUOUS
  0
LAYER
  5
13E
100
AcDbSymbolTableRecord
100
AcDbLayerTableRecord
  2
DEFPOINTS
 70
     0
 62
     7
  6
CONTINUOUS
  0
ENDTAB
  0
TABLE
  2
STYLE
  5
EF
100
AcDbSymbolTable
 70
     1
  0
STYLE
  5
FB
100
AcDbSymbolTableRecord
100
AcDbTextStyleTableRecord
  2
STANDARD
 70
     0
 40
0.0
 41
1.0
 50
0.0
 71
     0
 42
2.5
  3
txt
  4

  0
ENDTAB
  0
TABLE
  2
VIEW
  5
F2
100
AcDbSymbolTable
 70
     0
  0
ENDTAB
  0
TABLE
  2
UCS
  5
F3
100
AcDbSymbolTable
 70
     0
  0
ENDTAB
  0
TABLE
  2
APPID
  5
F5
100
AcDbSymbolTable
 70
     3
  0
APPID
  5
FC
100
AcDbSymbolTableRecord
100
AcDbRegAppTableRecord
  2
ACAD
 70
     0
  0
APPID
  5
127
100
AcDbSymbolTableRecord
100
AcDbRegAppTableRecord
  2
AVE_RENDER
 70
     0
  0
APPID
  5
128
100
AcDbSymbolTableRecord
100
AcDbRegAppTableRecord
  2
AVE_MATERIAL
 70
     0
  0
ENDTAB
  0
TABLE
  2
DIMSTYLE
  5
F6
100
AcDbSymbolTable
 70
     2
  0
DIMSTYLE
105
129
100
AcDbSymbolTableRecord
100
AcDbDimStyleTableRecord
  2
STANDARD
 70
     0
  3

  4

  5

  6

  7

 40
1.0
 41
0.18
 42
0.0625
 43
0.38
 44
0.18
 45
0.0
 46
0.0
 47
0.0
 48
0.0
140
0.18
141
0.09
142
0.0
143
25.4
144
1.0
145
0.0
146
1.0
147
0.09
 71
     0
 72
     0
 73
     1
 74
     1
 75
     0
 76
     0
 77
     0
 78
     0
170
     0
171
     2
172
     0
173
     0
174
     0
175
     0
176
     0
177
     0
178
     0
270
     2
271
     3
272
     3
273
     2
274
     2
340
FB
275
     0
280
     0
281
     0
282
     0
283
     1
284
    12
285
    12
286
    12
287
     5
288
     0
  0
DIMSTYLE
105
12A
102
{ACAD_REACTORS
330
1F86
330
1FBF
102
}
100
AcDbSymbolTableRecord
100
AcDbDimStyleTableRecord
  2
SC_STAND
 70
     0
  3

  4

  5

  6

  7

 40
1.0
 41
3.0
 42
0.0625
 43
0.38
 44
0.18
 45
0.01
 46
0.0
 47
0.0
 48
0.0
140
2.5
141
0.09
142
0.0
143
25.4
144
1.0
145
0.0
146
1.0
147
1.0
 71
     0
 72
     0
 73
     0
 74
     0
 75
     0
 76
     0
 77
     1
 78
    12
170
     0
171
     2
172
     1
173
     0
174
     0
175
     0
176
     0
177
     0
178
     0
270
     2
271
     3
272
     3
273
     2
274
     2
340
FB
275
     0
280
     0
281
     0
282
     0
283
     1
284
    12
285
    12
286
    12
287
     5
288
     0
  0
ENDTAB
  0
TABLE
  2
BLOCK_RECORD
  5
ED
100
AcDbSymbolTable
 70
     5
  0
BLOCK_RECORD
  5
103
100
AcDbSymbolTableRecord
100
AcDbBlockTableRecord
  2
*MODEL_SPACE
  0
BLOCK_RECORD
  5
100
100
AcDbSymbolTableRecord
100
AcDbBlockTableRecord
  2
*PAPER_SPACE
  0
BLOCK_RECORD
  5
108
100
AcDbSymbolTableRecord
100
AcDbBlockTableRecord
  2
AVE_RENDER
  0
BLOCK_RECORD
  5
109
100
AcDbSymbolTableRecord
100
AcDbBlockTableRecord
  2
AVE_GLOBAL
  0
BLOCK_RECORD
  5
10A
100
AcDbSymbolTableRecord
100
AcDbBlockTableRecord
  2
SCH_IS
  0
BLOCK_RECORD
  5
1F7A
100
AcDbSymbolTableRecord
100
AcDbBlockTableRecord
  2
*D3
  0
BLOCK_RECORD
  5
1FB3
100
AcDbSymbolTableRecord
100
AcDbBlockTableRecord
  2
*D4
  0
ENDTAB
  0
ENDSEC
  0
SECTION
  2
BLOCKS
  0
BLOCK
  5
141
100
AcDbEntity
  8
0
100
AcDbBlockBegin
  2
*MODEL_SPACE
 70
     0
 10
0.0
 20
0.0
 30
0.0
  3
*MODEL_SPACE
  1

  0
ENDBLK
  5
142
100
AcDbEntity
  8
0
100
AcDbBlockEnd
  0
BLOCK
  5
13F
100
AcDbEntity
 67
     1
  8
0
100
AcDbBlockBegin
  2
*PAPER_SPACE
 70
     0
 10
0.0
 20
0.0
 30
0.0
  3
*PAPER_SPACE
  1

  0
ENDBLK
  5
140
100
AcDbEntity
 67
     1
  8
0
100
AcDbBlockEnd
  0
BLOCK
  5
8D
100
AcDbEntity
  8
0
100
AcDbBlockBegin
  2
AVE_RENDER
 70
     0
 10
0.0
 20
0.0
 30
0.0
  3
AVE_RENDER
  1
AVE_RENDER
  0
ENDBLK
  5
8E
100
AcDbEntity
  8
0
100
AcDbBlockEnd
  0
BLOCK
  5
90
100
AcDbEntity
  8
0
100
AcDbBlockBegin
  2
AVE_GLOBAL
 70
     0
 10
0.0
 20
0.0
 30
0.0
  3
AVE_GLOBAL
  1
AVE_GLOBAL
  0
ENDBLK
  5
91
100
AcDbEntity
  8
0
100
AcDbBlockEnd
  0
BLOCK
  5
C9
100
AcDbEntity
  8
0
100
AcDbBlockBegin
  2
SCH_IS
 70
     0
 10
0.0
 20
0.0
 30
0.0
  3
SCH_IS
  1

  0
INSERT
  5
C0
100
AcDbEntity
  8
ASHADE
 62
     1
100
AcDbBlockReference
  2
AVE_RENDER
 10
0.0
 20
0.0
 30
0.0
1001
AVE_RENDER
1002
{
1070
     6
1000
Pref
1070
    50
1070
    20
1070
     1
1070
     0
1000

1070
    10
1070
     1
1070
    30
1040
25.4
1070
     1
1040
0.3
1040
0.7
1040
0.0
1040
10.0
1010
-1.0
1020
-1.0
1030
-1.0
1040
0.3
1070
    49
1070
     0
1070
     0
1010
1.0
1020
1.0
1030
1.0
1040
45.0
1070
     1
1070
     0
1000
WCS
1040
0.0
1002
}
  0
INSERT
  5
C1
100
AcDbEntity
  8
ASHADE
 62
     3
100
AcDbBlockReference
  2
AVE_RENDER
 10
0.0
 20
0.0
 30
0.0
1001
AVE_RENDER
1002
{
1070
     0
1000
Full Opt
1070
     0
1070
     1
1070
     1
1070
     1
1070
     0
1070
     0
1070
     0
1070
     1
1070
     1
1040
0.0001
1040
0.0001
1002
}
  0
INSERT
  5
C2
100
AcDbEntity
  8
ASHADE
 62
     4
100
AcDbBlockReference
  2
AVE_RENDER
 10
0.0
 20
0.0
 30
0.0
1001
AVE_RENDER
1002
{
1070
     0
1000
Quick Opt
1070
     0
1070
     1
1070
     1
1070
     1
1070
     0
1070
     0
1070
     1
1002
}
  0
INSERT
  5
C3
100
AcDbEntity
  8
ASHADE
 62
     5
100
AcDbBlockReference
  2
AVE_RENDER
 10
0.0
 20
0.0
 30
0.0
1001
AVE_RENDER
1002
{
1070
     1
1000
Scanl Opt
1070
     2
1070
     0
1070
     2
1040
2.0
1040
4.0
1070
     0
1070
     1
1070
     0
1040
0.03
1002
}
  0
INSERT
  5
C4
100
AcDbEntity
  8
ASHADE
 62
     6
100
AcDbBlockReference
  2
AVE_RENDER
 10
0.0
 20
0.0
 30
0.0
1001
AVE_RENDER
1002
{
1070
     2
1000
Raytr Opt
1070
     2
1070
     0
1070
     2
1040
2.0
1040
4.0
1070
     0
1070
     1
1070
     1
1040
0.03
1070
     3
1040
0.03
1002
}
  0
INSERT
  5
C5
100
AcDbEntity
  8
ASHADE
 62
     7
100
AcDbBlockReference
  2
AVE_RENDER
 10
0.0
 20
0.0
 30
0.0
1001
AVE_RENDER
1002
{
1070
     0
1000
RFile Opt
1070
     5
1070
   640
1070
   480
1070
 10000
1070
     3
1070
    32
1070
    24
1070
     0
1070
     0
1070
     0
1070
     1
1070
     0
1070
     0
1070
     0
1002
}
  0
INSERT
  5
C6
100
AcDbEntity
  8
ASHADE
 62
     8
100
AcDbBlockReference
  2
AVE_RENDER
 10
0.0
 20
0.0
 30
0.0
1001
AVE_RENDER
1002
{
1070
     0
1000
Fog Opt
1070
     0
1070
     0
1040
0.0
1040
1.0
1040
0.0
1040
1.0
1010
0.5
1020
0.5
1030
0.5
1002
}
  0
INSERT
  5
C7
100
AcDbEntity
  8
ASHADE
 62
     9
100
AcDbBlockReference
  2
AVE_RENDER
 10
0.0
 20
0.0
 30
0.0
1001
AVE_RENDER
1002
{
1070
     0
1000
BG Opt
1070
     0
1070
     1
1010
0.0
1020
0.0
1030
0.0
1010
1.0
1020
0.0
1030
0.0
1010
0.0
1020
1.0
1030
0.0
1010
0.0
1020
0.0
1030
1.0
1040
0.5
1040
0.33
1040
0.0
1000

1070
     1
1000

1070
     1
1070
     1
1040
1.0
1040
1.0
1040
0.0
1040
0.0
1070
     0
1002
}
  0
INSERT
  5
C8
100
AcDbEntity
  8
ASHADE
 62
     1
100
AcDbBlockReference
  2
AVE_GLOBAL
 10
0.0
 20
0.0
 30
0.0
1001
AVE_MATERIAL
1002
{
1000
*GLOBAL*
1000
1
1000
Finition globale.
1002
{
1002
}
1002
{
1070
    63
1002
{
1002
{
1010
-1.0
1020
-1.0
1030
-1.0
1002
}
1040
0.1
1000

1040
0.0
1002
{
1002
}
1040
0.0
1002
{
1002
}
1040
0.0
1002
}
1002
{
1002
{
1010
-1.0
1020
-1.0
1030
-1.0
1002
}
1040
0.7
1000

1040
0.0
1002
{
1002
}
1040
0.0
1002
{
1002
}
1040
0.0
1002
}
1002
{
1002
{
1010
-1.0
1020
-1.0
1030
-1.0
1002
}
1040
0.2
1000

1040
0.0
1002
{
1002
}
1040
0.0
1002
{
1002
}
1040
0.0
1002
}
1002
{
1070
     0
1002
{
1070
     1
1002
{
1040
1.0
1040
1.0
1000

1040
0.0
1002
{
1002
}
1040
0.0
1002
{
1002
}
1040
0.0
1002
}
1002
}
1040
1.0
1040
0.0
1040
0.0
1002
}
1002
{
1040
1.0
1040
1.0
1000

1040
0.0
1002
{
1002
}
1040
0.0
1002
{
1002
}
1040
0.0
1002
}
1002
{
1040
0.5
1040
1.0
1000

1040
0.0
1002
{
1002
}
1040
0.0
1002
{
1002
}
1040
0.0
1002
}
1002
{
1070
     0
1040
0.0
1002
{
1002
}
1040
1.0
1002
{
1002
}
1040
0.0
1002
}
1002
{
1040
0.0
1002
{
1002
{
1010
0.0
1020
0.0
1030
0.0
1002
}
1040
1.0
1000

1040
0.0
1002
{
1002
}
1040
0.0
1002
{
1002
}
1040
0.0
1002
}
1002
}
1002
{
1002
{
1070
     1
1002
{
1040
0.0
1040
1.0
1000

1040
0.0
1002
{
1002
}
1040
0.0
1002
{
1002
}
1040
0.0
1002
}
1002
}
1040
0.0
1002
{
1002
}
1010
1.0
1020
0.0
1030
0.0
1010
0.0
1020
1.0
1030
0.0
1010
0.0
1020
0.0
1030
1.0
1070
     0
1002
}
1002
{
1002
{
1040
1.0
1040
1.0
1002
{
1070
     1
1002
{
1040
1.0
1040
1.0
1000

1040
0.0
1002
{
1002
}
1040
0.0
1002
{
1002
}
1040
0.0
1002
}
1002
}
1002
}
1070
     0
1040
0.0
1002
{
1002
}
1002
}
1002
{
1002
}
1002
}
1002
{
1071
        3
1070
     3
1070
     0
1002
{
1070
     2
1070
     0
1070
     0
1040
0.0
1002
}
1070
     0
1070
     2
1002
{
1002
}
1002
}
1002
{
1040
8030.0
1040
190.300003
1040
0.305
1040
228.0
1040
545.0
1040
14.0
1040
17.4
1040
0.456
1002
}
1002
}
  0
ENDBLK
  5
CA
100
AcDbEntity
  8
0
100
AcDbBlockEnd
  0
BLOCK
  5
1FA8
100
AcDbEntity
  8
0
100
AcDbBlockBegin
  2
*D3
 70
     1
 10
0.0
 20
0.0
 30
0.0
  3
*D3
  1

  0
LINE
  5
1FA9
100
AcDbEntity
  8
0
  6
BYBLOCK
 62
     0
100
AcDbLine
 10
39.531522
 20
164.52584
 30
0.0
 11
39.531522
 21
175.95508
 31
0.0
  0
LINE
  5
1FAA
100
AcDbEntity
  8
0
  6
BYBLOCK
 62
     0
100
AcDbLine
 10
93.531671
 20
164.52584
 30
0.0
 11
93.531671
 21
175.95508
 31
0.0
  0
LINE
  5
1FAB
100
AcDbEntity
  8
0
  6
BYBLOCK
 62
     0
100
AcDbLine
 10
42.531522
 20
175.77508
 30
0.0
 11
90.531671
 21
175.77508
 31
0.0
  0
SOLID
  5
1FAC
100
AcDbEntity
  8
0
  6
BYBLOCK
 62
     0
100
AcDbTrace
 10
42.531522
 20
176.27508
 30
0.0
 11
42.531522
 21
175.27508
 31
0.0
 12
39.531522
 22
175.77508
 32
0.0
 13
39.531522
 23
175.77508
 33
0.0
  0
SOLID
  5
1FAD
100
AcDbEntity
  8
0
  6
BYBLOCK
 62
     0
100
AcDbTrace
 10
90.531671
 20
176.27508
 30
0.0
 11
90.531671
 21
175.27508
 31
0.0
 12
93.531671
 22
175.77508
 32
0.0
 13
93.531671
 23
175.77508
 33
0.0
  0
MTEXT
  5
1FAE
100
AcDbEntity
  8
0
  6
BYBLOCK
 62
     0
100
AcDbMText
 10
66.531596
 20
178.02508
 30
0.0
 40
2.5
 41
0.0
 71
     5
 72
     1
  1
\A1;54
  0
POINT
  5
1FAF
100
AcDbEntity
  8
DEFPOINTS
  6
BYBLOCK
 62
     0
100
AcDbPoint
 10
39.531522
 20
164.46334
 30
0.0
  0
POINT
  5
1FB0
100
AcDbEntity
  8
DEFPOINTS
  6
BYBLOCK
 62
     0
100
AcDbPoint
 10
93.531671
 20
164.46334
 30
0.0
  0
POINT
  5
1FB1
100
AcDbEntity
  8
DEFPOINTS
  6
BYBLOCK
 62
     0
100
AcDbPoint
 10
93.531671
 20
175.77508
 30
0.0
  0
ENDBLK
  5
1FB2
100
AcDbEntity
  8
0
100
AcDbBlockEnd
  0
BLOCK
  5
1FEC
100
AcDbEntity
  8
0
100
AcDbBlockBegin
  2
*D4
 70
     1
 10
0.0
 20
0.0
 30
0.0
  3
*D4
  1

  0
LINE
  5
1FED
100
AcDbEntity
  8
0
  6
BYBLOCK
 62
     0
100
AcDbLine
 10
90.756101
 20
166.005217
 30
0.0
 11
104.999393
 21
166.005217
 31
0.0
  0
LINE
  5
1FEE
100
AcDbEntity
  8
0
  6
BYBLOCK
 62
     0
100
AcDbLine
 10
90.835339
 20
35.882065
 30
0.0
 11
104.999393
 21
35.882065
 31
0.0
  0
LINE
  5
1FEF
100
AcDbEntity
  8
0
  6
BYBLOCK
 62
     0
100
AcDbLine
 10
104.819393
 20
163.005217
 30
0.0
 11
104.819393
 21
38.882065
 31
0.0
  0
SOLID
  5
1FF0
100
AcDbEntity
  8
0
  6
BYBLOCK
 62
     0
100
AcDbTrace
 10
104.319393
 20
163.005217
 30
0.0
 11
105.319393
 21
163.005217
 31
0.0
 12
104.819393
 22
166.005217
 32
0.0
 13
104.819393
 23
166.005217
 33
0.0
  0
SOLID
  5
1FF1
100
AcDbEntity
  8
0
  6
BYBLOCK
 62
     0
100
AcDbTrace
 10
104.319393
 20
38.882065
 30
0.0
 11
105.319393
 21
38.882065
 31
0.0
 12
104.819393
 22
35.882065
 32
0.0
 13
104.819393
 23
35.882065
 33
0.0
  0
MTEXT
  5
1FF2
100
AcDbEntity
  8
0
  6
BYBLOCK
 62
     0
100
AcDbMText
 10
102.569393
 20
100.943641
 30
0.0
 40
2.5
 41
0.0
 71
     5
 72
     1
  1
\A1;130
 11
0.0
 21
1.0
 31
0.0
  0
POINT
  5
1FF3
100
AcDbEntity
  8
DEFPOINTS
  6
BYBLOCK
 62
     0
100
AcDbPoint
 10
90.693601
 20
166.005217
 30
0.0
  0
POINT
  5
1FF4
100
AcDbEntity
  8
DEFPOINTS
  6
BYBLOCK
 62
     0
100
AcDbPoint
 10
90.772839
 20
35.882065
 30
0.0
  0
POINT
  5
1FF5
100
AcDbEntity
  8
DEFPOINTS
  6
BYBLOCK
 62
     0
100
AcDbPoint
 10
104.819393
 20
35.882065
 30
0.0
  0
ENDBLK
  5
1FF6
100
AcDbEntity
  8
0
100
AcDbBlockEnd
  0
ENDSEC
  0
SECTION
  2
ENTITIES
  0
INSERT
  5
CC
100
AcDbEntity
  8
0
100
AcDbBlockReference
  2
SCH_IS
 10
-68.718396
 20
-140.042541
 30
0.0
  0
INSERT
  5
EC
100
AcDbEntity
  8
COTATION1
100
AcDbBlockReference
  2
SCH_IS
 10
0.0
 20
0.0
 30
0.0
  0
SPLINE
  5
1BF0
100
AcDbEntity
  8
ALPHA
 62
     7
100
AcDbSpline
210
0.0
220
0.0
230
1.0
 70
     8
 71
     3
 72
    17
 73
    13
 74
     0
 42
0.0000001
 43
0.0000001
 40
0.0
 40
0.0
 40
0.0
 40
0.0
 40
1.0
 40
1.0
 40
1.0
 40
2.0
 40
2.0
 40
2.0
 40
3.0
 40
3.0
 40
3.0
 40
4.0
 40
4.0
 40
4.0
 40
4.0
 10
66.53176862883023
 20
82.1963786700194
 30
0.0
 10
75.9465255732747
 20
82.16382251767567
 30
0.0
 10
83.60566185799692
 20
89.76955982236317
 30
0.0
 10
83.63839026511497
 20
99.18483353113053
 30
0.0
 10
83.671118672233
 20
108.5997627303492
 30
0.0
 10
76.06503685799691
 20
116.2583822507485
 30
0.0
 10
66.65027991355245
 20
116.2909384030923
 30
0.0
 10
57.23483395001078
 20
116.324011319759
 30
0.0
 10
49.57604217483718
 20
108.7177572507485
 30
0.0
 10
49.54331376771913
 20
99.30300030630414
 30
0.0
 10
49.54331376771913
 20
99.283191007259
 30
0.0
 10
49.54262474862191
 20
99.26355396298816
 30
0.0
 10
49.54262474862191
 20
99.24322789962012
 30
0.0
  0
CIRCLE
  5
1BF1
100
AcDbEntity
  8
ALPHA
 62
     7
100
AcDbCircle
 10
66.531596
 20
156.545157
 30
0.0
 40
3.843176
  0
CIRCLE
  5
1BF2
100
AcDbEntity
  8
ALPHA
 62
     7
100
AcDbCircle
 10
66.531596
 20
45.243079
 30
0.0
 40
3.843176
  0
SPLINE
  5
1BF3
100
AcDbEntity
  8
ALPHA
 62
     7
100
AcDbSpline
210
0.0
220
0.0
230
-1.0
 70
     8
 71
     3
 72
    11
 73
     7
 74
     0
 42
0.0000001
 43
0.0000001
 40
0.0
 40
0.0
 40
0.0
 40
0.0
 40
1.0
 40
1.0
 40
1.0
 40
2.0
 40
2.0
 40
2.0
 40
2.0
 10
79.516333515983
 20
102.7839247854708
 30
0.0
 10
77.56089731806636
 20
109.9226793970159
 30
0.0
 10
70.18873748733719
 20
114.1244901066513
 30
0.0
 10
63.05015513056636
 20
112.1690539087347
 30
0.0
 10
57.5328347095594
 20
110.6580350285263
 30
0.0
 10
53.58337724428163
 20
105.810785679568
 30
0.0
 10
53.2164745750108
 20
100.1020902043076
 30
0.0
  0
SPLINE
  5
1BF4
100
AcDbEntity
  8
ALPHA
 62
     7
100
AcDbSpline
210
0.0
220
0.0
230
-1.0
 70
     8
 71
     3
 72
     8
 73
     4
 74
     0
 42
0.0000001
 43
0.0000001
 40
0.0
 40
0.0
 40
0.0
 40
0.0
 40
1.0
 40
1.0
 40
1.0
 40
1.0
 10
82.28997989185108
 20
95.57402895213746
 30
0.0
 10
73.04162105938579
 20
96.19535192305761
 30
0.0
 10
63.76191185799691
 20
96.19741898034929
 30
0.0
 10
54.5128640064344
 20
95.5781630667208
 30
0.0
  0
SPLINE
  5
1BF5
100
AcDbEntity
  8
ALPHA
 62
     7
100
AcDbSpline
210
0.0
220
0.0
230
1.0
 70
     8
 71
     3
 72
    11
 73
     7
 74
     0
 42
0.0000001
 43
0.0000001
 40
0.0
 40
0.0
 40
0.0
 40
0.0
 40
1.0
 40
1.0
 40
1.0
 40
2.0
 40
2.0
 40
2.0
 40
2.0
 10
53.2164745750108
 20
98.38901647383886
 30
0.0
 10
53.68845265660802
 20
91.00255949684234
 30
0.0
 10
60.05843421042746
 20
85.39773365048816
 30
0.0
 10
67.44506344219828
 20
85.86885045821388
 30
0.0
 10
73.1559982295247
 20
86.23420283451594
 30
0.0
 10
78.00462561667746
 20
90.18434931889094
 30
0.0
 10
79.516333515983
 20
95.70304777809232
 30
0.0
  0
SPLINE
  5
1BF6
100
AcDbEntity
  8
ALPHA
 62
     7
100
AcDbSpline
210
0.0
220
0.0
230
1.0
 70
     8
 71
     3
 72
     8
 73
     4
 74
     0
 42
0.0000001
 43
0.0000001
 40
0.0
 40
0.0
 40
0.0
 40
0.0
 40
1.0
 40
1.0
 40
1.0
 40
1.0
 10
54.5128640064344
 20
102.9093262611652
 30
0.0
 10
63.76191185799691
 20
102.2904148570853
 30
0.0
 10
73.04162105938579
 20
102.2917928952798
 30
0.0
 10
82.28997989185108
 20
102.9136326305228
 30
0.0
  0
LINE
  5
1BF7
100
AcDbEntity
  8
ALPHA
 62
     7
100
AcDbLine
 10
42.369591
 20
166.005217
 30
0.0
 11
90.693601
 21
166.005217
 31
0.0
  0
LINE
  5
1BF8
100
AcDbEntity
  8
ALPHA
 62
     7
100
AcDbLine
 10
71.664272
 20
163.935748
 30
0.0
 11
61.398921
 21
163.935748
 31
0.0
  0
LINE
  5
1BF9
100
AcDbEntity
  8
ALPHA
 62
     7
100
AcDbLine
 10
65.394198
 20
158.515923
 30
0.0
 11
67.669339
 21
158.515923
 31
0.0
  0
LINE
  5
1BFA
100
AcDbEntity
  8
ALPHA
 62
     7
100
AcDbLine
 10
67.669339
 20
154.574562
 30
0.0
 11
65.394198
 21
154.574562
 31
0.0
  0
LINE
  5
1BFB
100
AcDbEntity
  8
ALPHA
 62
     7
100
AcDbLine
 10
73.479148
 20
148.957851
 30
0.0
 11
59.584734
 21
148.957851
 31
0.0
  0
LINE
  5
1BFC
100
AcDbEntity
  8
ALPHA
 62
     7
100
AcDbLine
 10
70.719627
 20
138.955533
 30
0.0
 11
62.343222
 21
138.955533
 31
0.0
  0
LINE
  5
1BFD
100
AcDbEntity
  8
ALPHA
 62
     7
100
AcDbLine
 10
71.704924
 20
137.641056
 30
0.0
 11
61.358269
 21
137.641056
 31
0.0
  0
LINE
  5
1BFE
100
AcDbEntity
  8
ALPHA
 62
     7
100
AcDbLine
 10
72.025318
 20
137.132905
 30
0.0
 11
61.03753
 21
137.132905
 31
0.0
  0
LINE
  5
1BFF
100
AcDbEntity
  8
ALPHA
 62
     7
100
AcDbLine
 10
74.41897
 20
137.028002
 30
0.0
 11
65.152352
 21
137.028002
 31
0.0
  0
LINE
  5
1C00
100
AcDbEntity
  8
ALPHA
 62
     7
100
AcDbLine
 10
44.557227
 20
136.44268
 30
0.0
 11
88.505966
 21
136.44268
 31
0.0
  0
LINE
  5
1C01
100
AcDbEntity
  8
ALPHA
 62
     7
100
AcDbLine
 10
44.352244
 20
128.855202
 30
0.0
 11
84.463491
 21
128.855202
 31
0.0
  0
LINE
  5
1C02
100
AcDbEntity
  8
ALPHA
 62
     7
100
AcDbLine
 10
92.546374
 20
121.415518
 30
0.0
 11
48.400231
 21
121.415518
 31
0.0
  0
POLYLINE
  5
1C03
100
AcDbEntity
  8
ALPHA
 62
     7
100
AcDb2dPolyline
 66
     1
 10
0.0
 20
0.0
 30
0.0
  0
VERTEX
  5
1C04
100
AcDbEntity
  8
ALPHA
 62
     7
100
AcDbVertex
100
AcDb2dVertex
 10
71.182648
 20
156.545157
 30
0.0
  0
VERTEX
  5
1C05
100
AcDbEntity
  8
ALPHA
 62
     7
100
AcDbVertex
100
AcDb2dVertex
 10
71.080328
 20
157.511334
 30
0.0
  0
VERTEX
  5
1C06
100
AcDbEntity
  8
ALPHA
 62
     7
100
AcDbVertex
100
AcDb2dVertex
 10
70.778193
 20
158.434791
 30
0.0
  0
VERTEX
  5
1C07
100
AcDbEntity
  8
ALPHA
 62
     7
100
AcDbVertex
100
AcDb2dVertex
 10
70.291401
 20
159.27195
 30
0.0
  0
VERTEX
  5
1C08
100
AcDbEntity
  8
ALPHA
 62
     7
100
AcDbVertex
100
AcDb2dVertex
 10
69.644757
 20
159.985946
 30
0.0
  0
VERTEX
  5
1C09
100
AcDbEntity
  8
ALPHA
 62
     7
100
AcDbVertex
100
AcDb2dVertex
 10
68.862031
 20
160.553181
 30
0.0
  0
VERTEX
  5
1C0A
100
AcDbEntity
  8
ALPHA
 62
     7
100
AcDbVertex
100
AcDb2dVertex
 10
67.974575
 20
160.947989
 30
0.0
  0
VERTEX
  5
1C0B
100
AcDbEntity
  8
ALPHA
 62
     7
100
AcDbVertex
100
AcDb2dVertex
 10
67.024762
 20
161.150733
 30
0.0
  0
VERTEX
  5
1C0C
100
AcDbEntity
  8
ALPHA
 62
     7
100
AcDbVertex
100
AcDb2dVertex
 10
66.053934
 20
161.151938
 30
0.0
  0
VERTEX
  5
1C0D
100
AcDbEntity
  8
ALPHA
 62
     7
100
AcDbVertex
100
AcDb2dVertex
 10
65.102743
 20
160.952812
 30
0.0
  0
VERTEX
  5
1C0E
100
AcDbEntity
  8
ALPHA
 62
     7
100
AcDbVertex
100
AcDb2dVertex
 10
64.213908
 20
160.560588
 30
0.0
  0
VERTEX
  5
1C0F
100
AcDbEntity
  8
ALPHA
 62
     7
100
AcDbVertex
100
AcDb2dVertex
 10
63.428427
 20
159.994731
 30
0.0
  0
VERTEX
  5
1C10
100
AcDbEntity
  8
ALPHA
 62
     7
100
AcDbVertex
100
AcDb2dVertex
 10
62.778682
 20
159.280735
 30
0.0
  0
VERTEX
  5
1C11
100
AcDbEntity
  8
ALPHA
 62
     7
100
AcDbVertex
100
AcDb2dVertex
 10
62.288445
 20
158.441165
 30
0.0
  0
VERTEX
  5
1C12
100
AcDbEntity
  8
ALPHA
 62
     7
100
AcDbVertex
100
AcDb2dVertex
 10
61.983554
 20
157.514779
 30
0.0
  0
VERTEX
  5
1C13
100
AcDbEntity
  8
ALPHA
 62
     7
100
AcDbVertex
100
AcDb2dVertex
 10
61.880201
 20
156.545157
 30
0.0
  0
SEQEND
  5
1C14
100
AcDbEntity
  8
ALPHA
 62
     7
  0
POLYLINE
  5
1C15
100
AcDbEntity
  8
ALPHA
 62
     7
100
AcDb2dPolyline
 66
     1
 10
0.0
 20
0.0
 30
0.0
  0
VERTEX
  5
1C16
100
AcDbEntity
  8
ALPHA
 62
     7
100
AcDbVertex
100
AcDb2dVertex
 10
61.880201
 20
156.545157
 30
0.0
  0
VERTEX
  5
1C17
100
AcDbEntity
  8
ALPHA
 62
     7
100
AcDbVertex
100
AcDb2dVertex
 10
61.982865
 20
155.57898
 30
0.0
  0
VERTEX
  5
1C18
100
AcDbEntity
  8
ALPHA
 62
     7
100
AcDbVertex
100
AcDb2dVertex
 10
62.284999
 20
154.655694
 30
0.0
  0
VERTEX
  5
1C19
100
AcDbEntity
  8
ALPHA
 62
     7
100
AcDbVertex
100
AcDb2dVertex
 10
62.771791
 20
153.818536
 30
0.0
  0
VERTEX
  5
1C1A
100
AcDbEntity
  8
ALPHA
 62
     7
100
AcDbVertex
100
AcDb2dVertex
 10
63.418091
 20
153.10454
 30
0.0
  0
VERTEX
  5
1C1B
100
AcDbEntity
  8
ALPHA
 62
     7
100
AcDbVertex
100
AcDb2dVertex
 10
64.200817
 20
152.537305
 30
0.0
  0
VERTEX
  5
1C1C
100
AcDbEntity
  8
ALPHA
 62
     7
100
AcDbVertex
100
AcDb2dVertex
 10
65.088274
 20
152.142497
 30
0.0
  0
VERTEX
  5
1C1D
100
AcDbEntity
  8
ALPHA
 62
     7
100
AcDbVertex
100
AcDb2dVertex
 10
66.038431
 20
151.940097
 30
0.0
  0
VERTEX
  5
1C1E
100
AcDbEntity
  8
ALPHA
 62
     7
100
AcDbVertex
100
AcDb2dVertex
 10
67.009259
 20
151.938375
 30
0.0
  0
VERTEX
  5
1C1F
100
AcDbEntity
  8
ALPHA
 62
     7
100
AcDbVertex
100
AcDb2dVertex
 10
67.96045
 20
152.137674
 30
0.0
  0
VERTEX
  5
1C20
100
AcDbEntity
  8
ALPHA
 62
     7
100
AcDbVertex
100
AcDb2dVertex
 10
68.849284
 20
152.529898
 30
0.0
  0
VERTEX
  5
1C21
100
AcDbEntity
  8
ALPHA
 62
     7
100
AcDbVertex
100
AcDb2dVertex
 10
69.635455
 20
153.095755
 30
0.0
  0
VERTEX
  5
1C22
100
AcDbEntity
  8
ALPHA
 62
     7
100
AcDbVertex
100
AcDb2dVertex
 10
70.2852
 20
153.810095
 30
0.0
  0
VERTEX
  5
1C23
100
AcDbEntity
  8
ALPHA
 62
     7
100
AcDbVertex
100
AcDb2dVertex
 10
70.774748
 20
154.649148
 30
0.0
  0
VERTEX
  5
1C24
100
AcDbEntity
  8
ALPHA
 62
     7
100
AcDbVertex
100
AcDb2dVertex
 10
71.079639
 20
155.575707
 30
0.0
  0
VERTEX
  5
1C25
100
AcDbEntity
  8
ALPHA
 62
     7
100
AcDbVertex
100
AcDb2dVertex
 10
71.182648
 20
156.545157
 30
0.0
  0
SEQEND
  5
1C26
100
AcDbEntity
  8
ALPHA
 62
     7
  0
LINE
  5
1C27
100
AcDbEntity
  8
ALPHA
 62
     7
100
AcDbLine
 10
63.069792
 20
100.425929
 30
0.0
 11
66.591024
 21
100.425929
 31
0.0
  0
LINE
  5
1C28
100
AcDbEntity
  8
ALPHA
 62
     7
100
AcDbLine
 10
63.069792
 20
98.061043
 30
0.0
 11
66.591024
 21
98.061043
 31
0.0
  0
POLYLINE
  5
1C29
100
AcDbEntity
  8
ALPHA
 62
     7
100
AcDb2dPolyline
 66
     1
 10
0.0
 20
0.0
 30
0.0
  0
VERTEX
  5
1C2A
100
AcDbEntity
  8
ALPHA
 62
     7
100
AcDbVertex
100
AcDb2dVertex
 10
71.182648
 20
45.243079
 30
0.0
  0
VERTEX
  5
1C2B
100
AcDbEntity
  8
ALPHA
 62
     7
100
AcDbVertex
100
AcDb2dVertex
 10
71.080328
 20
46.209772
 30
0.0
  0
VERTEX
  5
1C2C
100
AcDbEntity
  8
ALPHA
 62
     7
100
AcDbVertex
100
AcDb2dVertex
 10
70.778193
 20
47.132369
 30
0.0
  0
VERTEX
  5
1C2D
100
AcDbEntity
  8
ALPHA
 62
     7
100
AcDbVertex
100
AcDb2dVertex
 10
70.291401
 20
47.969527
 30
0.0
  0
VERTEX
  5
1C2E
100
AcDbEntity
  8
ALPHA
 62
     7
100
AcDbVertex
100
AcDb2dVertex
 10
69.644757
 20
48.68404
 30
0.0
  0
VERTEX
  5
1C2F
100
AcDbEntity
  8
ALPHA
 62
     7
100
AcDbVertex
100
AcDb2dVertex
 10
68.862031
 20
49.251447
 30
0.0
  0
VERTEX
  5
1C30
100
AcDbEntity
  8
ALPHA
 62
     7
100
AcDbVertex
100
AcDb2dVertex
 10
67.974575
 20
49.645911
 30
0.0
  0
VERTEX
  5
1C31
100
AcDbEntity
  8
ALPHA
 62
     7
100
AcDbVertex
100
AcDb2dVertex
 10
67.024762
 20
49.848482
 30
0.0
  0
VERTEX
  5
1C32
100
AcDbEntity
  8
ALPHA
 62
     7
100
AcDbVertex
100
AcDb2dVertex
 10
66.053934
 20
49.850549
 30
0.0
  0
VERTEX
  5
1C33
100
AcDbEntity
  8
ALPHA
 62
     7
100
AcDbVertex
100
AcDb2dVertex
 10
65.102743
 20
49.650734
 30
0.0
  0
VERTEX
  5
1C34
100
AcDbEntity
  8
ALPHA
 62
     7
100
AcDbVertex
100
AcDb2dVertex
 10
64.213908
 20
49.258337
 30
0.0
  0
VERTEX
  5
1C35
100
AcDbEntity
  8
ALPHA
 62
     7
100
AcDbVertex
100
AcDb2dVertex
 10
63.428427
 20
48.692653
 30
0.0
  0
VERTEX
  5
1C36
100
AcDbEntity
  8
ALPHA
 62
     7
100
AcDbVertex
100
AcDb2dVertex
 10
62.778682
 20
47.978485
 30
0.0
  0
VERTEX
  5
1C37
100
AcDbEntity
  8
ALPHA
 62
     7
100
AcDbVertex
100
AcDb2dVertex
 10
62.288445
 20
47.139259
 30
0.0
  0
VERTEX
  5
1C38
100
AcDbEntity
  8
ALPHA
 62
     7
100
AcDbVertex
100
AcDb2dVertex
 10
61.983554
 20
46.212529
 30
0.0
  0
VERTEX
  5
1C39
100
AcDbEntity
  8
ALPHA
 62
     7
100
AcDbVertex
100
AcDb2dVertex
 10
61.880201
 20
45.243079
 30
0.0
  0
SEQEND
  5
1C3A
100
AcDbEntity
  8
ALPHA
 62
     7
  0
POLYLINE
  5
1C3B
100
AcDbEntity
  8
ALPHA
 62
     7
100
AcDb2dPolyline
 66
     1
 10
0.0
 20
0.0
 30
0.0
  0
VERTEX
  5
1C3C
100
AcDbEntity
  8
ALPHA
 62
     7
100
AcDbVertex
100
AcDb2dVertex
 10
61.880201
 20
45.243079
 30
0.0
  0
VERTEX
  5
1C3D
100
AcDbEntity
  8
ALPHA
 62
     7
100
AcDbVertex
100
AcDb2dVertex
 10
61.982865
 20
44.276729
 30
0.0
  0
VERTEX
  5
1C3E
100
AcDbEntity
  8
ALPHA
 62
     7
100
AcDbVertex
100
AcDb2dVertex
 10
62.284999
 20
43.353444
 30
0.0
  0
VERTEX
  5
1C3F
100
AcDbEntity
  8
ALPHA
 62
     7
100
AcDbVertex
100
AcDb2dVertex
 10
62.771791
 20
42.516286
 30
0.0
  0
VERTEX
  5
1C40
100
AcDbEntity
  8
ALPHA
 62
     7
100
AcDbVertex
100
AcDb2dVertex
 10
63.418091
 20
41.802806
 30
0.0
  0
VERTEX
  5
1C41
100
AcDbEntity
  8
ALPHA
 62
     7
100
AcDbVertex
100
AcDb2dVertex
 10
64.200817
 20
41.235055
 30
0.0
  0
VERTEX
  5
1C42
100
AcDbEntity
  8
ALPHA
 62
     7
100
AcDbVertex
100
AcDb2dVertex
 10
65.088274
 20
40.840591
 30
0.0
  0
VERTEX
  5
1C43
100
AcDbEntity
  8
ALPHA
 62
     7
100
AcDbVertex
100
AcDb2dVertex
 10
66.038431
 20
40.638364
 30
0.0
  0
VERTEX
  5
1C44
100
AcDbEntity
  8
ALPHA
 62
     7
100
AcDbVertex
100
AcDb2dVertex
 10
67.009259
 20
40.636297
 30
0.0
  0
VERTEX
  5
1C45
100
AcDbEntity
  8
ALPHA
 62
     7
100
AcDbVertex
100
AcDb2dVertex
 10
67.96045
 20
40.835768
 30
0.0
  0
VERTEX
  5
1C46
100
AcDbEntity
  8
ALPHA
 62
     7
100
AcDbVertex
100
AcDb2dVertex
 10
68.849284
 20
41.227475
 30
0.0
  0
VERTEX
  5
1C47
100
AcDbEntity
  8
ALPHA
 62
     7
100
AcDbVertex
100
AcDb2dVertex
 10
69.635455
 20
41.793849
 30
0.0
  0
VERTEX
  5
1C48
100
AcDbEntity
  8
ALPHA
 62
     7
100
AcDbVertex
100
AcDb2dVertex
 10
70.2852
 20
42.508017
 30
0.0
  0
VERTEX
  5
1C49
100
AcDbEntity
  8
ALPHA
 62
     7
100
AcDbVertex
100
AcDb2dVertex
 10
70.774748
 20
43.347243
 30
0.0
  0
VERTEX
  5
1C4A
100
AcDbEntity
  8
ALPHA
 62
     7
100
AcDbVertex
100
AcDb2dVertex
 10
71.079639
 20
44.273284
 30
0.0
  0
VERTEX
  5
1C4B
100
AcDbEntity
  8
ALPHA
 62
     7
100
AcDbVertex
100
AcDb2dVertex
 10
71.182648
 20
45.243079
 30
0.0
  0
SEQEND
  5
1C4C
100
AcDbEntity
  8
ALPHA
 62
     7
  0
POLYLINE
  5
1C4D
100
AcDbEntity
  8
ALPHA
 62
     7
100
AcDb2dPolyline
 66
     1
 10
0.0
 20
0.0
 30
0.0
  0
VERTEX
  5
1C4E
100
AcDbEntity
  8
ALPHA
 62
     7
100
AcDbVertex
100
AcDb2dVertex
 10
66.591024
 20
81.998802
 30
0.0
  0
VERTEX
  5
1C4F
100
AcDbEntity
  8
ALPHA
 62
     7
100
AcDbVertex
100
AcDb2dVertex
 10
66.550372
 20
82.026019
 30
0.0
  0
VERTEX
  5
1C50
100
AcDbEntity
  8
ALPHA
 62
     7
100
AcDbVertex
100
AcDb2dVertex
 10
66.529013
 20
82.060642
 30
0.0
  0
VERTEX
  5
1C51
100
AcDbEntity
  8
ALPHA
 62
     7
100
AcDbVertex
100
AcDb2dVertex
 10
66.529702
 20
82.104739
 30
0.0
  0
VERTEX
  5
1C52
100
AcDbEntity
  8
ALPHA
 62
     7
100
AcDbVertex
100
AcDb2dVertex
 10
66.532458
 20
82.150903
 30
0.0
  0
VERTEX
  5
1C53
100
AcDbEntity
  8
ALPHA
 62
     7
100
AcDbVertex
100
AcDb2dVertex
 10
66.531769
 20
82.196379
 30
0.0
  0
SEQEND
  5
1C54
100
AcDbEntity
  8
ALPHA
 62
     7
  0
LINE
  5
1C55
100
AcDbEntity
  8
ALPHA
 62
     7
100
AcDbLine
 10
57.564185
 20
77.072144
 30
0.0
 11
84.662273
 21
77.072144
 31
0.0
  0
LINE
  5
1C56
100
AcDbEntity
  8
ALPHA
 62
     7
100
AcDbLine
 10
75.104544
 20
76.924177
 30
0.0
 11
57.712324
 21
76.924177
 31
0.0
  0
LINE
  5
1C57
100
AcDbEntity
  8
ALPHA
 62
     7
100
AcDbLine
 10
75.104544
 20
69.090374
 30
0.0
 11
57.712324
 21
69.090374
 31
0.0
  0
LINE
  5
1C58
100
AcDbEntity
  8
ALPHA
 62
     7
100
AcDbLine
 10
75.499008
 20
68.942235
 30
0.0
 11
57.564185
 21
68.942235
 31
0.0
  0
POLYLINE
  5
1C59
100
AcDbEntity
  8
ALPHA
 62
     7
100
AcDb2dPolyline
 66
     1
 10
0.0
 20
0.0
 30
0.0
  0
VERTEX
  5
1C5A
100
AcDbEntity
  8
ALPHA
 62
     7
100
AcDbVertex
100
AcDb2dVertex
 10
68.995012
 20
67.783994
 30
0.0
  0
VERTEX
  5
1C5B
100
AcDbEntity
  8
ALPHA
 62
     7
100
AcDbVertex
100
AcDb2dVertex
 10
67.352735
 20
67.76229
 30
0.0
  0
VERTEX
  5
1C5C
100
AcDbEntity
  8
ALPHA
 62
     7
100
AcDbVertex
100
AcDb2dVertex
 10
65.710458
 20
67.76229
 30
0.0
  0
VERTEX
  5
1C5D
100
AcDbEntity
  8
ALPHA
 62
     7
100
AcDbVertex
100
AcDb2dVertex
 10
64.067836
 20
67.783994
 30
0.0
  0
SEQEND
  5
1C5E
100
AcDbEntity
  8
ALPHA
 62
     7
  0
LINE
  5
1C5F
100
AcDbEntity
  8
ALPHA
 62
     7
100
AcDbLine
 10
48.402298
 20
57.659203
 30
0.0
 11
84.662273
 21
57.659203
 31
0.0
  0
LINE
  5
1C60
100
AcDbEntity
  8
ALPHA
 62
     7
100
AcDbLine
 10
59.622974
 20
53.126491
 30
0.0
 11
73.440563
 21
53.126491
 31
0.0
  0
LINE
  5
1C61
100
AcDbEntity
  8
ALPHA
 62
     7
100
AcDbLine
 10
65.394198
 20
47.214018
 30
0.0
 11
67.669339
 21
47.214018
 31
0.0
  0
LINE
  5
1C62
100
AcDbEntity
  8
ALPHA
 62
     7
100
AcDbLine
 10
67.669339
 20
43.272484
 30
0.0
 11
65.394198
 21
43.272484
 31
0.0
  0
LINE
  5
1C63
100
AcDbEntity
  8
ALPHA
 62
     7
100
AcDbLine
 10
61.412357
 20
37.360011
 30
0.0
 11
71.650492
 21
37.360011
 31
0.0
  0
LINE
  5
1C64
100
AcDbEntity
  8
ALPHA
 62
     7
100
AcDbLine
 10
43.473056
 20
35.733926
 30
0.0
 11
89.590482
 21
35.733926
 31
0.0
  0
SPLINE
  5
1C65
100
AcDbEntity
  8
ALPHA
 62
     7
100
AcDbSpline
210
0.0
220
0.0
230
-1.0
 70
     8
 71
     3
 72
     8
 73
     4
 74
     0
 42
0.0000001
 43
0.0000001
 40
0.0
 40
0.0
 40
0.0
 40
0.0
 40
1.0
 40
1.0
 40
1.0
 40
1.0
 10
53.9950661548719
 20
102.5036662676756
 30
0.0
 10
53.86690860278857
 20
101.7824355276582
 30
0.0
 10
53.78215925383024
 20
101.0543145966687
 30
0.0
 10
53.74012908889969
 20
100.3234375892902
 30
0.0
  0
LINE
  5
1C66
100
AcDbEntity
  8
ALPHA
 62
     7
100
AcDbLine
 10
48.400231
 20
99.243228
 30
0.0
 11
48.400231
 21
128.854685
 31
0.0
  0
LINE
  5
1C67
100
AcDbEntity
  8
ALPHA
 62
     7
100
AcDbLine
 10
47.611993
 20
99.243228
 30
0.0
 11
47.611993
 21
128.855202
 31
0.0
  0
LINE
  5
1C68
100
AcDbEntity
  8
ALPHA
 62
     7
100
AcDbLine
 10
46.921941
 20
98.964864
 30
0.0
 11
46.921941
 21
101.11581
 31
0.0
  0
LINE
  5
1C69
100
AcDbEntity
  8
ALPHA
 62
     7
100
AcDbLine
 10
41.009812
 20
101.11581
 30
0.0
 11
41.009812
 21
98.963486
 31
0.0
  0
LINE
  5
1C6A
100
AcDbEntity
  8
ALPHA
 62
     7
100
AcDbLine
 10
39.531522
 20
37.852315
 30
0.0
 11
39.531522
 21
164.241672
 31
0.0
  0
CIRCLE
  5
1C6B
100
AcDbEntity
  8
ALPHA
 62
     7
100
AcDbCircle
 10
49.286826
 20
45.243079
 30
0.0
 40
3.842832
  0
POLYLINE
  5
1C6C
100
AcDbEntity
  8
ALPHA
 62
     7
100
AcDb2dPolyline
 66
     1
 10
0.0
 20
0.0
 30
0.0
  0
VERTEX
  5
1C6D
100
AcDbEntity
  8
ALPHA
 62
     7
100
AcDbVertex
100
AcDb2dVertex
 10
46.884734
 20
98.964864
 30
0.0
  0
VERTEX
  5
1C6E
100
AcDbEntity
  8
ALPHA
 62
     7
100
AcDbVertex
100
AcDb2dVertex
 10
48.709601
 20
98.963486
 30
0.0
  0
VERTEX
  5
1C6F
100
AcDbEntity
  8
ALPHA
 62
     7
100
AcDbVertex
100
AcDb2dVertex
 10
52.372082
 20
98.962797
 30
0.0
  0
SEQEND
  5
1C70
100
AcDbEntity
  8
ALPHA
 62
     7
  0
POLYLINE
  5
1C71
100
AcDbEntity
  8
ALPHA
 62
     7
100
AcDb2dPolyline
 66
     1
 10
0.0
 20
0.0
 30
0.0
  0
VERTEX
  5
1C72
100
AcDbEntity
  8
ALPHA
 62
     7
100
AcDbVertex
100
AcDb2dVertex
 10
52.367948
 20
98.95539
 30
0.0
  0
VERTEX
  5
1C73
100
AcDbEntity
  8
ALPHA
 62
     7
100
AcDbVertex
100
AcDb2dVertex
 10
48.655857
 20
98.956596
 30
0.0
  0
VERTEX
  5
1C74
100
AcDbEntity
  8
ALPHA
 62
     7
100
AcDbVertex
100
AcDb2dVertex
 10
46.80653
 20
98.957285
 30
0.0
  0
SEQEND
  5
1C75
100
AcDbEntity
  8
ALPHA
 62
     7
  0
LINE
  5
1C76
100
AcDbEntity
  8
ALPHA
 62
     7
100
AcDbLine
 10
48.400231
 20
99.243228
 30
0.0
 11
52.795139
 21
99.243228
 31
0.0
  0
LINE
  5
1C77
100
AcDbEntity
  8
ALPHA
 62
     7
100
AcDbLine
 10
55.9977
 20
78.205408
 30
0.0
 11
45.19767
 21
78.205408
 31
0.0
  0
POLYLINE
  5
1C78
100
AcDbEntity
  8
ALPHA
 62
     7
100
AcDb2dPolyline
 66
     1
 10
0.0
 20
0.0
 30
0.0
  0
VERTEX
  5
1C79
100
AcDbEntity
  8
ALPHA
 62
     7
100
AcDbVertex
100
AcDb2dVertex
 10
62.560607
 20
81.460334
 30
0.0
  0
VERTEX
  5
1C7A
100
AcDbEntity
  8
ALPHA
 62
     7
100
AcDbVertex
100
AcDb2dVertex
 10
57.234145
 20
81.455683
 30
0.0
  0
VERTEX
  5
1C7B
100
AcDbEntity
  8
ALPHA
 62
     7
100
AcDbVertex
100
AcDb2dVertex
 10
51.924564
 20
81.454305
 30
0.0
  0
VERTEX
  5
1C7C
100
AcDbEntity
  8
ALPHA
 62
     7
100
AcDbVertex
100
AcDb2dVertex
 10
46.642543
 20
81.456372
 30
0.0
  0
VERTEX
  5
1C7D
100
AcDbEntity
  8
ALPHA
 62
     7
100
AcDbVertex
100
AcDb2dVertex
 10
41.396007
 20
81.461023
 30
0.0
  0
SEQEND
  5
1C7E
100
AcDbEntity
  8
ALPHA
 62
     7
  0
POLYLINE
  5
1C7F
100
AcDbEntity
  8
ALPHA
 62
     7
100
AcDb2dPolyline
 66
     1
 10
0.0
 20
0.0
 30
0.0
  0
VERTEX
  5
1C80
100
AcDbEntity
  8
ALPHA
 62
     7
100
AcDbVertex
100
AcDb2dVertex
 10
62.689798
 20
78.517017
 30
0.0
  0
VERTEX
  5
1C81
100
AcDbEntity
  8
ALPHA
 62
     7
100
AcDbVertex
100
AcDb2dVertex
 10
57.231389
 20
78.511677
 30
0.0
  0
VERTEX
  5
1C82
100
AcDbEntity
  8
ALPHA
 62
     7
100
AcDbVertex
100
AcDb2dVertex
 10
51.790894
 20
78.510299
 30
0.0
  0
VERTEX
  5
1C83
100
AcDbEntity
  8
ALPHA
 62
     7
100
AcDbVertex
100
AcDb2dVertex
 10
46.379338
 20
78.512366
 30
0.0
  0
VERTEX
  5
1C84
100
AcDbEntity
  8
ALPHA
 62
     7
100
AcDbVertex
100
AcDb2dVertex
 10
41.008434
 20
78.518395
 30
0.0
  0
SEQEND
  5
1C85
100
AcDbEntity
  8
ALPHA
 62
     7
  0
POLYLINE
  5
1C86
100
AcDbEntity
  8
ALPHA
 62
     7
100
AcDb2dPolyline
 66
     1
 10
0.0
 20
0.0
 30
0.0
  0
VERTEX
  5
1C87
100
AcDbEntity
  8
ALPHA
 62
     7
100
AcDbVertex
100
AcDb2dVertex
 10
53.864497
 20
45.243079
 30
0.0
  0
VERTEX
  5
1C88
100
AcDbEntity
  8
ALPHA
 62
     7
100
AcDbVertex
100
AcDb2dVertex
 10
53.762522
 20
46.209083
 30
0.0
  0
VERTEX
  5
1C89
100
AcDbEntity
  8
ALPHA
 62
     7
100
AcDbVertex
100
AcDb2dVertex
 10
53.460387
 20
47.131336
 30
0.0
  0
VERTEX
  5
1C8A
100
AcDbEntity
  8
ALPHA
 62
     7
100
AcDbVertex
100
AcDb2dVertex
 10
52.974973
 20
47.967805
 30
0.0
  0
VERTEX
  5
1C8B
100
AcDbEntity
  8
ALPHA
 62
     7
100
AcDbVertex
100
AcDb2dVertex
 10
52.330741
 20
48.680595
 30
0.0
  0
VERTEX
  5
1C8C
100
AcDbEntity
  8
ALPHA
 62
     7
100
AcDbVertex
100
AcDb2dVertex
 10
51.549737
 20
49.248347
 30
0.0
  0
VERTEX
  5
1C8D
100
AcDbEntity
  8
ALPHA
 62
     7
100
AcDbVertex
100
AcDb2dVertex
 10
50.66297
 20
49.644188
 30
0.0
  0
VERTEX
  5
1C8E
100
AcDbEntity
  8
ALPHA
 62
     7
100
AcDbVertex
100
AcDb2dVertex
 10
49.712812
 20
49.847793
 30
0.0
  0
VERTEX
  5
1C8F
100
AcDbEntity
  8
ALPHA
 62
     7
100
AcDbVertex
100
AcDb2dVertex
 10
48.740262
 20
49.850549
 30
0.0
  0
VERTEX
  5
1C90
100
AcDbEntity
  8
ALPHA
 62
     7
100
AcDbVertex
100
AcDb2dVertex
 10
47.786315
 20
49.651423
 30
0.0
  0
VERTEX
  5
1C91
100
AcDbEntity
  8
ALPHA
 62
     7
100
AcDbVertex
100
AcDb2dVertex
 10
46.894724
 20
49.257648
 30
0.0
  0
VERTEX
  5
1C92
100
AcDbEntity
  8
ALPHA
 62
     7
100
AcDbVertex
100
AcDb2dVertex
 10
46.107865
 20
48.690586
 30
0.0
  0
VERTEX
  5
1C93
100
AcDbEntity
  8
ALPHA
 62
     7
100
AcDbVertex
100
AcDb2dVertex
 10
45.457431
 20
47.975039
 30
0.0
  0
VERTEX
  5
1C94
100
AcDbEntity
  8
ALPHA
 62
     7
100
AcDbVertex
100
AcDb2dVertex
 10
44.967882
 20
47.133747
 30
0.0
  0
VERTEX
  5
1C95
100
AcDbEntity
  8
ALPHA
 62
     7
100
AcDbVertex
100
AcDb2dVertex
 10
44.66437
 20
46.207705
 30
0.0
  0
VERTEX
  5
1C96
100
AcDbEntity
  8
ALPHA
 62
     7
100
AcDbVertex
100
AcDb2dVertex
 10
44.562395
 20
45.243079
 30
0.0
  0
SEQEND
  5
1C97
100
AcDbEntity
  8
ALPHA
 62
     7
  0
POLYLINE
  5
1C98
100
AcDbEntity
  8
ALPHA
 62
     7
100
AcDb2dPolyline
 66
     1
 10
0.0
 20
0.0
 30
0.0
  0
VERTEX
  5
1C99
100
AcDbEntity
  8
ALPHA
 62
     7
100
AcDbVertex
100
AcDb2dVertex
 10
44.562395
 20
45.243079
 30
0.0
  0
VERTEX
  5
1C9A
100
AcDbEntity
  8
ALPHA
 62
     7
100
AcDbVertex
100
AcDb2dVertex
 10
44.663681
 20
44.281553
 30
0.0
  0
VERTEX
  5
1C9B
100
AcDbEntity
  8
ALPHA
 62
     7
100
AcDbVertex
100
AcDb2dVertex
 10
44.963404
 20
43.362057
 30
0.0
  0
VERTEX
  5
1C9C
100
AcDbEntity
  8
ALPHA
 62
     7
100
AcDbVertex
100
AcDb2dVertex
 10
45.446406
 20
42.525587
 30
0.0
  0
VERTEX
  5
1C9D
100
AcDbEntity
  8
ALPHA
 62
     7
100
AcDbVertex
100
AcDb2dVertex
 10
46.088917
 20
41.812797
 30
0.0
  0
VERTEX
  5
1C9E
100
AcDbEntity
  8
ALPHA
 62
     7
100
AcDbVertex
100
AcDb2dVertex
 10
46.868542
 20
41.244012
 30
0.0
  0
VERTEX
  5
1C9F
100
AcDbEntity
  8
ALPHA
 62
     7
100
AcDbVertex
100
AcDb2dVertex
 10
47.755309
 20
40.845414
 30
0.0
  0
VERTEX
  5
1CA0
100
AcDbEntity
  8
ALPHA
 62
     7
100
AcDbVertex
100
AcDb2dVertex
 10
48.707534
 20
40.639398
 30
0.0
  0
VERTEX
  5
1CA1
100
AcDbEntity
  8
ALPHA
 62
     7
100
AcDbVertex
100
AcDb2dVertex
 10
49.681807
 20
40.635608
 30
0.0
  0
VERTEX
  5
1CA2
100
AcDbEntity
  8
ALPHA
 62
     7
100
AcDbVertex
100
AcDb2dVertex
 10
50.636787
 20
40.833701
 30
0.0
  0
VERTEX
  5
1CA3
100
AcDbEntity
  8
ALPHA
 62
     7
100
AcDbVertex
100
AcDb2dVertex
 10
51.529411
 20
41.226786
 30
0.0
  0
VERTEX
  5
1CA4
100
AcDbEntity
  8
ALPHA
 62
     7
100
AcDbVertex
100
AcDb2dVertex
 10
52.316616
 20
41.79316
 30
0.0
  0
VERTEX
  5
1CA5
100
AcDbEntity
  8
ALPHA
 62
     7
100
AcDbVertex
100
AcDb2dVertex
 10
52.96705
 20
42.508017
 30
0.0
  0
VERTEX
  5
1CA6
100
AcDbEntity
  8
ALPHA
 62
     7
100
AcDbVertex
100
AcDb2dVertex
 10
53.456942
 20
43.347243
 30
0.0
  0
VERTEX
  5
1CA7
100
AcDbEntity
  8
ALPHA
 62
     7
100
AcDbVertex
100
AcDb2dVertex
 10
53.762178
 20
44.273284
 30
0.0
  0
VERTEX
  5
1CA8
100
AcDbEntity
  8
ALPHA
 62
     7
100
AcDbVertex
100
AcDb2dVertex
 10
53.864497
 20
45.243079
 30
0.0
  0
SEQEND
  5
1CA9
100
AcDbEntity
  8
ALPHA
 62
     7
  0
LINE
  5
1CAA
100
AcDbEntity
  8
ALPHA
 62
     7
100
AcDbLine
 10
39.531522
 20
53.126491
 30
0.0
 11
56.168232
 21
53.126491
 31
0.0
  0
LINE
  5
1CAB
100
AcDbEntity
  8
ALPHA
 62
     7
100
AcDbLine
 10
48.148739
 20
47.214018
 30
0.0
 11
50.424569
 21
47.214018
 31
0.0
  0
LINE
  5
1CAC
100
AcDbEntity
  8
ALPHA
 62
     7
100
AcDbLine
 10
50.424569
 20
43.272484
 30
0.0
 11
48.148739
 21
43.272484
 31
0.0
  0
LINE
  5
1CAD
100
AcDbEntity
  8
ALPHA
 62
     7
100
AcDbLine
 10
40.024515
 20
37.360011
 30
0.0
 11
54.405722
 21
37.360011
 31
0.0
  0
LINE
  5
1CAE
100
AcDbEntity
  8
ALPHA
 62
     7
100
AcDbLine
 10
48.400231
 20
57.659892
 30
0.0
 11
48.400231
 21
77.564448
 31
0.0
  0
LINE
  5
1CAF
100
AcDbEntity
  8
ALPHA
 62
     7
100
AcDbLine
 10
47.611993
 20
57.674878
 30
0.0
 11
47.611993
 21
77.564448
 31
0.0
  0
SPLINE
  5
1CB0
100
AcDbEntity
  8
ALPHA
 62
     7
100
AcDbSpline
210
0.0
220
0.0
230
-1.0
 70
     8
 71
     3
 72
     8
 73
     4
 74
     0
 42
0.0000001
 43
0.0000001
 40
0.0
 40
0.0
 40
0.0
 40
0.0
 40
1.0
 40
1.0
 40
1.0
 40
1.0
 10
41.49281463577469
 20
36.83187807323122
 30
0.0
 10
41.21238386320523
 20
37.16674135448121
 30
0.0
 10
40.79759436667746
 20
37.36001121125207
 30
0.0
 10
40.36110076858718
 20
37.36001121125207
 30
0.0
  0
LINE
  5
1CB1
100
AcDbEntity
  8
ALPHA
 62
     7
100
AcDbLine
 10
40.516475
 20
57.659203
 30
0.0
 11
47.611993
 21
57.659203
 31
0.0
  0
SPLINE
  5
1CB2
100
AcDbEntity
  8
ALPHA
 62
     7
100
AcDbSpline
210
0.0
220
0.0
230
1.0
 70
     8
 71
     3
 72
     8
 73
     4
 74
     0
 42
0.0000001
 43
0.0000001
 40
0.0
 40
0.0
 40
0.0
 40
0.0
 40
1.0
 40
1.0
 40
1.0
 40
1.0
 10
39.53152177553162
 20
37.85231535621733
 30
0.0
 10
39.53152177553162
 20
37.58084183191178
 30
0.0
 10
39.75235239619134
 20
37.36001121125207
 30
0.0
 10
40.02451493959413
 20
37.36001121125207
 30
0.0
  0
SPLINE
  5
1CB3
100
AcDbEntity
  8
ALPHA
 62
     7
100
AcDbSpline
210
0.0
220
0.0
230
1.0
 70
     8
 71
     3
 72
     8
 73
     4
 74
     0
 42
0.0000001
 43
0.0000001
 40
0.0
 40
0.0
 40
0.0
 40
0.0
 40
1.0
 40
1.0
 40
1.0
 40
1.0
 10
39.53152177553162
 20
58.64501690786664
 30
0.0
 10
39.53152177553162
 20
58.10051956628678
 30
0.0
 10
39.97283850730246
 20
57.65920283451595
 30
0.0
 10
40.51647457501079
 20
57.65920283451595
 30
0.0
  0
SPLINE
  5
1CB4
100
AcDbEntity
  8
ALPHA
 62
     7
100
AcDbSpline
210
0.0
220
0.0
230
1.0
 70
     8
 71
     3
 72
     8
 73
     4
 74
     0
 42
0.0000001
 43
0.0000001
 40
0.0
 40
0.0
 40
0.0
 40
0.0
 40
1.0
 40
1.0
 40
1.0
 40
1.0
 10
43.00934566876079
 20
35.88482132409927
 30
0.0
 10
43.14439341181635
 20
35.78698061229373
 30
0.0
 10
43.30631289966357
 20
35.73392614180761
 30
0.0
 10
43.47305552119134
 20
35.73392614180761
 30
0.0
  0
LINE
  5
1CB5
100
AcDbEntity
  8
ALPHA
 62
     7
100
AcDbLine
 10
41.492815
 20
36.831878
 30
0.0
 11
42.290699
 21
35.882065
 31
0.0
  0
LINE
  5
1CB6
100
AcDbEntity
  8
ALPHA
 62
     7
100
AcDbLine
 10
42.870164
 20
35.882065
 30
0.0
 11
41.803907
 21
37.148482
 31
0.0
  0
POLYLINE
  5
1CB7
100
AcDbEntity
  8
ALPHA
 62
     7
100
AcDb2dPolyline
 66
     1
 10
0.0
 20
0.0
 30
0.0
  0
VERTEX
  5
1CB8
100
AcDbEntity
  8
ALPHA
 62
     7
100
AcDbVertex
100
AcDb2dVertex
 10
41.596857
 20
37.360011
 30
0.0
  0
VERTEX
  5
1CB9
100
AcDbEntity
  8
ALPHA
 62
     7
100
AcDbVertex
100
AcDb2dVertex
 10
41.669548
 20
37.292832
 30
0.0
  0
VERTEX
  5
1CBA
100
AcDbEntity
  8
ALPHA
 62
     7
100
AcDbVertex
100
AcDb2dVertex
 10
41.738794
 20
37.222207
 30
0.0
  0
VERTEX
  5
1CBB
100
AcDbEntity
  8
ALPHA
 62
     7
100
AcDbVertex
100
AcDb2dVertex
 10
41.803907
 20
37.148482
 30
0.0
  0
SEQEND
  5
1CBC
100
AcDbEntity
  8
ALPHA
 62
     7
  0
LINE
  5
1CBD
100
AcDbEntity
  8
ALPHA
 62
     7
100
AcDbLine
 10
42.290699
 20
35.882065
 30
0.0
 11
43.009346
 21
35.884821
 31
0.0
  0
LINE
  5
1CBE
100
AcDbEntity
  8
ALPHA
 62
     7
100
AcDbLine
 10
48.148739
 20
47.214018
 30
0.0
 11
47.011169
 21
45.243079
 31
0.0
  0
LINE
  5
1CBF
100
AcDbEntity
  8
ALPHA
 62
     7
100
AcDbLine
 10
47.011169
 20
45.243079
 30
0.0
 11
48.148739
 21
43.272484
 31
0.0
  0
POLYLINE
  5
1CC0
100
AcDbEntity
  8
ALPHA
 62
     7
100
AcDb2dPolyline
 66
     1
 10
0.0
 20
0.0
 30
0.0
  0
VERTEX
  5
1CC1
100
AcDbEntity
  8
ALPHA
 62
     7
100
AcDbVertex
100
AcDb2dVertex
 10
48.40092
 20
57.659203
 30
0.0
  0
VERTEX
  5
1CC2
100
AcDbEntity
  8
ALPHA
 62
     7
100
AcDbVertex
100
AcDb2dVertex
 10
48.13737
 20
57.66127
 30
0.0
  0
VERTEX
  5
1CC3
100
AcDbEntity
  8
ALPHA
 62
     7
100
AcDbVertex
100
AcDb2dVertex
 10
47.87451
 20
57.66661
 30
0.0
  0
VERTEX
  5
1CC4
100
AcDbEntity
  8
ALPHA
 62
     7
100
AcDbVertex
100
AcDb2dVertex
 10
47.611993
 20
57.674878
 30
0.0
  0
SEQEND
  5
1CC5
100
AcDbEntity
  8
ALPHA
 62
     7
  0
LINE
  5
1CC6
100
AcDbEntity
  8
ALPHA
 62
     7
100
AcDbLine
 10
40.516475
 20
77.072144
 30
0.0
 11
41.009812
 21
77.072144
 31
0.0
  0
SPLINE
  5
1CC7
100
AcDbEntity
  8
ALPHA
 62
     7
100
AcDbSpline
210
0.0
220
0.0
230
-1.0
 70
     8
 71
     3
 72
     8
 73
     4
 74
     0
 42
0.0000001
 43
0.0000001
 40
0.0
 40
0.0
 40
0.0
 40
0.0
 40
1.0
 40
1.0
 40
1.0
 40
1.0
 10
39.52394256546218
 20
65.93104935144302
 30
0.0
 10
39.24420081198996
 20
65.65475269345691
 30
0.0
 10
39.15600636754552
 20
65.23789613963749
 30
0.0
 10
39.29932233976773
 20
64.87116572514094
 30
0.0
  0
LINE
  5
1CC8
100
AcDbEntity
  8
ALPHA
 62
     7
100
AcDbLine
 10
39.531522
 20
64.277059
 30
0.0
 11
39.299322
 21
64.871166
 31
0.0
  0
SPLINE
  5
1CC9
100
AcDbEntity
  8
ALPHA
 62
     7
100
AcDbSpline
210
0.0
220
0.0
230
1.0
 70
     8
 71
     3
 72
     8
 73
     4
 74
     0
 42
0.0000001
 43
0.0000001
 40
0.0
 40
0.0
 40
0.0
 40
0.0
 40
1.0
 40
1.0
 40
1.0
 40
1.0
 10
39.53152177553162
 20
78.05744095300553
 30
0.0
 10
39.53152177553162
 20
77.51294361142567
 30
0.0
 10
39.97283850730246
 20
77.07214364397774
 30
0.0
 10
40.51647457501079
 20
77.07214364397774
 30
0.0
  0
LINE
  5
1CCA
100
AcDbEntity
  8
ALPHA
 62
     7
100
AcDbLine
 10
41.008434
 20
78.52718
 30
0.0
 11
40.97295
 21
98.951256
 31
0.0
  0
LINE
  5
1CCB
100
AcDbEntity
  8
ALPHA
 62
     7
100
AcDbLine
 10
42.507395
 20
78.205408
 30
0.0
 11
45.177689
 21
78.205408
 31
0.0
  0
LINE
  5
1CCC
100
AcDbEntity
  8
ALPHA
 62
     7
100
AcDbLine
 10
41.009812
 20
78.205408
 30
0.0
 11
42.487758
 21
78.205408
 31
0.0
  0
LINE
  5
1CCD
100
AcDbEntity
  8
ALPHA
 62
     7
100
AcDbLine
 10
41.009812
 20
77.072144
 30
0.0
 11
41.009812
 21
78.518395
 31
0.0
  0
LINE
  5
1CCE
100
AcDbEntity
  8
ALPHA
 62
     7
100
AcDbLine
 10
42.507395
 20
78.516328
 30
0.0
 11
42.507395
 21
78.205408
 31
0.0
  0
LINE
  5
1CCF
100
AcDbEntity
  8
ALPHA
 62
     7
100
AcDbLine
 10
45.177689
 20
78.513744
 30
0.0
 11
45.177689
 21
78.205408
 31
0.0
  0
LINE
  5
1CD0
100
AcDbEntity
  8
ALPHA
 62
     7
100
AcDbLine
 10
47.611993
 20
77.564448
 30
0.0
 11
48.400231
 21
77.564448
 31
0.0
  0
POLYLINE
  5
1CD1
100
AcDbEntity
  8
ALPHA
 62
     7
100
AcDb2dPolyline
 66
     1
 10
0.0
 20
0.0
 30
0.0
  0
VERTEX
  5
1CD2
100
AcDbEntity
  8
ALPHA
 62
     7
100
AcDbVertex
100
AcDb2dVertex
 10
40.973639
 20
98.963486
 30
0.0
  0
VERTEX
  5
1CD3
100
AcDbEntity
  8
ALPHA
 62
     7
100
AcDbVertex
100
AcDb2dVertex
 10
42.912194
 20
98.96073
 30
0.0
  0
VERTEX
  5
1CD4
100
AcDbEntity
  8
ALPHA
 62
     7
100
AcDbVertex
100
AcDb2dVertex
 10
46.80653
 20
98.957285
 30
0.0
  0
SEQEND
  5
1CD5
100
AcDbEntity
  8
ALPHA
 62
     7
  0
LINE
  5
1CD6
100
AcDbEntity
  8
ALPHA
 62
     7
100
AcDbLine
 10
43.537134
 20
96.982212
 30
0.0
 11
45.753709
 21
96.980145
 31
0.0
  0
LINE
  5
1CD7
100
AcDbEntity
  8
ALPHA
 62
     7
100
AcDbLine
 10
41.009812
 20
100.229042
 30
0.0
 11
46.921941
 21
100.229042
 31
0.0
  0
LINE
  5
1CD8
100
AcDbEntity
  8
ALPHA
 62
     7
100
AcDbLine
 10
46.007268
 20
92.54579
 30
0.0
 11
43.544714
 21
92.548546
 31
0.0
  0
LINE
  5
1CD9
100
AcDbEntity
  8
ALPHA
 62
     7
100
AcDbLine
 10
43.539201
 20
96.779812
 30
0.0
 11
45.837769
 21
96.779812
 31
0.0
  0
LINE
  5
1CDA
100
AcDbEntity
  8
ALPHA
 62
     7
100
AcDbLine
 10
45.837769
 20
92.838451
 30
0.0
 11
43.867174
 21
92.838451
 31
0.0
  0
LINE
  5
1CDB
100
AcDbEntity
  8
ALPHA
 62
     7
100
AcDbLine
 10
43.867174
 20
96.779812
 30
0.0
 11
43.867174
 21
92.838451
 31
0.0
  0
LINE
  5
1CDC
100
AcDbEntity
  8
ALPHA
 62
     7
100
AcDbLine
 10
43.670459
 20
95.794687
 30
0.0
 11
43.670459
 21
93.823748
 31
0.0
  0
LINE
  5
1CDD
100
AcDbEntity
  8
ALPHA
 62
     7
100
AcDbLine
 10
43.546092
 20
92.563532
 30
0.0
 11
43.539201
 21
96.779812
 31
0.0
  0
LINE
  5
1CDE
100
AcDbEntity
  8
ALPHA
 62
     7
100
AcDbLine
 10
43.537134
 20
96.982212
 30
0.0
 11
43.544714
 21
92.548546
 31
0.0
  0
LINE
  5
1CDF
100
AcDbEntity
  8
ALPHA
 62
     7
100
AcDbLine
 10
43.867174
 20
93.823748
 30
0.0
 11
43.670459
 21
93.823748
 31
0.0
  0
LINE
  5
1CE0
100
AcDbEntity
  8
ALPHA
 62
     7
100
AcDbLine
 10
43.670459
 20
95.794687
 30
0.0
 11
43.867174
 21
95.794687
 31
0.0
  0
LINE
  5
1CE1
100
AcDbEntity
  8
ALPHA
 62
     7
100
AcDbLine
 10
46.921941
 20
99.243228
 30
0.0
 11
48.376115
 21
99.243228
 31
0.0
  0
LINE
  5
1CE2
100
AcDbEntity
  8
ALPHA
 62
     7
100
AcDbLine
 10
45.837769
 20
92.838451
 30
0.0
 11
45.837769
 21
96.779812
 31
0.0
  0
LINE
  5
1CE3
100
AcDbEntity
  8
ALPHA
 62
     7
100
AcDbLine
 10
46.007268
 20
92.54579
 30
0.0
 11
46.0021
 21
95.747834
 31
0.0
  0
LINE
  5
1CE4
100
AcDbEntity
  8
ALPHA
 62
     7
100
AcDbLine
 10
45.837769
 20
95.748523
 30
0.0
 11
46.0021
 21
95.747834
 31
0.0
  0
LINE
  5
1CE5
100
AcDbEntity
  8
ALPHA
 62
     7
100
AcDbLine
 10
46.005201
 20
93.823748
 30
0.0
 11
45.837769
 21
93.823748
 31
0.0
  0
LINE
  5
1CE6
100
AcDbEntity
  8
ALPHA
 62
     7
100
AcDbLine
 10
45.754398
 20
96.779812
 30
0.0
 11
45.753709
 21
96.980145
 31
0.0
  0
LINE
  5
1CE7
100
AcDbEntity
  8
ALPHA
 62
     7
100
AcDbLine
 10
46.80653
 20
98.957285
 30
0.0
 11
46.884734
 21
98.964864
 31
0.0
  0
POLYLINE
  5
1CE8
100
AcDbEntity
  8
ALPHA
 62
     7
100
AcDb2dPolyline
 66
     1
 10
0.0
 20
0.0
 30
0.0
  0
VERTEX
  5
1CE9
100
AcDbEntity
  8
ALPHA
 62
     7
100
AcDbVertex
100
AcDb2dVertex
 10
54.956937
 20
38.418
 30
0.0
  0
VERTEX
  5
1CEA
100
AcDbEntity
  8
ALPHA
 62
     7
100
AcDbVertex
100
AcDb2dVertex
 10
54.980708
 20
38.547536
 30
0.0
  0
VERTEX
  5
1CEB
100
AcDbEntity
  8
ALPHA
 62
     7
100
AcDbVertex
100
AcDb2dVertex
 10
55.029973
 20
38.680172
 30
0.0
  0
VERTEX
  5
1CEC
100
AcDbEntity
  8
ALPHA
 62
     7
100
AcDbVertex
100
AcDb2dVertex
 10
55.108521
 20
38.817976
 30
0.0
  0
VERTEX
  5
1CED
100
AcDbEntity
  8
ALPHA
 62
     7
100
AcDbVertex
100
AcDb2dVertex
 10
55.220142
 20
38.959914
 30
0.0
  0
VERTEX
  5
1CEE
100
AcDbEntity
  8
ALPHA
 62
     7
100
AcDbVertex
100
AcDb2dVertex
 10
55.369659
 20
39.101851
 30
0.0
  0
VERTEX
  5
1CEF
100
AcDbEntity
  8
ALPHA
 62
     7
100
AcDbVertex
100
AcDb2dVertex
 10
55.557761
 20
39.241033
 30
0.0
  0
VERTEX
  5
1CF0
100
AcDbEntity
  8
ALPHA
 62
     7
100
AcDbVertex
100
AcDb2dVertex
 10
55.786516
 20
39.374014
 30
0.0
  0
VERTEX
  5
1CF1
100
AcDbEntity
  8
ALPHA
 62
     7
100
AcDbVertex
100
AcDb2dVertex
 10
56.058678
 20
39.498382
 30
0.0
  0
VERTEX
  5
1CF2
100
AcDbEntity
  8
ALPHA
 62
     7
100
AcDbVertex
100
AcDb2dVertex
 10
56.378728
 20
39.609659
 30
0.0
  0
VERTEX
  5
1CF3
100
AcDbEntity
  8
ALPHA
 62
     7
100
AcDbVertex
100
AcDb2dVertex
 10
56.750109
 20
39.705432
 30
0.0
  0
VERTEX
  5
1CF4
100
AcDbEntity
  8
ALPHA
 62
     7
100
AcDbVertex
100
AcDb2dVertex
 10
57.176956
 20
39.777435
 30
0.0
  0
VERTEX
  5
1CF5
100
AcDbEntity
  8
ALPHA
 62
     7
100
AcDbVertex
100
AcDb2dVertex
 10
57.672706
 20
39.818776
 30
0.0
  0
VERTEX
  5
1CF6
100
AcDbEntity
  8
ALPHA
 62
     7
100
AcDbVertex
100
AcDb2dVertex
 10
58.195327
 20
39.816709
 30
0.0
  0
VERTEX
  5
1CF7
100
AcDbEntity
  8
ALPHA
 62
     7
100
AcDbVertex
100
AcDb2dVertex
 10
58.67764
 20
39.772612
 30
0.0
  0
VERTEX
  5
1CF8
100
AcDbEntity
  8
ALPHA
 62
     7
100
AcDbVertex
100
AcDb2dVertex
 10
59.094496
 20
39.699231
 30
0.0
  0
VERTEX
  5
1CF9
100
AcDbEntity
  8
ALPHA
 62
     7
100
AcDbVertex
100
AcDb2dVertex
 10
59.45761
 20
39.604146
 30
0.0
  0
VERTEX
  5
1CFA
100
AcDbEntity
  8
ALPHA
 62
     7
100
AcDbVertex
100
AcDb2dVertex
 10
59.770769
 20
39.493559
 30
0.0
  0
VERTEX
  5
1CFB
100
AcDbEntity
  8
ALPHA
 62
     7
100
AcDbVertex
100
AcDb2dVertex
 10
60.038453
 20
39.370569
 30
0.0
  0
VERTEX
  5
1CFC
100
AcDbEntity
  8
ALPHA
 62
     7
100
AcDbVertex
100
AcDb2dVertex
 10
60.263762
 20
39.238966
 30
0.0
  0
VERTEX
  5
1CFD
100
AcDbEntity
  8
ALPHA
 62
     7
100
AcDbVertex
100
AcDb2dVertex
 10
60.449797
 20
39.101162
 30
0.0
  0
VERTEX
  5
1CFE
100
AcDbEntity
  8
ALPHA
 62
     7
100
AcDbVertex
100
AcDb2dVertex
 10
60.597936
 20
38.959914
 30
0.0
  0
VERTEX
  5
1CFF
100
AcDbEntity
  8
ALPHA
 62
     7
100
AcDbVertex
100
AcDb2dVertex
 10
60.709557
 20
38.818665
 30
0.0
  0
VERTEX
  5
1D00
100
AcDbEntity
  8
ALPHA
 62
     7
100
AcDbVertex
100
AcDb2dVertex
 10
60.78845
 20
38.680861
 30
0.0
  0
VERTEX
  5
1D01
100
AcDbEntity
  8
ALPHA
 62
     7
100
AcDbVertex
100
AcDb2dVertex
 10
60.83737
 20
38.547536
 30
0.0
  0
VERTEX
  5
1D02
100
AcDbEntity
  8
ALPHA
 62
     7
100
AcDbVertex
100
AcDb2dVertex
 10
60.86183
 20
38.418
 30
0.0
  0
SEQEND
  5
1D03
100
AcDbEntity
  8
ALPHA
 62
     7
  0
SPLINE
  5
1D04
100
AcDbEntity
  8
ALPHA
 62
     7
100
AcDbSpline
210
0.0
220
0.0
230
1.0
 70
     8
 71
     3
 72
     8
 73
     4
 74
     0
 42
0.0000001
 43
0.0000001
 40
0.0
 40
0.0
 40
0.0
 40
0.0
 40
1.0
 40
1.0
 40
1.0
 40
1.0
 10
54.40572153681635
 20
37.36001121125207
 30
0.0
 10
54.65928056459413
 20
37.36001121125207
 30
0.0
 10
54.87149844653857
 20
37.55224753937705
 30
0.0
 10
54.89630313403857
 20
37.80408401941178
 30
0.0
  0
LINE
  5
1D05
100
AcDbEntity
  8
ALPHA
 62
     7
100
AcDbLine
 10
54.956937
 20
38.418
 30
0.0
 11
54.896303
 21
37.804084
 31
0.0
  0
LINE
  5
1D06
100
AcDbEntity
  8
ALPHA
 62
     7
100
AcDbLine
 10
50.424569
 20
43.272484
 30
0.0
 11
51.562829
 21
45.243079
 31
0.0
  0
LINE
  5
1D07
100
AcDbEntity
  8
ALPHA
 62
     7
100
AcDbLine
 10
51.562829
 20
45.243079
 30
0.0
 11
50.424569
 21
47.214018
 31
0.0
  0
POLYLINE
  5
1D08
100
AcDbEntity
  8
ALPHA
 62
     7
100
AcDb2dPolyline
 66
     1
 10
0.0
 20
0.0
 30
0.0
  0
VERTEX
  5
1D09
100
AcDbEntity
  8
ALPHA
 62
     7
100
AcDbVertex
100
AcDb2dVertex
 10
55.850595
 20
57.659203
 30
0.0
  0
VERTEX
  5
1D0A
100
AcDbEntity
  8
ALPHA
 62
     7
100
AcDbVertex
100
AcDb2dVertex
 10
55.738973
 20
57.608904
 30
0.0
  0
VERTEX
  5
1D0B
100
AcDbEntity
  8
ALPHA
 62
     7
100
AcDbVertex
100
AcDb2dVertex
 10
55.510219
 20
57.474546
 30
0.0
  0
VERTEX
  5
1D0C
100
AcDbEntity
  8
ALPHA
 62
     7
100
AcDbVertex
100
AcDb2dVertex
 10
55.324184
 20
57.333297
 30
0.0
  0
VERTEX
  5
1D0D
100
AcDbEntity
  8
ALPHA
 62
     7
100
AcDbVertex
100
AcDb2dVertex
 10
55.17949
 20
57.187397
 30
0.0
  0
VERTEX
  5
1D0E
100
AcDbEntity
  8
ALPHA
 62
     7
100
AcDbVertex
100
AcDb2dVertex
 10
55.072348
 20
57.041325
 30
0.0
  0
VERTEX
  5
1D0F
100
AcDbEntity
  8
ALPHA
 62
     7
100
AcDbVertex
100
AcDb2dVertex
 10
54.998967
 20
56.896803
 30
0.0
  0
VERTEX
  5
1D10
100
AcDbEntity
  8
ALPHA
 62
     7
100
AcDbVertex
100
AcDb2dVertex
 10
54.954181
 20
56.754176
 30
0.0
  0
VERTEX
  5
1D11
100
AcDbEntity
  8
ALPHA
 62
     7
100
AcDbVertex
100
AcDb2dVertex
 10
54.935922
 20
56.612927
 30
0.0
  0
VERTEX
  5
1D12
100
AcDbEntity
  8
ALPHA
 62
     7
100
AcDbVertex
100
AcDb2dVertex
 10
54.941089
 20
56.472367
 30
0.0
  0
VERTEX
  5
1D13
100
AcDbEntity
  8
ALPHA
 62
     7
100
AcDbVertex
100
AcDb2dVertex
 10
54.972095
 20
56.33043
 30
0.0
  0
VERTEX
  5
1D14
100
AcDbEntity
  8
ALPHA
 62
     7
100
AcDbVertex
100
AcDb2dVertex
 10
55.029628
 20
56.186425
 30
0.0
  0
VERTEX
  5
1D15
100
AcDbEntity
  8
ALPHA
 62
     7
100
AcDbVertex
100
AcDb2dVertex
 10
55.118512
 20
56.040352
 30
0.0
  0
VERTEX
  5
1D16
100
AcDbEntity
  8
ALPHA
 62
     7
100
AcDbVertex
100
AcDb2dVertex
 10
55.244258
 20
55.893247
 30
0.0
  0
VERTEX
  5
1D17
100
AcDbEntity
  8
ALPHA
 62
     7
100
AcDbVertex
100
AcDb2dVertex
 10
55.409622
 20
55.747864
 30
0.0
  0
VERTEX
  5
1D18
100
AcDbEntity
  8
ALPHA
 62
     7
100
AcDbVertex
100
AcDb2dVertex
 10
55.617706
 20
55.608682
 30
0.0
  0
VERTEX
  5
1D19
100
AcDbEntity
  8
ALPHA
 62
     7
100
AcDbVertex
100
AcDb2dVertex
 10
55.869198
 20
55.478457
 30
0.0
  0
VERTEX
  5
1D1A
100
AcDbEntity
  8
ALPHA
 62
     7
100
AcDbVertex
100
AcDb2dVertex
 10
56.168232
 20
55.36098
 30
0.0
  0
SEQEND
  5
1D1B
100
AcDbEntity
  8
ALPHA
 62
     7
  0
LINE
  5
1D1C
100
AcDbEntity
  8
ALPHA
 62
     7
100
AcDbLine
 10
56.168232
 20
53.126491
 30
0.0
 11
56.168232
 21
55.36098
 31
0.0
  0
SPLINE
  5
1D1D
100
AcDbEntity
  8
ALPHA
 62
     7
100
AcDbSpline
210
0.0
220
0.0
230
1.0
 70
     8
 71
     3
 72
     8
 73
     4
 74
     0
 42
0.0000001
 43
0.0000001
 40
0.0
 40
0.0
 40
0.0
 40
0.0
 40
1.0
 40
1.0
 40
1.0
 40
1.0
 10
60.92246415834412
 20
37.80408401941178
 30
0.0
 10
60.94726884584411
 20
37.55224753937705
 30
0.0
 10
61.15948672778858
 20
37.36001121125207
 30
0.0
 10
61.41235673646911
 20
37.36001121125207
 30
0.0
  0
LINE
  5
1D1E
100
AcDbEntity
  8
ALPHA
 62
     7
100
AcDbLine
 10
60.86183
 20
38.418
 30
0.0
 11
60.922464
 21
37.804084
 31
0.0
  0
POLYLINE
  5
1D1F
100
AcDbEntity
  8
ALPHA
 62
     7
100
AcDb2dPolyline
 66
     1
 10
0.0
 20
0.0
 30
0.0
  0
VERTEX
  5
1D20
100
AcDbEntity
  8
ALPHA
 62
     7
100
AcDbVertex
100
AcDb2dVertex
 10
59.622974
 20
55.36098
 30
0.0
  0
VERTEX
  5
1D21
100
AcDbEntity
  8
ALPHA
 62
     7
100
AcDbVertex
100
AcDb2dVertex
 10
59.919252
 20
55.477768
 30
0.0
  0
VERTEX
  5
1D22
100
AcDbEntity
  8
ALPHA
 62
     7
100
AcDbVertex
100
AcDb2dVertex
 10
60.170744
 20
55.606959
 30
0.0
  0
VERTEX
  5
1D23
100
AcDbEntity
  8
ALPHA
 62
     7
100
AcDbVertex
100
AcDb2dVertex
 10
60.377795
 20
55.745452
 30
0.0
  0
VERTEX
  5
1D24
100
AcDbEntity
  8
ALPHA
 62
     7
100
AcDbVertex
100
AcDb2dVertex
 10
60.542815
 20
55.889113
 30
0.0
  0
VERTEX
  5
1D25
100
AcDbEntity
  8
ALPHA
 62
     7
100
AcDbVertex
100
AcDb2dVertex
 10
60.668905
 20
56.035185
 30
0.0
  0
VERTEX
  5
1D26
100
AcDbEntity
  8
ALPHA
 62
     7
100
AcDbVertex
100
AcDb2dVertex
 10
60.759167
 20
56.180912
 30
0.0
  0
VERTEX
  5
1D27
100
AcDbEntity
  8
ALPHA
 62
     7
100
AcDbVertex
100
AcDb2dVertex
 10
60.817733
 20
56.324917
 30
0.0
  0
VERTEX
  5
1D28
100
AcDbEntity
  8
ALPHA
 62
     7
100
AcDbVertex
100
AcDb2dVertex
 10
60.849428
 20
56.466855
 30
0.0
  0
VERTEX
  5
1D29
100
AcDbEntity
  8
ALPHA
 62
     7
100
AcDbVertex
100
AcDb2dVertex
 10
60.855629
 20
56.608104
 30
0.0
  0
VERTEX
  5
1D2A
100
AcDbEntity
  8
ALPHA
 62
     7
100
AcDbVertex
100
AcDb2dVertex
 10
60.838059
 20
56.749353
 30
0.0
  0
VERTEX
  5
1D2B
100
AcDbEntity
  8
ALPHA
 62
     7
100
AcDbVertex
100
AcDb2dVertex
 10
60.793962
 20
56.89198
 30
0.0
  0
VERTEX
  5
1D2C
100
AcDbEntity
  8
ALPHA
 62
     7
100
AcDbVertex
100
AcDb2dVertex
 10
60.721271
 20
57.036674
 30
0.0
  0
VERTEX
  5
1D2D
100
AcDbEntity
  8
ALPHA
 62
     7
100
AcDbVertex
100
AcDb2dVertex
 10
60.614473
 20
57.183952
 30
0.0
  0
VERTEX
  5
1D2E
100
AcDbEntity
  8
ALPHA
 62
     7
100
AcDbVertex
100
AcDb2dVertex
 10
60.469434
 20
57.330541
 30
0.0
  0
VERTEX
  5
1D2F
100
AcDbEntity
  8
ALPHA
 62
     7
100
AcDbVertex
100
AcDb2dVertex
 10
60.28271
 20
57.473857
 30
0.0
  0
VERTEX
  5
1D30
100
AcDbEntity
  8
ALPHA
 62
     7
100
AcDbVertex
100
AcDb2dVertex
 10
60.051889
 20
57.608904
 30
0.0
  0
VERTEX
  5
1D31
100
AcDbEntity
  8
ALPHA
 62
     7
100
AcDbVertex
100
AcDb2dVertex
 10
59.940612
 20
57.659203
 30
0.0
  0
SEQEND
  5
1D32
100
AcDbEntity
  8
ALPHA
 62
     7
  0
LINE
  5
1D33
100
AcDbEntity
  8
ALPHA
 62
     7
100
AcDbLine
 10
59.622974
 20
55.36098
 30
0.0
 11
59.622974
 21
53.126491
 31
0.0
  0
LINE
  5
1D34
100
AcDbEntity
  8
ALPHA
 62
     7
100
AcDbLine
 10
65.394198
 20
47.214018
 30
0.0
 11
64.255939
 21
45.243079
 31
0.0
  0
LINE
  5
1D35
100
AcDbEntity
  8
ALPHA
 62
     7
100
AcDbLine
 10
64.255939
 20
45.243079
 30
0.0
 11
65.394198
 21
43.272484
 31
0.0
  0
SPLINE
  5
1D36
100
AcDbEntity
  8
ALPHA
 62
     7
100
AcDbSpline
210
0.0
220
0.0
230
-1.0
 70
     8
 71
     3
 72
     8
 73
     4
 74
     0
 42
0.0000001
 43
0.0000001
 40
0.0
 40
0.0
 40
0.0
 40
0.0
 40
1.0
 40
1.0
 40
1.0
 40
1.0
 10
52.79513939705941
 20
99.24322789962012
 30
0.0
 10
52.79513939705941
 20
92.83913990048816
 30
0.0
 10
57.20245005244134
 20
87.27703323816177
 30
0.0
 10
63.43738386320524
 20
85.81321216611318
 30
0.0
  0
LINE
  5
1D37
100
AcDbEntity
  8
ALPHA
 62
     7
100
AcDbLine
 10
53.924097
 20
98.140625
 30
0.0
 11
63.069792
 21
98.061043
 31
0.0
  0
LINE
  5
1D38
100
AcDbEntity
  8
ALPHA
 62
     7
100
AcDbLine
 10
63.069792
 20
100.425929
 30
0.0
 11
53.924097
 21
100.34652
 31
0.0
  0
POLYLINE
  5
1D39
100
AcDbEntity
  8
ALPHA
 62
     7
100
AcDb2dPolyline
 66
     1
 10
0.0
 20
0.0
 30
0.0
  0
VERTEX
  5
1D3A
100
AcDbEntity
  8
ALPHA
 62
     7
100
AcDbVertex
100
AcDb2dVertex
 10
63.171767
 20
85.567405
 30
0.0
  0
VERTEX
  5
1D3B
100
AcDbEntity
  8
ALPHA
 62
     7
100
AcDbVertex
100
AcDb2dVertex
 10
61.567386
 20
86.050235
 30
0.0
  0
VERTEX
  5
1D3C
100
AcDbEntity
  8
ALPHA
 62
     7
100
AcDbVertex
100
AcDb2dVertex
 10
60.02605
 20
86.72444
 30
0.0
  0
VERTEX
  5
1D3D
100
AcDbEntity
  8
ALPHA
 62
     7
100
AcDbVertex
100
AcDb2dVertex
 10
58.576354
 20
87.57779
 30
0.0
  0
VERTEX
  5
1D3E
100
AcDbEntity
  8
ALPHA
 62
     7
100
AcDbVertex
100
AcDb2dVertex
 10
57.235523
 20
88.601672
 30
0.0
  0
VERTEX
  5
1D3F
100
AcDbEntity
  8
ALPHA
 62
     7
100
AcDbVertex
100
AcDb2dVertex
 10
56.030429
 20
89.776278
 30
0.0
  0
VERTEX
  5
1D40
100
AcDbEntity
  8
ALPHA
 62
     7
100
AcDbVertex
100
AcDb2dVertex
 10
54.972095
 20
91.089548
 30
0.0
  0
VERTEX
  5
1D41
100
AcDbEntity
  8
ALPHA
 62
     7
100
AcDbVertex
100
AcDb2dVertex
 10
54.080505
 20
92.51599
 30
0.0
  0
VERTEX
  5
1D42
100
AcDbEntity
  8
ALPHA
 62
     7
100
AcDbVertex
100
AcDb2dVertex
 10
53.363925
 20
94.043029
 30
0.0
  0
VERTEX
  5
1D43
100
AcDbEntity
  8
ALPHA
 62
     7
100
AcDbVertex
100
AcDb2dVertex
 10
52.836481
 20
95.641897
 30
0.0
  0
VERTEX
  5
1D44
100
AcDbEntity
  8
ALPHA
 62
     7
100
AcDbVertex
100
AcDb2dVertex
 10
52.504718
 20
97.290548
 30
0.0
  0
SEQEND
  5
1D45
100
AcDbEntity
  8
ALPHA
 62
     7
  0
LINE
  5
1D46
100
AcDbEntity
  8
ALPHA
 62
     7
100
AcDbLine
 10
56.017337
 20
78.205408
 30
0.0
 11
58.687975
 21
78.205408
 31
0.0
  0
LINE
  5
1D47
100
AcDbEntity
  8
ALPHA
 62
     7
100
AcDbLine
 10
57.712324
 20
76.924177
 30
0.0
 11
57.712324
 21
69.090374
 31
0.0
  0
LINE
  5
1D48
100
AcDbEntity
  8
ALPHA
 62
     7
100
AcDbLine
 10
57.564185
 20
77.072144
 30
0.0
 11
57.564185
 21
68.942235
 31
0.0
  0
LINE
  5
1D49
100
AcDbEntity
  8
ALPHA
 62
     7
100
AcDbLine
 10
56.017337
 20
78.511677
 30
0.0
 11
56.017337
 21
78.205408
 31
0.0
  0
SPLINE
  5
1D4A
100
AcDbEntity
  8
ALPHA
 62
     7
100
AcDbSpline
210
0.0
220
0.0
230
-1.0
 70
     8
 71
     3
 72
    11
 73
     7
 74
     0
 42
0.0000001
 43
0.0000001
 40
0.0
 40
0.0
 40
0.0
 40
0.0
 40
1.0
 40
1.0
 40
1.0
 40
2.0
 40
2.0
 40
2.0
 40
2.0
 10
53.92409718785802
 20
100.3465197290472
 30
0.0
 10
53.31569332501079
 20
100.3465197290472
 30
0.0
 10
52.82166663230245
 20
99.85283754588747
 30
0.0
 10
52.82166663230245
 20
99.24322789962012
 30
0.0
 10
52.82166663230245
 20
98.6348240367729
 30
0.0
 10
53.31569332501079
 20
98.14062508929024
 30
0.0
 10
53.92409718785802
 20
98.14062508929024
 30
0.0
  0
LINE
  5
1D4B
100
AcDbEntity
  8
ALPHA
 62
     7
100
AcDbLine
 10
52.504718
 20
97.290548
 30
0.0
 11
52.372082
 21
98.962797
 31
0.0
  0
SPLINE
  5
1D4C
100
AcDbEntity
  8
ALPHA
 62
     7
100
AcDbSpline
210
0.0
220
0.0
230
-1.0
 70
     8
 71
     3
 72
    11
 73
     7
 74
     0
 42
0.0000001
 43
0.0000001
 40
0.0
 40
0.0
 40
0.0
 40
0.0
 40
1.0
 40
1.0
 40
1.0
 40
2.0
 40
2.0
 40
2.0
 40
2.0
 10
56.13309241355246
 20
95.67996563833537
 30
0.0
 10
56.00837995695523
 20
95.89114999163399
 30
0.0
 10
55.73690643264968
 20
95.96108543000203
 30
0.0
 10
55.52606658889969
 20
95.83620071863052
 30
0.0
 10
55.4457958640733
 20
95.78934742001942
 30
0.0
 10
55.38206159758024
 20
95.71803394345691
 30
0.0
 10
55.34451005678162
 20
95.63242332062705
 30
0.0
  0
SPLINE
  5
1D4D
100
AcDbEntity
  8
ALPHA
 62
     7
100
AcDbSpline
210
0.0
220
0.0
230
1.0
 70
     8
 71
     3
 72
     8
 73
     4
 74
     0
 42
0.0000001
 43
0.0000001
 40
0.0
 40
0.0
 40
0.0
 40
0.0
 40
1.0
 40
1.0
 40
1.0
 40
1.0
 10
53.9950661548719
 20
95.98416756975899
 30
0.0
 10
54.03847435799691
 20
95.73560393043607
 30
0.0
 10
54.2617165454969
 20
95.56110984406457
 30
0.0
 10
54.5128640064344
 20
95.5781630667208
 30
0.0
  0
SPLINE
  5
1D4E
100
AcDbEntity
  8
ALPHA
 62
     7
100
AcDbSpline
210
0.0
220
0.0
230
-1.0
 70
     8
 71
     3
 72
     8
 73
     4
 74
     0
 42
0.0000001
 43
0.0000001
 40
0.0
 40
0.0
 40
0.0
 40
0.0
 40
1.0
 40
1.0
 40
1.0
 40
1.0
 10
53.7966286548719
 20
97.43438051463748
 30
0.0
 10
53.84348195348302
 20
96.94827754154719
 30
0.0
 10
53.90997229636496
 20
96.4649306448458
 30
0.0
 10
53.9950661548719
 20
95.98416756975899
 30
0.0
  0
SPLINE
  5
1D4F
100
AcDbEntity
  8
ALPHA
 62
     7
100
AcDbSpline
210
0.0
220
0.0
230
-1.0
 70
     8
 71
     3
 72
     8
 73
     4
 74
     0
 42
0.0000001
 43
0.0000001
 40
0.0
 40
0.0
 40
0.0
 40
0.0
 40
1.0
 40
1.0
 40
1.0
 40
1.0
 10
53.74012908889969
 20
98.16026213356108
 30
0.0
 10
53.75322045174691
 20
97.93271357670343
 30
0.0
 10
53.77079043872607
 20
97.70602629371735
 30
0.0
 10
53.79180552119134
 20
97.47916675595693
 30
0.0
  0
POLYLINE
  5
1D50
100
AcDbEntity
  8
ALPHA
 62
     7
100
AcDb2dPolyline
 66
     1
 10
0.0
 20
0.0
 30
0.0
  0
VERTEX
  5
1D51
100
AcDbEntity
  8
ALPHA
 62
     7
100
AcDbVertex
100
AcDb2dVertex
 10
53.796629
 20
97.434381
 30
0.0
  0
VERTEX
  5
1D52
100
AcDbEntity
  8
ALPHA
 62
     7
100
AcDbVertex
100
AcDb2dVertex
 10
53.79594
 20
97.483301
 30
0.0
  0
VERTEX
  5
1D53
100
AcDbEntity
  8
ALPHA
 62
     7
100
AcDbVertex
100
AcDb2dVertex
 10
53.807653
 20
97.524125
 30
0.0
  0
SEQEND
  5
1D54
100
AcDbEntity
  8
ALPHA
 62
     7
  0
SPLINE
  5
1D55
100
AcDbEntity
  8
ALPHA
 62
     7
100
AcDbSpline
210
0.0
220
0.0
230
-1.0
 70
     8
 71
     3
 72
    11
 73
     7
 74
     0
 42
0.0000001
 43
0.0000001
 40
0.0
 40
0.0
 40
0.0
 40
0.0
 40
1.0
 40
1.0
 40
1.0
 40
2.0
 40
2.0
 40
2.0
 40
2.0
 10
57.61241641528857
 20
95.76213116567913
 30
0.0
 10
57.48942650643439
 20
95.97400453807498
 30
0.0
 10
57.21760847258025
 20
96.04531801463748
 30
0.0
 10
57.00676862883024
 20
95.92232810578328
 30
0.0
 10
56.92615339445524
 20
95.87547480717219
 30
0.0
 10
56.86207461841356
 20
95.80485034970692
 30
0.0
 10
56.82417856806635
 20
95.71941198165134
 30
0.0
  0
LINE
  5
1D56
100
AcDbEntity
  8
ALPHA
 62
     7
100
AcDbLine
 10
62.690487
 20
78.517017
 30
0.0
 11
63.176935
 21
82.259596
 31
0.0
  0
LINE
  5
1D57
100
AcDbEntity
  8
ALPHA
 62
     7
100
AcDbLine
 10
63.437384
 20
77.072144
 30
0.0
 11
63.437384
 21
82.802026
 31
0.0
  0
LINE
  5
1D58
100
AcDbEntity
  8
ALPHA
 62
     7
100
AcDbLine
 10
63.437384
 20
78.205408
 30
0.0
 11
58.707268
 21
78.205408
 31
0.0
  0
LINE
  5
1D59
100
AcDbEntity
  8
ALPHA
 62
     7
100
AcDbLine
 10
58.687975
 20
78.513055
 30
0.0
 11
58.687975
 21
78.205408
 31
0.0
  0
LINE
  5
1D5A
100
AcDbEntity
  8
ALPHA
 62
     7
100
AcDbLine
 10
64.067836
 20
68.942235
 30
0.0
 11
64.067836
 21
67.783994
 31
0.0
  0
LINE
  5
1D5B
100
AcDbEntity
  8
ALPHA
 62
     7
100
AcDbLine
 10
62.854474
 20
79.782056
 30
0.0
 11
63.437384
 21
79.782056
 31
0.0
  0
SPLINE
  5
1D5C
100
AcDbEntity
  8
ALPHA
 62
     7
100
AcDbSpline
210
0.0
220
0.0
230
-1.0
 70
     8
 71
     3
 72
    11
 73
     7
 74
     0
 42
0.0000001
 43
0.0000001
 40
0.0
 40
0.0
 40
0.0
 40
0.0
 40
1.0
 40
1.0
 40
1.0
 40
2.0
 40
2.0
 40
2.0
 40
2.0
 10
59.0924294361219
 20
95.83344464224163
 30
0.0
 10
58.97047305591357
 20
96.04669605283191
 30
0.0
 10
58.69934404115661
 20
96.11990433191179
 30
0.0
 10
58.48678164966358
 20
95.99777569692912
 30
0.0
 10
58.40685543438578
 20
95.95161141741526
 30
0.0
 10
58.34208763924689
 20
95.88098695994998
 30
0.0
 10
58.30419158889969
 20
95.79675437531454
 30
0.0
  0
SPLINE
  5
1D5D
100
AcDbEntity
  8
ALPHA
 62
     7
100
AcDbSpline
210
0.0
220
0.0
230
1.0
 70
     8
 71
     3
 72
     8
 73
     4
 74
     0
 42
0.0000001
 43
0.0000001
 40
0.0
 40
0.0
 40
0.0
 40
0.0
 40
1.0
 40
1.0
 40
1.0
 40
1.0
 10
63.43738386320524
 20
82.28939624814442
 30
0.0
 10
64.45782114619134
 20
82.09991599640829
 30
0.0
 10
65.49376135886496
 20
82.00293655847429
 30
0.0
 10
66.53176862883023
 20
81.99880244389095
 30
0.0
  0
LINE
  5
1D5E
100
AcDbEntity
  8
ALPHA
 62
     7
100
AcDbLine
 10
63.437384
 20
85.813212
 30
0.0
 11
63.437384
 21
84.250861
 31
0.0
  0
SPLINE
  5
1D5F
100
AcDbEntity
  8
ALPHA
 62
     7
100
AcDbSpline
210
0.0
220
0.0
230
1.0
 70
     8
 71
     3
 72
     8
 73
     4
 74
     0
 42
0.0000001
 43
0.0000001
 40
0.0
 40
0.0
 40
0.0
 40
0.0
 40
1.0
 40
1.0
 40
1.0
 40
1.0
 10
63.18037973994133
 20
82.34296748295344
 30
0.0
 10
63.70747934931634
 20
83.04438892392568
 30
0.0
 10
63.70679033021911
 20
84.01125497210276
 30
0.0
 10
63.17831268264967
 20
84.71198739397776
 30
0.0
  0
LINE
  5
1D60
100
AcDbEntity
  8
ALPHA
 62
     7
100
AcDbLine
 10
63.177624
 20
82.267003
 30
0.0
 11
63.171767
 21
85.560687
 31
0.0
  0
LINE
  5
1D61
100
AcDbEntity
  8
ALPHA
 62
     7
100
AcDbLine
 10
63.171078
 20
85.560687
 30
0.0
 11
63.176935
 21
82.259596
 31
0.0
  0
POLYLINE
  5
1D62
100
AcDbEntity
  8
ALPHA
 62
     7
100
AcDb2dPolyline
 66
     1
 10
0.0
 20
0.0
 30
0.0
  0
VERTEX
  5
1D63
100
AcDbEntity
  8
ALPHA
 62
     7
100
AcDbVertex
100
AcDb2dVertex
 10
62.631921
 20
81.465157
 30
0.0
  0
VERTEX
  5
1D64
100
AcDbEntity
  8
ALPHA
 62
     7
100
AcDbVertex
100
AcDb2dVertex
 10
62.608838
 20
81.467913
 30
0.0
  0
VERTEX
  5
1D65
100
AcDbEntity
  8
ALPHA
 62
     7
100
AcDbVertex
100
AcDb2dVertex
 10
62.585756
 20
81.469808
 30
0.0
  0
VERTEX
  5
1D66
100
AcDbEntity
  8
ALPHA
 62
     7
100
AcDbVertex
100
AcDb2dVertex
 10
62.561985
 20
81.470497
 30
0.0
  0
SEQEND
  5
1D67
100
AcDbEntity
  8
ALPHA
 62
     7
  0
POLYLINE
  5
1D68
100
AcDbEntity
  8
ALPHA
 62
     7
100
AcDb2dPolyline
 66
     1
 10
0.0
 20
0.0
 30
0.0
  0
VERTEX
  5
1D69
100
AcDbEntity
  8
ALPHA
 62
     7
100
AcDbVertex
100
AcDb2dVertex
 10
62.560607
 20
81.460334
 30
0.0
  0
VERTEX
  5
1D6A
100
AcDbEntity
  8
ALPHA
 62
     7
100
AcDbVertex
100
AcDb2dVertex
 10
62.584378
 20
81.461023
 30
0.0
  0
VERTEX
  5
1D6B
100
AcDbEntity
  8
ALPHA
 62
     7
100
AcDbVertex
100
AcDb2dVertex
 10
62.60746
 20
81.462401
 30
0.0
  0
VERTEX
  5
1D6C
100
AcDbEntity
  8
ALPHA
 62
     7
100
AcDbVertex
100
AcDb2dVertex
 10
62.631921
 20
81.465157
 30
0.0
  0
SEQEND
  5
1D6D
100
AcDbEntity
  8
ALPHA
 62
     7
  0
CIRCLE
  5
1D6E
100
AcDbEntity
  8
ALPHA
 62
     7
100
AcDbCircle
 10
49.286826
 20
156.545157
 30
0.0
 40
3.842832
  0
LINE
  5
1D6F
100
AcDbEntity
  8
ALPHA
 62
     7
100
AcDbLine
 10
54.373682
 20
163.935748
 30
0.0
 11
39.531522
 21
163.935748
 31
0.0
  0
LINE
  5
1D70
100
AcDbEntity
  8
ALPHA
 62
     7
100
AcDbLine
 10
48.148739
 20
158.515923
 30
0.0
 11
50.424569
 21
158.515923
 31
0.0
  0
LINE
  5
1D71
100
AcDbEntity
  8
ALPHA
 62
     7
100
AcDbLine
 10
50.424569
 20
154.574562
 30
0.0
 11
48.148739
 21
154.574562
 31
0.0
  0
LINE
  5
1D72
100
AcDbEntity
  8
ALPHA
 62
     7
100
AcDbLine
 10
56.234034
 20
148.957851
 30
0.0
 11
39.531522
 21
148.957851
 31
0.0
  0
LINE
  5
1D73
100
AcDbEntity
  8
ALPHA
 62
     7
100
AcDbLine
 10
45.939744
 20
137.014394
 30
0.0
 11
51.099808
 21
137.014394
 31
0.0
  0
POLYLINE
  5
1D74
100
AcDbEntity
  8
ALPHA
 62
     7
100
AcDb2dPolyline
 66
     1
 10
0.0
 20
0.0
 30
0.0
  0
VERTEX
  5
1D75
100
AcDbEntity
  8
ALPHA
 62
     7
100
AcDbVertex
100
AcDb2dVertex
 10
40.373159
 20
137.057457
 30
0.0
  0
VERTEX
  5
1D76
100
AcDbEntity
  8
ALPHA
 62
     7
100
AcDbVertex
100
AcDb2dVertex
 10
46.932965
 20
137.072099
 30
0.0
  0
VERTEX
  5
1D77
100
AcDbEntity
  8
ALPHA
 62
     7
100
AcDbVertex
100
AcDb2dVertex
 10
53.518954
 20
137.082606
 30
0.0
  0
VERTEX
  5
1D78
100
AcDbEntity
  8
ALPHA
 62
     7
100
AcDbVertex
100
AcDb2dVertex
 10
60.122513
 20
137.089152
 30
0.0
  0
SEQEND
  5
1D79
100
AcDbEntity
  8
ALPHA
 62
     7
  0
POLYLINE
  5
1D7A
100
AcDbEntity
  8
ALPHA
 62
     7
100
AcDb2dPolyline
 66
     1
 10
0.0
 20
0.0
 30
0.0
  0
VERTEX
  5
1D7B
100
AcDbEntity
  8
ALPHA
 62
     7
100
AcDbVertex
100
AcDb2dVertex
 10
53.864497
 20
156.545157
 30
0.0
  0
VERTEX
  5
1D7C
100
AcDbEntity
  8
ALPHA
 62
     7
100
AcDbVertex
100
AcDb2dVertex
 10
53.762522
 20
157.510989
 30
0.0
  0
VERTEX
  5
1D7D
100
AcDbEntity
  8
ALPHA
 62
     7
100
AcDbVertex
100
AcDb2dVertex
 10
53.460387
 20
158.433069
 30
0.0
  0
VERTEX
  5
1D7E
100
AcDbEntity
  8
ALPHA
 62
     7
100
AcDbVertex
100
AcDb2dVertex
 10
52.974973
 20
159.269194
 30
0.0
  0
VERTEX
  5
1D7F
100
AcDbEntity
  8
ALPHA
 62
     7
100
AcDbVertex
100
AcDb2dVertex
 10
52.330741
 20
159.982845
 30
0.0
  0
VERTEX
  5
1D80
100
AcDbEntity
  8
ALPHA
 62
     7
100
AcDbVertex
100
AcDb2dVertex
 10
51.549737
 20
160.55008
 30
0.0
  0
VERTEX
  5
1D81
100
AcDbEntity
  8
ALPHA
 62
     7
100
AcDbVertex
100
AcDb2dVertex
 10
50.66297
 20
160.945922
 30
0.0
  0
VERTEX
  5
1D82
100
AcDbEntity
  8
ALPHA
 62
     7
100
AcDbVertex
100
AcDb2dVertex
 10
49.712812
 20
161.150043
 30
0.0
  0
VERTEX
  5
1D83
100
AcDbEntity
  8
ALPHA
 62
     7
100
AcDbVertex
100
AcDb2dVertex
 10
48.740262
 20
161.152627
 30
0.0
  0
VERTEX
  5
1D84
100
AcDbEntity
  8
ALPHA
 62
     7
100
AcDbVertex
100
AcDb2dVertex
 10
47.786315
 20
160.953156
 30
0.0
  0
VERTEX
  5
1D85
100
AcDbEntity
  8
ALPHA
 62
     7
100
AcDbVertex
100
AcDb2dVertex
 10
46.894724
 20
160.559899
 30
0.0
  0
VERTEX
  5
1D86
100
AcDbEntity
  8
ALPHA
 62
     7
100
AcDbVertex
100
AcDb2dVertex
 10
46.107865
 20
159.992664
 30
0.0
  0
VERTEX
  5
1D87
100
AcDbEntity
  8
ALPHA
 62
     7
100
AcDbVertex
100
AcDb2dVertex
 10
45.457431
 20
159.277117
 30
0.0
  0
VERTEX
  5
1D88
100
AcDbEntity
  8
ALPHA
 62
     7
100
AcDbVertex
100
AcDb2dVertex
 10
44.967882
 20
158.43617
 30
0.0
  0
VERTEX
  5
1D89
100
AcDbEntity
  8
ALPHA
 62
     7
100
AcDbVertex
100
AcDb2dVertex
 10
44.66437
 20
157.509956
 30
0.0
  0
VERTEX
  5
1D8A
100
AcDbEntity
  8
ALPHA
 62
     7
100
AcDbVertex
100
AcDb2dVertex
 10
44.562395
 20
156.545157
 30
0.0
  0
SEQEND
  5
1D8B
100
AcDbEntity
  8
ALPHA
 62
     7
  0
POLYLINE
  5
1D8C
100
AcDbEntity
  8
ALPHA
 62
     7
100
AcDb2dPolyline
 66
     1
 10
0.0
 20
0.0
 30
0.0
  0
VERTEX
  5
1D8D
100
AcDbEntity
  8
ALPHA
 62
     7
100
AcDbVertex
100
AcDb2dVertex
 10
44.562395
 20
156.545157
 30
0.0
  0
VERTEX
  5
1D8E
100
AcDbEntity
  8
ALPHA
 62
     7
100
AcDbVertex
100
AcDb2dVertex
 10
44.663681
 20
155.583803
 30
0.0
  0
VERTEX
  5
1D8F
100
AcDbEntity
  8
ALPHA
 62
     7
100
AcDbVertex
100
AcDb2dVertex
 10
44.963404
 20
154.664134
 30
0.0
  0
VERTEX
  5
1D90
100
AcDbEntity
  8
ALPHA
 62
     7
100
AcDbVertex
100
AcDb2dVertex
 10
45.446406
 20
153.82801
 30
0.0
  0
VERTEX
  5
1D91
100
AcDbEntity
  8
ALPHA
 62
     7
100
AcDbVertex
100
AcDb2dVertex
 10
46.088917
 20
153.114703
 30
0.0
  0
VERTEX
  5
1D92
100
AcDbEntity
  8
ALPHA
 62
     7
100
AcDbVertex
100
AcDb2dVertex
 10
46.868542
 20
152.545745
 30
0.0
  0
VERTEX
  5
1D93
100
AcDbEntity
  8
ALPHA
 62
     7
100
AcDbVertex
100
AcDb2dVertex
 10
47.755309
 20
152.147148
 30
0.0
  0
VERTEX
  5
1D94
100
AcDbEntity
  8
ALPHA
 62
     7
100
AcDbVertex
100
AcDb2dVertex
 10
48.707534
 20
151.941131
 30
0.0
  0
VERTEX
  5
1D95
100
AcDbEntity
  8
ALPHA
 62
     7
100
AcDbVertex
100
AcDb2dVertex
 10
49.681807
 20
151.937341
 30
0.0
  0
VERTEX
  5
1D96
100
AcDbEntity
  8
ALPHA
 62
     7
100
AcDbVertex
100
AcDb2dVertex
 10
50.636787
 20
152.135951
 30
0.0
  0
VERTEX
  5
1D97
100
AcDbEntity
  8
ALPHA
 62
     7
100
AcDbVertex
100
AcDb2dVertex
 10
51.529411
 20
152.528864
 30
0.0
  0
VERTEX
  5
1D98
100
AcDbEntity
  8
ALPHA
 62
     7
100
AcDbVertex
100
AcDb2dVertex
 10
52.316616
 20
153.09541
 30
0.0
  0
VERTEX
  5
1D99
100
AcDbEntity
  8
ALPHA
 62
     7
100
AcDbVertex
100
AcDb2dVertex
 10
52.96705
 20
153.810095
 30
0.0
  0
VERTEX
  5
1D9A
100
AcDbEntity
  8
ALPHA
 62
     7
100
AcDbVertex
100
AcDb2dVertex
 10
53.456942
 20
154.649493
 30
0.0
  0
VERTEX
  5
1D9B
100
AcDbEntity
  8
ALPHA
 62
     7
100
AcDbVertex
100
AcDb2dVertex
 10
53.762178
 20
155.575707
 30
0.0
  0
VERTEX
  5
1D9C
100
AcDbEntity
  8
ALPHA
 62
     7
100
AcDbVertex
100
AcDb2dVertex
 10
53.864497
 20
156.545157
 30
0.0
  0
SEQEND
  5
1D9D
100
AcDbEntity
  8
ALPHA
 62
     7
  0
LINE
  5
1D9E
100
AcDbEntity
  8
ALPHA
 62
     7
100
AcDbLine
 10
44.352244
 20
136.689177
 30
0.0
 11
40.516475
 21
136.689177
 31
0.0
  0
LINE
  5
1D9F
100
AcDbEntity
  8
ALPHA
 62
     7
100
AcDbLine
 10
47.611993
 20
121.415518
 30
0.0
 11
40.516475
 21
121.415518
 31
0.0
  0
SPLINE
  5
1DA0
100
AcDbEntity
  8
ALPHA
 62
     7
100
AcDbSpline
210
0.0
220
0.0
230
-1.0
 70
     8
 71
     3
 72
     8
 73
     4
 74
     0
 42
0.0000001
 43
0.0000001
 40
0.0
 40
0.0
 40
0.0
 40
0.0
 40
1.0
 40
1.0
 40
1.0
 40
1.0
 10
40.51647457501079
 20
121.4155179386825
 30
0.0
 10
39.97283850730246
 20
121.4155179386825
 30
0.0
 10
39.53152177553162
 20
120.9742012069117
 30
0.0
 10
39.53152177553162
 20
120.4300483748805
 30
0.0
  0
SPLINE
  5
1DA1
100
AcDbEntity
  8
ALPHA
 62
     7
100
AcDbSpline
210
0.0
220
0.0
230
-1.0
 70
     8
 71
     3
 72
     8
 73
     4
 74
     0
 42
0.0000001
 43
0.0000001
 40
0.0
 40
0.0
 40
0.0
 40
0.0
 40
1.0
 40
1.0
 40
1.0
 40
1.0
 10
40.51647457501079
 20
136.6891765215819
 30
0.0
 10
39.97283850730246
 20
136.6891765215819
 30
0.0
 10
39.53152177553162
 20
136.2482042993596
 30
0.0
 10
39.53152177553162
 20
135.7037069577798
 30
0.0
  0
POLYLINE
  5
1DA2
100
AcDbEntity
  8
ALPHA
 62
     7
100
AcDb2dPolyline
 66
     1
 10
0.0
 20
0.0
 30
0.0
  0
VERTEX
  5
1DA3
100
AcDbEntity
  8
ALPHA
 62
     7
100
AcDbVertex
100
AcDb2dVertex
 10
39.531522
 20
137.040576
 30
0.0
  0
VERTEX
  5
1DA4
100
AcDbEntity
  8
ALPHA
 62
     7
100
AcDbVertex
100
AcDb2dVertex
 10
39.571485
 20
137.045399
 30
0.0
  0
VERTEX
  5
1DA5
100
AcDbEntity
  8
ALPHA
 62
     7
100
AcDbVertex
100
AcDb2dVertex
 10
39.687585
 20
137.049706
 30
0.0
  0
VERTEX
  5
1DA6
100
AcDbEntity
  8
ALPHA
 62
     7
100
AcDbVertex
100
AcDb2dVertex
 10
39.869486
 20
137.053495
 30
0.0
  0
VERTEX
  5
1DA7
100
AcDbEntity
  8
ALPHA
 62
     7
100
AcDbVertex
100
AcDb2dVertex
 10
40.104441
 20
137.056251
 30
0.0
  0
VERTEX
  5
1DA8
100
AcDbEntity
  8
ALPHA
 62
     7
100
AcDbVertex
100
AcDb2dVertex
 10
40.373159
 20
137.057457
 30
0.0
  0
SEQEND
  5
1DA9
100
AcDbEntity
  8
ALPHA
 62
     7
  0
LINE
  5
1DAA
100
AcDbEntity
  8
ALPHA
 62
     7
100
AcDbLine
 10
41.009812
 20
101.11581
 30
0.0
 11
46.921941
 21
101.11581
 31
0.0
  0
LINE
  5
1DAB
100
AcDbEntity
  8
ALPHA
 62
     7
100
AcDbLine
 10
45.936988
 20
137.020939
 30
0.0
 11
44.655412
 21
137.020939
 31
0.0
  0
LINE
  5
1DAC
100
AcDbEntity
  8
ALPHA
 62
     7
100
AcDbLine
 10
45.49257
 20
136.689177
 30
0.0
 11
44.359823
 21
136.689177
 31
0.0
  0
LINE
  5
1DAD
100
AcDbEntity
  8
ALPHA
 62
     7
100
AcDbLine
 10
44.557227
 20
128.855202
 30
0.0
 11
44.557227
 21
136.44268
 31
0.0
  0
LINE
  5
1DAE
100
AcDbEntity
  8
ALPHA
 62
     7
100
AcDbLine
 10
44.359823
 20
136.689177
 30
0.0
 11
44.359823
 21
128.855202
 31
0.0
  0
LINE
  5
1DAF
100
AcDbEntity
  8
ALPHA
 62
     7
100
AcDbLine
 10
44.655412
 20
137.020939
 30
0.0
 11
44.490048
 21
136.689177
 31
0.0
  0
LINE
  5
1DB0
100
AcDbEntity
  8
ALPHA
 62
     7
100
AcDbLine
 10
45.939744
 20
136.44268
 30
0.0
 11
45.939744
 21
137.014394
 31
0.0
  0
LINE
  5
1DB1
100
AcDbEntity
  8
ALPHA
 62
     7
100
AcDbLine
 10
45.936988
 20
137.020939
 30
0.0
 11
45.936988
 21
136.44268
 31
0.0
  0
LINE
  5
1DB2
100
AcDbEntity
  8
ALPHA
 62
     7
100
AcDbLine
 10
45.49257
 20
136.689177
 30
0.0
 11
45.49257
 21
136.44268
 31
0.0
  0
LINE
  5
1DB3
100
AcDbEntity
  8
ALPHA
 62
     7
100
AcDbLine
 10
42.222486
 20
165.965598
 30
0.0
 11
39.679316
 21
164.497643
 31
0.0
  0
SPLINE
  5
1DB4
100
AcDbEntity
  8
ALPHA
 62
     7
100
AcDbSpline
210
0.0
220
0.0
230
-1.0
 70
     8
 71
     3
 72
     8
 73
     4
 74
     0
 42
0.0000001
 43
0.0000001
 40
0.0
 40
0.0
 40
0.0
 40
0.0
 40
1.0
 40
1.0
 40
1.0
 40
1.0
 10
39.67931637188579
 20
164.4976427759222
 30
0.0
 10
39.58767683195524
 20
164.444588305436
 30
0.0
 10
39.53152177553162
 20
164.3472643579534
 30
0.0
 10
39.53152177553162
 20
164.2416721813041
 30
0.0
  0
LINE
  5
1DB5
100
AcDbEntity
  8
ALPHA
 62
     7
100
AcDbLine
 10
47.011169
 20
156.545157
 30
0.0
 11
48.148739
 21
154.574562
 31
0.0
  0
LINE
  5
1DB6
100
AcDbEntity
  8
ALPHA
 62
     7
100
AcDbLine
 10
48.148739
 20
158.515923
 30
0.0
 11
47.011169
 21
156.545157
 31
0.0
  0
SPLINE
  5
1DB7
100
AcDbEntity
  8
ALPHA
 62
     7
100
AcDbSpline
210
0.0
220
0.0
230
-1.0
 70
     8
 71
     3
 72
     8
 73
     4
 74
     0
 42
0.0000001
 43
0.0000001
 40
0.0
 40
0.0
 40
0.0
 40
0.0
 40
1.0
 40
1.0
 40
1.0
 40
1.0
 10
42.36959143698995
 20
166.0052165606443
 30
0.0
 10
42.3179150046983
 20
166.0052165606443
 30
0.0
 10
42.26727210105246
 20
165.9916084334742
 30
0.0
 10
42.22248585973302
 20
165.9655979625541
 30
0.0
  0
LINE
  5
1DB8
100
AcDbEntity
  8
ALPHA
 62
     7
100
AcDbLine
 10
62.196116
 20
137.028002
 30
0.0
 11
51.106009
 21
137.028002
 31
0.0
  0
SPLINE
  5
1DB9
100
AcDbEntity
  8
ALPHA
 62
     7
100
AcDbSpline
210
0.0
220
0.0
230
1.0
 70
     8
 71
     3
 72
    11
 73
     7
 74
     0
 42
0.0000001
 43
0.0000001
 40
0.0
 40
0.0
 40
0.0
 40
0.0
 40
1.0
 40
1.0
 40
1.0
 40
2.0
 40
2.0
 40
2.0
 40
2.0
 10
55.34451005678162
 20
102.8552382620333
 30
0.0
 10
55.4430397876844
 20
102.6309625458874
 30
0.0
 10
55.70383351598302
 20
102.5282987004013
 30
0.0
 10
55.92845374167747
 20
102.6261394122069
 30
0.0
 10
56.01389210973302
 20
102.6635186982312
 30
0.0
 10
56.08623911494134
 20
102.7269084551756
 30
0.0
 10
56.13309241355246
 20
102.8073514347763
 30
0.0
  0
SPLINE
  5
1DBA
100
AcDbEntity
  8
ALPHA
 62
     7
100
AcDbSpline
210
0.0
220
0.0
230
-1.0
 70
     8
 71
     3
 72
     8
 73
     4
 74
     0
 42
0.0000001
 43
0.0000001
 40
0.0
 40
0.0
 40
0.0
 40
0.0
 40
1.0
 40
1.0
 40
1.0
 40
1.0
 10
54.5128640064344
 20
102.9093262611652
 30
0.0
 10
54.2617165454969
 20
102.9262072290471
 30
0.0
 10
54.03847435799691
 20
102.7510241235784
 30
0.0
 10
53.9950661548719
 20
102.5036662676756
 30
0.0
  0
SPLINE
  5
1DBB
100
AcDbEntity
  8
ALPHA
 62
     7
100
AcDbSpline
210
0.0
220
0.0
230
1.0
 70
     8
 71
     3
 72
    11
 73
     7
 74
     0
 42
0.0000001
 43
0.0000001
 40
0.0
 40
0.0
 40
0.0
 40
0.0
 40
1.0
 40
1.0
 40
1.0
 40
2.0
 40
2.0
 40
2.0
 40
2.0
 10
56.82417856806635
 20
102.767732836686
 30
0.0
 10
56.92408633716357
 20
102.5439738848631
 30
0.0
 10
57.18591359410802
 20
102.443549351443
 30
0.0
 10
57.40984480070525
 20
102.5429403562173
 30
0.0
 10
57.49493865921217
 20
102.5810086613388
 30
0.0
 10
57.5662521357747
 20
102.6447429278319
 30
0.0
 10
57.61241641528857
 20
102.7251859074326
 30
0.0
  0
SPLINE
  5
1DBC
100
AcDbEntity
  8
ALPHA
 62
     7
100
AcDbSpline
210
0.0
220
0.0
230
1.0
 70
     8
 71
     3
 72
    11
 73
     7
 74
     0
 42
0.0000001
 43
0.0000001
 40
0.0
 40
0.0
 40
0.0
 40
0.0
 40
1.0
 40
1.0
 40
1.0
 40
2.0
 40
2.0
 40
2.0
 40
2.0
 10
58.30419158889969
 20
102.6902181882485
 30
0.0
 10
58.40547739619133
 20
102.4676650198458
 30
0.0
 10
58.66799367223301
 20
102.369135288943
 30
0.0
 10
58.89158036928161
 20
102.470593351009
 30
0.0
 10
58.97564069914275
 20
102.5090061656791
 30
0.0
 10
59.04626515660802
 20
102.5732571964951
 30
0.0
 10
59.0924294361219
 20
102.6537001760958
 30
0.0
  0
LINE
  5
1DBD
100
AcDbEntity
  8
ALPHA
 62
     7
100
AcDbLine
 10
62.343222
 20
140.433651
 30
0.0
 11
60.122513
 21
140.433651
 31
0.0
  0
LINE
  5
1DBE
100
AcDbEntity
  8
ALPHA
 62
     7
100
AcDbLine
 10
62.343222
 20
139.448526
 30
0.0
 11
61.358269
 21
139.448526
 31
0.0
  0
LINE
  5
1DBF
100
AcDbEntity
  8
ALPHA
 62
     7
100
AcDbLine
 10
65.152352
 20
137.126876
 30
0.0
 11
62.196116
 21
137.126876
 31
0.0
  0
LINE
  5
1DC0
100
AcDbEntity
  8
ALPHA
 62
     7
100
AcDbLine
 10
61.03753
 20
137.132905
 30
0.0
 11
60.122513
 21
137.089152
 31
0.0
  0
LINE
  5
1DC1
100
AcDbEntity
  8
ALPHA
 62
     7
100
AcDbLine
 10
60.122513
 20
140.433651
 30
0.0
 11
60.122513
 21
137.089152
 31
0.0
  0
LINE
  5
1DC2
100
AcDbEntity
  8
ALPHA
 62
     7
100
AcDbLine
 10
61.358269
 20
139.448526
 30
0.0
 11
60.737118
 21
140.433651
 31
0.0
  0
LINE
  5
1DC3
100
AcDbEntity
  8
ALPHA
 62
     7
100
AcDbLine
 10
61.358269
 20
137.641056
 30
0.0
 11
61.03753
 21
137.132905
 31
0.0
  0
LINE
  5
1DC4
100
AcDbEntity
  8
ALPHA
 62
     7
100
AcDbLine
 10
61.358269
 20
139.448526
 30
0.0
 11
61.358269
 21
137.641056
 31
0.0
  0
LINE
  5
1DC5
100
AcDbEntity
  8
ALPHA
 62
     7
100
AcDbLine
 10
62.196116
 20
137.028002
 30
0.0
 11
62.196116
 21
137.126876
 31
0.0
  0
LINE
  5
1DC6
100
AcDbEntity
  8
ALPHA
 62
     7
100
AcDbLine
 10
62.343222
 20
138.955533
 30
0.0
 11
62.343222
 21
140.433651
 31
0.0
  0
LINE
  5
1DC7
100
AcDbEntity
  8
ALPHA
 62
     7
100
AcDbLine
 10
65.152352
 20
137.126876
 30
0.0
 11
65.152352
 21
137.028002
 31
0.0
  0
POLYLINE
  5
1DC8
100
AcDbEntity
  8
ALPHA
 62
     7
100
AcDb2dPolyline
 66
     1
 10
0.0
 20
0.0
 30
0.0
  0
VERTEX
  5
1DC9
100
AcDbEntity
  8
ALPHA
 62
     7
100
AcDbVertex
100
AcDb2dVertex
 10
55.779626
 20
144.177781
 30
0.0
  0
VERTEX
  5
1DCA
100
AcDbEntity
  8
ALPHA
 62
     7
100
AcDbVertex
100
AcDb2dVertex
 10
56.042142
 20
144.035326
 30
0.0
  0
VERTEX
  5
1DCB
100
AcDbEntity
  8
ALPHA
 62
     7
100
AcDbVertex
100
AcDb2dVertex
 10
56.355646
 20
143.906996
 30
0.0
  0
VERTEX
  5
1DCC
100
AcDbEntity
  8
ALPHA
 62
     7
100
AcDbVertex
100
AcDb2dVertex
 10
56.722893
 20
143.797959
 30
0.0
  0
VERTEX
  5
1DCD
100
AcDbEntity
  8
ALPHA
 62
     7
100
AcDbVertex
100
AcDb2dVertex
 10
57.151463
 20
143.714415
 30
0.0
  0
VERTEX
  5
1DCE
100
AcDbEntity
  8
ALPHA
 62
     7
100
AcDbVertex
100
AcDb2dVertex
 10
57.649623
 20
143.666528
 30
0.0
  0
VERTEX
  5
1DCF
100
AcDbEntity
  8
ALPHA
 62
     7
100
AcDbVertex
100
AcDb2dVertex
 10
58.178101
 20
143.668251
 30
0.0
  0
VERTEX
  5
1DD0
100
AcDbEntity
  8
ALPHA
 62
     7
100
AcDbVertex
100
AcDb2dVertex
 10
58.665927
 20
143.71786
 30
0.0
  0
VERTEX
  5
1DD1
100
AcDbEntity
  8
ALPHA
 62
     7
100
AcDbVertex
100
AcDb2dVertex
 10
59.088295
 20
143.801748
 30
0.0
  0
VERTEX
  5
1DD2
100
AcDbEntity
  8
ALPHA
 62
     7
100
AcDbVertex
100
AcDb2dVertex
 10
59.450719
 20
143.910958
 30
0.0
  0
VERTEX
  5
1DD3
100
AcDbEntity
  8
ALPHA
 62
     7
100
AcDbVertex
100
AcDb2dVertex
 10
59.760778
 20
144.038943
 30
0.0
  0
SEQEND
  5
1DD4
100
AcDbEntity
  8
ALPHA
 62
     7
  0
POLYLINE
  5
1DD5
100
AcDbEntity
  8
ALPHA
 62
     7
100
AcDb2dPolyline
 66
     1
 10
0.0
 20
0.0
 30
0.0
  0
VERTEX
  5
1DD6
100
AcDbEntity
  8
ALPHA
 62
     7
100
AcDbVertex
100
AcDb2dVertex
 10
54.433971
 20
163.322004
 30
0.0
  0
VERTEX
  5
1DD7
100
AcDbEntity
  8
ALPHA
 62
     7
100
AcDbVertex
100
AcDb2dVertex
 10
54.464633
 20
163.145787
 30
0.0
  0
VERTEX
  5
1DD8
100
AcDbEntity
  8
ALPHA
 62
     7
100
AcDbVertex
100
AcDb2dVertex
 10
54.522166
 20
162.967159
 30
0.0
  0
VERTEX
  5
1DD9
100
AcDbEntity
  8
ALPHA
 62
     7
100
AcDbVertex
100
AcDb2dVertex
 10
54.611394
 20
162.786292
 30
0.0
  0
VERTEX
  5
1DDA
100
AcDbEntity
  8
ALPHA
 62
     7
100
AcDbVertex
100
AcDb2dVertex
 10
54.734384
 20
162.604391
 30
0.0
  0
VERTEX
  5
1DDB
100
AcDbEntity
  8
ALPHA
 62
     7
100
AcDbVertex
100
AcDb2dVertex
 10
54.896992
 20
162.422662
 30
0.0
  0
VERTEX
  5
1DDC
100
AcDbEntity
  8
ALPHA
 62
     7
100
AcDbVertex
100
AcDb2dVertex
 10
55.105765
 20
162.242828
 30
0.0
  0
VERTEX
  5
1DDD
100
AcDbEntity
  8
ALPHA
 62
     7
100
AcDbVertex
100
AcDb2dVertex
 10
55.365525
 20
162.067989
 30
0.0
  0
VERTEX
  5
1DDE
100
AcDbEntity
  8
ALPHA
 62
     7
100
AcDbVertex
100
AcDb2dVertex
 10
55.681785
 20
161.903658
 30
0.0
  0
VERTEX
  5
1DDF
100
AcDbEntity
  8
ALPHA
 62
     7
100
AcDbVertex
100
AcDb2dVertex
 10
56.0573
 20
161.755347
 30
0.0
  0
VERTEX
  5
1DE0
100
AcDbEntity
  8
ALPHA
 62
     7
100
AcDbVertex
100
AcDb2dVertex
 10
56.498962
 20
161.628912
 30
0.0
  0
VERTEX
  5
1DE1
100
AcDbEntity
  8
ALPHA
 62
     7
100
AcDbVertex
100
AcDb2dVertex
 10
57.012281
 20
161.532621
 30
0.0
  0
VERTEX
  5
1DE2
100
AcDbEntity
  8
ALPHA
 62
     7
100
AcDbVertex
100
AcDb2dVertex
 10
57.596569
 20
161.478878
 30
0.0
  0
VERTEX
  5
1DE3
100
AcDbEntity
  8
ALPHA
 62
     7
100
AcDbVertex
100
AcDb2dVertex
 10
58.208418
 20
161.480256
 30
0.0
  0
VERTEX
  5
1DE4
100
AcDbEntity
  8
ALPHA
 62
     7
100
AcDbVertex
100
AcDb2dVertex
 10
58.785127
 20
161.536239
 30
0.0
  0
VERTEX
  5
1DE5
100
AcDbEntity
  8
ALPHA
 62
     7
100
AcDbVertex
100
AcDb2dVertex
 10
59.292245
 20
161.63339
 30
0.0
  0
VERTEX
  5
1DE6
100
AcDbEntity
  8
ALPHA
 62
     7
100
AcDbVertex
100
AcDb2dVertex
 10
59.726672
 20
161.759309
 30
0.0
  0
VERTEX
  5
1DE7
100
AcDbEntity
  8
ALPHA
 62
     7
100
AcDbVertex
100
AcDb2dVertex
 10
60.098742
 20
161.907103
 30
0.0
  0
VERTEX
  5
1DE8
100
AcDbEntity
  8
ALPHA
 62
     7
100
AcDbVertex
100
AcDb2dVertex
 10
60.411212
 20
162.070573
 30
0.0
  0
VERTEX
  5
1DE9
100
AcDbEntity
  8
ALPHA
 62
     7
100
AcDbVertex
100
AcDb2dVertex
 10
60.668905
 20
162.244206
 30
0.0
  0
VERTEX
  5
1DEA
100
AcDbEntity
  8
ALPHA
 62
     7
100
AcDbVertex
100
AcDb2dVertex
 10
60.8763
 20
162.422662
 30
0.0
  0
VERTEX
  5
1DEB
100
AcDbEntity
  8
ALPHA
 62
     7
100
AcDbVertex
100
AcDb2dVertex
 10
61.038219
 20
162.604046
 30
0.0
  0
VERTEX
  5
1DEC
100
AcDbEntity
  8
ALPHA
 62
     7
100
AcDbVertex
100
AcDb2dVertex
 10
61.161898
 20
162.786292
 30
0.0
  0
VERTEX
  5
1DED
100
AcDbEntity
  8
ALPHA
 62
     7
100
AcDbVertex
100
AcDb2dVertex
 10
61.250437
 20
162.967504
 30
0.0
  0
VERTEX
  5
1DEE
100
AcDbEntity
  8
ALPHA
 62
     7
100
AcDbVertex
100
AcDb2dVertex
 10
61.30797
 20
163.145787
 30
0.0
  0
VERTEX
  5
1DEF
100
AcDbEntity
  8
ALPHA
 62
     7
100
AcDbVertex
100
AcDb2dVertex
 10
61.338632
 20
163.322004
 30
0.0
  0
SEQEND
  5
1DF0
100
AcDbEntity
  8
ALPHA
 62
     7
  0
LINE
  5
1DF1
100
AcDbEntity
  8
ALPHA
 62
     7
100
AcDbLine
 10
51.562829
 20
156.545157
 30
0.0
 11
50.424569
 21
158.515923
 31
0.0
  0
LINE
  5
1DF2
100
AcDbEntity
  8
ALPHA
 62
     7
100
AcDbLine
 10
50.424569
 20
154.574562
 30
0.0
 11
51.562829
 21
156.545157
 31
0.0
  0
POLYLINE
  5
1DF3
100
AcDbEntity
  8
ALPHA
 62
     7
100
AcDb2dPolyline
 66
     1
 10
0.0
 20
0.0
 30
0.0
  0
VERTEX
  5
1DF4
100
AcDbEntity
  8
ALPHA
 62
     7
100
AcDbVertex
100
AcDb2dVertex
 10
56.219909
 20
146.468425
 30
0.0
  0
VERTEX
  5
1DF5
100
AcDbEntity
  8
ALPHA
 62
     7
100
AcDbVertex
100
AcDb2dVertex
 10
55.929832
 20
146.334238
 30
0.0
  0
VERTEX
  5
1DF6
100
AcDbEntity
  8
ALPHA
 62
     7
100
AcDbVertex
100
AcDb2dVertex
 10
55.686608
 20
146.18696
 30
0.0
  0
VERTEX
  5
1DF7
100
AcDbEntity
  8
ALPHA
 62
     7
100
AcDbVertex
100
AcDb2dVertex
 10
55.491271
 20
146.032103
 30
0.0
  0
VERTEX
  5
1DF8
100
AcDbEntity
  8
ALPHA
 62
     7
100
AcDbVertex
100
AcDb2dVertex
 10
55.34072
 20
145.874318
 30
0.0
  0
VERTEX
  5
1DF9
100
AcDbEntity
  8
ALPHA
 62
     7
100
AcDbVertex
100
AcDb2dVertex
 10
55.229788
 20
145.717049
 30
0.0
  0
VERTEX
  5
1DFA
100
AcDbEntity
  8
ALPHA
 62
     7
100
AcDbVertex
100
AcDb2dVertex
 10
55.153307
 20
145.562192
 30
0.0
  0
VERTEX
  5
1DFB
100
AcDbEntity
  8
ALPHA
 62
     7
100
AcDbVertex
100
AcDb2dVertex
 10
55.106454
 20
145.409574
 30
0.0
  0
VERTEX
  5
1DFC
100
AcDbEntity
  8
ALPHA
 62
     7
100
AcDbVertex
100
AcDb2dVertex
 10
55.086472
 20
145.258163
 30
0.0
  0
VERTEX
  5
1DFD
100
AcDbEntity
  8
ALPHA
 62
     7
100
AcDbVertex
100
AcDb2dVertex
 10
55.091296
 20
145.107095
 30
0.0
  0
VERTEX
  5
1DFE
100
AcDbEntity
  8
ALPHA
 62
     7
100
AcDbVertex
100
AcDb2dVertex
 10
55.121957
 20
144.955339
 30
0.0
  0
VERTEX
  5
1DFF
100
AcDbEntity
  8
ALPHA
 62
     7
100
AcDbVertex
100
AcDb2dVertex
 10
55.180179
 20
144.801515
 30
0.0
  0
VERTEX
  5
1E00
100
AcDbEntity
  8
ALPHA
 62
     7
100
AcDbVertex
100
AcDb2dVertex
 10
55.270441
 20
144.64528
 30
0.0
  0
VERTEX
  5
1E01
100
AcDbEntity
  8
ALPHA
 62
     7
100
AcDbVertex
100
AcDb2dVertex
 10
55.396876
 20
144.487495
 30
0.0
  0
VERTEX
  5
1E02
100
AcDbEntity
  8
ALPHA
 62
     7
100
AcDbVertex
100
AcDb2dVertex
 10
55.565341
 20
144.330226
 30
0.0
  0
VERTEX
  5
1E03
100
AcDbEntity
  8
ALPHA
 62
     7
100
AcDbVertex
100
AcDb2dVertex
 10
55.779626
 20
144.177781
 30
0.0
  0
SEQEND
  5
1E04
100
AcDbEntity
  8
ALPHA
 62
     7
  0
LINE
  5
1E05
100
AcDbEntity
  8
ALPHA
 62
     7
100
AcDbLine
 10
56.219909
 20
146.468425
 30
0.0
 11
56.219909
 21
148.957851
 31
0.0
  0
LINE
  5
1E06
100
AcDbEntity
  8
ALPHA
 62
     7
100
AcDbLine
 10
54.373682
 20
163.935748
 30
0.0
 11
54.433971
 21
163.322004
 31
0.0
  0
POLYLINE
  5
1E07
100
AcDbEntity
  8
ALPHA
 62
     7
100
AcDb2dPolyline
 66
     1
 10
0.0
 20
0.0
 30
0.0
  0
VERTEX
  5
1E08
100
AcDbEntity
  8
ALPHA
 62
     7
100
AcDbVertex
100
AcDb2dVertex
 10
59.760778
 20
144.038943
 30
0.0
  0
VERTEX
  5
1E09
100
AcDbEntity
  8
ALPHA
 62
     7
100
AcDbVertex
100
AcDb2dVertex
 10
60.019849
 20
144.181226
 30
0.0
  0
VERTEX
  5
1E0A
100
AcDbEntity
  8
ALPHA
 62
     7
100
AcDbVertex
100
AcDb2dVertex
 10
60.232412
 20
144.332982
 30
0.0
  0
VERTEX
  5
1E0B
100
AcDbEntity
  8
ALPHA
 62
     7
100
AcDbVertex
100
AcDb2dVertex
 10
60.399499
 20
144.489562
 30
0.0
  0
VERTEX
  5
1E0C
100
AcDbEntity
  8
ALPHA
 62
     7
100
AcDbVertex
100
AcDb2dVertex
 10
60.5249
 20
144.646658
 30
0.0
  0
VERTEX
  5
1E0D
100
AcDbEntity
  8
ALPHA
 62
     7
100
AcDbVertex
100
AcDb2dVertex
 10
60.614473
 20
144.802549
 30
0.0
  0
VERTEX
  5
1E0E
100
AcDbEntity
  8
ALPHA
 62
     7
100
AcDbVertex
100
AcDb2dVertex
 10
60.673039
 20
144.956372
 30
0.0
  0
VERTEX
  5
1E0F
100
AcDbEntity
  8
ALPHA
 62
     7
100
AcDbVertex
100
AcDb2dVertex
 10
60.703701
 20
145.107956
 30
0.0
  0
VERTEX
  5
1E10
100
AcDbEntity
  8
ALPHA
 62
     7
100
AcDbVertex
100
AcDb2dVertex
 10
60.708179
 20
145.259368
 30
0.0
  0
VERTEX
  5
1E11
100
AcDbEntity
  8
ALPHA
 62
     7
100
AcDbVertex
100
AcDb2dVertex
 10
60.688198
 20
145.41078
 30
0.0
  0
VERTEX
  5
1E12
100
AcDbEntity
  8
ALPHA
 62
     7
100
AcDbVertex
100
AcDb2dVertex
 10
60.641344
 20
145.563915
 30
0.0
  0
VERTEX
  5
1E13
100
AcDbEntity
  8
ALPHA
 62
     7
100
AcDbVertex
100
AcDb2dVertex
 10
60.56383
 20
145.719116
 30
0.0
  0
VERTEX
  5
1E14
100
AcDbEntity
  8
ALPHA
 62
     7
100
AcDbVertex
100
AcDb2dVertex
 10
60.453242
 20
145.875868
 30
0.0
  0
VERTEX
  5
1E15
100
AcDbEntity
  8
ALPHA
 62
     7
100
AcDbVertex
100
AcDb2dVertex
 10
60.302347
 20
146.033137
 30
0.0
  0
VERTEX
  5
1E16
100
AcDbEntity
  8
ALPHA
 62
     7
100
AcDbVertex
100
AcDb2dVertex
 10
60.107355
 20
146.187649
 30
0.0
  0
VERTEX
  5
1E17
100
AcDbEntity
  8
ALPHA
 62
     7
100
AcDbVertex
100
AcDb2dVertex
 10
59.865164
 20
146.334238
 30
0.0
  0
VERTEX
  5
1E18
100
AcDbEntity
  8
ALPHA
 62
     7
100
AcDbVertex
100
AcDb2dVertex
 10
59.575432
 20
146.468425
 30
0.0
  0
SEQEND
  5
1E19
100
AcDbEntity
  8
ALPHA
 62
     7
  0
LINE
  5
1E1A
100
AcDbEntity
  8
ALPHA
 62
     7
100
AcDbLine
 10
59.575432
 20
148.957506
 30
0.0
 11
59.575432
 21
146.468425
 31
0.0
  0
LINE
  5
1E1B
100
AcDbEntity
  8
ALPHA
 62
     7
100
AcDbLine
 10
64.255939
 20
156.545157
 30
0.0
 11
65.394198
 21
154.574562
 31
0.0
  0
LINE
  5
1E1C
100
AcDbEntity
  8
ALPHA
 62
     7
100
AcDbLine
 10
65.394198
 20
158.515923
 30
0.0
 11
64.255939
 21
156.545157
 31
0.0
  0
LINE
  5
1E1D
100
AcDbEntity
  8
ALPHA
 62
     7
100
AcDbLine
 10
61.338632
 20
163.322004
 30
0.0
 11
61.398921
 21
163.935748
 31
0.0
  0
SPLINE
  5
1E1E
100
AcDbEntity
  8
ALPHA
 62
     7
100
AcDbSpline
210
0.0
220
0.0
230
1.0
 70
     8
 71
     3
 72
     8
 73
     4
 74
     0
 42
0.0000001
 43
0.0000001
 40
0.0
 40
0.0
 40
0.0
 40
0.0
 40
1.0
 40
1.0
 40
1.0
 40
1.0
 10
82.78986324688579
 20
95.90682517609579
 30
0.0
 10
83.52711368091357
 20
98.07000063182497
 30
0.0
 10
83.52711368091357
 20
100.4171441865124
 30
0.0
 10
82.78986324688579
 20
102.5810086613388
 30
0.0
  0
LINE
  5
1E1F
100
AcDbEntity
  8
ALPHA
 62
     7
100
AcDbLine
 10
93.531671
 20
137.020939
 30
0.0
 11
93.531671
 21
53.126491
 31
0.0
  0
LINE
  5
1E20
100
AcDbEntity
  8
ALPHA
 62
     7
100
AcDbLine
 10
85.4512
 20
77.08713
 30
0.0
 11
85.4512
 21
128.855202
 31
0.0
  0
LINE
  5
1E21
100
AcDbEntity
  8
ALPHA
 62
     7
100
AcDbLine
 10
84.662962
 20
57.659892
 30
0.0
 11
84.662962
 21
128.855029
 31
0.0
  0
CIRCLE
  5
1E22
100
AcDbEntity
  8
ALPHA
 62
     7
100
AcDbCircle
 10
83.776194
 20
45.243079
 30
0.0
 40
3.843004
  0
POLYLINE
  5
1E23
100
AcDbEntity
  8
ALPHA
 62
     7
100
AcDb2dPolyline
 66
     1
 10
0.0
 20
0.0
 30
0.0
  0
VERTEX
  5
1E24
100
AcDbEntity
  8
ALPHA
 62
     7
100
AcDbVertex
100
AcDb2dVertex
 10
88.500454
 20
45.243079
 30
0.0
  0
VERTEX
  5
1E25
100
AcDbEntity
  8
ALPHA
 62
     7
100
AcDbVertex
100
AcDb2dVertex
 10
88.399168
 20
46.20426
 30
0.0
  0
VERTEX
  5
1E26
100
AcDbEntity
  8
ALPHA
 62
     7
100
AcDbVertex
100
AcDb2dVertex
 10
88.100133
 20
47.124445
 30
0.0
  0
VERTEX
  5
1E27
100
AcDbEntity
  8
ALPHA
 62
     7
100
AcDbVertex
100
AcDb2dVertex
 10
87.616442
 20
47.960226
 30
0.0
  0
VERTEX
  5
1E28
100
AcDbEntity
  8
ALPHA
 62
     7
100
AcDbVertex
100
AcDb2dVertex
 10
86.974276
 20
48.673705
 30
0.0
  0
VERTEX
  5
1E29
100
AcDbEntity
  8
ALPHA
 62
     7
100
AcDbVertex
100
AcDb2dVertex
 10
86.194996
 20
49.242835
 30
0.0
  0
VERTEX
  5
1E2A
100
AcDbEntity
  8
ALPHA
 62
     7
100
AcDbVertex
100
AcDb2dVertex
 10
85.308228
 20
49.641432
 30
0.0
  0
VERTEX
  5
1E2B
100
AcDbEntity
  8
ALPHA
 62
     7
100
AcDbVertex
100
AcDb2dVertex
 10
84.355315
 20
49.847104
 30
0.0
  0
VERTEX
  5
1E2C
100
AcDbEntity
  8
ALPHA
 62
     7
100
AcDbVertex
100
AcDb2dVertex
 10
83.381042
 20
49.851238
 30
0.0
  0
VERTEX
  5
1E2D
100
AcDbEntity
  8
ALPHA
 62
     7
100
AcDbVertex
100
AcDb2dVertex
 10
82.426406
 20
49.652112
 30
0.0
  0
VERTEX
  5
1E2E
100
AcDbEntity
  8
ALPHA
 62
     7
100
AcDbVertex
100
AcDb2dVertex
 10
81.533781
 20
49.259716
 30
0.0
  0
VERTEX
  5
1E2F
100
AcDbEntity
  8
ALPHA
 62
     7
100
AcDbVertex
100
AcDb2dVertex
 10
80.746922
 20
48.692653
 30
0.0
  0
VERTEX
  5
1E30
100
AcDbEntity
  8
ALPHA
 62
     7
100
AcDbVertex
100
AcDb2dVertex
 10
80.096488
 20
47.978485
 30
0.0
  0
VERTEX
  5
1E31
100
AcDbEntity
  8
ALPHA
 62
     7
100
AcDbVertex
100
AcDb2dVertex
 10
79.605906
 20
47.13857
 30
0.0
  0
VERTEX
  5
1E32
100
AcDbEntity
  8
ALPHA
 62
     7
100
AcDbVertex
100
AcDb2dVertex
 10
79.302049
 20
46.212529
 30
0.0
  0
VERTEX
  5
1E33
100
AcDbEntity
  8
ALPHA
 62
     7
100
AcDbVertex
100
AcDb2dVertex
 10
79.198696
 20
45.243079
 30
0.0
  0
SEQEND
  5
1E34
100
AcDbEntity
  8
ALPHA
 62
     7
  0
POLYLINE
  5
1E35
100
AcDbEntity
  8
ALPHA
 62
     7
100
AcDb2dPolyline
 66
     1
 10
0.0
 20
0.0
 30
0.0
  0
VERTEX
  5
1E36
100
AcDbEntity
  8
ALPHA
 62
     7
100
AcDbVertex
100
AcDb2dVertex
 10
79.198696
 20
45.243079
 30
0.0
  0
VERTEX
  5
1E37
100
AcDbEntity
  8
ALPHA
 62
     7
100
AcDbVertex
100
AcDb2dVertex
 10
79.300671
 20
44.277418
 30
0.0
  0
VERTEX
  5
1E38
100
AcDbEntity
  8
ALPHA
 62
     7
100
AcDbVertex
100
AcDb2dVertex
 10
79.602461
 20
43.355511
 30
0.0
  0
VERTEX
  5
1E39
100
AcDbEntity
  8
ALPHA
 62
     7
100
AcDbVertex
100
AcDb2dVertex
 10
80.088219
 20
42.519042
 30
0.0
  0
VERTEX
  5
1E3A
100
AcDbEntity
  8
ALPHA
 62
     7
100
AcDbVertex
100
AcDb2dVertex
 10
80.732452
 20
41.805218
 30
0.0
  0
VERTEX
  5
1E3B
100
AcDbEntity
  8
ALPHA
 62
     7
100
AcDbVertex
100
AcDb2dVertex
 10
81.513111
 20
41.2385
 30
0.0
  0
VERTEX
  5
1E3C
100
AcDbEntity
  8
ALPHA
 62
     7
100
AcDbVertex
100
AcDb2dVertex
 10
82.399878
 20
40.842658
 30
0.0
  0
VERTEX
  5
1E3D
100
AcDbEntity
  8
ALPHA
 62
     7
100
AcDbVertex
100
AcDb2dVertex
 10
83.350725
 20
40.639053
 30
0.0
  0
VERTEX
  5
1E3E
100
AcDbEntity
  8
ALPHA
 62
     7
100
AcDbVertex
100
AcDb2dVertex
 10
84.322931
 20
40.636297
 30
0.0
  0
VERTEX
  5
1E3F
100
AcDbEntity
  8
ALPHA
 62
     7
100
AcDbVertex
100
AcDb2dVertex
 10
85.276533
 20
40.835079
 30
0.0
  0
VERTEX
  5
1E40
100
AcDbEntity
  8
ALPHA
 62
     7
100
AcDbVertex
100
AcDb2dVertex
 10
86.168124
 20
41.228164
 30
0.0
  0
VERTEX
  5
1E41
100
AcDbEntity
  8
ALPHA
 62
     7
100
AcDbVertex
100
AcDb2dVertex
 10
86.955673
 20
41.795916
 30
0.0
  0
VERTEX
  5
1E42
100
AcDbEntity
  8
ALPHA
 62
     7
100
AcDbVertex
100
AcDb2dVertex
 10
87.605418
 20
42.511462
 30
0.0
  0
VERTEX
  5
1E43
100
AcDbEntity
  8
ALPHA
 62
     7
100
AcDbVertex
100
AcDb2dVertex
 10
88.095999
 20
43.352755
 30
0.0
  0
VERTEX
  5
1E44
100
AcDbEntity
  8
ALPHA
 62
     7
100
AcDbVertex
100
AcDb2dVertex
 10
88.398479
 20
44.278107
 30
0.0
  0
VERTEX
  5
1E45
100
AcDbEntity
  8
ALPHA
 62
     7
100
AcDbVertex
100
AcDb2dVertex
 10
88.500454
 20
45.243079
 30
0.0
  0
SEQEND
  5
1E46
100
AcDbEntity
  8
ALPHA
 62
     7
  0
LINE
  5
1E47
100
AcDbEntity
  8
ALPHA
 62
     7
100
AcDbLine
 10
76.89496
 20
53.126491
 30
0.0
 11
93.531671
 21
53.126491
 31
0.0
  0
LINE
  5
1E48
100
AcDbEntity
  8
ALPHA
 62
     7
100
AcDbLine
 10
82.638279
 20
47.214018
 30
0.0
 11
84.914109
 21
47.214018
 31
0.0
  0
LINE
  5
1E49
100
AcDbEntity
  8
ALPHA
 62
     7
100
AcDbLine
 10
84.914109
 20
43.272484
 30
0.0
 11
82.638279
 21
43.272484
 31
0.0
  0
LINE
  5
1E4A
100
AcDbEntity
  8
ALPHA
 62
     7
100
AcDbLine
 10
78.657471
 20
37.360011
 30
0.0
 11
93.039367
 21
37.360011
 31
0.0
  0
POLYLINE
  5
1E4B
100
AcDbEntity
  8
ALPHA
 62
     7
100
AcDb2dPolyline
 66
     1
 10
0.0
 20
0.0
 30
0.0
  0
VERTEX
  5
1E4C
100
AcDbEntity
  8
ALPHA
 62
     7
100
AcDbVertex
100
AcDb2dVertex
 10
72.201018
 20
38.418
 30
0.0
  0
VERTEX
  5
1E4D
100
AcDbEntity
  8
ALPHA
 62
     7
100
AcDbVertex
100
AcDb2dVertex
 10
72.225822
 20
38.547536
 30
0.0
  0
VERTEX
  5
1E4E
100
AcDbEntity
  8
ALPHA
 62
     7
100
AcDbVertex
100
AcDb2dVertex
 10
72.274743
 20
38.680861
 30
0.0
  0
VERTEX
  5
1E4F
100
AcDbEntity
  8
ALPHA
 62
     7
100
AcDbVertex
100
AcDb2dVertex
 10
72.353291
 20
38.818665
 30
0.0
  0
VERTEX
  5
1E50
100
AcDbEntity
  8
ALPHA
 62
     7
100
AcDbVertex
100
AcDb2dVertex
 10
72.46629
 20
38.960603
 30
0.0
  0
VERTEX
  5
1E51
100
AcDbEntity
  8
ALPHA
 62
     7
100
AcDbVertex
100
AcDb2dVertex
 10
72.615463
 20
39.10323
 30
0.0
  0
VERTEX
  5
1E52
100
AcDbEntity
  8
ALPHA
 62
     7
100
AcDbVertex
100
AcDb2dVertex
 10
72.804254
 20
39.242411
 30
0.0
  0
VERTEX
  5
1E53
100
AcDbEntity
  8
ALPHA
 62
     7
100
AcDbVertex
100
AcDb2dVertex
 10
73.033697
 20
39.375392
 30
0.0
  0
VERTEX
  5
1E54
100
AcDbEntity
  8
ALPHA
 62
     7
100
AcDbVertex
100
AcDb2dVertex
 10
73.307238
 20
39.499416
 30
0.0
  0
VERTEX
  5
1E55
100
AcDbEntity
  8
ALPHA
 62
     7
100
AcDbVertex
100
AcDb2dVertex
 10
73.627976
 20
39.611037
 30
0.0
  0
VERTEX
  5
1E56
100
AcDbEntity
  8
ALPHA
 62
     7
100
AcDbVertex
100
AcDb2dVertex
 10
74.000047
 20
39.706121
 30
0.0
  0
VERTEX
  5
1E57
100
AcDbEntity
  8
ALPHA
 62
     7
100
AcDbVertex
100
AcDb2dVertex
 10
74.427583
 20
39.778124
 30
0.0
  0
VERTEX
  5
1E58
100
AcDbEntity
  8
ALPHA
 62
     7
100
AcDbVertex
100
AcDb2dVertex
 10
74.92471
 20
39.818776
 30
0.0
  0
VERTEX
  5
1E59
100
AcDbEntity
  8
ALPHA
 62
     7
100
AcDbVertex
100
AcDb2dVertex
 10
75.447331
 20
39.81602
 30
0.0
  0
VERTEX
  5
1E5A
100
AcDbEntity
  8
ALPHA
 62
     7
100
AcDbVertex
100
AcDb2dVertex
 10
75.928611
 20
39.771923
 30
0.0
  0
VERTEX
  5
1E5B
100
AcDbEntity
  8
ALPHA
 62
     7
100
AcDbVertex
100
AcDb2dVertex
 10
76.344779
 20
39.698542
 30
0.0
  0
VERTEX
  5
1E5C
100
AcDbEntity
  8
ALPHA
 62
     7
100
AcDbVertex
100
AcDb2dVertex
 10
76.706858
 20
39.602768
 30
0.0
  0
VERTEX
  5
1E5D
100
AcDbEntity
  8
ALPHA
 62
     7
100
AcDbVertex
100
AcDb2dVertex
 10
77.019328
 20
39.492181
 30
0.0
  0
VERTEX
  5
1E5E
100
AcDbEntity
  8
ALPHA
 62
     7
100
AcDbVertex
100
AcDb2dVertex
 10
77.285979
 20
39.369191
 30
0.0
  0
VERTEX
  5
1E5F
100
AcDbEntity
  8
ALPHA
 62
     7
100
AcDbVertex
100
AcDb2dVertex
 10
77.510599
 20
39.237588
 30
0.0
  0
VERTEX
  5
1E60
100
AcDbEntity
  8
ALPHA
 62
     7
100
AcDbVertex
100
AcDb2dVertex
 10
77.695945
 20
39.099784
 30
0.0
  0
VERTEX
  5
1E61
100
AcDbEntity
  8
ALPHA
 62
     7
100
AcDbVertex
100
AcDb2dVertex
 10
77.843395
 20
38.958536
 30
0.0
  0
VERTEX
  5
1E62
100
AcDbEntity
  8
ALPHA
 62
     7
100
AcDbVertex
100
AcDb2dVertex
 10
77.955016
 20
38.817976
 30
0.0
  0
VERTEX
  5
1E63
100
AcDbEntity
  8
ALPHA
 62
     7
100
AcDbVertex
100
AcDb2dVertex
 10
78.032875
 20
38.680172
 30
0.0
  0
VERTEX
  5
1E64
100
AcDbEntity
  8
ALPHA
 62
     7
100
AcDbVertex
100
AcDb2dVertex
 10
78.082485
 20
38.546847
 30
0.0
  0
VERTEX
  5
1E65
100
AcDbEntity
  8
ALPHA
 62
     7
100
AcDbVertex
100
AcDb2dVertex
 10
78.106945
 20
38.418
 30
0.0
  0
SEQEND
  5
1E66
100
AcDbEntity
  8
ALPHA
 62
     7
  0
SPLINE
  5
1E67
100
AcDbEntity
  8
ALPHA
 62
     7
100
AcDbSpline
210
0.0
220
0.0
230
1.0
 70
     8
 71
     3
 72
     8
 73
     4
 74
     0
 42
0.0000001
 43
0.0000001
 40
0.0
 40
0.0
 40
0.0
 40
0.0
 40
1.0
 40
1.0
 40
1.0
 40
1.0
 10
71.65049150209412
 20
37.36001121125207
 30
0.0
 10
71.90405052987191
 20
37.36001121125207
 30
0.0
 10
72.11557939271912
 20
37.55224753937705
 30
0.0
 10
72.14107309931634
 20
37.80408401941178
 30
0.0
  0
LINE
  5
1E68
100
AcDbEntity
  8
ALPHA
 62
     7
100
AcDbLine
 10
72.201018
 20
38.418
 30
0.0
 11
72.141073
 21
37.804084
 31
0.0
  0
LINE
  5
1E69
100
AcDbEntity
  8
ALPHA
 62
     7
100
AcDbLine
 10
67.669339
 20
43.272484
 30
0.0
 11
68.80691
 21
45.243079
 31
0.0
  0
LINE
  5
1E6A
100
AcDbEntity
  8
ALPHA
 62
     7
100
AcDbLine
 10
68.80691
 20
45.243079
 30
0.0
 11
67.669339
 21
47.214018
 31
0.0
  0
POLYLINE
  5
1E6B
100
AcDbEntity
  8
ALPHA
 62
     7
100
AcDb2dPolyline
 66
     1
 10
0.0
 20
0.0
 30
0.0
  0
VERTEX
  5
1E6C
100
AcDbEntity
  8
ALPHA
 62
     7
100
AcDbVertex
100
AcDb2dVertex
 10
73.440563
 20
55.36098
 30
0.0
  0
VERTEX
  5
1E6D
100
AcDbEntity
  8
ALPHA
 62
     7
100
AcDbVertex
100
AcDb2dVertex
 10
73.144285
 20
55.477768
 30
0.0
  0
VERTEX
  5
1E6E
100
AcDbEntity
  8
ALPHA
 62
     7
100
AcDbVertex
100
AcDb2dVertex
 10
72.894515
 20
55.60627
 30
0.0
  0
VERTEX
  5
1E6F
100
AcDbEntity
  8
ALPHA
 62
     7
100
AcDbVertex
100
AcDb2dVertex
 10
72.687465
 20
55.743385
 30
0.0
  0
VERTEX
  5
1E70
100
AcDbEntity
  8
ALPHA
 62
     7
100
AcDbVertex
100
AcDb2dVertex
 10
72.522445
 20
55.886357
 30
0.0
  0
VERTEX
  5
1E71
100
AcDbEntity
  8
ALPHA
 62
     7
100
AcDbVertex
100
AcDb2dVertex
 10
72.39601
 20
56.032429
 30
0.0
  0
VERTEX
  5
1E72
100
AcDbEntity
  8
ALPHA
 62
     7
100
AcDbVertex
100
AcDb2dVertex
 10
72.305749
 20
56.178156
 30
0.0
  0
VERTEX
  5
1E73
100
AcDbEntity
  8
ALPHA
 62
     7
100
AcDbVertex
100
AcDb2dVertex
 10
72.246149
 20
56.322161
 30
0.0
  0
VERTEX
  5
1E74
100
AcDbEntity
  8
ALPHA
 62
     7
100
AcDbVertex
100
AcDb2dVertex
 10
72.214109
 20
56.464099
 30
0.0
  0
VERTEX
  5
1E75
100
AcDbEntity
  8
ALPHA
 62
     7
100
AcDbVertex
100
AcDb2dVertex
 10
72.207219
 20
56.60552
 30
0.0
  0
VERTEX
  5
1E76
100
AcDbEntity
  8
ALPHA
 62
     7
100
AcDbVertex
100
AcDb2dVertex
 10
72.225133
 20
56.746769
 30
0.0
  0
VERTEX
  5
1E77
100
AcDbEntity
  8
ALPHA
 62
     7
100
AcDbVertex
100
AcDb2dVertex
 10
72.268542
 20
56.889913
 30
0.0
  0
VERTEX
  5
1E78
100
AcDbEntity
  8
ALPHA
 62
     7
100
AcDbVertex
100
AcDb2dVertex
 10
72.3402
 20
57.034607
 30
0.0
  0
VERTEX
  5
1E79
100
AcDbEntity
  8
ALPHA
 62
     7
100
AcDbVertex
100
AcDb2dVertex
 10
72.446309
 20
57.181885
 30
0.0
  0
VERTEX
  5
1E7A
100
AcDbEntity
  8
ALPHA
 62
     7
100
AcDbVertex
100
AcDb2dVertex
 10
72.591003
 20
57.328646
 30
0.0
  0
VERTEX
  5
1E7B
100
AcDbEntity
  8
ALPHA
 62
     7
100
AcDbVertex
100
AcDb2dVertex
 10
72.777038
 20
57.471101
 30
0.0
  0
VERTEX
  5
1E7C
100
AcDbEntity
  8
ALPHA
 62
     7
100
AcDbVertex
100
AcDb2dVertex
 10
73.005792
 20
57.606321
 30
0.0
  0
VERTEX
  5
1E7D
100
AcDbEntity
  8
ALPHA
 62
     7
100
AcDbVertex
100
AcDb2dVertex
 10
73.122581
 20
57.659203
 30
0.0
  0
SEQEND
  5
1E7E
100
AcDbEntity
  8
ALPHA
 62
     7
  0
LINE
  5
1E7F
100
AcDbEntity
  8
ALPHA
 62
     7
100
AcDbLine
 10
73.440563
 20
53.126491
 30
0.0
 11
73.440563
 21
55.36098
 31
0.0
  0
SPLINE
  5
1E80
100
AcDbEntity
  8
ALPHA
 62
     7
100
AcDbSpline
210
0.0
220
0.0
230
1.0
 70
     8
 71
     3
 72
     8
 73
     4
 74
     0
 42
0.0000001
 43
0.0000001
 40
0.0
 40
0.0
 40
0.0
 40
0.0
 40
1.0
 40
1.0
 40
1.0
 40
1.0
 10
78.16723412362191
 20
37.80408401941178
 30
0.0
 10
78.1916943015733
 20
37.55224753937705
 30
0.0
 10
78.40425669306634
 20
37.36001121125207
 30
0.0
 10
78.65747121129553
 20
37.36001121125207
 30
0.0
  0
LINE
  5
1E81
100
AcDbEntity
  8
ALPHA
 62
     7
100
AcDbLine
 10
78.106256
 20
38.418
 30
0.0
 11
78.166545
 21
37.804084
 31
0.0
  0
POLYLINE
  5
1E82
100
AcDbEntity
  8
ALPHA
 62
     7
100
AcDb2dPolyline
 66
     1
 10
0.0
 20
0.0
 30
0.0
  0
VERTEX
  5
1E83
100
AcDbEntity
  8
ALPHA
 62
     7
100
AcDbVertex
100
AcDb2dVertex
 10
77.213632
 20
57.659203
 30
0.0
  0
VERTEX
  5
1E84
100
AcDbEntity
  8
ALPHA
 62
     7
100
AcDbVertex
100
AcDb2dVertex
 10
77.315951
 20
57.613039
 30
0.0
  0
VERTEX
  5
1E85
100
AcDbEntity
  8
ALPHA
 62
     7
100
AcDbVertex
100
AcDb2dVertex
 10
77.546083
 20
57.479369
 30
0.0
  0
VERTEX
  5
1E86
100
AcDbEntity
  8
ALPHA
 62
     7
100
AcDbVertex
100
AcDb2dVertex
 10
77.733497
 20
57.33812
 30
0.0
  0
VERTEX
  5
1E87
100
AcDbEntity
  8
ALPHA
 62
     7
100
AcDbVertex
100
AcDb2dVertex
 10
77.879224
 20
57.192737
 30
0.0
  0
VERTEX
  5
1E88
100
AcDbEntity
  8
ALPHA
 62
     7
100
AcDbVertex
100
AcDb2dVertex
 10
77.9874
 20
57.046837
 30
0.0
  0
VERTEX
  5
1E89
100
AcDbEntity
  8
ALPHA
 62
     7
100
AcDbVertex
100
AcDb2dVertex
 10
78.062159
 20
56.902143
 30
0.0
  0
VERTEX
  5
1E8A
100
AcDbEntity
  8
ALPHA
 62
     7
100
AcDbVertex
100
AcDb2dVertex
 10
78.107634
 20
56.759516
 30
0.0
  0
VERTEX
  5
1E8B
100
AcDbEntity
  8
ALPHA
 62
     7
100
AcDbVertex
100
AcDb2dVertex
 10
78.127271
 20
56.61775
 30
0.0
  0
VERTEX
  5
1E8C
100
AcDbEntity
  8
ALPHA
 62
     7
100
AcDbVertex
100
AcDb2dVertex
 10
78.122448
 20
56.476502
 30
0.0
  0
VERTEX
  5
1E8D
100
AcDbEntity
  8
ALPHA
 62
     7
100
AcDbVertex
100
AcDb2dVertex
 10
78.09282
 20
56.335253
 30
0.0
  0
VERTEX
  5
1E8E
100
AcDbEntity
  8
ALPHA
 62
     7
100
AcDbVertex
100
AcDb2dVertex
 10
78.03632
 20
56.191248
 30
0.0
  0
VERTEX
  5
1E8F
100
AcDbEntity
  8
ALPHA
 62
     7
100
AcDbVertex
100
AcDb2dVertex
 10
77.948126
 20
56.044487
 30
0.0
  0
VERTEX
  5
1E90
100
AcDbEntity
  8
ALPHA
 62
     7
100
AcDbVertex
100
AcDb2dVertex
 10
77.823069
 20
55.896692
 30
0.0
  0
VERTEX
  5
1E91
100
AcDbEntity
  8
ALPHA
 62
     7
100
AcDbVertex
100
AcDb2dVertex
 10
77.656671
 20
55.75062
 30
0.0
  0
VERTEX
  5
1E92
100
AcDbEntity
  8
ALPHA
 62
     7
100
AcDbVertex
100
AcDb2dVertex
 10
77.448243
 20
55.61006
 30
0.0
  0
VERTEX
  5
1E93
100
AcDbEntity
  8
ALPHA
 62
     7
100
AcDbVertex
100
AcDb2dVertex
 10
77.195028
 20
55.479491
 30
0.0
  0
VERTEX
  5
1E94
100
AcDbEntity
  8
ALPHA
 62
     7
100
AcDbVertex
100
AcDb2dVertex
 10
76.89496
 20
55.36098
 30
0.0
  0
SEQEND
  5
1E95
100
AcDbEntity
  8
ALPHA
 62
     7
  0
LINE
  5
1E96
100
AcDbEntity
  8
ALPHA
 62
     7
100
AcDbLine
 10
76.89496
 20
55.36098
 30
0.0
 11
76.89496
 21
53.126491
 31
0.0
  0
LINE
  5
1E97
100
AcDbEntity
  8
ALPHA
 62
     7
100
AcDbLine
 10
81.500364
 20
45.243079
 30
0.0
 11
82.638279
 21
43.272484
 31
0.0
  0
LINE
  5
1E98
100
AcDbEntity
  8
ALPHA
 62
     7
100
AcDbLine
 10
82.638279
 20
47.214018
 30
0.0
 11
81.500364
 21
45.243079
 31
0.0
  0
LINE
  5
1E99
100
AcDbEntity
  8
ALPHA
 62
     7
100
AcDbLine
 10
68.995012
 20
67.783994
 30
0.0
 11
68.995012
 21
68.942235
 31
0.0
  0
LINE
  5
1E9A
100
AcDbEntity
  8
ALPHA
 62
     7
100
AcDbLine
 10
66.591024
 20
98.061043
 30
0.0
 11
66.591024
 21
100.425929
 31
0.0
  0
LINE
  5
1E9B
100
AcDbEntity
  8
ALPHA
 62
     7
100
AcDbLine
 10
75.499008
 20
68.942235
 30
0.0
 11
75.499008
 21
77.072144
 31
0.0
  0
LINE
  5
1E9C
100
AcDbEntity
  8
ALPHA
 62
     7
100
AcDbLine
 10
75.252683
 20
69.237652
 30
0.0
 11
75.252683
 21
76.77621
 31
0.0
  0
SPLINE
  5
1E9D
100
AcDbEntity
  8
ALPHA
 62
     7
100
AcDbSpline
210
0.0
220
0.0
230
-1.0
 70
     8
 71
     3
 72
     8
 73
     4
 74
     0
 42
0.0000001
 43
0.0000001
 40
0.0
 40
0.0
 40
0.0
 40
0.0
 40
1.0
 40
1.0
 40
1.0
 40
1.0
 10
75.10454423646914
 20
69.09037416698123
 30
0.0
 10
75.18584848994135
 20
69.09037416698123
 30
0.0
 10
75.25268334237191
 20
69.15617549076594
 30
0.0
 10
75.25268334237191
 20
69.23765199901248
 30
0.0
  0
SPLINE
  5
1E9E
100
AcDbEntity
  8
ALPHA
 62
     7
100
AcDbSpline
210
0.0
220
0.0
230
-1.0
 70
     8
 71
     3
 72
     8
 73
     4
 74
     0
 42
0.0000001
 43
0.0000001
 40
0.0
 40
0.0
 40
0.0
 40
0.0
 40
1.0
 40
1.0
 40
1.0
 40
1.0
 10
75.25268334237191
 20
76.77620994172079
 30
0.0
 10
75.25268334237191
 20
76.85768644996733
 30
0.0
 10
75.18584848994135
 20
76.92417679284926
 30
0.0
 10
75.10454423646914
 20
76.92417679284926
 30
0.0
  0
SPLINE
  5
1E9F
100
AcDbEntity
  8
ALPHA
 62
     7
100
AcDbSpline
210
0.0
220
0.0
230
-1.0
 70
     8
 71
     3
 72
    11
 73
     7
 74
     0
 42
0.0000001
 43
0.0000001
 40
0.0
 40
0.0
 40
0.0
 40
0.0
 40
1.0
 40
1.0
 40
1.0
 40
2.0
 40
2.0
 40
2.0
 40
2.0
 10
79.80572153681634
 20
95.72612991784927
 30
0.0
 10
79.70581376771912
 20
95.94885534102635
 30
0.0
 10
79.44398651077469
 20
96.04927987444652
 30
0.0
 10
79.22039981372609
 20
95.9502333792208
 30
0.0
 10
79.13530595521914
 20
95.91216507409928
 30
0.0
 10
79.06433698820524
 20
95.84843080760624
 30
0.0
 10
79.01748368959414
 20
95.76764331845692
 30
0.0
  0
SPLINE
  5
1EA0
100
AcDbEntity
  8
ALPHA
 62
     7
100
AcDbSpline
210
0.0
220
0.0
230
-1.0
 70
     8
 71
     3
 72
    11
 73
     7
 74
     0
 42
0.0000001
 43
0.0000001
 40
0.0
 40
0.0
 40
0.0
 40
0.0
 40
1.0
 40
1.0
 40
1.0
 40
2.0
 40
2.0
 40
2.0
 40
2.0
 10
78.32639753508025
 20
95.80226652809233
 30
0.0
 10
78.22511172778857
 20
96.02481969649511
 30
0.0
 10
77.96156192310107
 20
96.1233494273979
 30
0.0
 10
77.73866424514969
 20
96.0215468557833
 30
0.0
 10
77.65460391528859
 20
95.98278953156455
 30
0.0
 10
77.58432396737191
 20
95.91888301029721
 30
0.0
 10
77.53815968785801
 20
95.83878454024512
 30
0.0
  0
SPLINE
  5
1EA1
100
AcDbEntity
  8
ALPHA
 62
     7
100
AcDbSpline
210
0.0
220
0.0
230
-1.0
 70
     8
 71
     3
 72
    11
 73
     7
 74
     0
 42
0.0000001
 43
0.0000001
 40
0.0
 40
0.0
 40
0.0
 40
0.0
 40
1.0
 40
1.0
 40
1.0
 40
2.0
 40
2.0
 40
2.0
 40
2.0
 10
81.28573455764968
 20
95.63862449250207
 30
0.0
 10
81.18720482674692
 20
95.86324471819651
 30
0.0
 10
80.92606658889968
 20
95.96521954458538
 30
0.0
 10
80.70213538230246
 20
95.86737883277981
 30
0.0
 10
80.61635250469832
 20
95.82999954675551
 30
0.0
 10
80.54435000903856
 20
95.7669542993597
 30
0.0
 10
80.49680769133024
 20
95.68668357453331
 30
0.0
  0
POLYLINE
  5
1EA2
100
AcDbEntity
  8
ALPHA
 62
     7
100
AcDb2dPolyline
 66
     1
 10
0.0
 20
0.0
 30
0.0
  0
VERTEX
  5
1EA3
100
AcDbEntity
  8
ALPHA
 62
     7
100
AcDbVertex
100
AcDb2dVertex
 10
79.516334
 20
95.703048
 30
0.0
  0
VERTEX
  5
1EA4
100
AcDbEntity
  8
ALPHA
 62
     7
100
AcDbVertex
100
AcDb2dVertex
 10
79.559742
 20
95.721996
 30
0.0
  0
VERTEX
  5
1EA5
100
AcDbEntity
  8
ALPHA
 62
     7
100
AcDbVertex
100
AcDb2dVertex
 10
79.604528
 20
95.732331
 30
0.0
  0
VERTEX
  5
1EA6
100
AcDbEntity
  8
ALPHA
 62
     7
100
AcDbVertex
100
AcDb2dVertex
 10
79.651381
 20
95.734226
 30
0.0
  0
SEQEND
  5
1EA7
100
AcDbEntity
  8
ALPHA
 62
     7
  0
SPLINE
  5
1EA8
100
AcDbEntity
  8
ALPHA
 62
     7
100
AcDbSpline
210
0.0
220
0.0
230
1.0
 70
     8
 71
     3
 72
     8
 73
     4
 74
     0
 42
0.0000001
 43
0.0000001
 40
0.0
 40
0.0
 40
0.0
 40
0.0
 40
1.0
 40
1.0
 40
1.0
 40
1.0
 10
82.28997989185108
 20
95.57402895213746
 30
0.0
 10
82.51287756980246
 20
95.55904278677289
 30
0.0
 10
82.71751624167746
 20
95.69495180369997
 30
0.0
 10
82.78986324688579
 20
95.90682517609579
 30
0.0
  0
LINE
  5
1EA9
100
AcDbEntity
  8
ALPHA
 62
     7
100
AcDbLine
 10
85.4512
 20
57.674878
 30
0.0
 11
85.4512
 21
77.072144
 31
0.0
  0
SPLINE
  5
1EAA
100
AcDbEntity
  8
ALPHA
 62
     7
100
AcDbSpline
210
0.0
220
0.0
230
-1.0
 70
     8
 71
     3
 72
     8
 73
     4
 74
     0
 42
0.0000001
 43
0.0000001
 40
0.0
 40
0.0
 40
0.0
 40
0.0
 40
1.0
 40
1.0
 40
1.0
 40
1.0
 10
92.70209197952468
 20
37.36001121125207
 30
0.0
 10
92.26525387188578
 20
37.36001121125207
 30
0.0
 10
91.85046437535802
 20
37.16674135448121
 30
0.0
 10
91.57003360278858
 20
36.83187807323122
 30
0.0
  0
LINE
  5
1EAB
100
AcDbEntity
  8
ALPHA
 62
     7
100
AcDbLine
 10
85.4512
 20
57.659203
 30
0.0
 11
92.546374
 21
57.659203
 31
0.0
  0
SPLINE
  5
1EAC
100
AcDbEntity
  8
ALPHA
 62
     7
100
AcDbSpline
210
0.0
220
0.0
230
1.0
 70
     8
 71
     3
 72
     8
 73
     4
 74
     0
 42
0.0000001
 43
0.0000001
 40
0.0
 40
0.0
 40
0.0
 40
0.0
 40
1.0
 40
1.0
 40
1.0
 40
1.0
 10
89.59048173646914
 20
35.73392614180761
 30
0.0
 10
89.75653533889968
 20
35.73392614180761
 30
0.0
 10
89.91879933629551
 20
35.78698061229373
 30
0.0
 10
90.05419158889969
 20
35.88482132409927
 30
0.0
  0
LINE
  5
1EAD
100
AcDbEntity
  8
ALPHA
 62
     7
100
AcDbLine
 10
90.772839
 20
35.882065
 30
0.0
 11
91.570034
 21
36.831878
 31
0.0
  0
LINE
  5
1EAE
100
AcDbEntity
  8
ALPHA
 62
     7
100
AcDbLine
 10
90.054192
 20
35.884821
 30
0.0
 11
90.772839
 21
35.882065
 31
0.0
  0
LINE
  5
1EAF
100
AcDbEntity
  8
ALPHA
 62
     7
100
AcDbLine
 10
84.914109
 20
43.272484
 30
0.0
 11
86.052369
 21
45.243079
 31
0.0
  0
LINE
  5
1EB0
100
AcDbEntity
  8
ALPHA
 62
     7
100
AcDbLine
 10
86.052369
 20
45.243079
 30
0.0
 11
84.914109
 21
47.214018
 31
0.0
  0
POLYLINE
  5
1EB1
100
AcDbEntity
  8
ALPHA
 62
     7
100
AcDb2dPolyline
 66
     1
 10
0.0
 20
0.0
 30
0.0
  0
VERTEX
  5
1EB2
100
AcDbEntity
  8
ALPHA
 62
     7
100
AcDbVertex
100
AcDb2dVertex
 10
85.4512
 20
57.674878
 30
0.0
  0
VERTEX
  5
1EB3
100
AcDbEntity
  8
ALPHA
 62
     7
100
AcDbVertex
100
AcDb2dVertex
 10
85.188339
 20
57.66661
 30
0.0
  0
VERTEX
  5
1EB4
100
AcDbEntity
  8
ALPHA
 62
     7
100
AcDbVertex
100
AcDb2dVertex
 10
84.925822
 20
57.66127
 30
0.0
  0
VERTEX
  5
1EB5
100
AcDbEntity
  8
ALPHA
 62
     7
100
AcDbVertex
100
AcDb2dVertex
 10
84.662273
 20
57.659203
 30
0.0
  0
SEQEND
  5
1EB6
100
AcDbEntity
  8
ALPHA
 62
     7
  0
LINE
  5
1EB7
100
AcDbEntity
  8
ALPHA
 62
     7
100
AcDbLine
 10
93.531671
 20
37.852315
 30
0.0
 11
93.531671
 21
53.102031
 31
0.0
  0
SPLINE
  5
1EB8
100
AcDbEntity
  8
ALPHA
 62
     7
100
AcDbSpline
210
0.0
220
0.0
230
1.0
 70
     8
 71
     3
 72
     8
 73
     4
 74
     0
 42
0.0000001
 43
0.0000001
 40
0.0
 40
0.0
 40
0.0
 40
0.0
 40
1.0
 40
1.0
 40
1.0
 40
1.0
 10
93.03936682761497
 20
37.36001121125207
 30
0.0
 10
93.31084035192052
 20
37.36001121125207
 30
0.0
 10
93.53167097258022
 20
37.58084183191178
 30
0.0
 10
93.53167097258022
 20
37.85231535621733
 30
0.0
  0
SPLINE
  5
1EB9
100
AcDbEntity
  8
ALPHA
 62
     7
100
AcDbSpline
210
0.0
220
0.0
230
1.0
 70
     8
 71
     3
 72
     8
 73
     4
 74
     0
 42
0.0000001
 43
0.0000001
 40
0.0
 40
0.0
 40
0.0
 40
0.0
 40
1.0
 40
1.0
 40
1.0
 40
1.0
 10
92.54637366355245
 20
57.65920283451595
 30
0.0
 10
93.0903542408094
 20
57.65920283451595
 30
0.0
 10
93.53167097258022
 20
58.10051956628678
 30
0.0
 10
93.53167097258022
 20
58.64501690786664
 30
0.0
  0
LINE
  5
1EBA
100
AcDbEntity
  8
ALPHA
 62
     7
100
AcDbLine
 10
85.4512
 20
77.072144
 30
0.0
 11
92.546374
 21
77.072144
 31
0.0
  0
POLYLINE
  5
1EBB
100
AcDbEntity
  8
ALPHA
 62
     7
100
AcDb2dPolyline
 66
     1
 10
0.0
 20
0.0
 30
0.0
  0
VERTEX
  5
1EBC
100
AcDbEntity
  8
ALPHA
 62
     7
100
AcDbVertex
100
AcDb2dVertex
 10
85.4512
 20
77.08713
 30
0.0
  0
VERTEX
  5
1EBD
100
AcDbEntity
  8
ALPHA
 62
     7
100
AcDbVertex
100
AcDb2dVertex
 10
85.188339
 20
77.079034
 30
0.0
  0
VERTEX
  5
1EBE
100
AcDbEntity
  8
ALPHA
 62
     7
100
AcDbVertex
100
AcDb2dVertex
 10
84.925822
 20
77.073522
 30
0.0
  0
VERTEX
  5
1EBF
100
AcDbEntity
  8
ALPHA
 62
     7
100
AcDbVertex
100
AcDb2dVertex
 10
84.660895
 20
77.072144
 30
0.0
  0
SEQEND
  5
1EC0
100
AcDbEntity
  8
ALPHA
 62
     7
  0
SPLINE
  5
1EC1
100
AcDbEntity
  8
ALPHA
 62
     7
100
AcDbSpline
210
0.0
220
0.0
230
1.0
 70
     8
 71
     3
 72
     8
 73
     4
 74
     0
 42
0.0000001
 43
0.0000001
 40
0.0
 40
0.0
 40
0.0
 40
0.0
 40
1.0
 40
1.0
 40
1.0
 40
1.0
 10
93.76455942744135
 20
64.87116572514094
 30
0.0
 10
93.90787539966357
 20
65.23789613963749
 30
0.0
 10
93.8189919361219
 20
65.65475269345691
 30
0.0
 10
93.53925018264968
 20
65.93104935144302
 30
0.0
  0
LINE
  5
1EC2
100
AcDbEntity
  8
ALPHA
 62
     7
100
AcDbLine
 10
93.764559
 20
64.871166
 30
0.0
 11
93.531671
 21
64.277059
 31
0.0
  0
SPLINE
  5
1EC3
100
AcDbEntity
  8
ALPHA
 62
     7
100
AcDbSpline
210
0.0
220
0.0
230
1.0
 70
     8
 71
     3
 72
     8
 73
     4
 74
     0
 42
0.0000001
 43
0.0000001
 40
0.0
 40
0.0
 40
0.0
 40
0.0
 40
1.0
 40
1.0
 40
1.0
 40
1.0
 10
92.54637366355245
 20
77.07214364397774
 30
0.0
 10
93.0903542408094
 20
77.07214364397774
 30
0.0
 10
93.53167097258022
 20
77.51294361142567
 30
0.0
 10
93.53167097258022
 20
78.05744095300553
 30
0.0
  0
CIRCLE
  5
1EC4
100
AcDbEntity
  8
ALPHA
 62
     7
100
AcDbCircle
 10
83.776194
 20
156.545157
 30
0.0
 40
3.843004
  0
LINE
  5
1EC5
100
AcDbEntity
  8
ALPHA
 62
     7
100
AcDbLine
 10
93.531671
 20
163.935748
 30
0.0
 11
78.689511
 21
163.935748
 31
0.0
  0
LINE
  5
1EC6
100
AcDbEntity
  8
ALPHA
 62
     7
100
AcDbLine
 10
82.638279
 20
158.515923
 30
0.0
 11
84.914109
 21
158.515923
 31
0.0
  0
LINE
  5
1EC7
100
AcDbEntity
  8
ALPHA
 62
     7
100
AcDbLine
 10
84.914109
 20
154.574562
 30
0.0
 11
82.638279
 21
154.574562
 31
0.0
  0
LINE
  5
1EC8
100
AcDbEntity
  8
ALPHA
 62
     7
100
AcDbLine
 10
93.531671
 20
148.957851
 30
0.0
 11
76.829159
 21
148.957851
 31
0.0
  0
POLYLINE
  5
1EC9
100
AcDbEntity
  8
ALPHA
 62
     7
100
AcDb2dPolyline
 66
     1
 10
0.0
 20
0.0
 30
0.0
  0
VERTEX
  5
1ECA
100
AcDbEntity
  8
ALPHA
 62
     7
100
AcDbVertex
100
AcDb2dVertex
 10
72.94068
 20
137.089152
 30
0.0
  0
VERTEX
  5
1ECB
100
AcDbEntity
  8
ALPHA
 62
     7
100
AcDbVertex
100
AcDb2dVertex
 10
79.544239
 20
137.082606
 30
0.0
  0
VERTEX
  5
1ECC
100
AcDbEntity
  8
ALPHA
 62
     7
100
AcDbVertex
100
AcDb2dVertex
 10
86.130228
 20
137.072099
 30
0.0
  0
VERTEX
  5
1ECD
100
AcDbEntity
  8
ALPHA
 62
     7
100
AcDbVertex
100
AcDb2dVertex
 10
92.68969
 20
137.057457
 30
0.0
  0
SEQEND
  5
1ECE
100
AcDbEntity
  8
ALPHA
 62
     7
  0
LINE
  5
1ECF
100
AcDbEntity
  8
ALPHA
 62
     7
100
AcDbLine
 10
82.338211
 20
137.014394
 30
0.0
 11
87.126894
 21
137.014394
 31
0.0
  0
POLYLINE
  5
1ED0
100
AcDbEntity
  8
ALPHA
 62
     7
100
AcDb2dPolyline
 66
     1
 10
0.0
 20
0.0
 30
0.0
  0
VERTEX
  5
1ED1
100
AcDbEntity
  8
ALPHA
 62
     7
100
AcDbVertex
100
AcDb2dVertex
 10
88.500454
 20
156.545157
 30
0.0
  0
VERTEX
  5
1ED2
100
AcDbEntity
  8
ALPHA
 62
     7
100
AcDbVertex
100
AcDb2dVertex
 10
88.399168
 20
157.506683
 30
0.0
  0
VERTEX
  5
1ED3
100
AcDbEntity
  8
ALPHA
 62
     7
100
AcDbVertex
100
AcDb2dVertex
 10
88.100133
 20
158.426351
 30
0.0
  0
VERTEX
  5
1ED4
100
AcDbEntity
  8
ALPHA
 62
     7
100
AcDbVertex
100
AcDb2dVertex
 10
87.616442
 20
159.262476
 30
0.0
  0
VERTEX
  5
1ED5
100
AcDbEntity
  8
ALPHA
 62
     7
100
AcDbVertex
100
AcDb2dVertex
 10
86.974276
 20
159.975783
 30
0.0
  0
VERTEX
  5
1ED6
100
AcDbEntity
  8
ALPHA
 62
     7
100
AcDbVertex
100
AcDb2dVertex
 10
86.194996
 20
160.545085
 30
0.0
  0
VERTEX
  5
1ED7
100
AcDbEntity
  8
ALPHA
 62
     7
100
AcDbVertex
100
AcDb2dVertex
 10
85.308228
 20
160.943166
 30
0.0
  0
VERTEX
  5
1ED8
100
AcDbEntity
  8
ALPHA
 62
     7
100
AcDbVertex
100
AcDb2dVertex
 10
84.355315
 20
161.149354
 30
0.0
  0
VERTEX
  5
1ED9
100
AcDbEntity
  8
ALPHA
 62
     7
100
AcDbVertex
100
AcDb2dVertex
 10
83.381042
 20
161.152972
 30
0.0
  0
VERTEX
  5
1EDA
100
AcDbEntity
  8
ALPHA
 62
     7
100
AcDbVertex
100
AcDb2dVertex
 10
82.426406
 20
160.954362
 30
0.0
  0
VERTEX
  5
1EDB
100
AcDbEntity
  8
ALPHA
 62
     7
100
AcDbVertex
100
AcDb2dVertex
 10
81.533781
 20
160.561621
 30
0.0
  0
VERTEX
  5
1EDC
100
AcDbEntity
  8
ALPHA
 62
     7
100
AcDbVertex
100
AcDb2dVertex
 10
80.746922
 20
159.995075
 30
0.0
  0
VERTEX
  5
1EDD
100
AcDbEntity
  8
ALPHA
 62
     7
100
AcDbVertex
100
AcDb2dVertex
 10
80.096488
 20
159.28039
 30
0.0
  0
VERTEX
  5
1EDE
100
AcDbEntity
  8
ALPHA
 62
     7
100
AcDbVertex
100
AcDb2dVertex
 10
79.605906
 20
158.44082
 30
0.0
  0
VERTEX
  5
1EDF
100
AcDbEntity
  8
ALPHA
 62
     7
100
AcDbVertex
100
AcDb2dVertex
 10
79.302049
 20
157.514779
 30
0.0
  0
VERTEX
  5
1EE0
100
AcDbEntity
  8
ALPHA
 62
     7
100
AcDbVertex
100
AcDb2dVertex
 10
79.198696
 20
156.545157
 30
0.0
  0
SEQEND
  5
1EE1
100
AcDbEntity
  8
ALPHA
 62
     7
  0
POLYLINE
  5
1EE2
100
AcDbEntity
  8
ALPHA
 62
     7
100
AcDb2dPolyline
 66
     1
 10
0.0
 20
0.0
 30
0.0
  0
VERTEX
  5
1EE3
100
AcDbEntity
  8
ALPHA
 62
     7
100
AcDbVertex
100
AcDb2dVertex
 10
79.198696
 20
156.545157
 30
0.0
  0
VERTEX
  5
1EE4
100
AcDbEntity
  8
ALPHA
 62
     7
100
AcDbVertex
100
AcDb2dVertex
 10
79.300671
 20
155.579324
 30
0.0
  0
VERTEX
  5
1EE5
100
AcDbEntity
  8
ALPHA
 62
     7
100
AcDbVertex
100
AcDb2dVertex
 10
79.602461
 20
154.657417
 30
0.0
  0
VERTEX
  5
1EE6
100
AcDbEntity
  8
ALPHA
 62
     7
100
AcDbVertex
100
AcDb2dVertex
 10
80.088219
 20
153.821292
 30
0.0
  0
VERTEX
  5
1EE7
100
AcDbEntity
  8
ALPHA
 62
     7
100
AcDbVertex
100
AcDb2dVertex
 10
80.732452
 20
153.10764
 30
0.0
  0
VERTEX
  5
1EE8
100
AcDbEntity
  8
ALPHA
 62
     7
100
AcDbVertex
100
AcDb2dVertex
 10
81.513111
 20
152.540405
 30
0.0
  0
VERTEX
  5
1EE9
100
AcDbEntity
  8
ALPHA
 62
     7
100
AcDbVertex
100
AcDb2dVertex
 10
82.399878
 20
152.144564
 30
0.0
  0
VERTEX
  5
1EEA
100
AcDbEntity
  8
ALPHA
 62
     7
100
AcDbVertex
100
AcDb2dVertex
 10
83.350725
 20
151.940442
 30
0.0
  0
VERTEX
  5
1EEB
100
AcDbEntity
  8
ALPHA
 62
     7
100
AcDbVertex
100
AcDb2dVertex
 10
84.322931
 20
151.937686
 30
0.0
  0
VERTEX
  5
1EEC
100
AcDbEntity
  8
ALPHA
 62
     7
100
AcDbVertex
100
AcDb2dVertex
 10
85.276533
 20
152.137329
 30
0.0
  0
VERTEX
  5
1EED
100
AcDbEntity
  8
ALPHA
 62
     7
100
AcDbVertex
100
AcDb2dVertex
 10
86.168124
 20
152.530415
 30
0.0
  0
VERTEX
  5
1EEE
100
AcDbEntity
  8
ALPHA
 62
     7
100
AcDbVertex
100
AcDb2dVertex
 10
86.955673
 20
153.097822
 30
0.0
  0
VERTEX
  5
1EEF
100
AcDbEntity
  8
ALPHA
 62
     7
100
AcDbVertex
100
AcDb2dVertex
 10
87.605418
 20
153.813368
 30
0.0
  0
VERTEX
  5
1EF0
100
AcDbEntity
  8
ALPHA
 62
     7
100
AcDbVertex
100
AcDb2dVertex
 10
88.095999
 20
154.65466
 30
0.0
  0
VERTEX
  5
1EF1
100
AcDbEntity
  8
ALPHA
 62
     7
100
AcDbVertex
100
AcDb2dVertex
 10
88.398479
 20
155.580358
 30
0.0
  0
VERTEX
  5
1EF2
100
AcDbEntity
  8
ALPHA
 62
     7
100
AcDbVertex
100
AcDb2dVertex
 10
88.500454
 20
156.545157
 30
0.0
  0
SEQEND
  5
1EF3
100
AcDbEntity
  8
ALPHA
 62
     7
  0
LINE
  5
1EF4
100
AcDbEntity
  8
ALPHA
 62
     7
100
AcDbLine
 10
74.425516
 20
137.014394
 30
0.0
 11
75.942391
 21
137.014394
 31
0.0
  0
LINE
  5
1EF5
100
AcDbEntity
  8
ALPHA
 62
     7
100
AcDbLine
 10
72.94068
 20
140.433651
 30
0.0
 11
70.719627
 21
140.433651
 31
0.0
  0
LINE
  5
1EF6
100
AcDbEntity
  8
ALPHA
 62
     7
100
AcDbLine
 10
71.704924
 20
139.448526
 30
0.0
 11
70.719627
 21
139.448526
 31
0.0
  0
LINE
  5
1EF7
100
AcDbEntity
  8
ALPHA
 62
     7
100
AcDbLine
 10
70.719627
 20
140.433651
 30
0.0
 11
70.719627
 21
138.955533
 31
0.0
  0
LINE
  5
1EF8
100
AcDbEntity
  8
ALPHA
 62
     7
100
AcDbLine
 10
72.94068
 20
137.089152
 30
0.0
 11
72.025318
 21
137.132905
 31
0.0
  0
LINE
  5
1EF9
100
AcDbEntity
  8
ALPHA
 62
     7
100
AcDbLine
 10
71.704924
 20
137.641056
 30
0.0
 11
72.025318
 21
137.132905
 31
0.0
  0
LINE
  5
1EFA
100
AcDbEntity
  8
ALPHA
 62
     7
100
AcDbLine
 10
71.704924
 20
139.448526
 30
0.0
 11
72.326419
 21
140.433651
 31
0.0
  0
LINE
  5
1EFB
100
AcDbEntity
  8
ALPHA
 62
     7
100
AcDbLine
 10
71.704924
 20
139.448526
 30
0.0
 11
71.704924
 21
137.641056
 31
0.0
  0
LINE
  5
1EFC
100
AcDbEntity
  8
ALPHA
 62
     7
100
AcDbLine
 10
72.94068
 20
137.089152
 30
0.0
 11
72.94068
 21
140.433651
 31
0.0
  0
SPLINE
  5
1EFD
100
AcDbEntity
  8
ALPHA
 62
     7
100
AcDbSpline
210
0.0
220
0.0
230
1.0
 70
     8
 71
     3
 72
    11
 73
     7
 74
     0
 42
0.0000001
 43
0.0000001
 40
0.0
 40
0.0
 40
0.0
 40
0.0
 40
1.0
 40
1.0
 40
1.0
 40
2.0
 40
2.0
 40
2.0
 40
2.0
 10
79.01748368959414
 20
102.7195014998805
 30
0.0
 10
79.14081810799692
 20
102.5079726370333
 30
0.0
 10
79.41194712275384
 20
102.4359701413736
 30
0.0
 10
79.62382049514968
 20
102.5589600502277
 30
0.0
 10
79.70443572952468
 20
102.6058133488388
 30
0.0
 10
79.76851450556634
 20
102.6767823158527
 30
0.0
 10
79.80572153681634
 20
102.761531664811
 30
0.0
  0
SPLINE
  5
1EFE
100
AcDbEntity
  8
ALPHA
 62
     7
100
AcDbSpline
210
0.0
220
0.0
230
1.0
 70
     8
 71
     3
 72
    11
 73
     7
 74
     0
 42
0.0000001
 43
0.0000001
 40
0.0
 40
0.0
 40
0.0
 40
0.0
 40
1.0
 40
1.0
 40
1.0
 40
2.0
 40
2.0
 40
2.0
 40
2.0
 10
77.53815968785801
 20
102.6488770424152
 30
0.0
 10
77.65942704896912
 20
102.4363146509221
 30
0.0
 10
77.93021155417747
 20
102.3627618622937
 30
0.0
 10
78.14380747431636
 20
102.4842014781791
 30
0.0
 10
78.22373368959413
 20
102.530365757693
 30
0.0
 10
78.28815697518442
 20
102.6006457056096
 30
0.0
 10
78.32639753508025
 20
102.6852227997937
 30
0.0
  0
POLYLINE
  5
1EFF
100
AcDbEntity
  8
ALPHA
 62
     7
100
AcDb2dPolyline
 66
     1
 10
0.0
 20
0.0
 30
0.0
  0
VERTEX
  5
1F00
100
AcDbEntity
  8
ALPHA
 62
     7
100
AcDbVertex
100
AcDb2dVertex
 10
79.651381
 20
102.753091
 30
0.0
  0
VERTEX
  5
1F01
100
AcDbEntity
  8
ALPHA
 62
     7
100
AcDbVertex
100
AcDb2dVertex
 10
79.605217
 20
102.755158
 30
0.0
  0
VERTEX
  5
1F02
100
AcDbEntity
  8
ALPHA
 62
     7
100
AcDbVertex
100
AcDb2dVertex
 10
79.559742
 20
102.765321
 30
0.0
  0
VERTEX
  5
1F03
100
AcDbEntity
  8
ALPHA
 62
     7
100
AcDbVertex
100
AcDb2dVertex
 10
79.516334
 20
102.783925
 30
0.0
  0
SEQEND
  5
1F04
100
AcDbEntity
  8
ALPHA
 62
     7
  0
SPLINE
  5
1F05
100
AcDbEntity
  8
ALPHA
 62
     7
100
AcDbSpline
210
0.0
220
0.0
230
1.0
 70
     8
 71
     3
 72
    11
 73
     7
 74
     0
 42
0.0000001
 43
0.0000001
 40
0.0
 40
0.0
 40
0.0
 40
0.0
 40
1.0
 40
1.0
 40
1.0
 40
2.0
 40
2.0
 40
2.0
 40
2.0
 10
80.49680769133024
 20
102.800978008127
 30
0.0
 10
80.62186465747606
 20
102.590138164377
 30
0.0
 10
80.89333818178165
 20
102.5198582164603
 30
0.0
 10
81.10452253508023
 20
102.6440539087347
 30
0.0
 10
81.18444875035804
 20
102.691596226443
 30
0.0
 10
81.24783850730247
 20
102.7629097030055
 30
0.0
 10
81.28573455764968
 20
102.8485203258353
 30
0.0
  0
SPLINE
  5
1F06
100
AcDbEntity
  8
ALPHA
 62
     7
100
AcDbSpline
210
0.0
220
0.0
230
-1.0
 70
     8
 71
     3
 72
     8
 73
     4
 74
     0
 42
0.0000001
 43
0.0000001
 40
0.0
 40
0.0
 40
0.0
 40
0.0
 40
1.0
 40
1.0
 40
1.0
 40
1.0
 10
82.78986324688579
 20
102.5810086613388
 30
0.0
 10
82.71751624167746
 20
102.7921930146374
 30
0.0
 10
82.51287756980246
 20
102.9286187958874
 30
0.0
 10
82.28997989185108
 20
102.9136326305228
 30
0.0
  0
LINE
  5
1F07
100
AcDbEntity
  8
ALPHA
 62
     7
100
AcDbLine
 10
82.331666
 20
137.028002
 30
0.0
 11
75.942391
 21
137.028002
 31
0.0
  0
POLYLINE
  5
1F08
100
AcDbEntity
  8
ALPHA
 62
     7
100
AcDb2dPolyline
 66
     1
 10
0.0
 20
0.0
 30
0.0
  0
VERTEX
  5
1F09
100
AcDbEntity
  8
ALPHA
 62
     7
100
AcDbVertex
100
AcDb2dVertex
 10
73.313439
 20
144.033948
 30
0.0
  0
VERTEX
  5
1F0A
100
AcDbEntity
  8
ALPHA
 62
     7
100
AcDbVertex
100
AcDb2dVertex
 10
73.627976
 20
143.905618
 30
0.0
  0
VERTEX
  5
1F0B
100
AcDbEntity
  8
ALPHA
 62
     7
100
AcDbVertex
100
AcDb2dVertex
 10
73.995913
 20
143.796581
 30
0.0
  0
VERTEX
  5
1F0C
100
AcDbEntity
  8
ALPHA
 62
     7
100
AcDbVertex
100
AcDb2dVertex
 10
74.424827
 20
143.713726
 30
0.0
  0
VERTEX
  5
1F0D
100
AcDbEntity
  8
ALPHA
 62
     7
100
AcDbVertex
100
AcDb2dVertex
 10
74.924021
 20
143.666184
 30
0.0
  0
VERTEX
  5
1F0E
100
AcDbEntity
  8
ALPHA
 62
     7
100
AcDbVertex
100
AcDb2dVertex
 10
75.452843
 20
143.668595
 30
0.0
  0
VERTEX
  5
1F0F
100
AcDbEntity
  8
ALPHA
 62
     7
100
AcDbVertex
100
AcDb2dVertex
 10
75.940324
 20
143.718549
 30
0.0
  0
VERTEX
  5
1F10
100
AcDbEntity
  8
ALPHA
 62
     7
100
AcDbVertex
100
AcDb2dVertex
 10
76.361315
 20
143.803126
 30
0.0
  0
VERTEX
  5
1F11
100
AcDbEntity
  8
ALPHA
 62
     7
100
AcDbVertex
100
AcDb2dVertex
 10
76.723739
 20
143.912336
 30
0.0
  0
VERTEX
  5
1F12
100
AcDbEntity
  8
ALPHA
 62
     7
100
AcDbVertex
100
AcDb2dVertex
 10
77.032075
 20
144.040666
 30
0.0
  0
SEQEND
  5
1F13
100
AcDbEntity
  8
ALPHA
 62
     7
  0
POLYLINE
  5
1F14
100
AcDbEntity
  8
ALPHA
 62
     7
100
AcDb2dPolyline
 66
     1
 10
0.0
 20
0.0
 30
0.0
  0
VERTEX
  5
1F15
100
AcDbEntity
  8
ALPHA
 62
     7
100
AcDbVertex
100
AcDb2dVertex
 10
71.724561
 20
163.322004
 30
0.0
  0
VERTEX
  5
1F16
100
AcDbEntity
  8
ALPHA
 62
     7
100
AcDbVertex
100
AcDb2dVertex
 10
71.755222
 20
163.145443
 30
0.0
  0
VERTEX
  5
1F17
100
AcDbEntity
  8
ALPHA
 62
     7
100
AcDbVertex
100
AcDb2dVertex
 10
71.8131
 20
162.966815
 30
0.0
  0
VERTEX
  5
1F18
100
AcDbEntity
  8
ALPHA
 62
     7
100
AcDbVertex
100
AcDb2dVertex
 10
71.901983
 20
162.785947
 30
0.0
  0
VERTEX
  5
1F19
100
AcDbEntity
  8
ALPHA
 62
     7
100
AcDbVertex
100
AcDb2dVertex
 10
72.025318
 20
162.603702
 30
0.0
  0
VERTEX
  5
1F1A
100
AcDbEntity
  8
ALPHA
 62
     7
100
AcDbVertex
100
AcDb2dVertex
 10
72.187926
 20
162.422317
 30
0.0
  0
VERTEX
  5
1F1B
100
AcDbEntity
  8
ALPHA
 62
     7
100
AcDbVertex
100
AcDb2dVertex
 10
72.396699
 20
162.242483
 30
0.0
  0
VERTEX
  5
1F1C
100
AcDbEntity
  8
ALPHA
 62
     7
100
AcDbVertex
100
AcDb2dVertex
 10
72.656804
 20
162.067645
 30
0.0
  0
VERTEX
  5
1F1D
100
AcDbEntity
  8
ALPHA
 62
     7
100
AcDbVertex
100
AcDb2dVertex
 10
72.973408
 20
161.903314
 30
0.0
  0
VERTEX
  5
1F1E
100
AcDbEntity
  8
ALPHA
 62
     7
100
AcDbVertex
100
AcDb2dVertex
 10
73.348924
 20
161.755002
 30
0.0
  0
VERTEX
  5
1F1F
100
AcDbEntity
  8
ALPHA
 62
     7
100
AcDbVertex
100
AcDb2dVertex
 10
73.789896
 20
161.628567
 30
0.0
  0
VERTEX
  5
1F20
100
AcDbEntity
  8
ALPHA
 62
     7
100
AcDbVertex
100
AcDb2dVertex
 10
74.303904
 20
161.532621
 30
0.0
  0
VERTEX
  5
1F21
100
AcDbEntity
  8
ALPHA
 62
     7
100
AcDbVertex
100
AcDb2dVertex
 10
74.888537
 20
161.478533
 30
0.0
  0
VERTEX
  5
1F22
100
AcDbEntity
  8
ALPHA
 62
     7
100
AcDbVertex
100
AcDb2dVertex
 10
75.501764
 20
161.4806
 30
0.0
  0
VERTEX
  5
1F23
100
AcDbEntity
  8
ALPHA
 62
     7
100
AcDbVertex
100
AcDb2dVertex
 10
76.078128
 20
161.536583
 30
0.0
  0
VERTEX
  5
1F24
100
AcDbEntity
  8
ALPHA
 62
     7
100
AcDbVertex
100
AcDb2dVertex
 10
76.584557
 20
161.633735
 30
0.0
  0
VERTEX
  5
1F25
100
AcDbEntity
  8
ALPHA
 62
     7
100
AcDbVertex
100
AcDb2dVertex
 10
77.019328
 20
161.759998
 30
0.0
  0
VERTEX
  5
1F26
100
AcDbEntity
  8
ALPHA
 62
     7
100
AcDbVertex
100
AcDb2dVertex
 10
77.39071
 20
161.90762
 30
0.0
  0
VERTEX
  5
1F27
100
AcDbEntity
  8
ALPHA
 62
     7
100
AcDbVertex
100
AcDb2dVertex
 10
77.702835
 20
162.071262
 30
0.0
  0
VERTEX
  5
1F28
100
AcDbEntity
  8
ALPHA
 62
     7
100
AcDbVertex
100
AcDb2dVertex
 10
77.960184
 20
162.24455
 30
0.0
  0
VERTEX
  5
1F29
100
AcDbEntity
  8
ALPHA
 62
     7
100
AcDbVertex
100
AcDb2dVertex
 10
78.166545
 20
162.423351
 30
0.0
  0
VERTEX
  5
1F2A
100
AcDbEntity
  8
ALPHA
 62
     7
100
AcDbVertex
100
AcDb2dVertex
 10
78.329154
 20
162.604735
 30
0.0
  0
VERTEX
  5
1F2B
100
AcDbEntity
  8
ALPHA
 62
     7
100
AcDbVertex
100
AcDb2dVertex
 10
78.452488
 20
162.786981
 30
0.0
  0
VERTEX
  5
1F2C
100
AcDbEntity
  8
ALPHA
 62
     7
100
AcDbVertex
100
AcDb2dVertex
 10
78.540682
 20
162.967848
 30
0.0
  0
VERTEX
  5
1F2D
100
AcDbEntity
  8
ALPHA
 62
     7
100
AcDbVertex
100
AcDb2dVertex
 10
78.59856
 20
163.146132
 30
0.0
  0
VERTEX
  5
1F2E
100
AcDbEntity
  8
ALPHA
 62
     7
100
AcDbVertex
100
AcDb2dVertex
 10
78.628877
 20
163.322004
 30
0.0
  0
SEQEND
  5
1F2F
100
AcDbEntity
  8
ALPHA
 62
     7
  0
LINE
  5
1F30
100
AcDbEntity
  8
ALPHA
 62
     7
100
AcDbLine
 10
68.80691
 20
156.545157
 30
0.0
 11
67.669339
 21
158.515923
 31
0.0
  0
LINE
  5
1F31
100
AcDbEntity
  8
ALPHA
 62
     7
100
AcDbLine
 10
67.669339
 20
154.574562
 30
0.0
 11
68.80691
 21
156.545157
 31
0.0
  0
POLYLINE
  5
1F32
100
AcDbEntity
  8
ALPHA
 62
     7
100
AcDb2dPolyline
 66
     1
 10
0.0
 20
0.0
 30
0.0
  0
VERTEX
  5
1F33
100
AcDbEntity
  8
ALPHA
 62
     7
100
AcDbVertex
100
AcDb2dVertex
 10
73.488794
 20
146.468425
 30
0.0
  0
VERTEX
  5
1F34
100
AcDbEntity
  8
ALPHA
 62
     7
100
AcDbVertex
100
AcDb2dVertex
 10
73.197339
 20
146.334238
 30
0.0
  0
VERTEX
  5
1F35
100
AcDbEntity
  8
ALPHA
 62
     7
100
AcDbVertex
100
AcDb2dVertex
 10
72.954805
 20
146.186616
 30
0.0
  0
VERTEX
  5
1F36
100
AcDbEntity
  8
ALPHA
 62
     7
100
AcDbVertex
100
AcDb2dVertex
 10
72.759123
 20
146.031414
 30
0.0
  0
VERTEX
  5
1F37
100
AcDbEntity
  8
ALPHA
 62
     7
100
AcDbVertex
100
AcDb2dVertex
 10
72.608573
 20
145.873629
 30
0.0
  0
VERTEX
  5
1F38
100
AcDbEntity
  8
ALPHA
 62
     7
100
AcDbVertex
100
AcDb2dVertex
 10
72.497985
 20
145.71636
 30
0.0
  0
VERTEX
  5
1F39
100
AcDbEntity
  8
ALPHA
 62
     7
100
AcDbVertex
100
AcDb2dVertex
 10
72.421504
 20
145.561503
 30
0.0
  0
VERTEX
  5
1F3A
100
AcDbEntity
  8
ALPHA
 62
     7
100
AcDbVertex
100
AcDb2dVertex
 10
72.374651
 20
145.408541
 30
0.0
  0
VERTEX
  5
1F3B
100
AcDbEntity
  8
ALPHA
 62
     7
100
AcDbVertex
100
AcDb2dVertex
 10
72.354669
 20
145.257129
 30
0.0
  0
VERTEX
  5
1F3C
100
AcDbEntity
  8
ALPHA
 62
     7
100
AcDbVertex
100
AcDb2dVertex
 10
72.360181
 20
145.105717
 30
0.0
  0
VERTEX
  5
1F3D
100
AcDbEntity
  8
ALPHA
 62
     7
100
AcDbVertex
100
AcDb2dVertex
 10
72.390498
 20
144.953961
 30
0.0
  0
VERTEX
  5
1F3E
100
AcDbEntity
  8
ALPHA
 62
     7
100
AcDbVertex
100
AcDb2dVertex
 10
72.449754
 20
144.799793
 30
0.0
  0
VERTEX
  5
1F3F
100
AcDbEntity
  8
ALPHA
 62
     7
100
AcDbVertex
100
AcDb2dVertex
 10
72.540015
 20
144.643557
 30
0.0
  0
VERTEX
  5
1F40
100
AcDbEntity
  8
ALPHA
 62
     7
100
AcDbVertex
100
AcDb2dVertex
 10
72.666795
 20
144.485772
 30
0.0
  0
VERTEX
  5
1F41
100
AcDbEntity
  8
ALPHA
 62
     7
100
AcDbVertex
100
AcDb2dVertex
 10
72.836293
 20
144.328504
 30
0.0
  0
VERTEX
  5
1F42
100
AcDbEntity
  8
ALPHA
 62
     7
100
AcDbVertex
100
AcDb2dVertex
 10
73.050578
 20
144.176575
 30
0.0
  0
VERTEX
  5
1F43
100
AcDbEntity
  8
ALPHA
 62
     7
100
AcDbVertex
100
AcDb2dVertex
 10
73.313439
 20
144.033948
 30
0.0
  0
SEQEND
  5
1F44
100
AcDbEntity
  8
ALPHA
 62
     7
  0
LINE
  5
1F45
100
AcDbEntity
  8
ALPHA
 62
     7
100
AcDbLine
 10
73.488794
 20
146.468425
 30
0.0
 11
73.488794
 21
148.957506
 31
0.0
  0
LINE
  5
1F46
100
AcDbEntity
  8
ALPHA
 62
     7
100
AcDbLine
 10
71.664272
 20
163.935748
 30
0.0
 11
71.724561
 21
163.322004
 31
0.0
  0
POLYLINE
  5
1F47
100
AcDbEntity
  8
ALPHA
 62
     7
100
AcDb2dPolyline
 66
     1
 10
0.0
 20
0.0
 30
0.0
  0
VERTEX
  5
1F48
100
AcDbEntity
  8
ALPHA
 62
     7
100
AcDbVertex
100
AcDb2dVertex
 10
77.032075
 20
144.040666
 30
0.0
  0
VERTEX
  5
1F49
100
AcDbEntity
  8
ALPHA
 62
     7
100
AcDbVertex
100
AcDb2dVertex
 10
77.291491
 20
144.182604
 30
0.0
  0
VERTEX
  5
1F4A
100
AcDbEntity
  8
ALPHA
 62
     7
100
AcDbVertex
100
AcDb2dVertex
 10
77.502675
 20
144.334705
 30
0.0
  0
VERTEX
  5
1F4B
100
AcDbEntity
  8
ALPHA
 62
     7
100
AcDbVertex
100
AcDb2dVertex
 10
77.669762
 20
144.49094
 30
0.0
  0
VERTEX
  5
1F4C
100
AcDbEntity
  8
ALPHA
 62
     7
100
AcDbVertex
100
AcDb2dVertex
 10
77.794475
 20
144.648381
 30
0.0
  0
VERTEX
  5
1F4D
100
AcDbEntity
  8
ALPHA
 62
     7
100
AcDbVertex
100
AcDb2dVertex
 10
77.884047
 20
144.804271
 30
0.0
  0
VERTEX
  5
1F4E
100
AcDbEntity
  8
ALPHA
 62
     7
100
AcDbVertex
100
AcDb2dVertex
 10
77.941925
 20
144.957578
 30
0.0
  0
VERTEX
  5
1F4F
100
AcDbEntity
  8
ALPHA
 62
     7
100
AcDbVertex
100
AcDb2dVertex
 10
77.972242
 20
145.109334
 30
0.0
  0
VERTEX
  5
1F50
100
AcDbEntity
  8
ALPHA
 62
     7
100
AcDbVertex
100
AcDb2dVertex
 10
77.976376
 20
145.260057
 30
0.0
  0
VERTEX
  5
1F51
100
AcDbEntity
  8
ALPHA
 62
     7
100
AcDbVertex
100
AcDb2dVertex
 10
77.956394
 20
145.411469
 30
0.0
  0
VERTEX
  5
1F52
100
AcDbEntity
  8
ALPHA
 62
     7
100
AcDbVertex
100
AcDb2dVertex
 10
77.908852
 20
145.564604
 30
0.0
  0
VERTEX
  5
1F53
100
AcDbEntity
  8
ALPHA
 62
     7
100
AcDbVertex
100
AcDb2dVertex
 10
77.831682
 20
145.719805
 30
0.0
  0
VERTEX
  5
1F54
100
AcDbEntity
  8
ALPHA
 62
     7
100
AcDbVertex
100
AcDb2dVertex
 10
77.72075
 20
145.876213
 30
0.0
  0
VERTEX
  5
1F55
100
AcDbEntity
  8
ALPHA
 62
     7
100
AcDbVertex
100
AcDb2dVertex
 10
77.569855
 20
146.033481
 30
0.0
  0
VERTEX
  5
1F56
100
AcDbEntity
  8
ALPHA
 62
     7
100
AcDbVertex
100
AcDb2dVertex
 10
77.374862
 20
146.187649
 30
0.0
  0
VERTEX
  5
1F57
100
AcDbEntity
  8
ALPHA
 62
     7
100
AcDbVertex
100
AcDb2dVertex
 10
77.133016
 20
146.334583
 30
0.0
  0
VERTEX
  5
1F58
100
AcDbEntity
  8
ALPHA
 62
     7
100
AcDbVertex
100
AcDb2dVertex
 10
76.843284
 20
146.468425
 30
0.0
  0
SEQEND
  5
1F59
100
AcDbEntity
  8
ALPHA
 62
     7
  0
LINE
  5
1F5A
100
AcDbEntity
  8
ALPHA
 62
     7
100
AcDbLine
 10
76.843284
 20
148.957851
 30
0.0
 11
76.843284
 21
146.468425
 31
0.0
  0
LINE
  5
1F5B
100
AcDbEntity
  8
ALPHA
 62
     7
100
AcDbLine
 10
82.638279
 20
158.515923
 30
0.0
 11
81.500364
 21
156.545157
 31
0.0
  0
LINE
  5
1F5C
100
AcDbEntity
  8
ALPHA
 62
     7
100
AcDbLine
 10
81.500364
 20
156.545157
 30
0.0
 11
82.638279
 21
154.574562
 31
0.0
  0
LINE
  5
1F5D
100
AcDbEntity
  8
ALPHA
 62
     7
100
AcDbLine
 10
78.628877
 20
163.322004
 30
0.0
 11
78.689511
 21
163.935748
 31
0.0
  0
LINE
  5
1F5E
100
AcDbEntity
  8
ALPHA
 62
     7
100
AcDbLine
 10
93.531671
 20
137.040576
 30
0.0
 11
93.531671
 21
164.241672
 31
0.0
  0
LINE
  5
1F5F
100
AcDbEntity
  8
ALPHA
 62
     7
100
AcDbLine
 10
87.570278
 20
136.689177
 30
0.0
 11
92.546374
 21
136.689177
 31
0.0
  0
LINE
  5
1F60
100
AcDbEntity
  8
ALPHA
 62
     7
100
AcDbLine
 10
92.546374
 20
128.855202
 30
0.0
 11
84.466247
 21
128.855202
 31
0.0
  0
LINE
  5
1F61
100
AcDbEntity
  8
ALPHA
 62
     7
100
AcDbLine
 10
92.252507
 20
137.024901
 30
0.0
 11
92.084731
 21
136.689177
 31
0.0
  0
LINE
  5
1F62
100
AcDbEntity
  8
ALPHA
 62
     7
100
AcDbLine
 10
88.407436
 20
137.020939
 30
0.0
 11
87.126894
 21
137.020939
 31
0.0
  0
LINE
  5
1F63
100
AcDbEntity
  8
ALPHA
 62
     7
100
AcDbLine
 10
84.466247
 20
135.950204
 30
0.0
 11
84.466247
 21
128.855202
 31
0.0
  0
SPLINE
  5
1F64
100
AcDbEntity
  8
ALPHA
 62
     7
100
AcDbSpline
210
0.0
220
0.0
230
-1.0
 70
     8
 71
     3
 72
     8
 73
     4
 74
     0
 42
0.0000001
 43
0.0000001
 40
0.0
 40
0.0
 40
0.0
 40
0.0
 40
1.0
 40
1.0
 40
1.0
 40
1.0
 10
84.46624671042746
 20
135.950203539811
 30
0.0
 10
84.46624671042746
 20
136.2223660832138
 30
0.0
 10
84.24541608976772
 20
136.4426799395506
 30
0.0
 10
83.97290903681636
 20
136.4426799395506
 30
0.0
  0
LINE
  5
1F65
100
AcDbEntity
  8
ALPHA
 62
     7
100
AcDbLine
 10
87.570278
 20
136.689177
 30
0.0
 11
87.570278
 21
136.44268
 31
0.0
  0
LINE
  5
1F66
100
AcDbEntity
  8
ALPHA
 62
     7
100
AcDbLine
 10
87.126894
 20
136.44268
 30
0.0
 11
87.126894
 21
137.020939
 31
0.0
  0
LINE
  5
1F67
100
AcDbEntity
  8
ALPHA
 62
     7
100
AcDbLine
 10
88.703714
 20
136.689177
 30
0.0
 11
88.703714
 21
128.855202
 31
0.0
  0
LINE
  5
1F68
100
AcDbEntity
  8
ALPHA
 62
     7
100
AcDbLine
 10
88.407436
 20
137.020939
 30
0.0
 11
88.573834
 21
136.689177
 31
0.0
  0
SPLINE
  5
1F69
100
AcDbEntity
  8
ALPHA
 62
     7
100
AcDbSpline
210
0.0
220
0.0
230
-1.0
 70
     8
 71
     3
 72
    11
 73
     7
 74
     0
 42
0.0000001
 43
0.0000001
 40
0.0
 40
0.0
 40
0.0
 40
0.0
 40
1.0
 40
1.0
 40
1.0
 40
2.0
 40
2.0
 40
2.0
 40
2.0
 10
93.53167097258022
 20
120.4300483748805
 30
0.0
 10
93.53167097258022
 20
120.9742012069117
 30
0.0
 10
93.0903542408094
 20
121.4155179386825
 30
0.0
 10
92.54637366355245
 20
121.4155179386825
 30
0.0
 10
92.54637366355245
 20
121.4155179386825
 30
0.0
 10
92.54637366355245
 20
121.4155179386825
 30
0.0
 10
92.54637366355245
 20
121.4155179386825
 30
0.0
  0
SPLINE
  5
1F6A
100
AcDbEntity
  8
ALPHA
 62
     7
100
AcDbSpline
210
0.0
220
0.0
230
-1.0
 70
     8
 71
     3
 72
     8
 73
     4
 74
     0
 42
0.0000001
 43
0.0000001
 40
0.0
 40
0.0
 40
0.0
 40
0.0
 40
1.0
 40
1.0
 40
1.0
 40
1.0
 10
93.53167097258022
 20
127.8697320771374
 30
0.0
 10
93.53167097258022
 20
128.4138849091687
 30
0.0
 10
93.0903542408094
 20
128.8552016409395
 30
0.0
 10
92.54637366355245
 20
128.8552016409395
 30
0.0
  0
SPLINE
  5
1F6B
100
AcDbEntity
  8
ALPHA
 62
     7
100
AcDbSpline
210
0.0
220
0.0
230
-1.0
 70
     8
 71
     3
 72
     8
 73
     4
 74
     0
 42
0.0000001
 43
0.0000001
 40
0.0
 40
0.0
 40
0.0
 40
0.0
 40
1.0
 40
1.0
 40
1.0
 40
1.0
 10
93.53167097258022
 20
135.7037069577798
 30
0.0
 10
93.53167097258022
 20
136.2482042993596
 30
0.0
 10
93.0903542408094
 20
136.6891765215819
 30
0.0
 10
92.54637366355245
 20
136.6891765215819
 30
0.0
  0
POLYLINE
  5
1F6C
100
AcDbEntity
  8
ALPHA
 62
     7
100
AcDb2dPolyline
 66
     1
 10
0.0
 20
0.0
 30
0.0
  0
VERTEX
  5
1F6D
100
AcDbEntity
  8
ALPHA
 62
     7
100
AcDbVertex
100
AcDb2dVertex
 10
92.68969
 20
137.057457
 30
0.0
  0
VERTEX
  5
1F6E
100
AcDbEntity
  8
ALPHA
 62
     7
100
AcDbVertex
100
AcDb2dVertex
 10
92.958752
 20
137.056251
 30
0.0
  0
VERTEX
  5
1F6F
100
AcDbEntity
  8
ALPHA
 62
     7
100
AcDbVertex
100
AcDb2dVertex
 10
93.193363
 20
137.053495
 30
0.0
  0
VERTEX
  5
1F70
100
AcDbEntity
  8
ALPHA
 62
     7
100
AcDbVertex
100
AcDb2dVertex
 10
93.376297
 20
137.049706
 30
0.0
  0
VERTEX
  5
1F71
100
AcDbEntity
  8
ALPHA
 62
     7
100
AcDbVertex
100
AcDb2dVertex
 10
93.491708
 20
137.045399
 30
0.0
  0
VERTEX
  5
1F72
100
AcDbEntity
  8
ALPHA
 62
     7
100
AcDbVertex
100
AcDb2dVertex
 10
93.531671
 20
137.040576
 30
0.0
  0
SEQEND
  5
1F73
100
AcDbEntity
  8
ALPHA
 62
     7
  0
LINE
  5
1F74
100
AcDbEntity
  8
ALPHA
 62
     7
100
AcDbLine
 10
93.531671
 20
137.020939
 30
0.0
 11
92.252507
 21
137.024901
 31
0.0
  0
LINE
  5
1F75
100
AcDbEntity
  8
ALPHA
 62
     7
100
AcDbLine
 10
93.384221
 20
164.497643
 30
0.0
 11
90.84174
 21
165.965598
 31
0.0
  0
LINE
  5
1F76
100
AcDbEntity
  8
ALPHA
 62
     7
100
AcDbLine
 10
86.052369
 20
156.545157
 30
0.0
 11
84.914109
 21
158.515923
 31
0.0
  0
LINE
  5
1F77
100
AcDbEntity
  8
ALPHA
 62
     7
100
AcDbLine
 10
84.914109
 20
154.574562
 30
0.0
 11
86.052369
 21
156.545157
 31
0.0
  0
SPLINE
  5
1F78
100
AcDbEntity
  8
ALPHA
 62
     7
100
AcDbSpline
210
0.0
220
0.0
230
-1.0
 70
     8
 71
     3
 72
     8
 73
     4
 74
     0
 42
0.0000001
 43
0.0000001
 40
0.0
 40
0.0
 40
0.0
 40
0.0
 40
1.0
 40
1.0
 40
1.0
 40
1.0
 10
90.84174041702468
 20
165.9655979625541
 30
0.0
 10
90.79626515660804
 20
165.9916084334742
 30
0.0
 10
90.74527774341357
 20
166.0052165606443
 30
0.0
 10
90.6936013111219
 20
166.0052165606443
 30
0.0
  0
SPLINE
  5
1F79
100
AcDbEntity
  8
ALPHA
 62
     7
100
AcDbSpline
210
0.0
220
0.0
230
1.0
 70
     8
 71
     3
 72
     8
 73
     4
 74
     0
 42
0.0000001
 43
0.0000001
 40
0.0
 40
0.0
 40
0.0
 40
0.0
 40
1.0
 40
1.0
 40
1.0
 40
1.0
 10
93.53167097258022
 20
164.2416721813041
 30
0.0
 10
93.53167097258022
 20
164.3472643579534
 30
0.0
 10
93.47517140660801
 20
164.444588305436
 30
0.0
 10
93.38422088577468
 20
164.4976427759222
 30
0.0
  0
DIMENSION
  5
1F86
100
AcDbEntity
  8
COTATION1
100
AcDbDimension
  2
*D3
 10
93.531671
 20
175.77508
 30
0.0
 11
66.531596
 21
178.02508
 31
0.0
 70
    32
  3
SC_STAND
100
AcDbAlignedDimension
 13
39.531522
 23
164.46334
 33
0.0
 14
93.531671
 24
164.46334
 34
0.0
100
AcDbRotatedDimension
  0
DIMENSION
  5
1FBF
100
AcDbEntity
  8
COTATION1
100
AcDbDimension
  2
*D4
 10
104.819393
 20
35.882065
 30
0.0
 11
102.569393
 21
100.943641
 31
0.0
 70
    32
  1
130
  3
SC_STAND
100
AcDbAlignedDimension
 13
90.693601
 23
166.005217
 33
0.0
 14
90.772839
 24
35.882065
 34
0.0
 50
90.0
100
AcDbRotatedDimension
  0
VIEWPORT
  5
1BB6
100
AcDbEntity
 67
     1
  8
0
100
AcDbViewport
 10
303.72828
 20
482.312349
 30
0.0
 40
613.806559
 41
373.451807
 68
    -1
 69
     1
1001
ACAD
1000
MVIEW
1002
{
1070
    16
1010
0.0
1020
0.0
1030
0.0
1010
0.0
1020
0.0
1030
1.0
1040
0.0
1040
373.451807
1040
303.72828
1040
482.312349
1040
50.0
1040
0.0
1040
0.0
1070
     0
1070
   100
1070
     1
1070
     1
1070
     0
1070
     0
1070
     0
1070
     0
1040
0.0
1040
0.0
1040
0.0
1040
1.0
1040
1.0
1040
10.0
1040
10.0
1070
     0
1002
{
1002
}
1002
}
  0
ENDSEC
  0
SECTION
  2
OBJECTS
  0
DICTIONARY
  5
F8
100
AcDbDictionary
  3
ACAD_GROUP
350
F9
  3
ACAD_MLINESTYLE
350
106
  3
ACDBVARIABLEDICTIONARY
350
143
  0
DICTIONARY
  5
F9
102
{ACAD_REACTORS
330
F8
102
}
100
AcDbDictionary
  0
DICTIONARY
  5
106
102
{ACAD_REACTORS
330
F8
102
}
100
AcDbDictionary
  3
STANDARD
350
107
  0
DICTIONARY
  5
143
102
{ACAD_REACTORS
330
F8
102
}
100
AcDbDictionary
  3
DIMADEC
350
144
  0
MLINESTYLE
  5
107
102
{ACAD_REACTORS
330
106
102
}
100
AcDbMlineStyle
  2
STANDARD
 70
     0
  3

 62
   256
 51
90.0
 52
90.0
 71
     2
 49
0.5
 62
   256
  6
BYLAYER
 49
-0.5
 62
   256
  6
BYLAYER
  0
DICTIONARYVAR
  5
144
102
{ACAD_REACTORS
330
143
102
}
100
DictionaryVariables
280
     0
  1
0
  0
ENDSEC
  0
EOF
