  0
SECTION
  2
HEADER
  9
$ACADVER
  1
AC1014
  9
$ACADMAINTVER
 70
     9
  9
$DWGCODEPAGE
  3
ANSI_1252
  9
$INSBASE
 10
0.0
 20
0.0
 30
0.0
  9
$EXTMIN
 10
0.0
 20
0.0
 30
0.0
  9
$EXTMAX
 10
98.40000600000003
 20
61.5
 30
0.0
  9
$LIMMIN
 10
0.0
 20
0.0
  9
$LIMMAX
 10
16.40000099999999
 20
10.25
  9
$ORTHOMODE
 70
     0
  9
$REGENMODE
 70
     1
  9
$FILLMODE
 70
     1
  9
$QTEXTMODE
 70
     0
  9
$MIRRTEXT
 70
     1
  9
$DRAGMODE
 70
     2
  9
$LTSCALE
 40
1.0
  9
$OSMODE
 70
     1
  9
$ATTMODE
 70
     1
  9
$TEXTSIZE
 40
0.2
  9
$TRACEWID
 40
0.05
  9
$TEXTSTYLE
  7
ROMANS
  9
$CLAYER
  8
0
  9
$CELTYPE
  6
BYLAYER
  9
$CECOLOR
 62
   256
  9
$CELTSCALE
 40
1.0
  9
$DELOBJ
 70
     1
  9
$DISPSILH
 70
     0
  9
$DIMSCALE
 40
0.0
  9
$DIMASZ
 40
0.07
  9
$DIMEXO
 40
0.0625
  9
$DIMDLI
 40
0.38
  9
$DIMRND
 40
0.001
  9
$DIMDLE
 40
0.0
  9
$DIMEXE
 40
0.0625
  9
$DIMTP
 40
0.0
  9
$DIMTM
 40
0.0
  9
$DIMTXT
 40
0.1
  9
$DIMCEN
 40
0.09
  9
$DIMTSZ
 40
0.0
  9
$DIMTOL
 70
     0
  9
$DIMLIM
 70
     0
  9
$DIMTIH
 70
     1
  9
$DIMTOH
 70
     1
  9
$DIMSE1
 70
     0
  9
$DIMSE2
 70
     0
  9
$DIMTAD
 70
     0
  9
$DIMZIN
 70
     4
  9
$DIMBLK
  1
SEARROW
  9
$DIMASO
 70
     1
  9
$DIMSHO
 70
     1
  9
$DIMPOST
  1
\P
  9
$DIMAPOST
  1

  9
$DIMALT
 70
     1
  9
$DIMALTD
 70
     0
  9
$DIMALTF
 40
25.4
  9
$DIMLFAC
 40
1.0
  9
$DIMTOFL
 70
     0
  9
$DIMTVP
 40
0.0
  9
$DIMTIX
 70
     0
  9
$DIMSOXD
 70
     0
  9
$DIMSAH
 70
     0
  9
$DIMBLK1
  1

  9
$DIMBLK2
  1

  9
$DIMSTYLE
  2
SCHNEIDERELECTRIC_DUAL_BEL
  9
$DIMCLRD
 70
   256
  9
$DIMCLRE
 70
   256
  9
$DIMCLRT
 70
   256
  9
$DIMTFAC
 40
1.0
  9
$DIMGAP
 40
0.04
  9
$DIMJUST
 70
     0
  9
$DIMSD1
 70
     0
  9
$DIMSD2
 70
     0
  9
$DIMTOLJ
 70
     1
  9
$DIMTZIN
 70
     0
  9
$DIMALTZ
 70
     4
  9
$DIMALTTZ
 70
     0
  9
$DIMFIT
 70
     3
  9
$DIMUPT
 70
     0
  9
$DIMUNIT
 70
     2
  9
$DIMDEC
 70
     2
  9
$DIMTDEC
 70
     2
  9
$DIMALTU
 70
     2
  9
$DIMALTTD
 70
     0
  9
$DIMTXSTY
  7
ROMANS
  9
$DIMAUNIT
 70
     0
  9
$LUNITS
 70
     2
  9
$LUPREC
 70
     4
  9
$SKETCHINC
 40
0.1
  9
$FILLETRAD
 40
0.5
  9
$AUNITS
 70
     0
  9
$AUPREC
 70
     0
  9
$MENU
  1
.
  9
$ELEVATION
 40
0.0
  9
$PELEVATION
 40
0.0
  9
$THICKNESS
 40
0.0
  9
$LIMCHECK
 70
     0
  9
$BLIPMODE
 70
     0
  9
$CHAMFERA
 40
0.5
  9
$CHAMFERB
 40
0.5
  9
$CHAMFERC
 40
1.0
  9
$CHAMFERD
 40
0.0
  9
$SKPOLY
 70
     0
  9
$TDCREATE
 40
2451764.618375243
  9
$TDUPDATE
 40
2452500.360007037
  9
$TDINDWG
 40
0.3519287731
  9
$TDUSRTIMER
 40
0.3519285417
  9
$USRTIMER
 70
     1
  9
$ANGBASE
 50
0.0
  9
$ANGDIR
 70
     0
  9
$PDMODE
 70
     0
  9
$PDSIZE
 40
0.0
  9
$PLINEWID
 40
0.0
  9
$COORDS
 70
     1
  9
$SPLFRAME
 70
     0
  9
$SPLINETYPE
 70
     6
  9
$SPLINESEGS
 70
     8
  9
$ATTDIA
 70
     0
  9
$ATTREQ
 70
     1
  9
$HANDLING
 70
 22529
  9
$HANDSEED
  5
2C09
  9
$SURFTAB1
 70
     6
  9
$SURFTAB2
 70
     6
  9
$SURFTYPE
 70
     6
  9
$SURFU
 70
     6
  9
$SURFV
 70
     6
  9
$UCSNAME
  2

  9
$UCSORG
 10
0.0
 20
0.0
 30
0.0
  9
$UCSXDIR
 10
1.0
 20
0.0
 30
0.0
  9
$UCSYDIR
 10
0.0
 20
1.0
 30
0.0
  9
$PUCSNAME
  2

  9
$PUCSORG
 10
0.0
 20
0.0
 30
0.0
  9
$PUCSXDIR
 10
1.0
 20
0.0
 30
0.0
  9
$PUCSYDIR
 10
0.0
 20
1.0
 30
0.0
  9
$USERI1
 70
     0
  9
$USERI2
 70
     0
  9
$USERI3
 70
     0
  9
$USERI4
 70
     0
  9
$USERI5
 70
     0
  9
$USERR1
 40
0.0
  9
$USERR2
 40
0.0
  9
$USERR3
 40
0.0
  9
$USERR4
 40
0.0
  9
$USERR5
 40
0.0
  9
$WORLDVIEW
 70
     1
  9
$SHADEDGE
 70
     3
  9
$SHADEDIF
 70
    70
  9
$TILEMODE
 70
     0
  9
$MAXACTVP
 70
    48
  9
$PINSBASE
 10
0.0
 20
0.0
 30
0.0
  9
$PLIMCHECK
 70
     0
  9
$PEXTMIN
 10
-0.0007131384635031
 20
-0.1514736841364659
 30
-0.0015258207003583
  9
$PEXTMAX
 10
16.40111134833069
 20
10.25082406156148
 30
0.0000000349246037
  9
$PLIMMIN
 10
-0.6466836925812065
 20
-1.72699286503211
  9
$PLIMMAX
 10
17.02433529251721
 20
11.92788535390193
  9
$UNITMODE
 70
     0
  9
$VISRETAIN
 70
     1
  9
$PLINEGEN
 70
     0
  9
$PSLTSCALE
 70
     1
  9
$TREEDEPTH
 70
  3020
  9
$PICKSTYLE
 70
     1
  9
$CMLSTYLE
  2
STANDARD
  9
$CMLJUST
 70
     0
  9
$CMLSCALE
 40
1.0
  9
$PROXYGRAPHICS
 70
     1
  9
$MEASUREMENT
 70
     0
  0
ENDSEC
  0
SECTION
  2
CLASSES
  0
CLASS
  1
ACDBDICTIONARYWDFLT
  2
AcDbDictionaryWithDefault
  3
AutoCAD 2000
 90
        0
280
     0
281
     0
  0
CLASS
  1
ACDBPLACEHOLDER
  2
AcDbPlaceHolder
  3
AutoCAD 2000
 90
        0
280
     0
281
     0
  0
CLASS
  1
LAYOUT
  2
AcDbLayout
  3
AutoCAD 2000
 90
        0
280
     0
281
     0
  0
CLASS
  1
LONG_TRANSACTION
  2
AcDbLongTransaction
  3
AutoCAD 2000
 90
        0
280
     0
281
     0
  0
CLASS
  1
LWPOLYLINE
  2
AcDbPolyline
  3
AutoCAD 2000
 90
        0
280
     0
281
     1
  0
CLASS
  1
HATCH
  2
AcDbHatch
  3
AutoCAD 2000
 90
        0
280
     0
281
     1
  0
CLASS
  1
XRECORD
  2
AcDbXrecord
  3
AutoCAD 2000
 90
        0
280
     0
281
     0
  0
CLASS
  1
LONG_TRANSACTION
  2
AcDbLongTransaction
  3
AutoCAD 2000
 90
        0
280
     0
281
     0
  0
CLASS
  1
LWPOLYLINE
  2
AcDbPolyline
  3
AutoCAD 2000
 90
        0
280
     0
281
     1
  0
CLASS
  1
HATCH
  2
AcDbHatch
  3
AutoCAD 2000
 90
        0
280
     0
281
     1
  0
CLASS
  1
XRECORD
  2
AcDbXrecord
  3
AutoCAD 2000
 90
        0
280
     0
281
     0
  0
CLASS
  1
LONG_TRANSACTION
  2
AcDbLongTransaction
  3
AutoCAD 2000
 90
        0
280
     0
281
     0
  0
CLASS
  1
LWPOLYLINE
  2
AcDbPolyline
  3
AutoCAD 2000
 90
        0
280
     0
281
     1
  0
CLASS
  1
HATCH
  2
AcDbHatch
  3
AutoCAD 2000
 90
        0
280
     0
281
     1
  0
CLASS
  1
XRECORD
  2
AcDbXrecord
  3
AutoCAD 2000
 90
        0
280
     0
281
     0
  0
CLASS
  1
PLOTSETTINGS
  2
AcDbPlotSettings
  3
AutoCAD 2000
 90
        0
280
     0
281
     0
  0
CLASS
  1
ACME_DOCUMENT
  2
AcMeDbDoc
  3
AcMeServices
 90
        0
280
     0
281
     0
  0
CLASS
  1
AMGSETTINGSOBJ
  2
AmgSettingsObj
  3
"AcadM|Product Description: AutoCAD Mechanical 2000|Company: Autodesk"
 90
        0
280
     0
281
     0
  0
CLASS
  1
ACMESCOPE
  2
AcMeScope
  3
AcMeServices
 90
        0
280
     0
281
     0
  0
CLASS
  1
ACMECOMMANDHISTORY
  2
AcMeCommandHistory
  3
AcMeServices
 90
        0
280
     0
281
     0
  0
CLASS
  1
DICTIONARYVAR
  2
AcDbDictionaryVar
  3
AutoCAD 2000
 90
        0
280
     0
281
     0
  0
CLASS
  1
ACIMSYSVARMAN
  2
AcImSysVarManager
  3
AcMeServices
 90
        0
280
     0
281
     0
  0
CLASS
  1
ACIMREALSYSVAR
  2
AcImRealSysVar
  3
AcMeServices
 90
        0
280
     0
281
     0
  0
CLASS
  1
ACIMINTSYSVAR
  2
AcImIntSysVar
  3
AcMeServices
 90
        0
280
     0
281
     0
  0
CLASS
  1
ACMEDRAWINGMAN
  2
AcMeDrawingMan
  3
AcMeServices
 90
        0
280
     0
281
     0
  0
CLASS
  1
ACMEVIEW
  2
AcMeView
  3
AcMeServices
 90
        0
280
     0
281
     0
  0
CLASS
  1
ACDBENTITYCACHE
  2
AcMeEntityCache
  3
AcMeServices
 90
        0
280
     0
281
     0
  0
CLASS
  1
GSMANAGER
  2
AcMeGSManager
  3
AcMeServices
 90
        0
280
     0
281
     0
  0
CLASS
  1
AmdtInternalReactor
  2
AmdtInternalReactor
  3
AcMeServices
 90
        0
280
     0
281
     0
  0
CLASS
  1
ACMESTATEMGR
  2
AcMeStateMgr
  3
AcMeServices
 90
        0
280
     0
281
     0
  0
CLASS
  1
ACME_DATABASE
  2
AcMeDbDatabase
  3
AcMeServices
 90
        0
280
     0
281
     0
  0
CLASS
  1
ACRFINSADJUSTERMGR
  2
AcRfInsAdjusterMgr
  3
AcMeServices
 90
        0
280
     0
281
     0
  0
CLASS
  1
ACMDATADICTIONARY
  2
AcmDataDictionary
  3
"AcmSymBB|Product Description: AutoCAD Mechanical 2000|Company: Autodesk"
 90
        0
280
     0
281
     0
  0
CLASS
  1
ACMDATAENTRYBLOCK
  2
AcmDataEntryBlock
  3
"AcmSymBB|Product Description: AutoCAD Mechanical 2000|Company: Autodesk"
 90
        0
280
     0
281
     0
  0
CLASS
  1
AMGOBJPROPCFG
  2
AmgObjPropCfg
  3
"AmgLay|Product Description: AutoCAD Mechanical 2000|Company: Autodesk"
 90
        1
280
     0
281
     0
  0
CLASS
  1
ACAMGFILTERDAT
  2
AcAmgFilterDat
  3
"AcadM|Product Description: AutoCAD Mechanical 2000|Company: Autodesk"
 90
        0
280
     0
281
     0
  0
CLASS
  1
LAYER_INDEX
  2
AcDbLayerIndex
  3
AutoCAD 2000
 90
        0
280
     0
281
     0
  0
CLASS
  1
IDBUFFER
  2
AcDbIdBuffer
  3
AutoCAD 2000
 90
        0
280
     0
281
     0
  0
CLASS
  1
LONG_TRANSACTION
  2
AcDbLongTransaction
  3
AutoCAD 2000
 90
        0
280
     0
281
     0
  0
CLASS
  1
LWPOLYLINE
  2
AcDbPolyline
  3
AutoCAD 2000
 90
        0
280
     0
281
     1
  0
CLASS
  1
HATCH
  2
AcDbHatch
  3
AutoCAD 2000
 90
        0
280
     0
281
     1
  0
CLASS
  1
XRECORD
  2
AcDbXrecord
  3
AutoCAD 2000
 90
        0
280
     0
281
     0
  0
CLASS
  1
LONG_TRANSACTION
  2
AcDbLongTransaction
  3
AutoCAD 2000
 90
        0
280
     0
281
     0
  0
CLASS
  1
LWPOLYLINE
  2
AcDbPolyline
  3
AutoCAD 2000
 90
        0
280
     0
281
     1
  0
CLASS
  1
HATCH
  2
AcDbHatch
  3
AutoCAD 2000
 90
        0
280
     0
281
     1
  0
CLASS
  1
XRECORD
  2
AcDbXrecord
  3
AutoCAD 2000
 90
        0
280
     0
281
     0
  0
CLASS
  1
LONG_TRANSACTION
  2
AcDbLongTransaction
  3
AutoCAD 2000
 90
        0
280
     0
281
     0
  0
CLASS
  1
LWPOLYLINE
  2
AcDbPolyline
  3
AutoCAD 2000
 90
        0
280
     0
281
     1
  0
CLASS
  1
HATCH
  2
AcDbHatch
  3
AutoCAD 2000
 90
        0
280
     0
281
     1
  0
CLASS
  1
XRECORD
  2
AcDbXrecord
  3
AutoCAD 2000
 90
        0
280
     0
281
     0
  0
CLASS
  1
LONG_TRANSACTION
  2
AcDbLongTransaction
  3
AutoCAD 2000
 90
        0
280
     0
281
     0
  0
CLASS
  1
LWPOLYLINE
  2
AcDbPolyline
  3
AutoCAD 2000
 90
        0
280
     0
281
     1
  0
CLASS
  1
HATCH
  2
AcDbHatch
  3
AutoCAD 2000
 90
        0
280
     0
281
     1
  0
CLASS
  1
XRECORD
  2
AcDbXrecord
  3
AutoCAD 2000
 90
        0
280
     0
281
     0
  0
CLASS
  1
LONG_TRANSACTION
  2
AcDbLongTransaction
  3
AutoCAD 2000
 90
        0
280
     0
281
     0
  0
CLASS
  1
LWPOLYLINE
  2
AcDbPolyline
  3
AutoCAD 2000
 90
        0
280
     0
281
     1
  0
CLASS
  1
HATCH
  2
AcDbHatch
  3
AutoCAD 2000
 90
        0
280
     0
281
     1
  0
CLASS
  1
XRECORD
  2
AcDbXrecord
  3
AutoCAD 2000
 90
        0
280
     0
281
     0
  0
CLASS
  1
LONG_TRANSACTION
  2
AcDbLongTransaction
  3
AutoCAD 2000
 90
        0
280
     0
281
     0
  0
CLASS
  1
LWPOLYLINE
  2
AcDbPolyline
  3
AutoCAD 2000
 90
        0
280
     0
281
     1
  0
CLASS
  1
HATCH
  2
AcDbHatch
  3
AutoCAD 2000
 90
        0
280
     0
281
     1
  0
CLASS
  1
XRECORD
  2
AcDbXrecord
  3
AutoCAD 2000
 90
        0
280
     0
281
     0
  0
CLASS
  1
LONG_TRANSACTION
  2
AcDbLongTransaction
  3
AutoCAD 2000
 90
        0
280
     0
281
     0
  0
CLASS
  1
LWPOLYLINE
  2
AcDbPolyline
  3
AutoCAD 2000
 90
        0
280
     0
281
     1
  0
CLASS
  1
HATCH
  2
AcDbHatch
  3
AutoCAD 2000
 90
        0
280
     0
281
     1
  0
CLASS
  1
XRECORD
  2
AcDbXrecord
  3
AutoCAD 2000
 90
        0
280
     0
281
     0
  0
CLASS
  1
LONG_TRANSACTION
  2
AcDbLongTransaction
  3
AutoCAD 2000
 90
        0
280
     0
281
     0
  0
CLASS
  1
LWPOLYLINE
  2
AcDbPolyline
  3
AutoCAD 2000
 90
        0
280
     0
281
     1
  0
CLASS
  1
HATCH
  2
AcDbHatch
  3
AutoCAD 2000
 90
        0
280
     0
281
     1
  0
CLASS
  1
XRECORD
  2
AcDbXrecord
  3
AutoCAD 2000
 90
        0
280
     0
281
     0
  0
CLASS
  1
LONG_TRANSACTION
  2
AcDbLongTransaction
  3
AutoCAD 2000
 90
        0
280
     0
281
     0
  0
CLASS
  1
LWPOLYLINE
  2
AcDbPolyline
  3
AutoCAD 2000
 90
        0
280
     0
281
     1
  0
CLASS
  1
HATCH
  2
AcDbHatch
  3
AutoCAD 2000
 90
        0
280
     0
281
     1
  0
CLASS
  1
XRECORD
  2
AcDbXrecord
  3
AutoCAD 2000
 90
        0
280
     0
281
     0
  0
CLASS
  1
LONG_TRANSACTION
  2
AcDbLongTransaction
  3
AutoCAD 2000
 90
        0
280
     0
281
     0
  0
CLASS
  1
LWPOLYLINE
  2
AcDbPolyline
  3
AutoCAD 2000
 90
        0
280
     0
281
     1
  0
CLASS
  1
HATCH
  2
AcDbHatch
  3
AutoCAD 2000
 90
        0
280
     0
281
     1
  0
CLASS
  1
XRECORD
  2
AcDbXrecord
  3
AutoCAD 2000
 90
        0
280
     0
281
     0
  0
CLASS
  1
LONG_TRANSACTION
  2
AcDbLongTransaction
  3
AutoCAD 2000
 90
        0
280
     0
281
     0
  0
CLASS
  1
LWPOLYLINE
  2
AcDbPolyline
  3
AutoCAD 2000
 90
        0
280
     0
281
     1
  0
CLASS
  1
HATCH
  2
AcDbHatch
  3
AutoCAD 2000
 90
        0
280
     0
281
     1
  0
CLASS
  1
XRECORD
  2
AcDbXrecord
  3
AutoCAD 2000
 90
        0
280
     0
281
     0
  0
CLASS
  1
LONG_TRANSACTION
  2
AcDbLongTransaction
  3
AutoCAD 2000
 90
        0
280
     0
281
     0
  0
CLASS
  1
LWPOLYLINE
  2
AcDbPolyline
  3
AutoCAD 2000
 90
        0
280
     0
281
     1
  0
CLASS
  1
HATCH
  2
AcDbHatch
  3
AutoCAD 2000
 90
        0
280
     0
281
     1
  0
CLASS
  1
XRECORD
  2
AcDbXrecord
  3
AutoCAD 2000
 90
        0
280
     0
281
     0
  0
CLASS
  1
LONG_TRANSACTION
  2
AcDbLongTransaction
  3
AutoCAD 2000
 90
        0
280
     0
281
     0
  0
CLASS
  1
LWPOLYLINE
  2
AcDbPolyline
  3
AutoCAD 2000
 90
        0
280
     0
281
     1
  0
CLASS
  1
HATCH
  2
AcDbHatch
  3
AutoCAD 2000
 90
        0
280
     0
281
     1
  0
CLASS
  1
XRECORD
  2
AcDbXrecord
  3
AutoCAD 2000
 90
        0
280
     0
281
     0
  0
CLASS
  1
LONG_TRANSACTION
  2
AcDbLongTransaction
  3
AutoCAD 2000
 90
        0
280
     0
281
     0
  0
CLASS
  1
LWPOLYLINE
  2
AcDbPolyline
  3
AutoCAD 2000
 90
        0
280
     0
281
     1
  0
CLASS
  1
HATCH
  2
AcDbHatch
  3
AutoCAD 2000
 90
        0
280
     0
281
     1
  0
CLASS
  1
XRECORD
  2
AcDbXrecord
  3
AutoCAD 2000
 90
        0
280
     0
281
     0
  0
CLASS
  1
LONG_TRANSACTION
  2
AcDbLongTransaction
  3
AutoCAD 2000
 90
        0
280
     0
281
     0
  0
CLASS
  1
LWPOLYLINE
  2
AcDbPolyline
  3
AutoCAD 2000
 90
        0
280
     0
281
     1
  0
CLASS
  1
HATCH
  2
AcDbHatch
  3
AutoCAD 2000
 90
        0
280
     0
281
     1
  0
CLASS
  1
XRECORD
  2
AcDbXrecord
  3
AutoCAD 2000
 90
        0
280
     0
281
     0
  0
CLASS
  1
LONG_TRANSACTION
  2
AcDbLongTransaction
  3
AutoCAD 2000
 90
        0
280
     0
281
     0
  0
CLASS
  1
LWPOLYLINE
  2
AcDbPolyline
  3
AutoCAD 2000
 90
        0
280
     0
281
     1
  0
CLASS
  1
HATCH
  2
AcDbHatch
  3
AutoCAD 2000
 90
        0
280
     0
281
     1
  0
CLASS
  1
XRECORD
  2
AcDbXrecord
  3
AutoCAD 2000
 90
        0
280
     0
281
     0
  0
CLASS
  1
LONG_TRANSACTION
  2
AcDbLongTransaction
  3
AutoCAD 2000
 90
        0
280
     0
281
     0
  0
CLASS
  1
LWPOLYLINE
  2
AcDbPolyline
  3
AutoCAD 2000
 90
        0
280
     0
281
     1
  0
CLASS
  1
HATCH
  2
AcDbHatch
  3
AutoCAD 2000
 90
        0
280
     0
281
     1
  0
CLASS
  1
XRECORD
  2
AcDbXrecord
  3
AutoCAD 2000
 90
        0
280
     0
281
     0
  0
CLASS
  1
LONG_TRANSACTION
  2
AcDbLongTransaction
  3
AutoCAD 2000
 90
        0
280
     0
281
     0
  0
CLASS
  1
LWPOLYLINE
  2
AcDbPolyline
  3
AutoCAD 2000
 90
        0
280
     0
281
     1
  0
CLASS
  1
HATCH
  2
AcDbHatch
  3
AutoCAD 2000
 90
        0
280
     0
281
     1
  0
CLASS
  1
XRECORD
  2
AcDbXrecord
  3
AutoCAD 2000
 90
        0
280
     0
281
     0
  0
CLASS
  1
LONG_TRANSACTION
  2
AcDbLongTransaction
  3
AutoCAD 2000
 90
        0
280
     0
281
     0
  0
CLASS
  1
LWPOLYLINE
  2
AcDbPolyline
  3
AutoCAD 2000
 90
        0
280
     0
281
     1
  0
CLASS
  1
HATCH
  2
AcDbHatch
  3
AutoCAD 2000
 90
        0
280
     0
281
     1
  0
CLASS
  1
XRECORD
  2
AcDbXrecord
  3
AutoCAD 2000
 90
        0
280
     0
281
     0
  0
ENDSEC
  0
SECTION
  2
TABLES
  0
TABLE
  2
VPORT
  5
8
330
0
100
AcDbSymbolTable
 70
     1
  0
VPORT
  5
2AFA
330
8
100
AcDbSymbolTableRecord
100
AcDbViewportTableRecord
  2
*ACTIVE
 70
     0
 10
0.0
 20
0.0
 11
1.0
 21
1.0
 12
49.20004717244266
 22
30.74958224744564
 13
0.0
 23
0.0
 14
0.5
 24
0.5
 15
0.5
 25
0.5
 16
0.0
 26
0.0
 36
1.0
 17
0.0
 27
0.0
 37
0.0
 40
62.28624022338743
 41
1.587628865979381
 42
50.0
 43
0.0
 44
0.0
 50
0.0
 51
0.0
 71
     0
 72
   100
 73
     1
 74
     2
 75
     0
 76
     0
 77
     0
 78
     0
  0
ENDTAB
  0
TABLE
  2
LTYPE
  5
5
330
0
100
AcDbSymbolTable
 70
     3
  0
LTYPE
  5
14
330
5
100
AcDbSymbolTableRecord
100
AcDbLinetypeTableRecord
  2
BYBLOCK
 70
     0
  3

 72
    65
 73
     0
 40
0.0
  0
LTYPE
  5
15
330
5
100
AcDbSymbolTableRecord
100
AcDbLinetypeTableRecord
  2
BYLAYER
 70
     0
  3

 72
    65
 73
     0
 40
0.0
  0
LTYPE
  5
16
330
5
100
AcDbSymbolTableRecord
100
AcDbLinetypeTableRecord
  2
CONTINUOUS
 70
     0
  3
Solid line
 72
    65
 73
     0
 40
0.0
  0
LTYPE
  5
1F4B
330
5
100
AcDbSymbolTableRecord
100
AcDbLinetypeTableRecord
  2
CENTER2
 70
     0
  3
Center (.5x) ___ _ ___ _ ___ _ ___ _ ___ _ ___
 72
    65
 73
     4
 40
1.125
 49
0.75
 74
     0
 49
-0.125
 74
     0
 49
0.125
 74
     0
 49
-0.125
 74
     0
  0
LTYPE
  5
1F4F
330
5
100
AcDbSymbolTableRecord
100
AcDbLinetypeTableRecord
  2
HIDDEN2
 70
     0
  3
Hidden (.5x) _ _ _ _ _ _ _ _ _ _ _ _ _ _ _ _ _
 72
    65
 73
     2
 40
0.08
 49
0.035
 74
     0
 49
-0.045
 74
     0
  0
ENDTAB
  0
TABLE
  2
LAYER
  5
2
330
0
100
AcDbSymbolTable
 70
    12
  0
LAYER
  5
10
330
2
100
AcDbSymbolTableRecord
100
AcDbLayerTableRecord
  2
0
 70
     0
 62
     7
  6
CONTINUOUS
  0
LAYER
  5
48
330
2
100
AcDbSymbolTableRecord
100
AcDbLayerTableRecord
  2
CONTINUOUS2
 70
     0
 62
   254
  6
CONTINUOUS
  0
LAYER
  5
49
330
2
100
AcDbSymbolTableRecord
100
AcDbLayerTableRecord
  2
CONTINUOUS3
 70
     0
 62
   253
  6
CONTINUOUS
  0
LAYER
  5
55
330
2
100
AcDbSymbolTableRecord
100
AcDbLayerTableRecord
  2
TEXT1
 70
     0
 62
     3
  6
CONTINUOUS
  0
LAYER
  5
58
330
2
100
AcDbSymbolTableRecord
100
AcDbLayerTableRecord
  2
TITLEBLOCK
 70
     0
 62
     9
  6
CONTINUOUS
  0
LAYER
  5
59
330
2
100
AcDbSymbolTableRecord
100
AcDbLayerTableRecord
  2
VIEWPORT
 70
     0
 62
     9
  6
CONTINUOUS
  0
LAYER
  5
1F51
330
2
100
AcDbSymbolTableRecord
100
AcDbLayerTableRecord
  2
CENTER1
 70
     0
 62
     2
  6
CENTER2
  0
LAYER
  5
1F55
330
2
100
AcDbSymbolTableRecord
100
AcDbLayerTableRecord
  2
CONTINUOUS1
 70
     0
 62
     7
  6
CONTINUOUS
  0
LAYER
  5
1F59
330
2
100
AcDbSymbolTableRecord
100
AcDbLayerTableRecord
  2
DIM
 70
     0
 62
     2
  6
CONTINUOUS
  0
LAYER
  5
1F5A
330
2
100
AcDbSymbolTableRecord
100
AcDbLayerTableRecord
  2
HIDDEN1
 70
     0
 62
     5
  6
HIDDEN2
  0
LAYER
  5
1F61
330
2
100
AcDbSymbolTableRecord
100
AcDbLayerTableRecord
  2
TEXT2
 70
     0
 62
    80
  6
CONTINUOUS
  0
LAYER
  5
1F63
330
2
100
AcDbSymbolTableRecord
100
AcDbLayerTableRecord
  2
DEFPOINTS
 70
     0
 62
     7
  6
CONTINUOUS
  0
ENDTAB
  0
TABLE
  2
STYLE
  5
3
330
0
100
AcDbSymbolTable
 70
     3
  0
STYLE
  5
11
330
3
100
AcDbSymbolTableRecord
100
AcDbTextStyleTableRecord
  2
STANDARD
 70
     0
 40
0.0
 41
1.0
 50
0.0
 71
     0
 42
0.2
  3
txt
  4

  0
STYLE
  5
36
330
3
100
AcDbSymbolTableRecord
100
AcDbTextStyleTableRecord
  2
ROMANS
 70
     0
 40
0.0
 41
1.0
 50
0.0
 71
     0
 42
0.2
  3
romans.shx
  4

  0
STYLE
  5
6CC
330
3
100
AcDbSymbolTableRecord
100
AcDbTextStyleTableRecord
  2
M_STANDARD
 70
     0
 40
0.0
 41
0.8
 50
0.0
 71
     0
 42
0.0
  3
MEDUSA.SHX
  4

  0
ENDTAB
  0
TABLE
  2
VIEW
  5
6
330
0
100
AcDbSymbolTable
 70
     0
  0
ENDTAB
  0
TABLE
  2
UCS
  5
7
330
0
100
AcDbSymbolTable
 70
     0
  0
ENDTAB
  0
TABLE
  2
APPID
  5
9
330
0
100
AcDbSymbolTable
 70
    11
  0
APPID
  5
12
330
9
100
AcDbSymbolTableRecord
100
AcDbRegAppTableRecord
  2
ACAD
 70
     0
  0
APPID
  5
6B
330
9
100
AcDbSymbolTableRecord
100
AcDbRegAppTableRecord
  2
DCO15
 70
     0
  0
APPID
  5
370
330
9
100
AcDbSymbolTableRecord
100
AcDbRegAppTableRecord
  2
MCAD_NO_VIS
 70
     0
  0
APPID
  5
371
330
9
100
AcDbSymbolTableRecord
100
AcDbRegAppTableRecord
  2
ACAD_TEMP_GRAPHIC
 70
     0
  0
APPID
  5
387
330
9
100
AcDbSymbolTableRecord
100
AcDbRegAppTableRecord
  2
GENIUS_GENSCREG_15
 70
     0
  0
APPID
  5
389
330
9
100
AcDbSymbolTableRecord
100
AcDbRegAppTableRecord
  2
GENIUS_GENODEF_13
 70
     0
  0
APPID
  5
38A
330
9
100
AcDbSymbolTableRecord
100
AcDbRegAppTableRecord
  2
GENIUS_GENOBJ-N-SDF_13
 70
     0
  0
APPID
  5
38B
330
9
100
AcDbSymbolTableRecord
100
AcDbRegAppTableRecord
  2
GENIUS_GENOENT_13
 70
     0
  0
APPID
  5
38C
330
9
100
AcDbSymbolTableRecord
100
AcDbRegAppTableRecord
  2
GENIUS_GENOREF_13
 70
     0
  0
APPID
  5
38D
330
9
100
AcDbSymbolTableRecord
100
AcDbRegAppTableRecord
  2
GENIUS_GENOLIS_13
 70
     0
  0
APPID
  5
6CE
330
9
100
AcDbSymbolTableRecord
100
AcDbRegAppTableRecord
  2
MED_PRIMTYPE
 70
     0
  0
ENDTAB
  0
TABLE
  2
DIMSTYLE
  5
A
330
0
100
AcDbSymbolTable
 70
     2
  0
DIMSTYLE
105
E13
330
A
100
AcDbSymbolTableRecord
100
AcDbDimStyleTableRecord
  2
SCHNEIDERELECTRIC
 70
     0
  3

  4

  5
SEARROW
  6

  7

 40
0.0
 41
0.07
 42
0.0625
 43
0.38
 44
0.0625
 45
0.001
 46
0.0
 47
0.0
 48
0.0
140
0.1
141
0.09
142
0.0
143
25.4
144
1.0
145
0.0
146
1.0
147
0.04
 71
     0
 72
     0
 73
     1
 74
     1
 75
     0
 76
     0
 77
     0
 78
     4
170
     0
171
     1
172
     0
173
     0
174
     0
175
     0
176
   256
177
   256
178
   256
270
     2
271
     2
272
     2
273
     2
274
     1
340
36
275
     0
280
     0
281
     0
282
     0
283
     1
284
     0
285
     0
286
     0
287
     3
288
     0
  0
DIMSTYLE
105
1F65
102
{ACAD_REACTORS
330
28E9
330
28F7
330
2905
330
2913
330
2921
330
28DB
330
299D
330
29DB
330
29D9
330
2A36
102
}
330
A
100
AcDbSymbolTableRecord
100
AcDbDimStyleTableRecord
  2
SCHNEIDERELECTRIC_DUAL_BEL
 70
     0
  3
\P
  4

  5
SEARROW
  6

  7

 40
0.0
 41
0.07
 42
0.0625
 43
0.38
 44
0.0625
 45
0.001
 46
0.0
 47
0.0
 48
0.0
140
0.1
141
0.09
142
0.0
143
25.4
144
1.0
145
0.0
146
1.0
147
0.04
 71
     0
 72
     0
 73
     1
 74
     1
 75
     0
 76
     0
 77
     0
 78
     4
170
     1
171
     0
172
     0
173
     0
174
     0
175
     0
176
   256
177
   256
178
   256
270
     2
271
     2
272
     2
273
     2
274
     0
340
36
275
     0
280
     0
281
     0
282
     0
283
     1
284
     0
285
     4
286
     0
287
     3
288
     0
  0
ENDTAB
  0
TABLE
  2
BLOCK_RECORD
  5
1
330
0
100
AcDbSymbolTable
 70
    17
  0
BLOCK_RECORD
  5
1F
102
{ACAD_XDICTIONARY
360
73
102
}
330
1
100
AcDbSymbolTableRecord
100
AcDbBlockTableRecord
  2
*MODEL_SPACE
  0
BLOCK_RECORD
  5
1B
102
{ACAD_XDICTIONARY
360
75
102
}
330
1
100
AcDbSymbolTableRecord
100
AcDbBlockTableRecord
  2
*PAPER_SPACE
  0
BLOCK_RECORD
  5
841
330
1
100
AcDbSymbolTableRecord
100
AcDbBlockTableRecord
  2
LOGO-PAD
1001
ACAD
1000
DesignCenter Data
1002
{
1070
     1
1070
     1
1002
}
  0
BLOCK_RECORD
  5
AE5
330
1
100
AcDbSymbolTableRecord
100
AcDbBlockTableRecord
  2
TITLE-PAD
1001
ACAD
1000
DesignCenter Data
1002
{
1070
     1
1070
     1
1002
}
  0
BLOCK_RECORD
  5
E0D
330
1
100
AcDbSymbolTableRecord
100
AcDbBlockTableRecord
  2
SEARROW
1001
ACAD
1000
DesignCenter Data
1002
{
1070
     1
1070
     1
1002
}
  0
BLOCK_RECORD
  5
E42
330
1
100
AcDbSymbolTableRecord
100
AcDbBlockTableRecord
  2
SETUP
1001
ACAD
1000
DesignCenter Data
1002
{
1070
     1
1070
     1
1002
}
  0
BLOCK_RECORD
  5
F54
330
1
100
AcDbSymbolTableRecord
100
AcDbBlockTableRecord
  2
MEDCLUMP_DIM_1475_
  0
BLOCK_RECORD
  5
F57
330
1
100
AcDbSymbolTableRecord
100
AcDbBlockTableRecord
  2
MEDCLUMP_DMS_1474_
  0
BLOCK_RECORD
  5
F5B
330
1
100
AcDbSymbolTableRecord
100
AcDbBlockTableRecord
  2
MEDCLUMP_DIM_1451_
  0
BLOCK_RECORD
  5
F5E
330
1
100
AcDbSymbolTableRecord
100
AcDbBlockTableRecord
  2
MEDCLUMP_DMS_1450_
  0
BLOCK_RECORD
  5
F62
330
1
100
AcDbSymbolTableRecord
100
AcDbBlockTableRecord
  2
MEDCLUMP_DIM_1143_
  0
BLOCK_RECORD
  5
F65
330
1
100
AcDbSymbolTableRecord
100
AcDbBlockTableRecord
  2
MEDCLUMP_DMS_1142_
  0
BLOCK_RECORD
  5
28DC
330
1
100
AcDbSymbolTableRecord
100
AcDbBlockTableRecord
  2
*D10
  0
BLOCK_RECORD
  5
28EA
330
1
100
AcDbSymbolTableRecord
100
AcDbBlockTableRecord
  2
*D11
  0
BLOCK_RECORD
  5
28F8
330
1
100
AcDbSymbolTableRecord
100
AcDbBlockTableRecord
  2
*D12
  0
BLOCK_RECORD
  5
2906
330
1
100
AcDbSymbolTableRecord
100
AcDbBlockTableRecord
  2
*D13
  0
BLOCK_RECORD
  5
2914
330
1
100
AcDbSymbolTableRecord
100
AcDbBlockTableRecord
  2
*D14
  0
BLOCK_RECORD
  5
2922
330
1
100
AcDbSymbolTableRecord
100
AcDbBlockTableRecord
  2
*D15
  0
BLOCK_RECORD
  5
2A37
330
1
100
AcDbSymbolTableRecord
100
AcDbBlockTableRecord
  2
*D16
  0
ENDTAB
  0
ENDSEC
  0
SECTION
  2
BLOCKS
  0
BLOCK
  5
20
330
1F
100
AcDbEntity
  8
0
100
AcDbBlockBegin
  2
*MODEL_SPACE
 70
     0
 10
0.0
 20
0.0
 30
0.0
  3
*MODEL_SPACE
  1

  0
ENDBLK
  5
21
330
1F
100
AcDbEntity
  8
0
100
AcDbBlockEnd
  0
BLOCK
  5
1C
330
1B
100
AcDbEntity
 67
     1
  8
0
100
AcDbBlockBegin
  2
*PAPER_SPACE
 70
     0
 10
0.0
 20
0.0
 30
0.0
  3
*PAPER_SPACE
  1

  0
ENDBLK
  5
1D
330
1B
100
AcDbEntity
 67
     1
  8
0
100
AcDbBlockEnd
  0
BLOCK
  5
852
330
841
100
AcDbEntity
  8
0
100
AcDbBlockBegin
  2
LOGO-PAD
 70
     0
 10
0.0
 20
0.0
 30
0.0
  3
LOGO-PAD
  1

  0
HATCH
  5
842
330
841
100
AcDbEntity
  8
TITLEBLOCK
 62
     0
100
AcDbHatch
 10
0.0
 20
0.0
 30
0.0
210
0.0
220
0.0
230
1.0
  2
SOLID
 70
     1
 71
     0
 91
        2
 92
        1
 93
       11
 72
     2
 10
1.203771209334867
 20
0.3650136751459491
 40
0.021562648149145
 50
90.00000747299615
 51
179.9997683268519
 73
     1
 72
     1
 10
1.182208561185898
 20
0.3650137623336376
 11
1.182208392435807
 21
0.2795138227272444
 72
     2
 10
1.203771079023129
 20
0.2795136821032751
 40
0.0215626865877801
 50
179.9996263378447
 51
269.9998903896797
 73
     1
 72
     1
 10
1.203771037772394
 20
0.2579509955155343
 11
1.330521045577125
 21
0.2579511736405264
 72
     2
 10
1.330521265257171
 20
0.2795136382789064
 40
0.021562464639499
 50
269.9994162661957
 51
311.7040125634689
 73
     1
 72
     1
 10
1.344866398698837
 20
0.2634152834601535
 11
1.352083334663557
 21
0.2579511736405264
 72
     1
 10
1.352083334663557
 20
0.2579511736405264
 11
1.365099386916806
 21
0.2751416404960081
 72
     1
 10
1.365099386916806
 20
0.2751416404960081
 11
1.352083522163621
 21
0.284997066934386
 72
     1
 10
1.352083522163621
 20
0.284997066934386
 11
1.352083690913712
 21
0.3650136723335662
 72
     2
 10
1.330521042764654
 20
0.3650136751460369
 40
0.0215626481490576
 50
359.9999925267666
 51
449.9999925267678
 73
     1
 72
     1
 10
1.330521045577125
 20
0.3865763232950938
 11
1.203771206522485
 21
0.3865763232950938
 97
        0
 92
       16
 93
       10
 72
     2
 10
1.21455271481628
 20
0.3542325202904111
 40
0.0107811520434708
 50
90.00043844291294
 51
179.9999701074038
 73
     1
 72
     1
 10
1.203771562772811
 20
0.3542325259151993
 11
1.203771562772811
 21
0.2902950591455122
 72
     2
 10
1.214552849813946
 20
0.2902948416431456
 40
0.0107812870433294
 50
179.9988441113203
 51
269.9988441346395
 73
     1
 72
     1
 10
1.214552632315967
 20
0.2795135546020104
 11
1.323606134809704
 21
0.2795135546020104
 72
     1
 10
1.323606134809704
 20
0.2795135546020104
 11
1.280867956889135
 21
0.311873265117333
 72
     1
 10
1.280867956889135
 20
0.311873265117333
 11
1.293884009142384
 21
0.3290635557226322
 72
     1
 10
1.293884009142384
 20
0.3290635557226322
 11
1.330521045577125
 21
0.3013240413506308
 72
     1
 10
1.330521045577125
 20
0.3013240413506308
 11
1.330521045577125
 21
0.3542324377902786
 72
     2
 10
1.319739809158772
 20
0.3542324359152127
 40
0.0107812364183532
 50
0.0000099648460607
 51
90.00000996484372
 73
     1
 72
     1
 10
1.319739807283706
 20
0.3650136723335662
 11
1.214552632315967
 21
0.3650136723335662
 97
        0
 75
     0
 76
     1
 98
        1
 10
-7.279586802153931
 20
-0.4081141432880261
  0
HATCH
  5
843
330
841
100
AcDbEntity
  8
TITLEBLOCK
 62
     0
100
AcDbHatch
 10
0.0
 20
0.0
 30
0.0
210
0.0
220
0.0
230
1.0
  2
SOLID
 70
     1
 71
     0
 91
        1
 92
        1
 93
        4
 72
     1
 10
3.703333445713536
 20
0.1990762889281312
 11
1.018147379006204
 21
0.1990762889281312
 72
     1
 10
1.018147379006204
 20
0.1990762889281312
 11
1.018147379006204
 21
0.220706173683743
 72
     1
 10
1.018147379006204
 20
0.220706173683743
 11
3.703333445713536
 21
0.220706173683743
 72
     1
 10
3.703333445713536
 20
0.220706173683743
 11
3.703333445713536
 21
0.1990762889281312
 97
        0
 75
     0
 76
     1
 98
        1
 10
-7.279586802153931
 20
-0.4081141432880261
  0
HATCH
  5
844
330
841
100
AcDbEntity
  8
TITLEBLOCK
 62
     0
100
AcDbHatch
 10
0.0
 20
0.0
 30
0.0
210
0.0
220
0.0
230
1.0
  2
SOLID
 70
     1
 71
     0
 91
        4
 92
        1
 93
        4
 72
     1
 10
0.8306472632318495
 20
0.4814782717956759
 11
0.4556470182475714
 21
0.4814782717956759
 72
     1
 10
0.4556470182475714
 20
0.4814782717956759
 11
0.4556470182475714
 21
0.1064783844396073
 72
     1
 10
0.4556470182475714
 20
0.1064783844396073
 11
0.8306472632318495
 21
0.1064783844396073
 72
     1
 10
0.8306472632318495
 20
0.1064783844396073
 11
0.8306472632318495
 21
0.4814782717956759
 97
        0
 92
        0
 93
       10
 72
     1
 10
0.7368972019857374
 20
0.4177282462416896
 11
0.5193971779121789
 21
0.4177282462416896
 72
     1
 10
0.5193971779121789
 20
0.4177282462416896
 11
0.5193971779121789
 21
0.37460312508514
 72
     1
 10
0.5193971779121789
 20
0.37460312508514
 11
0.5531473465883146
 21
0.37460312508514
 72
     1
 10
0.5531473465883146
 20
0.37460312508514
 11
0.5531473465883146
 21
0.2133535311501431
 72
     1
 10
0.5531473465883146
 20
0.2133535311501431
 11
0.5193971779121789
 21
0.2133535311501431
 72
     1
 10
0.5193971779121789
 20
0.2133535311501431
 11
0.5193971779121789
 21
0.1702282758831428
 72
     1
 10
0.5193971779121789
 20
0.1702282758831428
 11
0.7368972019857374
 21
0.1702282758831428
 72
     1
 10
0.7368972019857374
 20
0.1702282758831428
 11
0.7668970141602749
 21
0.2002283115750982
 72
     1
 10
0.7668970141602749
 20
0.2002283115750982
 11
0.7668970141602749
 21
0.3877281658462506
 72
     1
 10
0.7668970141602749
 20
0.3877281658462506
 11
0.7368972019857374
 21
0.4177282462416896
 97
        0
 92
       16
 93
        4
 72
     1
 10
0.7987720492890098
 20
0.4496031025563197
 11
0.4875220533764768
 21
0.4496031025563197
 72
     1
 10
0.4875220533764768
 20
0.4496031025563197
 11
0.4875220533764768
 21
0.1383533301613751
 72
     1
 10
0.4875220533764768
 20
0.1383533301613751
 11
0.7987720492890098
 21
0.1383533301613751
 72
     1
 10
0.7987720492890098
 20
0.1383533301613751
 11
0.7987720492890098
 21
0.4496031025563197
 97
        0
 92
        0
 93
        4
 72
     1
 10
0.5962724677448641
 20
0.37460312508514
 11
0.5962724677448641
 21
0.2133535311501431
 72
     1
 10
0.5962724677448641
 20
0.2133535311501431
 11
0.7237719824106926
 21
0.2133535311501431
 72
     1
 10
0.7237719824106926
 20
0.2133535311501431
 11
0.7237719824106926
 21
0.37460312508514
 72
     1
 10
0.7237719824106926
 20
0.37460312508514
 11
0.5962724677448641
 21
0.37460312508514
 97
        0
 75
     0
 76
     1
 98
        1
 10
-7.279586802153931
 20
-0.313212194787444
  0
HATCH
  5
845
330
841
100
AcDbEntity
  8
TITLEBLOCK
 62
     0
100
AcDbHatch
 10
0.0
 20
0.0
 30
0.0
210
0.0
220
0.0
230
1.0
  2
SOLID
 70
     1
 71
     0
 91
        1
 92
        1
 93
       26
 72
     1
 10
1.050490193885575
 20
0.3650136723335662
 11
1.138990457951802
 21
0.3650136723335662
 72
     2
 10
1.138990281703138
 20
0.3542326140418093
 40
0.0107810582931976
 50
270.0009366709926
 51
360.0009366862294
 73
     0
 72
     1
 10
1.149771339994895
 20
0.3542324377902786
 11
1.171333797831589
 21
0.3542324377902786
 72
     1
 10
1.171333797831589
 20
0.3542324377902786
 11
1.171333797831589
 21
0.3650136723335662
 72
     2
 10
1.149771243432702
 20
0.365013768896207
 40
0.0215625543991033
 50
359.9997434148255
 51
449.9997434160159
 73
     1
 72
     1
 10
1.149771339994895
 20
0.3865763232950938
 11
1.039708786842066
 21
0.3865763232950938
 72
     2
 10
1.039709408398413
 20
0.3650142939052909
 40
0.0215620293987615
 50
90.00165163282177
 51
180.0014125206716
 73
     1
 72
     1
 10
1.018147379006204
 20
0.3650137623336376
 11
1.018147379006204
 21
0.3334199129435318
 72
     2
 10
1.039709363397143
 20
0.3334193363730153
 40
0.0215619843986475
 50
179.9984679027414
 51
269.9984679437668
 73
     1
 72
     1
 10
1.039708786842066
 20
0.3118573519820755
 11
1.138990457951802
 21
0.311857620107139
 72
     2
 10
1.138990280765661
 20
0.3010765608779043
 40
0.0107810592306907
 50
270.0009416531222
 51
360.0009416684906
 73
     0
 72
     1
 10
1.149771339994895
 20
0.3010763836888712
 11
1.149771508744986
 21
0.2902949691454408
 72
     2
 10
1.138990231076649
 20
0.2902948322713164
 40
0.0107812776692067
 50
359.9992725992319
 51
449.9997907459082
 73
     0
 72
     1
 10
1.138990270451738
 20
0.279513554602181
 11
1.050490193885575
 21
0.2795135546020104
 72
     2
 10
1.05049014888543
 20
0.2902951041454384
 40
0.0107815495435218
 50
89.99976085826782
 51
179.9997608594354
 73
     0
 72
     1
 10
1.039708599342002
 20
0.2902950591455122
 11
1.018147379006204
 21
0.2902950591455122
 72
     1
 10
1.018147379006204
 20
0.2902950591455122
 11
1.018147379006204
 21
0.2795138227272444
 72
     2
 10
1.039709273392517
 20
0.2795130680345569
 40
0.0215618943995203
 50
179.9979945776083
 51
269.9987071039827
 73
     1
 72
     1
 10
1.039708786842066
 20
0.2579511736405264
 11
1.149771339994895
 21
0.2579511736405264
 72
     2
 10
1.149771378432784
 20
0.2795135930396681
 40
0.0215624193991759
 50
269.9998978626289
 51
359.9996636967671
 73
     1
 72
     1
 10
1.171333797831589
 20
0.2795134664769192
 11
1.171333797831589
 21
0.3114825579869829
 72
     2
 10
1.149771333432362
 20
0.3114825645494808
 40
0.0215624643992288
 50
359.9999825621309
 51
449.9999825620359
 73
     1
 72
     1
 10
1.149771339994895
 20
0.3330450289487088
 11
1.050490193885575
 21
0.3330447608234748
 72
     2
 10
1.050490103885701
 20
0.3438262653667981
 40
0.0107815045436989
 50
89.99952171675776
 51
179.9999900368059
 73
     0
 72
     1
 10
1.039708599342002
 20
0.3438262634919964
 11
1.039708786842066
 21
0.3542325259151993
 72
     2
 10
1.050490107634269
 20
0.3542323515402983
 40
0.0107813207936133
 50
180.0009266903443
 51
270.0004583701697
 73
     0
 97
        0
 75
     0
 76
     1
 98
        1
 10
-7.279586802153931
 20
-0.4081141432880261
  0
HATCH
  5
846
330
841
100
AcDbEntity
  8
TITLEBLOCK
 62
     0
100
AcDbHatch
 10
0.0
 20
0.0
 30
0.0
210
0.0
220
0.0
230
1.0
  2
SOLID
 70
     1
 71
     0
 91
        1
 92
        1
 93
       18
 72
     2
 10
2.471082802883087
 20
0.3650137595211706
 40
0.021562563774099
 50
180.0000074732525
 51
269.9997683261728
 73
     0
 72
     1
 10
2.471082715695484
 20
0.3865763232950938
 11
2.586957622645552
 21
0.3865763232950938
 72
     2
 10
2.586957713583391
 20
0.3650135813961111
 40
0.0215627418991744
 50
269.9997583630888
 51
359.999758364108
 73
     0
 72
     1
 10
2.608520455482373
 20
0.3650136723335662
 11
2.608520455482373
 21
0.3542324377902786
 72
     1
 10
2.608520455482373
 20
0.3542324377902786
 11
2.586957622645552
 21
0.3542324377902786
 72
     2
 10
2.576176208103625
 20
0.3542322577916381
 40
0.0107814145434302
 50
0.0009565685814303
 51
90.00095658455173
 73
     1
 72
     1
 10
2.576176028101979
 20
0.3650136723335662
 11
2.481864141488966
 21
0.3650136723335662
 72
     2
 10
2.481864045863444
 20
0.3542323421656055
 40
0.0107813301683848
 50
89.99949181235312
 51
179.9994918168631
 73
     1
 72
     1
 10
2.471082715695484
 20
0.3542324377902786
 11
2.471082715695484
 21
0.2902950591455122
 72
     2
 10
2.481864090863785
 20
0.2902951097704553
 40
0.0107813751684203
 50
180.0002690376259
 51
270.0002690388874
 73
     1
 72
     1
 10
2.481864141488966
 20
0.2795137346021532
 11
2.576176028101979
 21
0.2795135546020104
 72
     2
 10
2.576176073102679
 20
0.2902951041456356
 40
0.010781549543719
 50
269.9997608553225
 51
359.9992825760937
 73
     1
 72
     1
 10
2.586957622645552
 20
0.2902949691454408
 11
2.608520455482373
 21
0.2902950591455122
 72
     1
 10
2.608520455482373
 20
0.2902950591455122
 11
2.608520099232048
 21
0.2795134664769192
 72
     2
 10
2.586957670458414
 20
0.2795136024145366
 40
0.0215624287740632
 50
0.0003612140281018
 51
90.00012704854281
 73
     0
 72
     1
 10
2.586957622645552
 20
0.2579511736405264
 11
2.471082715695484
 21
0.2579511736405264
 72
     2
 10
2.471082667882924
 20
0.2795136024144634
 40
0.02156242877399
 50
89.99987295225965
 51
179.9998729525419
 73
     0
 72
     1
 10
2.449520239108988
 20
0.2795135546020104
 11
2.449520239108988
 21
0.3650137623336376
 97
        0
 75
     0
 76
     1
 98
        1
 10
-7.279586802153931
 20
-0.4081141432880261
  0
HATCH
  5
847
330
841
100
AcDbEntity
  8
TITLEBLOCK
 62
     0
100
AcDbHatch
 10
0.0
 20
0.0
 30
0.0
210
0.0
220
0.0
230
1.0
  2
SOLID
 70
     1
 71
     0
 91
        1
 92
        1
 93
       12
 72
     1
 10
2.026708344139745
 20
0.3865765014202565
 11
1.890208311215626
 21
0.3865765014202565
 72
     1
 10
1.890208311215626
 20
0.3865765014202565
 11
1.890208311215626
 21
0.2579511736405264
 72
     1
 10
1.890208311215626
 20
0.2579511736405264
 11
2.026708344139745
 21
0.2579511736405264
 72
     1
 10
2.026708344139745
 20
0.2579511736405264
 11
2.026708344139745
 21
0.2795135546020104
 72
     1
 10
2.026708344139745
 20
0.2795135546020104
 11
1.911770600302059
 21
0.2795135546020104
 72
     1
 10
1.911770600302059
 20
0.2795135546020104
 11
1.911770600302059
 21
0.3114825579869829
 72
     1
 10
1.911770600302059
 20
0.3114825579869829
 11
2.026708344139745
 21
0.3114825579869829
 72
     1
 10
2.026708344139745
 20
0.3114825579869829
 11
2.026708344139745
 21
0.333044848948566
 72
     1
 10
2.026708344139745
 20
0.333044848948566
 11
1.911770600302059
 21
0.333044848948566
 72
     1
 10
1.911770600302059
 20
0.333044848948566
 11
1.911770600302059
 21
0.3650136723335662
 72
     1
 10
1.911770600302059
 20
0.3650136723335662
 11
2.026708344139745
 21
0.3650136723335662
 72
     1
 10
2.026708344139745
 20
0.3650136723335662
 11
2.026708344139745
 21
0.3865765014202565
 97
        0
 75
     0
 76
     1
 98
        1
 10
-7.279586802153931
 20
-0.4081141432880261
  0
HATCH
  5
848
330
841
100
AcDbEntity
  8
TITLEBLOCK
 62
     0
100
AcDbHatch
 10
0.0
 20
0.0
 30
0.0
210
0.0
220
0.0
230
1.0
  2
SOLID
 70
     1
 71
     0
 91
        2
 92
        1
 93
        8
 72
     1
 10
1.614830743814064
 20
0.3865765014202565
 11
1.531145595393223
 21
0.2579509955155343
 72
     1
 10
1.531145595393223
 20
0.2579509955155343
 11
1.556870855949323
 21
0.2579511736405264
 72
     1
 10
1.556870855949323
 20
0.2579511736405264
 11
1.570898996363819
 21
0.2795135546020104
 72
     1
 10
1.570898996363819
 20
0.2795135546020104
 11
1.673830432358027
 21
0.2795135546020104
 72
     1
 10
1.673830432358027
 20
0.2795135546020104
 11
1.687858760272586
 21
0.2579514417655899
 72
     1
 10
1.687858760272586
 20
0.2579514417655899
 11
1.713583120827973
 21
0.2579514417655899
 72
     1
 10
1.713583120827973
 20
0.2579514417655899
 11
1.629898141157394
 21
0.3865765014202565
 72
     1
 10
1.629898141157394
 20
0.3865765014202565
 11
1.614830743814064
 21
0.3865765014202565
 97
        0
 92
       16
 93
        3
 72
     1
 10
1.622364536235675
 20
0.3586169575295115
 11
1.659801223192726
 21
0.3010763836888712
 72
     1
 10
1.659801223192726
 20
0.3010763836888712
 11
1.584928205528949
 21
0.3010762055637086
 72
     1
 10
1.584928205528949
 20
0.3010762055637086
 11
1.622364348735612
 21
0.3586165994043766
 97
        0
 75
     0
 76
     1
 98
        1
 10
-7.279586802153931
 20
-0.4081141432880261
  0
HATCH
  5
849
330
841
100
AcDbEntity
  8
TITLEBLOCK
 62
     0
100
AcDbHatch
 10
0.0
 20
0.0
 30
0.0
210
0.0
220
0.0
230
1.0
  2
SOLID
 70
     1
 71
     0
 91
        1
 92
        1
 93
       12
 72
     1
 10
1.392021104504447
 20
0.3865765014202565
 11
1.370458815418015
 21
0.3865765014202565
 72
     1
 10
1.370458815418015
 20
0.3865765014202565
 11
1.370458627917951
 21
0.2795138227272444
 72
     2
 10
1.39202114575308
 20
0.2795135133528436
 40
0.0215625178373483
 50
179.999177932392
 51
269.9998903944058
 73
     1
 72
     1
 10
1.392021104504447
 20
0.2579509955155343
 11
1.509583287556818
 21
0.2579511736405264
 72
     2
 10
1.509583335369764
 20
0.2795136024146219
 40
0.0215624287741484
 50
269.9998729512306
 51
359.9996387857453
 73
     1
 72
     1
 10
1.531145764143484
 20
0.2795134664769192
 11
1.531146120393639
 21
0.3865765014202565
 72
     1
 10
1.531146120393639
 20
0.3865765014202565
 11
1.509583287556818
 21
0.3865765014202565
 72
     1
 10
1.509583287556818
 20
0.3865765014202565
 11
1.509583287556818
 21
0.2902950591455122
 72
     2
 10
1.498801916139266
 20
0.290294926019563
 40
0.0107813714183743
 50
359.9992925246018
 51
449.9992925333428
 73
     0
 72
     1
 10
1.49880204926357
 20
0.2795135546020104
 11
1.402802342797695
 21
0.2795135546020104
 72
     2
 10
1.402802382172719
 20
0.2902950197703451
 40
0.0107814651684066
 50
90.00020925010334
 51
180.0002092508632
 73
     0
 72
     1
 10
1.392020917004384
 20
0.2902950591455122
 11
1.392021104504447
 21
0.3865765014202565
 97
        0
 75
     0
 76
     1
 98
        1
 10
-7.279586802153931
 20
-0.4081141432880261
  0
HATCH
  5
84A
330
841
100
AcDbEntity
  8
TITLEBLOCK
 62
     0
100
AcDbHatch
 10
0.0
 20
0.0
 30
0.0
210
0.0
220
0.0
230
1.0
  2
SOLID
 70
     1
 71
     0
 91
        2
 92
        1
 93
       13
 72
     2
 10
1.851958289039648
 20
0.2899198104641797
 40
0.0215625675244637
 50
0.0002565813902296
 51
90.00070498518821
 73
     1
 72
     2
 10
1.851958289040149
 20
0.3330449455099156
 40
0.0215625675245372
 50
269.9992950134807
 51
359.9995092535441
 73
     1
 72
     1
 10
1.873520856563896
 20
0.3330447608234748
 11
1.873520856563896
 21
0.3650136657708798
 72
     2
 10
1.851957894958188
 20
0.3650135398162329
 40
0.0215629616060761
 50
0.0003346789653151
 51
89.99920945081219
 73
     1
 72
     1
 10
1.851958192477166
 20
0.3865765014202565
 11
1.720333350237904
 21
0.3865765014202565
 72
     1
 10
1.720333350237904
 20
0.3865765014202565
 11
1.720333350237904
 21
0.2579511736405264
 72
     1
 10
1.720333350237904
 20
0.2579511736405264
 11
1.741896183074725
 21
0.2579511736405264
 72
     1
 10
1.741896183074725
 20
0.2579511736405264
 11
1.741896183074725
 21
0.3007013215688856
 72
     1
 10
1.741896183074725
 20
0.3007013215688856
 11
1.841176785433827
 21
0.3007013215688856
 72
     2
 10
1.841176693559081
 20
0.2899201789011263
 40
0.0107811426681508
 50
270.0004882631974
 51
360.0004882673548
 73
     0
 72
     1
 10
1.851957836226841
 20
0.289920087025598
 11
1.851958192477166
 21
0.2579511736405264
 72
     1
 10
1.851958192477166
 20
0.2579511736405264
 11
1.873520856563896
 21
0.2579511736405264
 72
     1
 10
1.873520856563896
 20
0.2579511736405264
 11
1.873520856563896
 21
0.2899199070254552
 97
        0
 92
       16
 93
        6
 72
     2
 10
1.841176693559081
 20
0.3542325296658069
 40
0.0107811426681508
 50
270.0004882631974
 51
360.0004882673548
 73
     0
 72
     1
 10
1.851957836226841
 20
0.3542324377902786
 11
1.851958192477166
 21
0.333044848948566
 72
     2
 10
1.841176871684197
 20
0.333044935198247
 40
0.0107813207933138
 50
0.0004583615308307
 51
90.00045836519477
 73
     0
 72
     1
 10
1.841176785433827
 20
0.3222636144052784
 11
1.741896183074725
 21
0.3222638825303419
 72
     1
 10
1.741896183074725
 20
0.3222638825303419
 11
1.741896183074725
 21
0.3650136723335662
 72
     1
 10
1.741896183074725
 20
0.3650136723335662
 11
1.841176785433827
 21
0.3650136723335662
 97
        0
 75
     0
 76
     1
 98
        1
 10
-7.279586802153931
 20
-0.4081141432880261
  0
HATCH
  5
84B
330
841
100
AcDbEntity
  8
TITLEBLOCK
 62
     0
100
AcDbHatch
 10
0.0
 20
0.0
 30
0.0
210
0.0
220
0.0
230
1.0
  2
SOLID
 70
     1
 71
     0
 91
        2
 92
        1
 93
       10
 72
     1
 10
2.168832611988261
 20
0.3650136723335662
 11
2.168832611988261
 21
0.2795135546021492
 72
     1
 10
2.168832611988261
 20
0.2795135546021492
 11
2.148020079641632
 21
0.2795135546021492
 72
     1
 10
2.148020079641632
 20
0.2795135546021492
 11
2.148020079641632
 21
0.2579511736406499
 72
     1
 10
2.148020079641632
 20
0.2579511736406499
 11
2.314895263659607
 21
0.2579511736406499
 72
     2
 10
2.314895311472477
 20
0.2795136024147182
 40
0.0215624287741214
 50
269.9998729514336
 51
359.9996387859474
 73
     1
 72
     1
 10
2.336457740246171
 20
0.2795134664770916
 11
2.336457740246171
 21
0.3650136723335662
 72
     2
 10
2.314895087410214
 20
0.3650138485844006
 40
0.0215626528366775
 50
359.9995316703829
 51
449.999531674211
 73
     1
 72
     1
 10
2.314895263659607
 20
0.386576501420358
 11
2.148020079641632
 21
0.386576501420358
 72
     1
 10
2.148020079641632
 20
0.386576501420358
 11
2.148020079641632
 21
0.3650136723335662
 72
     1
 10
2.148020079641632
 20
0.3650136723335662
 11
2.168832611988261
 21
0.3650136723335662
 97
        0
 92
       16
 93
        6
 72
     1
 10
2.190395257324933
 20
0.3650136723335662
 11
2.304113856616218
 21
0.3650136723335662
 72
     2
 10
2.304113942866619
 20
0.3542323515405775
 40
0.0107813207933337
 50
269.9995416346447
 51
359.9995416383139
 73
     0
 72
     1
 10
2.314895263659607
 20
0.3542324377902877
 11
2.314895263659607
 21
0.2902949691455452
 72
     2
 10
2.304113807866077
 20
0.2902950103956483
 40
0.0107814557936096
 50
0.0002192149982456
 51
89.99974092762393
 73
     0
 72
     1
 10
2.304113856616218
 20
0.2795135546021492
 11
2.190395257324933
 21
0.2795135546021492
 72
     1
 10
2.190395257324933
 20
0.2795135546021492
 11
2.190395257324933
 21
0.3650136723335662
 97
        0
 75
     0
 76
     1
 98
        1
 10
-7.279586802153931
 20
-0.4081141432880261
  0
HATCH
  5
84C
330
841
100
AcDbEntity
  8
TITLEBLOCK
 62
     0
100
AcDbHatch
 10
0.0
 20
0.0
 30
0.0
210
0.0
220
0.0
230
1.0
  2
SOLID
 70
     1
 71
     0
 91
        2
 92
        1
 93
        8
 72
     1
 10
3.241392303571654
 20
0.3865765014202565
 11
3.157707226761072
 21
0.2579509955155343
 72
     1
 10
3.157707226761072
 20
0.2579509955155343
 11
3.183432299816939
 21
0.2579511736405264
 72
     1
 10
3.183432299816939
 20
0.2579511736405264
 11
3.197460983981823
 21
0.2795133764768478
 72
     1
 10
3.197460983981823
 20
0.2795133764768478
 11
3.30039082622498
 21
0.2795135546020104
 72
     1
 10
3.30039082622498
 20
0.2795135546020104
 11
3.314419679139785
 21
0.2579514417655899
 72
     1
 10
3.314419679139785
 20
0.2579514417655899
 11
3.340144583445731
 21
0.2579511736405264
 72
     1
 10
3.340144583445731
 20
0.2579511736405264
 11
3.256459603774981
 21
0.3865765014202565
 72
     1
 10
3.256459603774981
 20
0.3865765014202565
 11
3.241392303571654
 21
0.3865765014202565
 97
        0
 92
       16
 93
        3
 72
     1
 10
3.248925740352245
 20
0.358616778466603
 11
3.211489480646473
 21
0.3010762055637086
 72
     1
 10
3.211489480646473
 20
0.3010762055637086
 11
3.28636178580994
 21
0.3010763836888712
 72
     1
 10
3.28636178580994
 20
0.3010763836888712
 11
3.248925740352245
 21
0.358616778466603
 97
        0
 75
     0
 76
     1
 98
        1
 10
-7.279586802153931
 20
-0.4081141432880261
  0
HATCH
  5
84D
330
841
100
AcDbEntity
  8
TITLEBLOCK
 62
     0
100
AcDbHatch
 10
0.0
 20
0.0
 30
0.0
210
0.0
220
0.0
230
1.0
  2
SOLID
 70
     1
 71
     0
 91
        1
 92
        1
 93
       13
 72
     1
 10
2.838488736968525
 20
0.3865765014202565
 11
2.806145209588674
 21
0.3865765014202565
 72
     1
 10
2.806145209588674
 20
0.3865765014202565
 11
2.806145209588674
 21
0.2579511736405264
 72
     1
 10
2.806145209588674
 20
0.2579511736405264
 11
2.827707667425368
 21
0.2579511736405264
 72
     1
 10
2.827707667425368
 20
0.2579511736405264
 11
2.827707667425368
 21
0.3640633654626753
 72
     1
 10
2.827707667425368
 20
0.3640633654626753
 11
2.899718420719221
 21
0.2579514417655899
 72
     1
 10
2.899718420719221
 20
0.2579514417655899
 11
2.922570860648686
 21
0.2579511736405264
 72
     1
 10
2.922570860648686
 20
0.2579511736405264
 11
2.994582138942956
 21
0.3640642598382782
 72
     1
 10
2.994582138942956
 20
0.3640642598382782
 11
2.994582138942956
 21
0.2579511736405264
 72
     1
 10
2.994582138942956
 20
0.2579511736405264
 11
3.016144596779479
 21
0.2579511736405264
 72
     1
 10
3.016144596779479
 20
0.2579511736405264
 11
3.016144596779479
 21
0.3865765014202565
 72
     1
 10
3.016144596779479
 20
0.3865765014202565
 11
2.983801425649954
 21
0.3865765014202565
 72
     1
 10
2.983801425649954
 20
0.3865765014202565
 11
2.911144640683954
 21
0.2795135546020104
 72
     1
 10
2.911144640683954
 20
0.2795135546020104
 11
2.838488380718199
 21
0.3865765014202565
 97
        0
 75
     0
 76
     1
 98
        1
 10
-7.279586802153931
 20
-0.4081141432880261
  0
HATCH
  5
84E
330
841
100
AcDbEntity
  8
TITLEBLOCK
 62
     0
100
AcDbHatch
 10
0.0
 20
0.0
 30
0.0
210
0.0
220
0.0
230
1.0
  2
SOLID
 70
     1
 71
     0
 91
        2
 92
        1
 93
        8
 72
     1
 10
2.79358243888161
 20
0.2795134664769192
 11
2.793582795131936
 21
0.3650136723335662
 72
     2
 10
2.772020240733041
 20
0.3650137688961994
 40
0.0215625543991104
 50
359.9997434148459
 51
449.999743415997
 73
     1
 72
     1
 10
2.772020337295241
 20
0.3865763232950938
 11
2.640957676673206
 21
0.3865763232950938
 72
     2
 10
2.640957763860811
 20
0.3650137595211699
 40
0.0215625637741002
 50
90.00023167383188
 51
179.9999925267453
 73
     1
 72
     1
 10
2.61939520008671
 20
0.3650137623336376
 11
2.61939520008671
 21
0.2795135546020104
 72
     2
 10
2.640957628860649
 20
0.2795136024144641
 40
0.0215624287739915
 50
180.0001270474597
 51
270.0001270477355
 73
     1
 72
     1
 10
2.640957676673206
 20
0.2579511736405264
 11
2.772020337295241
 21
0.2579511736405264
 72
     2
 10
2.772020197607671
 20
0.2795134149140743
 40
0.0215622412740004
 50
270.000371181646
 51
360.000137014207
 73
     1
 97
        0
 92
       16
 93
        8
 72
     2
 10
2.651738913091431
 20
0.3542324359149649
 40
0.0107812364186015
 50
89.9999900344766
 51
179.999521702949
 73
     1
 72
     1
 10
2.640957676673206
 20
0.3542325259151993
 11
2.640957676673206
 21
0.2902950591455122
 72
     2
 10
2.651738958091508
 20
0.2902950160204556
 40
0.010781281418388
 50
179.9997708172488
 51
269.9997708181704
 73
     1
 72
     1
 10
2.651738914966625
 20
0.2795137346021532
 11
2.761238742751839
 21
0.2795135546020104
 72
     2
 10
2.761238956501978
 20
0.2902951041442614
 40
0.0107815495443698
 50
269.9988640797126
 51
359.9992825833961
 73
     1
 72
     1
 10
2.772020506045503
 20
0.2902949691454408
 11
2.772020337295241
 21
0.3542324377902786
 72
     2
 10
2.761239007127366
 20
0.3542323421656908
 40
0.0107813301682991
 50
0.0005081826837109
 51
90.00050818719378
 73
     1
 72
     1
 10
2.76123891150193
 20
0.3650136723335662
 11
2.651738914966625
 21
0.3650136723335662
 97
        0
 75
     0
 76
     1
 98
        1
 10
-7.279586802153931
 20
-0.4081141432880261
  0
HATCH
  5
84F
330
841
100
AcDbEntity
  8
TITLEBLOCK
 62
     0
100
AcDbHatch
 10
0.0
 20
0.0
 30
0.0
210
0.0
220
0.0
230
1.0
  2
SOLID
 70
     1
 71
     0
 91
        2
 92
        1
 93
        8
 72
     2
 10
3.162769048174736
 20
0.3650134554401196
 40
0.0215630459811904
 50
270.0005663490367
 51
359.9994236862867
 73
     0
 72
     1
 10
3.184332094154836
 20
0.3650136723335662
 11
3.184332094154836
 21
0.3222638825303419
 72
     2
 10
3.162769397256125
 20
0.3222640184675962
 40
0.0215626968991391
 50
0.0003612085718475
 51
90.00036121084693
 73
     0
 72
     1
 10
3.162769261318015
 20
0.3007013215688856
 11
3.052707420665665
 21
0.3007013215688856
 72
     1
 10
3.052707420665665
 20
0.3007013215688856
 11
3.052707420665665
 21
0.2579511736405264
 72
     1
 10
3.052707420665665
 20
0.2579511736405264
 11
3.031144250328662
 21
0.2579511736405264
 72
     1
 10
3.031144250328662
 20
0.2579511736405264
 11
3.031144250328662
 21
0.3865765014202565
 72
     1
 10
3.031144250328662
 20
0.3865765014202565
 11
3.162769261318015
 21
0.3865765014202565
 97
        0
 92
       16
 93
        6
 72
     2
 10
3.151988118650169
 20
0.3542325296657216
 40
0.0107811426682361
 50
270.0004882627443
 51
360.0004882669015
 73
     0
 72
     1
 10
3.162769261318015
 20
0.3542324377902786
 11
3.162769261318015
 21
0.333044848948566
 72
     2
 10
3.151988118650169
 20
0.333044757073123
 40
0.0107811426682367
 50
359.9995117330984
 51
449.9995117372556
 73
     0
 72
     1
 10
3.15198821052483
 20
0.3222636144052784
 11
3.052707420665665
 21
0.3222638825303419
 72
     1
 10
3.052707420665665
 20
0.3222638825303419
 11
3.052707420665665
 21
0.3650136723335662
 72
     1
 10
3.052707420665665
 20
0.3650136723335662
 11
3.15198821052483
 21
0.3650136723335662
 97
        0
 75
     0
 76
     1
 98
        1
 10
-7.279586802153931
 20
-0.4081141432880261
  0
HATCH
  5
850
330
841
100
AcDbEntity
  8
TITLEBLOCK
 62
     0
100
AcDbHatch
 10
0.0
 20
0.0
 30
0.0
210
0.0
220
0.0
230
1.0
  2
SOLID
 70
     1
 71
     0
 91
        1
 92
        1
 93
        9
 72
     1
 10
3.556847887515953
 20
0.3865763232950938
 11
3.525206566844968
 21
0.3865765014202565
 72
     1
 10
3.525206566844968
 20
0.3865765014202565
 11
3.60348814923547
 21
0.3136817019238036
 72
     1
 10
3.60348814923547
 20
0.3136817019238036
 11
3.603486349234383
 21
0.2579511736405264
 72
     1
 10
3.603486349234383
 20
0.2579511736405264
 11
3.625050607072164
 21
0.2579511736405264
 72
     1
 10
3.625050607072164
 20
0.2579511736405264
 11
3.625050607072164
 21
0.3136813437984982
 72
     1
 10
3.625050607072164
 20
0.3136813437984982
 11
3.703331833212512
 21
0.3865766795454191
 72
     1
 10
3.703331833212512
 20
0.3865766795454191
 11
3.671691225042007
 21
0.3865765014202565
 72
     1
 10
3.671691225042007
 20
0.3865765014202565
 11
3.61426955627898
 21
0.3331056458632473
 72
     1
 10
3.61426955627898
 20
0.3331056458632473
 11
3.556847887515953
 21
0.3865763232950938
 97
        0
 75
     0
 76
     1
 98
        1
 10
-7.279586802153931
 20
-0.4081141432880261
  0
HATCH
  5
851
330
841
100
AcDbEntity
  8
TITLEBLOCK
 62
     0
100
AcDbHatch
 10
0.0
 20
0.0
 30
0.0
210
0.0
220
0.0
230
1.0
  2
SOLID
 70
     1
 71
     0
 91
        1
 92
        1
 93
       10
 72
     1
 10
3.376247484495632
 20
0.3865765014202565
 11
3.345207161752892
 21
0.3865765014202565
 72
     1
 10
3.345207161752892
 20
0.3865765014202565
 11
3.345207161752892
 21
0.2579511736405264
 72
     1
 10
3.345207161752892
 20
0.2579511736405264
 11
3.366769638339558
 21
0.2579511736405264
 72
     1
 10
3.366769638339558
 20
0.2579511736405264
 11
3.366769638339558
 21
0.3659393041881229
 72
     1
 10
3.366769638339558
 20
0.3659393041881229
 11
3.48273627034943
 21
0.2579509955155343
 72
     1
 10
3.48273627034943
 20
0.2579509955155343
 11
3.515082122730785
 21
0.2579511736405264
 72
     1
 10
3.515082122730785
 20
0.2579511736405264
 11
3.515082122730785
 21
0.3865765014202565
 72
     1
 10
3.515082122730785
 20
0.3865765014202565
 11
3.49351767739277
 21
0.3865765014202565
 72
     1
 10
3.49351767739277
 20
0.3865765014202565
 11
3.49351767739277
 21
0.277374671329744
 72
     1
 10
3.49351767739277
 20
0.277374671329744
 11
3.376247484495632
 21
0.3865765014202565
 97
        0
 75
     0
 76
     1
 98
        1
 10
-7.279586802153931
 20
-0.4081141432880261
  0
ENDBLK
  5
853
330
841
100
AcDbEntity
  8
0
100
AcDbBlockEnd
  0
BLOCK
  5
AF5
330
AE5
100
AcDbEntity
  8
0
100
AcDbBlockBegin
  2
TITLE-PAD
 70
     2
 10
0.0
 20
0.0
 30
0.0
  3
TITLE-PAD
  1

  0
LWPOLYLINE
  5
B1D
330
AE5
100
AcDbEntity
  8
CONTINUOUS2
 62
     0
100
AcDbPolyline
 90
        7
 70
     1
 43
0.0
 10
16.40000099999999
 20
0.0
 10
16.40000099999999
 20
0.0
 10
16.40000099999999
 20
0.0
 10
8.002461
 20
0.0
 10
8.002461
 20
0.9120019999999993
 10
16.40000099999999
 20
0.9120019999999993
 10
16.40000099999999
 20
0.0
  0
INSERT
  5
B1E
330
AE5
100
AcDbEntity
  8
TITLEBLOCK
 62
     0
100
AcDbBlockReference
  2
LOGO-PAD
 10
12.245701
 20
0.3040000000000003
 30
0.0
  0
LINE
  5
B1F
330
AE5
100
AcDbEntity
  8
CONTINUOUS2
 62
     0
100
AcDbLine
 10
16.40000099999999
 20
0.3040000000000003
 30
0.0
 11
12.245701
 21
0.3040000000000003
 31
0.0
  0
LINE
  5
B20
330
AE5
100
AcDbEntity
  8
CONTINUOUS2
 62
     0
100
AcDbLine
 10
12.245701
 20
0.9120019999999993
 30
0.0
 11
12.245701
 21
0.0
 31
0.0
  0
TEXT
  5
B21
330
AE5
100
AcDbEntity
  8
TEXT1
  6
CONTINUOUS
 62
     0
100
AcDbText
 10
12.36897712113656
 20
0.0611566731182909
 30
0.0
 40
0.0699999951940822
  1
NO.
  7
ROMANS
 11
12.36897712113656
 21
0.096156670715332
 31
0.0
100
AcDbText
 73
     2
  0
TEXT
  5
B22
330
AE5
100
AcDbEntity
  8
TEXT1
  6
CONTINUOUS
 62
     0
100
AcDbText
 10
12.36897712113656
 20
0.1661566731182908
 30
0.0
 40
0.0699999951940822
  1
DWG#
  7
ROMANS
 11
12.36897712113656
 21
0.2011566707153319
 31
0.0
100
AcDbText
 73
     2
  0
ATTDEF
  5
B23
330
AE5
100
AcDbEntity
  8
TEXT1
 62
     0
100
AcDbText
 10
10.10183834893798
 20
0.7474460884590166
 30
0.0
 40
0.1
  1

  7
ROMANS
 72
     4
 11
10.10183834893798
 21
0.7474460884590166
 31
0.0
100
AcDbAttributeDefinition
  3
DESCRIPTION 1
  2
DESCRIPTION 1
 70
     0
  0
ATTDEF
  5
B24
330
AE5
100
AcDbEntity
  8
TEXT1
 62
     0
100
AcDbText
 10
10.10183834893798
 20
0.6017231711406717
 30
0.0
 40
0.1
  1

  7
ROMANS
 72
     4
 11
10.10183834893798
 21
0.6017231711406717
 31
0.0
100
AcDbAttributeDefinition
  3
DESCRIPTION 2
  2
DESCRIPTION 2
 70
     0
  0
ATTDEF
  5
B25
330
AE5
100
AcDbEntity
  8
TEXT1
 62
     0
100
AcDbText
 10
10.10183834893798
 20
0.4560002538223267
 30
0.0
 40
0.08
  1

  7
ROMANS
 72
     4
 11
10.10183834893798
 21
0.4560002538223267
 31
0.0
100
AcDbAttributeDefinition
  3
DESCRIPTION 3
  2
DESCRIPTION 3
 70
     0
  0
ATTDEF
  5
B26
330
AE5
100
AcDbEntity
  8
TEXT1
 62
     0
100
AcDbText
 10
10.10183834893798
 20
0.3202773365039833
 30
0.0
 40
0.08
  1

  7
ROMANS
 72
     4
 11
10.10183834893798
 21
0.3202773365039833
 31
0.0
100
AcDbAttributeDefinition
  3
DESCRIPTION 4
  2
DESCRIPTION 4
 70
     0
  0
ATTDEF
  5
B27
330
AE5
100
AcDbEntity
  8
TEXT1
 62
     0
100
AcDbText
 10
10.10183834893798
 20
0.1845544191856399
 30
0.0
 40
0.08
  1

  7
ROMANS
 72
     4
 11
10.10183834893798
 21
0.1845544191856399
 31
0.0
100
AcDbAttributeDefinition
  3
DESCRIPTION 5
  2
DESCRIPTION 5
 70
     0
  0
ATTDEF
  5
B28
330
AE5
100
AcDbEntity
  8
TEXT1
 62
     0
100
AcDbText
 10
12.74772367103195
 20
0.096540546036505
 30
0.0
 40
0.12
  1

 41
0.9512024731840066
  7
M_STANDARD
 11
12.74772367103195
 21
0.156540546036505
 31
0.0
100
AcDbAttributeDefinition
  3
DRAWING NUMBER
  2
DWGNO
 70
     0
 74
     2
  0
ATTDEF
  5
B29
330
AE5
100
AcDbEntity
  8
TEXT1
 62
     0
100
AcDbText
 10
16.35506454949325
 20
-0.1507193079929352
 30
0.0
 40
0.08
  1

  7
ROMANS
 72
     2
 11
16.35506454949325
 21
-0.1107193079929352
 31
0.0
100
AcDbAttributeDefinition
  3
REF DWG #
  2
REF
 70
     0
 74
     2
  0
ATTDEF
  5
B2A
330
AE5
100
AcDbEntity
  8
TEXT1
 62
     0
100
AcDbText
 10
0.0266402374038712
 20
-0.1507193079929352
 30
0.0
 40
0.08
  1

  7
ROMANS
 11
0.0266402374038712
 21
-0.1107193079929352
 31
0.0
100
AcDbAttributeDefinition
  3
DATE MODIFIED
  2
DATE
 70
     0
 74
     2
  0
LWPOLYLINE
  5
B2B
330
AE5
100
AcDbEntity
  8
CONTINUOUS3
 62
     0
100
AcDbPolyline
 90
        4
 70
   129
 43
0.0
 10
0.0
 20
0.0
 10
16.40000099999999
 20
0.0
 10
16.40000099999999
 20
10.25
 10
0.0
 20
10.25
  0
ENDBLK
  5
AF6
330
AE5
100
AcDbEntity
  8
0
100
AcDbBlockEnd
  0
BLOCK
  5
E0F
330
E0D
100
AcDbEntity
  8
0
100
AcDbBlockBegin
  2
SEARROW
 70
     0
 10
0.0
 20
0.0
 30
0.0
  3
SEARROW
  1

  0
LWPOLYLINE
  5
E0E
330
E0D
100
AcDbEntity
  8
0
  6
BYBLOCK
100
AcDbPolyline
 90
        2
 70
     0
 10
0.0
 20
0.0
 40
0.0
 41
0.5000000001500001
 10
-1.000000000300019
 20
0.0
 40
0.5000000001500001
 41
0.5000000001500001
  0
ENDBLK
  5
E10
330
E0D
100
AcDbEntity
  8
0
100
AcDbBlockEnd
  0
BLOCK
  5
E43
330
E42
100
AcDbEntity
  8
0
100
AcDbBlockBegin
  2
SETUP
 70
     0
 10
0.0
 20
0.0
 30
0.0
  3
SETUP
  1

  0
ENDBLK
  5
E44
330
E42
100
AcDbEntity
  8
0
100
AcDbBlockEnd
  0
BLOCK
  5
F55
330
F54
100
AcDbEntity
  8
0
100
AcDbBlockBegin
  2
MEDCLUMP_DIM_1475_
 70
     0
 10
0.0
 20
0.0
 30
0.0
  3
MEDCLUMP_DIM_1475_
  1

  0
ENDBLK
  5
F56
330
F54
100
AcDbEntity
  8
0
100
AcDbBlockEnd
  0
BLOCK
  5
F59
330
F57
100
AcDbEntity
  8
0
100
AcDbBlockBegin
  2
MEDCLUMP_DMS_1474_
 70
     0
 10
0.0
 20
0.0
 30
0.0
  3
MEDCLUMP_DMS_1474_
  1

  0
INSERT
  5
F58
330
F57
100
AcDbEntity
  8
0
100
AcDbBlockReference
  2
MEDCLUMP_DIM_1475_
 10
0.0
 20
0.0
 30
0.0
  0
ENDBLK
  5
F5A
330
F57
100
AcDbEntity
  8
0
100
AcDbBlockEnd
  0
BLOCK
  5
F5C
330
F5B
100
AcDbEntity
  8
0
100
AcDbBlockBegin
  2
MEDCLUMP_DIM_1451_
 70
     0
 10
0.0
 20
0.0
 30
0.0
  3
MEDCLUMP_DIM_1451_
  1

  0
ENDBLK
  5
F5D
330
F5B
100
AcDbEntity
  8
0
100
AcDbBlockEnd
  0
BLOCK
  5
F60
330
F5E
100
AcDbEntity
  8
0
100
AcDbBlockBegin
  2
MEDCLUMP_DMS_1450_
 70
     0
 10
0.0
 20
0.0
 30
0.0
  3
MEDCLUMP_DMS_1450_
  1

  0
INSERT
  5
F5F
330
F5E
100
AcDbEntity
  8
0
100
AcDbBlockReference
  2
MEDCLUMP_DIM_1451_
 10
0.0
 20
0.0
 30
0.0
  0
ENDBLK
  5
F61
330
F5E
100
AcDbEntity
  8
0
100
AcDbBlockEnd
  0
BLOCK
  5
F63
330
F62
100
AcDbEntity
  8
0
100
AcDbBlockBegin
  2
MEDCLUMP_DIM_1143_
 70
     0
 10
0.0
 20
0.0
 30
0.0
  3
MEDCLUMP_DIM_1143_
  1

  0
ENDBLK
  5
F64
330
F62
100
AcDbEntity
  8
0
100
AcDbBlockEnd
  0
BLOCK
  5
F67
330
F65
100
AcDbEntity
  8
0
100
AcDbBlockBegin
  2
MEDCLUMP_DMS_1142_
 70
     0
 10
0.0
 20
0.0
 30
0.0
  3
MEDCLUMP_DMS_1142_
  1

  0
INSERT
  5
F66
330
F65
100
AcDbEntity
  8
0
100
AcDbBlockReference
  2
MEDCLUMP_DIM_1143_
 10
0.0
 20
0.0
 30
0.0
  0
ENDBLK
  5
F68
330
F65
100
AcDbEntity
  8
0
100
AcDbBlockEnd
  0
BLOCK
  5
28E7
330
28DC
100
AcDbEntity
  8
0
100
AcDbBlockBegin
  2
*D10
 70
     1
 10
0.0
 20
0.0
 30
0.0
  3
*D10
  1

  0
LINE
  5
2993
330
28DC
100
AcDbEntity
  8
DIM
100
AcDbLine
 10
55.60908837565104
 20
35.9476311281421
 30
0.0
 11
55.60908837565104
 21
29.50950412481872
 31
0.0
  0
LINE
  5
2994
330
28DC
100
AcDbEntity
  8
DIM
100
AcDbLine
 10
61.60969668177173
 20
31.89959868922869
 30
0.0
 11
61.60969668177173
 21
29.50950412481872
 31
0.0
  0
LINE
  5
2995
330
28DC
100
AcDbEntity
  8
DIM
100
AcDbLine
 10
56.02908837565104
 20
29.88450412481872
 30
0.0
 11
56.94082110013996
 21
29.88450412481872
 31
0.0
  0
LINE
  5
2996
330
28DC
100
AcDbEntity
  8
DIM
100
AcDbLine
 10
61.18969668177173
 20
29.88450412481872
 30
0.0
 11
60.27796395728281
 21
29.88450412481872
 31
0.0
  0
INSERT
  5
2997
330
28DC
100
AcDbEntity
  8
DIM
100
AcDbBlockReference
  2
SEARROW
 10
55.60908837565104
 20
29.88450412481872
 30
0.0
 41
0.4200000000000001
 42
0.4200000000000001
 43
0.4200000000000001
 50
180.0
  0
INSERT
  5
2998
330
28DC
100
AcDbEntity
  8
DIM
100
AcDbBlockReference
  2
SEARROW
 10
61.60969668177173
 20
29.88450412481872
 30
0.0
 41
0.4200000000000001
 42
0.4200000000000001
 43
0.4200000000000001
  0
MTEXT
  5
2999
330
28DC
100
AcDbEntity
  8
DIM
100
AcDbMText
 10
58.60939252871139
 20
29.88450412481872
 30
0.0
 40
0.6000000000000001
 41
0.0
 71
     5
 72
     1
  1
\A1;6.00\P [152]
  7
ROMANS
1001
ACAD
1000
MTEXTBEGIN
1070
    73
1070
     1
1070
    44
1040
1.0
1070
    74
1070
     0
1000
MTEXTEND
  0
POINT
  5
299A
330
28DC
100
AcDbEntity
  8
DEFPOINTS
 62
     0
100
AcDbPoint
 10
55.60908837565104
 20
36.3226311281421
 30
0.0
  0
POINT
  5
299B
330
28DC
100
AcDbEntity
  8
DEFPOINTS
 62
     0
100
AcDbPoint
 10
61.60969668177173
 20
32.27459868922869
 30
0.0
  0
POINT
  5
299C
330
28DC
100
AcDbEntity
  8
DEFPOINTS
 62
     0
100
AcDbPoint
 10
61.60969668177173
 20
29.88450412481872
 30
0.0
  0
ENDBLK
  5
28E8
330
28DC
100
AcDbEntity
  8
0
100
AcDbBlockEnd
  0
BLOCK
  5
28F5
330
28EA
100
AcDbEntity
  8
0
100
AcDbBlockBegin
  2
*D11
 70
     1
 10
0.0
 20
0.0
 30
0.0
  3
*D11
  1

  0
LINE
  5
2961
330
28EA
100
AcDbEntity
  8
DIM
100
AcDbLine
 10
36.56194931949497
 20
37.79057227496316
 30
0.0
 11
36.56194931949497
 21
29.50950412481873
 31
0.0
  0
LINE
  5
2962
330
28EA
100
AcDbEntity
  8
DIM
100
AcDbLine
 10
25.44608656517077
 20
32.99592694519235
 30
0.0
 11
25.44608656517077
 21
29.50950412481873
 31
0.0
  0
LINE
  5
2963
330
28EA
100
AcDbEntity
  8
DIM
100
AcDbLine
 10
36.14194931949497
 20
29.88450412481872
 30
0.0
 11
32.6725893709043
 21
29.88450412481872
 31
0.0
  0
LINE
  5
2964
330
28EA
100
AcDbEntity
  8
DIM
100
AcDbLine
 10
25.86608656517077
 20
29.88450412481872
 30
0.0
 11
29.33544651376144
 21
29.88450412481872
 31
0.0
  0
INSERT
  5
2965
330
28EA
100
AcDbEntity
  8
DIM
100
AcDbBlockReference
  2
SEARROW
 10
36.56194931949497
 20
29.88450412481872
 30
0.0
 41
0.4200000000000001
 42
0.4200000000000001
 43
0.4200000000000001
  0
INSERT
  5
2966
330
28EA
100
AcDbEntity
  8
DIM
100
AcDbBlockReference
  2
SEARROW
 10
25.44608656517077
 20
29.88450412481872
 30
0.0
 41
0.4200000000000001
 42
0.4200000000000001
 43
0.4200000000000001
 50
180.0
  0
MTEXT
  5
2967
330
28EA
100
AcDbEntity
  8
DIM
100
AcDbMText
 10
31.00401794233287
 20
29.88450412481872
 30
0.0
 40
0.6000000000000001
 41
0.0
 71
     5
 72
     1
  1
\A1;11.12\P [282]
  7
ROMANS
1001
ACAD
1000
MTEXTBEGIN
1070
    73
1070
     1
1070
    44
1040
1.0
1070
    74
1070
     0
1000
MTEXTEND
  0
POINT
  5
2968
330
28EA
100
AcDbEntity
  8
DEFPOINTS
 62
     0
100
AcDbPoint
 10
36.56194931949497
 20
38.16557227496316
 30
0.0
  0
POINT
  5
2969
330
28EA
100
AcDbEntity
  8
DEFPOINTS
 62
     0
100
AcDbPoint
 10
25.44608656517077
 20
33.37092694519235
 30
0.0
  0
POINT
  5
296A
330
28EA
100
AcDbEntity
  8
DEFPOINTS
 62
     0
100
AcDbPoint
 10
25.44608656517077
 20
29.88450412481872
 30
0.0
  0
ENDBLK
  5
28F6
330
28EA
100
AcDbEntity
  8
0
100
AcDbBlockEnd
  0
BLOCK
  5
2903
330
28F8
100
AcDbEntity
  8
0
100
AcDbBlockBegin
  2
*D12
 70
     1
 10
0.0
 20
0.0
 30
0.0
  3
*D12
  1

  0
LINE
  5
296B
330
28F8
100
AcDbEntity
  8
DIM
100
AcDbLine
 10
26.77440857499039
 20
33.12148427978036
 30
0.0
 11
15.63512260037514
 21
33.12148427978037
 31
0.0
  0
LINE
  5
296C
330
28F8
100
AcDbEntity
  8
DIM
100
AcDbLine
 10
26.51177476390054
 20
50.12147997887185
 30
0.0
 11
15.63512260037515
 21
50.12147997887186
 31
0.0
  0
LINE
  5
296D
330
28F8
100
AcDbEntity
  8
DIM
100
AcDbLine
 10
16.01012260037514
 20
33.54148427978036
 30
0.0
 11
16.01012260037515
 21
40.42433927218325
 31
0.0
  0
LINE
  5
296E
330
28F8
100
AcDbEntity
  8
DIM
100
AcDbLine
 10
16.01012260037515
 20
49.70147997887185
 30
0.0
 11
16.01012260037515
 21
42.81862498646896
 31
0.0
  0
INSERT
  5
296F
330
28F8
100
AcDbEntity
  8
DIM
100
AcDbBlockReference
  2
SEARROW
 10
16.01012260037514
 20
33.12148427978036
 30
0.0
 41
0.4200000000000001
 42
0.4200000000000001
 43
0.4200000000000001
 50
270.0
  0
INSERT
  5
2970
330
28F8
100
AcDbEntity
  8
DIM
100
AcDbBlockReference
  2
SEARROW
 10
16.01012260037515
 20
50.12147997887185
 30
0.0
 41
0.4200000000000001
 42
0.4200000000000001
 43
0.4200000000000001
 50
90.0
  0
MTEXT
  5
2971
330
28F8
100
AcDbEntity
  8
DIM
100
AcDbMText
 10
16.01012260037514
 20
41.62148212932611
 30
0.0
 40
0.6000000000000001
 41
0.0
 71
     5
 72
     1
  1
\A1;17.00\P [432]
  7
ROMANS
1001
ACAD
1000
MTEXTBEGIN
1070
    73
1070
     1
1070
    44
1040
1.0
1070
    74
1070
     0
1000
MTEXTEND
  0
POINT
  5
2972
330
28F8
100
AcDbEntity
  8
DEFPOINTS
 62
     0
100
AcDbPoint
 10
27.14940857499039
 20
33.12148427978036
 30
0.0
  0
POINT
  5
2973
330
28F8
100
AcDbEntity
  8
DEFPOINTS
 62
     0
100
AcDbPoint
 10
26.88677476390054
 20
50.12147997887185
 30
0.0
  0
POINT
  5
2974
330
28F8
100
AcDbEntity
  8
DEFPOINTS
 62
     0
100
AcDbPoint
 10
16.01012260037515
 20
50.12147997887185
 30
0.0
  0
ENDBLK
  5
2904
330
28F8
100
AcDbEntity
  8
0
100
AcDbBlockEnd
  0
BLOCK
  5
2911
330
2906
100
AcDbEntity
  8
0
100
AcDbBlockBegin
  2
*D13
 70
     1
 10
0.0
 20
0.0
 30
0.0
  3
*D13
  1

  0
LINE
  5
297F
330
2906
100
AcDbEntity
  8
DIM
100
AcDbLine
 10
25.07108656517077
 20
49.87203736436838
 30
0.0
 11
20.92335591345641
 21
49.87203736436838
 31
0.0
  0
LINE
  5
2980
330
2906
100
AcDbEntity
  8
DIM
100
AcDbLine
 10
25.00858656517077
 20
33.37092694519235
 30
0.0
 11
20.9233559134564
 21
33.37092694519235
 31
0.0
  0
LINE
  5
2981
330
2906
100
AcDbEntity
  8
DIM
100
AcDbLine
 10
21.29835591345641
 20
49.45203736436837
 30
0.0
 11
21.29835591345641
 21
42.81862501192322
 31
0.0
  0
LINE
  5
2982
330
2906
100
AcDbEntity
  8
DIM
100
AcDbLine
 10
21.2983559134564
 20
33.79092694519235
 30
0.0
 11
21.29835591345641
 21
40.42433929763751
 31
0.0
  0
INSERT
  5
2983
330
2906
100
AcDbEntity
  8
DIM
100
AcDbBlockReference
  2
SEARROW
 10
21.29835591345641
 20
49.87203736436838
 30
0.0
 41
0.4200000000000001
 42
0.4200000000000001
 43
0.4200000000000001
 50
90.0
  0
INSERT
  5
2984
330
2906
100
AcDbEntity
  8
DIM
100
AcDbBlockReference
  2
SEARROW
 10
21.2983559134564
 20
33.37092694519235
 30
0.0
 41
0.4200000000000001
 42
0.4200000000000001
 43
0.4200000000000001
 50
270.0
  0
MTEXT
  5
2985
330
2906
100
AcDbEntity
  8
DIM
100
AcDbMText
 10
21.2983559134564
 20
41.62148215478037
 30
0.0
 40
0.6000000000000001
 41
0.0
 71
     5
 72
     1
  1
\A1;16.50\P [419]
  7
ROMANS
1001
ACAD
1000
MTEXTBEGIN
1070
    73
1070
     1
1070
    44
1040
1.0
1070
    74
1070
     0
1000
MTEXTEND
  0
POINT
  5
2986
330
2906
100
AcDbEntity
  8
DEFPOINTS
 62
     0
100
AcDbPoint
 10
25.44608656517077
 20
49.87203736436838
 30
0.0
  0
POINT
  5
2987
330
2906
100
AcDbEntity
  8
DEFPOINTS
 62
     0
100
AcDbPoint
 10
25.38358656517077
 20
33.37092694519235
 30
0.0
  0
POINT
  5
2988
330
2906
100
AcDbEntity
  8
DEFPOINTS
 62
     0
100
AcDbPoint
 10
21.2983559134564
 20
33.37092694519235
 30
0.0
  0
ENDBLK
  5
2912
330
2906
100
AcDbEntity
  8
0
100
AcDbBlockEnd
  0
BLOCK
  5
291F
330
2914
100
AcDbEntity
  8
0
100
AcDbBlockBegin
  2
*D14
 70
     1
 10
0.0
 20
0.0
 30
0.0
  3
*D14
  1

  0
LINE
  5
2975
330
2914
100
AcDbEntity
  8
DIM
100
AcDbLine
 10
25.44608656517077
 20
50.24703736436838
 30
0.0
 11
25.44608656517077
 21
57.04239407701884
 31
0.0
  0
LINE
  5
2976
330
2914
100
AcDbEntity
  8
DIM
100
AcDbLine
 10
35.44608406517078
 20
50.24703736436838
 30
0.0
 11
35.44608406517078
 21
57.04239407701884
 31
0.0
  0
LINE
  5
2977
330
2914
100
AcDbEntity
  8
DIM
100
AcDbLine
 10
25.86608656517078
 20
56.66739407701884
 30
0.0
 11
28.77751388659935
 21
56.66739407701884
 31
0.0
  0
LINE
  5
2978
330
2914
100
AcDbEntity
  8
DIM
100
AcDbLine
 10
35.02608406517078
 20
56.66739407701884
 30
0.0
 11
32.1146567437422
 21
56.66739407701884
 31
0.0
  0
INSERT
  5
2979
330
2914
100
AcDbEntity
  8
DIM
100
AcDbBlockReference
  2
SEARROW
 10
25.44608656517077
 20
56.66739407701884
 30
0.0
 41
0.4200000000000001
 42
0.4200000000000001
 43
0.4200000000000001
 50
180.0
  0
INSERT
  5
297A
330
2914
100
AcDbEntity
  8
DIM
100
AcDbBlockReference
  2
SEARROW
 10
35.44608406517078
 20
56.66739407701884
 30
0.0
 41
0.4200000000000001
 42
0.4200000000000001
 43
0.4200000000000001
  0
MTEXT
  5
297B
330
2914
100
AcDbEntity
  8
DIM
100
AcDbMText
 10
30.44608531517078
 20
56.66739407701884
 30
0.0
 40
0.6000000000000001
 41
0.0
 71
     5
 72
     1
  1
\A1;10.00\P [254]
  7
ROMANS
1001
ACAD
1000
MTEXTBEGIN
1070
    73
1070
     1
1070
    44
1040
1.0
1070
    74
1070
     0
1000
MTEXTEND
  0
POINT
  5
297C
330
2914
100
AcDbEntity
  8
DEFPOINTS
 62
     0
100
AcDbPoint
 10
25.44608656517077
 20
49.87203736436838
 30
0.0
  0
POINT
  5
297D
330
2914
100
AcDbEntity
  8
DEFPOINTS
 62
     0
100
AcDbPoint
 10
35.44608406517078
 20
49.87203736436838
 30
0.0
  0
POINT
  5
297E
330
2914
100
AcDbEntity
  8
DEFPOINTS
 62
     0
100
AcDbPoint
 10
35.44608406517078
 20
56.66739407701884
 30
0.0
  0
ENDBLK
  5
2920
330
2914
100
AcDbEntity
  8
0
100
AcDbBlockEnd
  0
BLOCK
  5
292D
330
2922
100
AcDbEntity
  8
0
100
AcDbBlockBegin
  2
*D15
 70
     1
 10
0.0
 20
0.0
 30
0.0
  3
*D15
  1

  0
LINE
  5
2A70
330
2922
100
AcDbEntity
  8
DIM
100
AcDbLine
 10
26.88677476390054
 20
50.49647997887185
 30
0.0
 11
26.88677476390054
 21
53.84485765515582
 31
0.0
  0
LINE
  5
2A71
330
2922
100
AcDbEntity
  8
DIM
100
AcDbLine
 10
34.00539586644102
 20
50.49648005915027
 30
0.0
 11
34.00539586644102
 21
53.84485765515582
 31
0.0
  0
LINE
  5
2A72
330
2922
100
AcDbEntity
  8
DIM
100
AcDbLine
 10
27.30677476390054
 20
53.46985765515582
 30
0.0
 11
28.77751388659935
 21
53.46985765515582
 31
0.0
  0
LINE
  5
2A73
330
2922
100
AcDbEntity
  8
DIM
100
AcDbLine
 10
33.58539586644102
 20
53.46985765515582
 30
0.0
 11
32.1146567437422
 21
53.46985765515582
 31
0.0
  0
INSERT
  5
2A74
330
2922
100
AcDbEntity
  8
DIM
100
AcDbBlockReference
  2
SEARROW
 10
26.88677476390054
 20
53.46985765515582
 30
0.0
 41
0.4200000000000001
 42
0.4200000000000001
 43
0.4200000000000001
 50
180.0
  0
INSERT
  5
2A75
330
2922
100
AcDbEntity
  8
DIM
100
AcDbBlockReference
  2
SEARROW
 10
34.00539586644102
 20
53.46985765515582
 30
0.0
 41
0.4200000000000001
 42
0.4200000000000001
 43
0.4200000000000001
  0
MTEXT
  5
2A76
330
2922
100
AcDbEntity
  8
DIM
100
AcDbMText
 10
30.44608531517078
 20
53.46985765515582
 30
0.0
 40
0.6000000000000001
 41
0.0
 71
     5
 72
     1
  1
\A1;7.12\P [181]
  7
ROMANS
1001
ACAD
1000
MTEXTBEGIN
1070
    73
1070
     1
1070
    44
1040
1.0
1070
    74
1070
     0
1000
MTEXTEND
  0
POINT
  5
2A77
330
2922
100
AcDbEntity
  8
DEFPOINTS
 62
     0
100
AcDbPoint
 10
26.88677476390054
 20
50.12147997887185
 30
0.0
  0
POINT
  5
2A78
330
2922
100
AcDbEntity
  8
DEFPOINTS
 62
     0
100
AcDbPoint
 10
34.00539586644102
 20
50.12148005915026
 30
0.0
  0
POINT
  5
2A79
330
2922
100
AcDbEntity
  8
DEFPOINTS
 62
     0
100
AcDbPoint
 10
34.00539586644102
 20
53.46985765515582
 30
0.0
  0
ENDBLK
  5
292E
330
2922
100
AcDbEntity
  8
0
100
AcDbBlockEnd
  0
BLOCK
  5
2A42
330
2A37
100
AcDbEntity
  8
0
100
AcDbBlockBegin
  2
*D16
 70
     1
 10
0.0
 20
0.0
 30
0.0
  3
*D16
  1

  0
LINE
  5
2BFE
330
2A37
100
AcDbEntity
  8
DIM
100
AcDbLine
 10
45.07230250005409
 20
53.84770217315452
 30
0.0
 11
42.6418605382334
 21
53.84770217315452
 31
0.0
  0
LINE
  5
2BFF
330
2A37
100
AcDbEntity
  8
DIM
100
AcDbLine
 10
45.07230250005409
 20
55.75570253606359
 30
0.0
 11
42.6418605382334
 21
55.75570253606359
 31
0.0
  0
LINE
  5
2C00
330
2A37
100
AcDbEntity
  8
DIM
100
AcDbLine
 10
43.0168605382334
 20
54.26770217315452
 30
0.0
 11
43.0168605382334
 21
55.3357025360636
 31
0.0
  0
LINE
  5
2C01
330
2A37
100
AcDbEntity
  8
DIM
100
AcDbLine
 10
42.59686053823339
 20
56.94663758746029
 30
0.0
 11
43.0168605382334
 21
56.94663758746029
 31
0.0
  0
LINE
  5
2C02
330
2A37
100
AcDbEntity
  8
DIM
100
AcDbLine
 10
43.0168605382334
 20
56.94663758746029
 30
0.0
 11
43.0168605382334
 21
55.75570253606359
 31
0.0
  0
MTEXT
  5
2C03
330
2A37
100
AcDbEntity
  8
DIM
100
AcDbMText
 10
41.74257482394767
 20
56.9466375874603
 30
0.0
 40
0.6000000000000001
 41
0.0
 71
     5
 72
     1
  1
\A1;.25\P[6]
  7
ROMANS
  0
INSERT
  5
2C04
330
2A37
100
AcDbEntity
  8
DIM
100
AcDbBlockReference
  2
SEARROW
 10
43.0168605382334
 20
53.84770217315452
 30
0.0
 41
0.4200000000000001
 42
0.4200000000000001
 43
0.4200000000000001
 50
270.0
  0
INSERT
  5
2C05
330
2A37
100
AcDbEntity
  8
DIM
100
AcDbBlockReference
  2
SEARROW
 10
43.0168605382334
 20
55.75570253606359
 30
0.0
 41
0.4200000000000001
 42
0.4200000000000001
 43
0.4200000000000001
 50
90.0
  0
POINT
  5
2C06
330
2A37
100
AcDbEntity
  8
DEFPOINTS
 62
     0
100
AcDbPoint
 10
45.44730250005409
 20
53.84770217315452
 30
0.0
  0
POINT
  5
2C07
330
2A37
100
AcDbEntity
  8
DEFPOINTS
 62
     0
100
AcDbPoint
 10
45.44730250005409
 20
55.75570253606359
 30
0.0
  0
POINT
  5
2C08
330
2A37
100
AcDbEntity
  8
DEFPOINTS
 62
     0
100
AcDbPoint
 10
43.0168605382334
 20
55.75570253606359
 30
0.0
  0
ENDBLK
  5
2A43
330
2A37
100
AcDbEntity
  8
0
100
AcDbBlockEnd
  0
ENDSEC
  0
SECTION
  2
ENTITIES
  0
INSERT
  5
E46
330
1F
100
AcDbEntity
  8
0
100
AcDbBlockReference
  2
SETUP
 10
6.725780313066863
 20
5.07702380357103
 30
0.0
  0
INSERT
  5
1530
330
1F
100
AcDbEntity
  8
0
100
AcDbBlockReference
  2
MEDCLUMP_DMS_1142_
 10
0.7585923366532589
 20
-1.009653345009568
 30
0.0
  0
INSERT
  5
1531
330
1F
100
AcDbEntity
  8
0
100
AcDbBlockReference
  2
MEDCLUMP_DMS_1450_
 10
0.7585923366532589
 20
-1.009653345009568
 30
0.0
  0
INSERT
  5
1532
330
1F
100
AcDbEntity
  8
0
100
AcDbBlockReference
  2
MEDCLUMP_DMS_1474_
 10
0.7585923366532589
 20
-1.009653345009568
 30
0.0
  0
INSERT
  5
1533
330
1F
100
AcDbEntity
  8
0
  6
CONTINUOUS
100
AcDbBlockReference
  2
SETUP
 10
36.22102307275557
 20
9.463835136766618
 30
0.0
  0
MTEXT
  5
18F0
330
1F
100
AcDbEntity
  8
0
100
AcDbMText
 10
0.7015888475680973
 20
9.890340654990433
 30
0.0
 40
0.2
 41
0.0
 71
     9
 72
     1
  1

  7
ROMANS
1001
ACAD
1000
MTEXTBEGIN
1070
    73
1070
     1
1070
    44
1040
1.0
1070
    74
1070
     0
1000
MTEXTEND
  0
MTEXT
  5
1936
330
1F
100
AcDbEntity
  8
0
100
AcDbMText
 10
189.0712362786796
 20
218.2169687499913
 30
0.0
 40
0.2
 41
81.2324
 71
     1
 72
     5
  1

  7
ROMANS
1001
ACAD
1000
MTEXTBEGIN
1070
    73
1070
     1
1070
    44
1040
1.0
1070
    74
1070
     0
1000
MTEXTEND
  0
MTEXT
  5
193C
330
1F
100
AcDbEntity
  8
0
100
AcDbMText
 10
53.63297733665327
 20
253.4090946549904
 30
0.0
 40
0.2
 41
0.0
 71
     9
 72
     1
  1

  7
ROMANS
1001
ACAD
1000
MTEXTBEGIN
1070
    73
1070
     1
1070
    44
1040
1.0
1070
    74
1070
     0
1000
MTEXTEND
  0
MTEXT
  5
193E
330
1F
100
AcDbEntity
  8
0
100
AcDbMText
 10
118.3282833366532
 20
200.6117216549904
 30
0.0
 40
0.2
 41
0.0
 71
     1
 72
     1
  1

  7
ROMANS
1001
ACAD
1000
MTEXTBEGIN
1070
    73
1070
     1
1070
    44
1040
1.0
1070
    74
1070
     0
1000
MTEXTEND
  0
MTEXT
  5
1940
330
1F
100
AcDbEntity
  8
0
100
AcDbMText
 10
137.7927023366533
 20
240.1654046549904
 30
0.0
 40
0.2
 41
0.0
 71
     1
 72
     1
  1

  7
ROMANS
1001
ACAD
1000
MTEXTBEGIN
1070
    73
1070
     1
1070
    44
1040
1.0
1070
    74
1070
     0
1000
MTEXTEND
  0
MTEXT
  5
1942
330
1F
100
AcDbEntity
  8
0
100
AcDbMText
 10
118.3282833366532
 20
249.3791286549903
 30
0.0
 40
0.2
 41
0.0
 71
     1
 72
     1
  1

  7
ROMANS
1001
ACAD
1000
MTEXTBEGIN
1070
    73
1070
     1
1070
    44
1040
1.0
1070
    74
1070
     0
1000
MTEXTEND
  0
MTEXT
  5
1944
330
1F
100
AcDbEntity
  8
0
100
AcDbMText
 10
137.5565703366532
 20
260.8364576549904
 30
0.0
 40
0.2
 41
0.0
 71
     1
 72
     1
  1

  7
ROMANS
1001
ACAD
1000
MTEXTBEGIN
1070
    73
1070
     1
1070
    44
1040
1.0
1070
    74
1070
     0
1000
MTEXTEND
  0
MTEXT
  5
1946
330
1F
100
AcDbEntity
  8
0
100
AcDbMText
 10
51.03124833665328
 20
95.94974065499044
 30
0.0
 40
0.2
 41
0.0
 71
     9
 72
     1
  1

  7
ROMANS
1001
ACAD
1000
MTEXTBEGIN
1070
    73
1070
     1
1070
    44
1040
1.0
1070
    74
1070
     0
1000
MTEXTEND
  0
MTEXT
  5
1948
330
1F
100
AcDbEntity
  8
0
100
AcDbMText
 10
53.26940633665328
 20
73.81266465499045
 30
0.0
 40
0.2
 41
0.0
 71
     9
 72
     1
  1

  7
ROMANS
1001
ACAD
1000
MTEXTBEGIN
1070
    73
1070
     1
1070
    44
1040
1.0
1070
    74
1070
     0
1000
MTEXTEND
  0
MTEXT
  5
194A
330
1F
100
AcDbEntity
  8
0
100
AcDbMText
 10
113.3234768366532
 20
81.84958465499041
 30
0.0
 40
0.2
 41
0.0
 71
     1
 72
     1
  1

  7
ROMANS
1001
ACAD
1000
MTEXTBEGIN
1070
    73
1070
     1
1070
    44
1040
1.0
1070
    74
1070
     0
1000
MTEXTEND
  0
MTEXT
  5
194C
330
1F
100
AcDbEntity
  8
0
100
AcDbMText
 10
116.3397238366532
 20
110.8464486549904
 30
0.0
 40
0.2
 41
0.0
 71
     1
 72
     1
  1

  7
ROMANS
1001
ACAD
1000
MTEXTBEGIN
1070
    73
1070
     1
1070
    44
1040
1.0
1070
    74
1070
     0
1000
MTEXTEND
  0
MTEXT
  5
194E
330
1F
100
AcDbEntity
  8
0
100
AcDbMText
 10
364.0419983366533
 20
258.0089236549903
 30
0.0
 40
0.2
 41
0.0
 71
     9
 72
     1
  1

  7
ROMANS
1001
ACAD
1000
MTEXTBEGIN
1070
    73
1070
     1
1070
    44
1040
1.0
1070
    74
1070
     0
1000
MTEXTEND
  0
MTEXT
  5
1950
330
1F
100
AcDbEntity
  8
0
100
AcDbMText
 10
374.1704245970126
 20
179.7432640415952
 30
0.0
 40
0.2
 41
0.0
 71
     9
 72
     1
  1

  7
ROMANS
1001
ACAD
1000
MTEXTBEGIN
1070
    73
1070
     1
1070
    44
1040
1.0
1070
    74
1070
     0
1000
MTEXTEND
  0
MTEXT
  5
1952
330
1F
100
AcDbEntity
  8
0
100
AcDbMText
 10
213.6848731135625
 20
114.1031580866561
 30
0.0
 40
0.2
 41
0.0
 71
     9
 72
     1
  1

  7
ROMANS
1001
ACAD
1000
MTEXTBEGIN
1070
    73
1070
     1
1070
    44
1040
1.0
1070
    74
1070
     0
1000
MTEXTEND
  0
MTEXT
  5
1954
330
1F
100
AcDbEntity
  8
0
100
AcDbMText
 10
261.5481263366532
 20
115.8823886549904
 30
0.0
 40
0.2
 41
0.0
 71
     1
 72
     1
  1

  7
ROMANS
1001
ACAD
1000
MTEXTBEGIN
1070
    73
1070
     1
1070
    44
1040
1.0
1070
    74
1070
     0
1000
MTEXTEND
  0
MTEXT
  5
1956
330
1F
100
AcDbEntity
  8
0
100
AcDbMText
 10
259.7213143366532
 20
106.5069966549904
 30
0.0
 40
0.2
 41
0.0
 71
     1
 72
     1
  1

  7
ROMANS
1001
ACAD
1000
MTEXTBEGIN
1070
    73
1070
     1
1070
    44
1040
1.0
1070
    74
1070
     0
1000
MTEXTEND
  0
MTEXT
  5
1958
330
1F
100
AcDbEntity
  8
0
100
AcDbMText
 10
295.7667253366532
 20
94.50920565499044
 30
0.0
 40
0.2
 41
0.0
 71
     1
 72
     1
  1

  7
ROMANS
1001
ACAD
1000
MTEXTBEGIN
1070
    73
1070
     1
1070
    44
1040
1.0
1070
    74
1070
     0
1000
MTEXTEND
  0
MTEXT
  5
195A
330
1F
100
AcDbEntity
  8
0
100
AcDbMText
 10
294.2892032198323
 20
72.69888765499043
 30
0.0
 40
0.2
 41
0.0
 71
     1
 72
     1
  1

  7
ROMANS
1001
ACAD
1000
MTEXTBEGIN
1070
    73
1070
     1
1070
    44
1040
1.0
1070
    74
1070
     0
1000
MTEXTEND
  0
MTEXT
  5
195C
330
1F
100
AcDbEntity
  8
0
100
AcDbMText
 10
255.9529913366533
 20
161.9187166549904
 30
0.0
 40
0.2
 41
0.0
 71
     1
 72
     1
  1

  7
ROMANS
1001
ACAD
1000
MTEXTBEGIN
1070
    73
1070
     1
1070
    44
1040
1.0
1070
    74
1070
     0
1000
MTEXTEND
  0
MTEXT
  5
195E
330
1F
100
AcDbEntity
  8
0
100
AcDbMText
 10
219.0826773366533
 20
140.8776966549904
 30
0.0
 40
0.2
 41
0.0
 71
     1
 72
     1
  1

  7
ROMANS
1001
ACAD
1000
MTEXTBEGIN
1070
    73
1070
     1
1070
    44
1040
1.0
1070
    74
1070
     0
1000
MTEXTEND
  0
MTEXT
  5
1960
330
1F
100
AcDbEntity
  8
0
100
AcDbMText
 10
271.5200623366533
 20
48.93008765499044
 30
0.0
 40
0.2
 41
0.0
 71
     1
 72
     1
  1

  7
ROMANS
1001
ACAD
1000
MTEXTBEGIN
1070
    73
1070
     1
1070
    44
1040
1.0
1070
    74
1070
     0
1000
MTEXTEND
  0
MTEXT
  5
1962
330
1F
100
AcDbEntity
  8
0
100
AcDbMText
 10
269.1739133366532
 20
35.87993365499044
 30
0.0
 40
0.2
 41
0.0
 71
     1
 72
     1
  1

  7
ROMANS
1001
ACAD
1000
MTEXTBEGIN
1070
    73
1070
     1
1070
    44
1040
1.0
1070
    74
1070
     0
1000
MTEXTEND
  0
LWPOLYLINE
  5
1C30
330
1F
100
AcDbEntity
  8
VIEWPORT
100
AcDbPolyline
 90
        6
 70
     1
 43
0.0
 10
98.40000600000003
 20
61.5
 10
98.40000600000003
 20
5.472012000000006
 10
48.01476599999998
 20
5.472012000000006
 10
48.01476599999998
 20
0.0
 10
0.0
 20
0.0
 10
0.0
 20
61.5
1001
GENIUS_GENOREF_13
1005
0
1005
0
1005
0
1005
0
1005
0
1005
0
1005
0
1005
0
  0
VIEWPORT
  5
1C31
330
1F
100
AcDbEntity
  8
VIEWPORT
100
AcDbViewport
 10
49.20000300000001
 20
30.75
 30
0.0
 40
98.40000600000003
 41
61.5
 69
     0
1001
ACAD
1000
MVIEW
1002
{
1070
    16
1010
0.0
1020
0.0
1030
0.0
1010
0.0
1020
0.0
1030
1.0
1040
0.0
1040
799.4999992004999
1040
3216.27434843314
1040
1989.734510796657
1040
50.0
1040
0.0
1040
0.0
1070
     0
1070
   100
1070
     1
1070
     2
1070
     0
1070
     0
1070
     0
1070
     0
1040
0.0
1040
0.0
1040
0.0
1040
0.5
1040
0.5
1040
0.5
1040
0.5
1070
     0
1002
{
1002
}
1002
}
1001
GENIUS_GENOREF_13
1005
0
1005
0
1005
0
1005
0
1005
0
1005
0
1005
0
1005
0
1001
GENIUS_GENSCREG_15
1000
PF
1040
0.0
1000
DF
1040
0.0
1000
MIN
1011
-594.3159266646236
1021
-367.0681098543827
1031
0.0
1000
MAX
1011
-495.9159206646236
1021
-305.5681098543827
1031
0.0
1000
FLAGS
1070
     2
  0
TEXT
  5
2446
330
1F
100
AcDbEntity
  8
TEXT1
100
AcDbText
 10
84.43306945578845
 20
46.58925879117652
 30
0.0
 40
0.5062499963568428
  1
TERMINAL LUG DATA
 41
0.8998200897376419
  7
ROMANS
 72
     1
 11
87.90380406265697
 21
46.84238378935494
 31
0.0
100
AcDbText
 73
     2
  0
LINE
  5
2447
330
1F
100
AcDbEntity
  8
CONTINUOUS1
100
AcDbLine
 10
78.98918462847447
 20
46.18238378935494
 30
0.0
 11
96.89982747216797
 21
46.18238378935494
 31
0.0
  0
TEXT
  5
2448
330
1F
100
AcDbEntity
  8
TEXT1
100
AcDbText
 10
89.23720247962828
 20
43.97175879117653
 30
0.0
 40
0.5062499963568428
  1
#14 AWG
 41
0.898877140708225
  7
ROMANS
 72
     1
 11
90.80823104237291
 21
44.22488378935494
 31
0.0
100
AcDbText
 73
     2
  0
TEXT
  5
2449
330
1F
100
AcDbEntity
  8
TEXT1
100
AcDbText
 10
84.22306614315829
 20
43.97175879117653
 30
0.0
 40
0.5062499963568428
  1
#6 AWG
 41
0.898446971558569
  7
ROMANS
 72
     1
 11
85.5767529767248
 21
44.22488378935494
 31
0.0
100
AcDbText
 73
     2
  0
TEXT
  5
244B
330
1F
100
AcDbEntity
  8
TEXT1
100
AcDbText
 10
94.85609411708002
 20
43.97175879117653
 30
0.0
 40
0.5062499963568428
  1
CU
 41
0.8825226431901166
  7
ROMANS
 72
     1
 11
95.30287120197986
 21
44.22488378935494
 31
0.0
100
AcDbText
 73
     2
  0
TEXT
  5
244C
330
1F
100
AcDbEntity
  8
TEXT1
100
AcDbText
 10
94.4673133701657
 20
45.23221794191366
 30
0.0
 40
0.5062499963568428
  1
TYPE
 41
0.8963039214368487
  7
ROMANS
 72
     1
 11
95.25598078821875
 21
45.48534294009208
 31
0.0
100
AcDbText
 73
     2
  0
TEXT
  5
244D
330
1F
100
AcDbEntity
  8
TEXT1
100
AcDbText
 10
89.14648225795877
 20
45.23221794191366
 30
0.0
 40
0.5062499963568428
  1
MIN WIRE
 41
0.8991505782485861
  7
ROMANS
 72
     1
 11
90.7613406286118
 21
45.48534294009208
 31
0.0
100
AcDbText
 73
     2
  0
TEXT
  5
244E
330
1F
100
AcDbEntity
  8
TEXT1
100
AcDbText
 10
83.76757450194112
 20
45.23221794191366
 30
0.0
 40
0.5062499963568428
  1
MAX WIRE
 41
0.8991505782485843
  7
ROMANS
 72
     1
 11
85.46913667772988
 21
45.48534294009208
 31
0.0
100
AcDbText
 73
     2
  0
TEXT
  5
2450
330
1F
100
AcDbEntity
  8
TEXT1
100
AcDbText
 10
80.59625561747958
 20
43.97175879117653
 30
0.0
 40
0.5062499963568428
  1
30
 41
0.9761870989741389
  7
ROMANS
 72
     1
 11
81.06691725109792
 21
44.22488378935494
 31
0.0
100
AcDbText
 73
     2
  0
TEXT
  5
2451
330
1F
100
AcDbEntity
  8
TEXT1
100
AcDbText
 10
79.50317167330751
 20
45.23221794191366
 30
0.0
 40
0.5062499963568428
  1
AMPERES
 41
0.898877140708225
  7
ROMANS
 72
     1
 11
81.02002683733681
 21
45.48534294009208
 31
0.0
100
AcDbText
 73
     2
  0
LINE
  5
2452
330
1F
100
AcDbEntity
  8
CONTINUOUS1
100
AcDbLine
 10
78.98918462847447
 20
44.86238378935493
 30
0.0
 11
96.89982747216797
 21
44.86238378935493
 31
0.0
  0
LINE
  5
2453
330
1F
100
AcDbEntity
  8
CONTINUOUS1
100
AcDbLine
 10
83.07382605037359
 20
46.18238378935494
 30
0.0
 11
83.07382605037359
 21
43.49921575109357
 31
0.0
  0
LINE
  5
2454
330
1F
100
AcDbEntity
  8
CONTINUOUS1
100
AcDbLine
 10
93.48755512199071
 20
46.18238378935494
 30
0.0
 11
93.48755512199071
 21
43.49921575109357
 31
0.0
  0
LINE
  5
2455
330
1F
100
AcDbEntity
  8
CONTINUOUS1
100
AcDbLine
 10
87.93273983037737
 20
46.18238378935494
 30
0.0
 11
87.93273983037737
 21
43.49921575109357
 31
0.0
  0
LINE
  5
2456
330
1F
100
AcDbEntity
  8
CONTINUOUS1
100
AcDbLine
 10
45.14982779560549
 20
12.25967565611177
 30
0.0
 11
96.89982747216797
 21
12.25967565611177
 31
0.0
  0
LINE
  5
2457
330
1F
100
AcDbEntity
  8
CONTINUOUS1
100
AcDbLine
 10
45.14982779560549
 20
10.93967565611178
 30
0.0
 11
83.9623277956055
 21
10.93967565611177
 31
0.0
  0
LINE
  5
2458
330
1F
100
AcDbEntity
  8
CONTINUOUS1
100
AcDbLine
 10
45.14982779560549
 20
9.61967565611178
 30
0.0
 11
96.89982747216797
 21
9.619675656111771
 31
0.0
  0
LINE
  5
2459
330
1F
100
AcDbEntity
  8
CONTINUOUS1
100
AcDbLine
 10
74.25920182529296
 20
9.593425332674282
 30
0.0
 11
74.25920182529296
 21
6.972001345550527
 31
0.0
  0
LINE
  5
245A
330
1F
100
AcDbEntity
  8
CONTINUOUS1
100
AcDbLine
 10
93.66545279560551
 20
9.593425332674284
 30
0.0
 11
93.66545279560551
 21
6.972001345550529
 31
0.0
  0
LINE
  5
245B
330
1F
100
AcDbEntity
  8
CONTINUOUS1
100
AcDbLine
 10
87.196702472168
 20
9.593425332674282
 30
0.0
 11
87.196702472168
 21
6.972001345550527
 31
0.0
  0
LINE
  5
245C
330
1F
100
AcDbEntity
  8
CONTINUOUS1
100
AcDbLine
 10
80.72795214873048
 20
9.593425332674282
 30
0.0
 11
80.72795214873048
 21
6.972001345550527
 31
0.0
  0
LINE
  5
245D
330
1F
100
AcDbEntity
  8
CONTINUOUS1
100
AcDbLine
 10
87.196702472168
 20
9.593425332674282
 30
0.0
 11
87.196702472168
 21
6.972001345550557
 31
0.0
  0
LINE
  5
245E
330
1F
100
AcDbEntity
  8
CONTINUOUS1
100
AcDbLine
 10
93.66545279560551
 20
9.593425332674314
 30
0.0
 11
93.66545279560551
 21
6.972001345550586
 31
0.0
  0
LINE
  5
245F
330
1F
100
AcDbEntity
  8
CONTINUOUS1
100
AcDbLine
 10
48.38420247216799
 20
9.593425332674282
 30
0.0
 11
48.38420247216799
 21
6.972001345550557
 31
0.0
  0
LINE
  5
2460
330
1F
100
AcDbEntity
  8
CONTINUOUS1
100
AcDbLine
 10
61.32170214873048
 20
9.593425332674314
 30
0.0
 11
61.32170214873048
 21
6.972001345550589
 31
0.0
  0
LINE
  5
2461
330
1F
100
AcDbEntity
  8
CONTINUOUS1
100
AcDbLine
 10
74.25920182529296
 20
9.593425332674346
 30
0.0
 11
74.25920182529296
 21
6.972001345550621
 31
0.0
  0
LINE
  5
2462
330
1F
100
AcDbEntity
  8
CONTINUOUS1
100
AcDbLine
 10
54.8529527956055
 20
9.59342533267425
 30
0.0
 11
54.8529527956055
 21
6.972001345550525
 31
0.0
  0
LINE
  5
2463
330
1F
100
AcDbEntity
  8
CONTINUOUS1
100
AcDbLine
 10
67.79045247216799
 20
9.593425332674282
 30
0.0
 11
67.79045247216799
 21
6.972001345550557
 31
0.0
  0
LINE
  5
2464
330
1F
100
AcDbEntity
  8
CONTINUOUS1
100
AcDbLine
 10
80.72795214873048
 20
9.593425332674314
 30
0.0
 11
80.72795214873048
 21
6.972001345550589
 31
0.0
  0
LINE
  5
2465
330
1F
100
AcDbEntity
  8
CONTINUOUS1
100
AcDbLine
 10
83.9623277956055
 20
12.25967565611177
 30
0.0
 11
83.9623277956055
 21
6.972001345550557
 31
0.0
  0
LINE
  5
2466
330
1F
100
AcDbEntity
  8
CONTINUOUS1
100
AcDbLine
 10
90.43107714873048
 20
12.25967565611177
 30
0.0
 11
90.43107714873048
 21
6.97200134555053
 31
0.0
  0
LINE
  5
2467
330
1F
100
AcDbEntity
  8
CONTINUOUS1
100
AcDbLine
 10
83.9623277956055
 20
12.25967565611177
 30
0.0
 11
83.9623277956055
 21
6.972001345550529
 31
0.0
  0
LINE
  5
2468
330
1F
100
AcDbEntity
  8
CONTINUOUS1
100
AcDbLine
 10
58.08732747216799
 20
12.25967565611177
 30
0.0
 11
58.08732747216799
 21
6.972001345550589
 31
0.0
  0
LINE
  5
2469
330
1F
100
AcDbEntity
  8
CONTINUOUS1
100
AcDbLine
 10
90.43107714873048
 20
12.25967565611177
 30
0.0
 11
90.43107714873048
 21
6.972001345550621
 31
0.0
  0
LINE
  5
246A
330
1F
100
AcDbEntity
  8
CONTINUOUS1
100
AcDbLine
 10
83.9623277956055
 20
12.25967565611177
 30
0.0
 11
83.9623277956055
 21
6.972001345550623
 31
0.0
  0
LINE
  5
246B
330
1F
100
AcDbEntity
  8
CONTINUOUS1
100
AcDbLine
 10
51.61857714873048
 20
10.88717597954927
 30
0.0
 11
51.61857714873048
 21
6.972001345550557
 31
0.0
  0
LINE
  5
246C
330
1F
100
AcDbEntity
  8
CONTINUOUS1
100
AcDbLine
 10
64.55607682529296
 20
10.88717597954931
 30
0.0
 11
64.55607682529296
 21
6.972001345550589
 31
0.0
  0
LINE
  5
246D
330
1F
100
AcDbEntity
  8
CONTINUOUS1
100
AcDbLine
 10
77.49357650185546
 20
10.88717597954934
 30
0.0
 11
77.49357650185546
 21
6.972001345550621
 31
0.0
  0
LINE
  5
246E
330
1F
100
AcDbEntity
  8
CONTINUOUS1
100
AcDbLine
 10
45.1498277956055
 20
13.57967565611177
 30
0.0
 11
45.1498277956055
 21
6.972001345550557
 31
0.0
  0
TEXT
  5
246F
330
1F
100
AcDbEntity
  8
TEXT1
100
AcDbText
 10
27.13080655815389
 20
7.389422737626211
 30
0.0
 40
0.4851572158486249
  1
HU461AWK
 41
0.8991505782485871
  7
ROMANS
 11
27.13080655815389
 21
7.632001345550524
 31
0.0
100
AcDbText
 73
     2
  0
TEXT
  5
2470
330
1F
100
AcDbEntity
  8
TEXT1
100
AcDbText
 10
41.84739943125792
 20
7.389422737626211
 30
0.0
 40
0.4851572158486249
  1
30
 41
0.9761870989741465
  7
ROMANS
 72
     1
 11
42.29845106467282
 21
7.632001345550524
 31
0.0
100
AcDbText
 73
     2
  0
TEXT
  5
2471
330
1F
100
AcDbEntity
  8
TEXT1
100
AcDbText
 10
92.13158572762051
 20
46.62485708822437
 30
0.0
 40
0.9000000000000021
  1
+
 41
0.799999999999997
  7
ROMANS
 72
     1
 11
92.57730001333479
 21
47.07485708822438
 31
0.0
100
AcDbText
 73
     2
  0
TEXT
  5
2472
330
1F
100
AcDbEntity
  8
TEXT1
100
AcDbText
 10
92.13158572762051
 20
46.32790186202733
 30
0.0
 40
0.9000000000000021
  1
+
 41
0.799999999999997
  7
ROMANS
 72
     1
 11
92.57730001333479
 21
46.77790186202734
 31
0.0
100
AcDbText
 73
     2
  0
TEXT
  5
2473
330
1F
100
AcDbEntity
  8
TEXT1
100
AcDbText
 10
33.66014201162269
 20
7.389422737626211
 30
0.0
 40
0.4851572158486249
  1
600VAC;600VDC
 41
0.8996885631679738
  7
ROMANS
 72
     1
 11
36.23751388811034
 21
7.632001345550524
 31
0.0
100
AcDbText
 73
     2
  0
TEXT
  5
2474
330
1F
100
AcDbEntity
  8
TEXT1
100
AcDbText
 10
46.65943240576742
 20
7.389422737626209
 30
0.0
 40
0.4851572158486249
  1
-
 41
0.8000000000000014
  7
ROMANS
 72
     1
 11
46.89970074123531
 21
7.632001345550522
 31
0.0
100
AcDbText
 73
     2
  0
TEXT
  5
2475
330
1F
100
AcDbEntity
  8
TEXT1
100
AcDbText
 10
46.28825109134179
 20
8.703972371624974
 30
0.0
 40
0.4851572158486249
  1
2
 41
0.8000000000000014
  7
ROMANS
 72
     1
 11
46.47307288785555
 21
8.946550979549286
 31
0.0
100
AcDbText
 73
     2
  0
TEXT
  5
2476
330
1F
100
AcDbEntity
  8
TEXT1
100
AcDbText
 10
46.83640805315184
 20
8.646550979549285
 30
0.0
 40
0.6000000000000006
  1
Ø
 41
0.8
  7
ROMANS
 72
     1
 11
47.08783662458041
 21
8.946550979549286
 31
0.0
100
AcDbText
 73
     2
  0
TEXT
  5
2477
330
1F
100
AcDbEntity
  8
TEXT1
100
AcDbText
 10
41.07044190602803
 20
10.69709704818746
 30
0.0
 40
0.4851572158486262
  1
RATINGS
 41
0.8988771407082253
  7
ROMANS
 72
     1
 11
42.38911535445538
 21
10.93967565611178
 31
0.0
100
AcDbText
 73
     2
  0
TEXT
  5
2478
330
1F
100
AcDbEntity
  8
TEXT1
100
AcDbText
 10
35.00950472946552
 20
10.69709704818746
 30
0.0
 40
0.4851572158486262
  1
RATINGS
 41
0.8988771407082262
  7
ROMANS
 72
     1
 11
36.32817817789288
 21
10.93967565611178
 31
0.0
100
AcDbText
 73
     2
  0
TEXT
  5
2479
330
1F
100
AcDbEntity
  8
TEXT1
100
AcDbText
 10
40.63331436696008
 20
11.32381515131246
 30
0.0
 40
0.4851572158486262
  1
AMPERAGE
 41
0.8991505782485846
  7
ROMANS
 72
     1
 11
42.29514061904299
 21
11.56639375923678
 31
0.0
100
AcDbText
 73
     2
  0
TEXT
  5
247A
330
1F
100
AcDbEntity
  8
TEXT1
100
AcDbText
 10
34.88438022755486
 20
11.32381515131246
 30
0.0
 40
0.4851572158486262
  1
VOLTAGE
 41
0.8988771407082262
  7
ROMANS
 72
     1
 11
36.2342034424805
 21
11.56639375923678
 31
0.0
100
AcDbText
 73
     2
  0
TEXT
  5
247B
330
1F
100
AcDbEntity
  8
TEXT1
100
AcDbText
 10
48.06684197682974
 20
10.00564393354822
 30
0.0
 40
0.4851572158486249
  1
STD
 41
0.8930501245289271
  7
ROMANS
 72
     1
 11
48.65485087172721
 21
10.24822254147253
 31
0.0
100
AcDbText
 73
     2
  0
TEXT
  5
247C
330
1F
100
AcDbEntity
  8
TEXT1
100
AcDbText
 10
61.00434165339223
 20
10.00564393354825
 30
0.0
 40
0.4851572158486249
  1
STD
 41
0.8930501245289271
  7
ROMANS
 72
     1
 11
61.59235054828971
 21
10.24822254147256
 31
0.0
100
AcDbText
 73
     2
  0
TEXT
  5
247D
330
1F
100
AcDbEntity
  8
TEXT1
100
AcDbText
 10
73.94184132995471
 20
10.00564393354828
 30
0.0
 40
0.4851572158486249
  1
STD
 41
0.8930501245289271
  7
ROMANS
 72
     1
 11
74.52985022485219
 21
10.24822254147259
 31
0.0
100
AcDbText
 73
     2
  0
TEXT
  5
247E
330
1F
100
AcDbEntity
  8
TEXT1
100
AcDbText
 10
49.72505708232993
 20
7.389422737626209
 30
0.0
 40
0.4851572158486249
  1
-
 41
0.8000000000000014
  7
ROMANS
 72
     1
 11
49.96532541779782
 21
7.632001345550522
 31
0.0
100
AcDbText
 73
     2
  0
TEXT
  5
247F
330
1F
100
AcDbEntity
  8
TEXT1
100
AcDbText
 10
52.88356958843927
 20
7.389422737626209
 30
0.0
 40
0.4851572158486249
  1
10
 41
0.9761870989741465
  7
ROMANS
 72
     1
 11
53.36845009436029
 21
7.632001345550522
 31
0.0
100
AcDbText
 73
     2
  0
TEXT
  5
2480
330
1F
100
AcDbEntity
  8
TEXT1
100
AcDbText
 10
49.5226267382168
 20
8.703972371624974
 30
0.0
 40
0.4851572158486249
  1
3
 41
0.8000000000000014
  7
ROMANS
 72
     1
 11
49.70744853473056
 21
8.946550979549286
 31
0.0
100
AcDbText
 73
     2
  0
TEXT
  5
2481
330
1F
100
AcDbEntity
  8
TEXT1
100
AcDbText
 10
50.07078370002684
 20
8.646550979549285
 30
0.0
 40
0.6000000000000006
  1
Ø
 41
0.8
  7
ROMANS
 72
     1
 11
50.32221227145541
 21
8.946550979549286
 31
0.0
100
AcDbText
 73
     2
  0
TEXT
  5
2482
330
1F
100
AcDbEntity
  8
TEXT1
100
AcDbText
 10
52.75700044446677
 20
8.703972371624974
 30
0.0
 40
0.4851572158486249
  1
2
 41
0.8000000000000014
  7
ROMANS
 72
     1
 11
52.94182224098054
 21
8.946550979549286
 31
0.0
100
AcDbText
 73
     2
  0
TEXT
  5
2483
330
1F
100
AcDbEntity
  8
TEXT1
100
AcDbText
 10
53.30515740627681
 20
8.646550979549285
 30
0.0
 40
0.6000000000000006
  1
Ø
 41
0.8
  7
ROMANS
 72
     1
 11
53.55658597770538
 21
8.946550979549286
 31
0.0
100
AcDbText
 73
     2
  0
TEXT
  5
2484
330
1F
100
AcDbEntity
  8
TEXT1
100
AcDbText
 10
55.98856958843928
 20
7.389422737626209
 30
0.0
 40
0.4851572158486249
  1
10
 41
0.9761870989741465
  7
ROMANS
 72
     1
 11
56.4734500943603
 21
7.632001345550522
 31
0.0
100
AcDbText
 73
     2
  0
TEXT
  5
2485
330
1F
100
AcDbEntity
  8
TEXT1
100
AcDbText
 10
59.53224425889243
 20
7.389422737626209
 30
0.0
 40
0.4851572158486249
  1
-
 41
0.8000000000000014
  7
ROMANS
 72
     1
 11
59.77251259436032
 21
7.632001345550522
 31
0.0
100
AcDbText
 73
     2
  0
TEXT
  5
2486
330
1F
100
AcDbEntity
  8
TEXT1
100
AcDbText
 10
55.99137609134178
 20
8.703972371624974
 30
0.0
 40
0.4851572158486249
  1
3
 41
0.8000000000000014
  7
ROMANS
 72
     1
 11
56.17619788785553
 21
8.946550979549286
 31
0.0
100
AcDbText
 73
     2
  0
TEXT
  5
2487
330
1F
100
AcDbEntity
  8
TEXT1
100
AcDbText
 10
56.53953305315182
 20
8.646550979549285
 30
0.0
 40
0.6000000000000006
  1
Ø
 41
0.8
  7
ROMANS
 72
     1
 11
56.79096162458039
 21
8.946550979549286
 31
0.0
100
AcDbText
 73
     2
  0
TEXT
  5
2488
330
1F
100
AcDbEntity
  8
TEXT1
100
AcDbText
 10
59.22575076790431
 20
8.703972371624974
 30
0.0
 40
0.4851572158486249
  1
2
 41
0.8000000000000014
  7
ROMANS
 72
     1
 11
59.41057256441807
 21
8.946550979549286
 31
0.0
100
AcDbText
 73
     2
  0
TEXT
  5
2489
330
1F
100
AcDbEntity
  8
TEXT1
100
AcDbText
 10
59.77390772971435
 20
8.646550979549285
 30
0.0
 40
0.6000000000000006
  1
Ø
 41
0.8
  7
ROMANS
 72
     1
 11
60.02533630114292
 21
8.946550979549286
 31
0.0
100
AcDbText
 73
     2
  0
TEXT
  5
248A
330
1F
100
AcDbEntity
  8
TEXT1
100
AcDbText
 10
62.76661990576741
 20
7.389422737626209
 30
0.0
 40
0.4851572158486249
  1
-
 41
0.8000000000000014
  7
ROMANS
 72
     1
 11
63.0068882412353
 21
7.632001345550522
 31
0.0
100
AcDbText
 73
     2
  0
TEXT
  5
248B
330
1F
100
AcDbEntity
  8
TEXT1
100
AcDbText
 10
65.79021128438292
 20
7.389422737626209
 30
0.0
 40
0.4851572158486249
  1
20
 41
0.9761870989741465
  7
ROMANS
 72
     1
 11
66.24126291779781
 21
7.632001345550522
 31
0.0
100
AcDbText
 73
     2
  0
TEXT
  5
248C
330
1F
100
AcDbEntity
  8
TEXT1
100
AcDbText
 10
62.46012641477928
 20
8.703972371624974
 30
0.0
 40
0.4851572158486249
  1
3
 41
0.8000000000000014
  7
ROMANS
 72
     1
 11
62.64494821129304
 21
8.946550979549286
 31
0.0
100
AcDbText
 73
     2
  0
TEXT
  5
248D
330
1F
100
AcDbEntity
  8
TEXT1
100
AcDbText
 10
63.00828337658932
 20
8.646550979549285
 30
0.0
 40
0.6000000000000006
  1
Ø
 41
0.8
  7
ROMANS
 72
     1
 11
63.25971194801789
 21
8.946550979549286
 31
0.0
100
AcDbText
 73
     2
  0
TEXT
  5
248E
330
1F
100
AcDbEntity
  8
TEXT1
100
AcDbText
 10
65.69450109134179
 20
8.703972371624974
 30
0.0
 40
0.4851572158486249
  1
2
 41
0.8000000000000014
  7
ROMANS
 72
     1
 11
65.87932288785555
 21
8.946550979549286
 31
0.0
100
AcDbText
 73
     2
  0
TEXT
  5
248F
330
1F
100
AcDbEntity
  8
TEXT1
100
AcDbText
 10
66.24265805315182
 20
8.646550979549285
 30
0.0
 40
0.6000000000000006
  1
Ø
 41
0.8
  7
ROMANS
 72
     1
 11
66.4940866245804
 21
8.946550979549286
 31
0.0
100
AcDbText
 73
     2
  0
TEXT
  5
2490
330
1F
100
AcDbEntity
  8
TEXT1
100
AcDbText
 10
69.02458693125794
 20
7.389422737626209
 30
0.0
 40
0.4851572158486249
  1
20
 41
0.9761870989741465
  7
ROMANS
 72
     1
 11
69.47563856467283
 21
7.632001345550522
 31
0.0
100
AcDbText
 73
     2
  0
TEXT
  5
2491
330
1F
100
AcDbEntity
  8
TEXT1
100
AcDbText
 10
72.40505708232991
 20
7.389422737626209
 30
0.0
 40
0.4851572158486249
  1
-
 41
0.8000000000000014
  7
ROMANS
 72
     1
 11
72.64532541779781
 21
7.632001345550522
 31
0.0
100
AcDbText
 73
     2
  0
TEXT
  5
2492
330
1F
100
AcDbEntity
  8
TEXT1
100
AcDbText
 10
68.92887673821682
 20
8.703972371624974
 30
0.0
 40
0.4851572158486249
  1
3
 41
0.8000000000000014
  7
ROMANS
 72
     1
 11
69.11369853473058
 21
8.946550979549286
 31
0.0
100
AcDbText
 73
     2
  0
TEXT
  5
2493
330
1F
100
AcDbEntity
  8
TEXT1
100
AcDbText
 10
69.47703370002686
 20
8.646550979549285
 30
0.0
 40
0.6000000000000006
  1
Ø
 41
0.8
  7
ROMANS
 72
     1
 11
69.72846227145544
 21
8.946550979549286
 31
0.0
100
AcDbText
 73
     2
  0
TEXT
  5
2494
330
1F
100
AcDbEntity
  8
TEXT1
100
AcDbText
 10
72.16325044446678
 20
8.703972371624974
 30
0.0
 40
0.4851572158486249
  1
2
 41
0.8000000000000014
  7
ROMANS
 72
     1
 11
72.34807224098054
 21
8.946550979549286
 31
0.0
100
AcDbText
 73
     2
  0
TEXT
  5
2495
330
1F
100
AcDbEntity
  8
TEXT1
100
AcDbText
 10
72.71140740627682
 20
8.646550979549285
 30
0.0
 40
0.6000000000000006
  1
Ø
 41
0.8
  7
ROMANS
 72
     1
 11
72.96283597770539
 21
8.946550979549286
 31
0.0
100
AcDbText
 73
     2
  0
TEXT
  5
2496
330
1F
100
AcDbEntity
  8
TEXT1
100
AcDbText
 10
54.46761158893503
 20
10.00564393354822
 30
0.0
 40
0.4851572158486249
  1
MAX
 41
0.8930501245289271
  7
ROMANS
 72
     1
 11
55.11751615697961
 21
10.24822254147253
 31
0.0
100
AcDbText
 73
     2
  0
TEXT
  5
2497
330
1F
100
AcDbEntity
  8
TEXT1
100
AcDbText
 10
67.40511126549752
 20
10.00564393354825
 30
0.0
 40
0.4851572158486249
  1
MAX
 41
0.8930501245289271
  7
ROMANS
 72
     1
 11
68.0550158335421
 21
10.24822254147256
 31
0.0
100
AcDbText
 73
     2
  0
TEXT
  5
2498
330
1F
100
AcDbEntity
  8
TEXT1
100
AcDbText
 10
80.34261094206001
 20
10.00564393354828
 30
0.0
 40
0.4851572158486249
  1
MAX
 41
0.8930501245289271
  7
ROMANS
 72
     1
 11
80.99251551010459
 21
10.24822254147259
 31
0.0
100
AcDbText
 73
     2
  0
TEXT
  5
2499
330
1F
100
AcDbEntity
  8
TEXT1
100
AcDbText
 10
50.32834243440171
 20
11.35709704818746
 30
0.0
 40
0.4851572158486262
  1
240VAC
 41
0.8984469715585685
  7
ROMANS
 72
     1
 11
51.54260195019102
 21
11.59967565611178
 31
0.0
100
AcDbText
 73
     2
  0
TEXT
  5
249A
330
1F
100
AcDbEntity
  8
TEXT1
100
AcDbText
 10
63.26584211096419
 20
11.35709704818749
 30
0.0
 40
0.4851572158486262
  1
480VAC
 41
0.8984469715585685
  7
ROMANS
 72
     1
 11
64.48010162675351
 21
11.59967565611181
 31
0.0
100
AcDbText
 73
     2
  0
TEXT
  5
249B
330
1F
100
AcDbEntity
  8
TEXT1
100
AcDbText
 10
76.19296350106695
 20
11.35709704818752
 30
0.0
 40
0.4851572158486262
  1
600VAC
 41
0.8984469715585685
  7
ROMANS
 72
     1
 11
77.417601303316
 21
11.59967565611184
 31
0.0
100
AcDbText
 73
     2
  0
TEXT
  5
249C
330
1F
100
AcDbEntity
  8
TEXT1
100
AcDbText
 10
67.29870877606543
 20
12.67709704818746
 30
0.0
 40
0.4851572158486262
  1
HORSEPOWER RATINGS
 41
0.8998398791575912
  7
ROMANS
 72
     1
 11
71.03028991803964
 21
12.91967565611177
 31
0.0
100
AcDbText
 73
     2
  0
TEXT
  5
249D
330
1F
100
AcDbEntity
  8
TEXT1
100
AcDbText
 10
25.44401973803377
 20
10.69709704818747
 30
0.0
 40
0.4851572158486262
  1
CATALOG NUMBERS
 41
0.899767687744001
  7
ROMANS
 72
     1
 11
28.59326312488663
 21
10.93967565611178
 31
0.0
100
AcDbText
 73
     2
  0
TEXT
  5
249E
330
1F
100
AcDbEntity
  8
TEXT1
100
AcDbText
 10
75.6394317588924
 20
7.389422737626209
 30
0.0
 40
0.4851572158486249
  1
-
 41
0.8000000000000014
  7
ROMANS
 72
     1
 11
75.87970009436029
 21
7.632001345550522
 31
0.0
100
AcDbText
 73
     2
  0
TEXT
  5
249F
330
1F
100
AcDbEntity
  8
TEXT1
100
AcDbText
 10
78.90036469028917
 20
7.389422737626209
 30
0.0
 40
0.4851572158486249
  1
25
 41
0.8825226431901292
  7
ROMANS
 72
     1
 11
79.30813824123536
 21
7.632001345550522
 31
0.0
100
AcDbText
 73
     2
  0
TEXT
  5
24A0
330
1F
100
AcDbEntity
  8
TEXT1
100
AcDbText
 10
75.39762609134178
 20
8.703972371624974
 30
0.0
 40
0.4851572158486249
  1
3
 41
0.8000000000000014
  7
ROMANS
 72
     1
 11
75.58244788785554
 21
8.946550979549286
 31
0.0
100
AcDbText
 73
     2
  0
TEXT
  5
24A1
330
1F
100
AcDbEntity
  8
TEXT1
100
AcDbText
 10
75.94578305315181
 20
8.646550979549285
 30
0.0
 40
0.6000000000000006
  1
Ø
 41
0.8
  7
ROMANS
 72
     1
 11
76.19721162458039
 21
8.946550979549286
 31
0.0
100
AcDbText
 73
     2
  0
TEXT
  5
24A2
330
1F
100
AcDbEntity
  8
TEXT1
100
AcDbText
 10
78.63200076790436
 20
8.703972371624974
 30
0.0
 40
0.4851572158486249
  1
2
 41
0.8000000000000014
  7
ROMANS
 72
     1
 11
78.81682256441812
 21
8.946550979549286
 31
0.0
100
AcDbText
 73
     2
  0
TEXT
  5
24A3
330
1F
100
AcDbEntity
  8
TEXT1
100
AcDbText
 10
79.1801577297144
 20
8.646550979549285
 30
0.0
 40
0.6000000000000006
  1
Ø
 41
0.8
  7
ROMANS
 72
     1
 11
79.43158630114297
 21
8.946550979549286
 31
0.0
100
AcDbText
 73
     2
  0
TEXT
  5
24A4
330
1F
100
AcDbEntity
  8
TEXT1
100
AcDbText
 10
81.96208660782046
 20
7.389422737626209
 30
0.0
 40
0.4851572158486249
  1
30
 41
0.9761870989741465
  7
ROMANS
 72
     1
 11
82.41313824123535
 21
7.632001345550522
 31
0.0
100
AcDbText
 73
     2
  0
TEXT
  5
24A5
330
1F
100
AcDbEntity
  8
TEXT1
100
AcDbText
 10
85.34255675889243
 20
7.389422737626209
 30
0.0
 40
0.4851572158486249
  1
-
 41
0.8000000000000014
  7
ROMANS
 72
     1
 11
85.58282509436031
 21
7.632001345550522
 31
0.0
100
AcDbText
 73
     2
  0
TEXT
  5
24A6
330
1F
100
AcDbEntity
  8
TEXT1
100
AcDbText
 10
91.81130611201743
 20
7.389422737626211
 30
0.0
 40
0.4851572158486249
  1
-
 41
0.8000000000000014
  7
ROMANS
 72
     1
 11
92.05157444748531
 21
7.632001345550524
 31
0.0
100
AcDbText
 73
     2
  0
TEXT
  5
24A7
330
1F
100
AcDbEntity
  8
TEXT1
100
AcDbText
 10
88.63237797440907
 20
7.389422737626209
 30
0.0
 40
0.4851572158486249
  1
5
 41
0.8000000000000014
  7
ROMANS
 72
     1
 11
88.81719977092283
 21
7.632001345550522
 31
0.0
100
AcDbText
 73
     2
  0
TEXT
  5
24A8
330
1F
100
AcDbEntity
  8
TEXT1
100
AcDbText
 10
94.8010686181268
 20
7.389422737626211
 30
0.0
 40
0.4851572158486249
  1
10
 41
0.9761870989741305
  7
ROMANS
 72
     1
 11
95.28594912404782
 21
7.632001345550524
 31
0.0
100
AcDbText
 73
     2
  0
TEXT
  5
24A9
330
1F
100
AcDbEntity
  8
TEXT1
100
AcDbText
 10
84.99150575383302
 20
8.768659224749972
 30
0.0
 40
0.4851572158486249
  1
STD
 41
0.8930501245289271
  7
ROMANS
 72
     1
 11
85.57951464873051
 21
9.011237832674284
 31
0.0
100
AcDbText
 73
     2
  0
TEXT
  5
24AA
330
1F
100
AcDbEntity
  8
TEXT1
100
AcDbText
 10
91.46025510695805
 20
8.768659224749972
 30
0.0
 40
0.4851572158486249
  1
STD
 41
0.8930501245289271
  7
ROMANS
 72
     1
 11
92.04826400185552
 21
9.011237832674284
 31
0.0
100
AcDbText
 73
     2
  0
TEXT
  5
24AB
330
1F
100
AcDbEntity
  8
TEXT1
100
AcDbText
 10
88.16398475724843
 20
8.768659224749972
 30
0.0
 40
0.4851572158486249
  1
MAX
 41
0.8930501245289271
  7
ROMANS
 72
     1
 11
88.81388932529302
 21
9.011237832674284
 31
0.0
100
AcDbText
 73
     2
  0
TEXT
  5
24AC
330
1F
100
AcDbEntity
  8
TEXT1
100
AcDbText
 10
94.63273411037347
 20
8.768659224749972
 30
0.0
 40
0.4851572158486249
  1
MAX
 41
0.8930501245289271
  7
ROMANS
 72
     1
 11
95.28263867841804
 21
9.011237832674284
 31
0.0
100
AcDbText
 73
     2
  0
TEXT
  5
24AD
330
1F
100
AcDbEntity
  8
TEXT1
100
AcDbText
 10
81.86637641477934
 20
8.703972371624974
 30
0.0
 40
0.4851572158486249
  1
3
 41
0.8000000000000014
  7
ROMANS
 72
     1
 11
82.0511982112931
 21
8.946550979549286
 31
0.0
100
AcDbText
 73
     2
  0
TEXT
  5
24AE
330
1F
100
AcDbEntity
  8
TEXT1
100
AcDbText
 10
82.41453337658937
 20
8.646550979549285
 30
0.0
 40
0.6000000000000006
  1
Ø
 41
0.8
  7
ROMANS
 72
     1
 11
82.66596194801795
 21
8.946550979549286
 31
0.0
100
AcDbText
 73
     2
  0
TEXT
  5
24AF
330
1F
100
AcDbEntity
  8
TEXT1
100
AcDbText
 10
86.5415215307032
 20
11.35709704818746
 30
0.0
 40
0.4851572158486262
  1
250
 41
0.951578822467674
  7
ROMANS
 72
     1
 11
87.20104343380169
 21
11.59967565611177
 31
0.0
100
AcDbText
 73
     2
  0
TEXT
  5
24B0
330
1F
100
AcDbEntity
  8
TEXT1
100
AcDbText
 10
92.99927885210996
 20
11.35709704818746
 30
0.0
 40
0.4851572158486262
  1
600
 41
0.9515788224676757
  7
ROMANS
 72
     1
 11
93.66979278692674
 21
11.59967565611177
 31
0.0
100
AcDbText
 73
     2
  0
TEXT
  5
24B1
330
1F
100
AcDbEntity
  8
TEXT1
100
AcDbText
 10
86.61444680351429
 20
10.69709704818746
 30
0.0
 40
0.4851572158486262
  1
VDC
 41
0.8930501245289248
  7
ROMANS
 72
     1
 11
87.21277164393629
 21
10.93967565611177
 31
0.0
100
AcDbText
 73
     2
  0
TEXT
  5
24B2
330
1F
100
AcDbEntity
  8
TEXT1
100
AcDbText
 10
93.08319615663936
 20
10.69709704818746
 30
0.0
 40
0.4851572158486262
  1
VDC
 41
0.8930501245289248
  7
ROMANS
 72
     1
 11
93.68152099706135
 21
10.93967565611177
 31
0.0
100
AcDbText
 73
     2
  0
LINE
  5
24B3
330
1F
100
AcDbEntity
  8
CONTINUOUS1
100
AcDbLine
 10
86.89805674050674
 20
57.48499115267944
 30
0.0
 11
96.89982747216797
 21
57.48499115267944
 31
0.0
  0
LINE
  5
24B4
330
1F
100
AcDbEntity
  8
CONTINUOUS1
100
AcDbLine
 10
86.89805674050674
 20
48.98850830779295
 30
0.0
 11
96.89982747216797
 21
48.98850830779295
 31
0.0
  0
LINE
  5
24B5
330
1F
100
AcDbEntity
  8
CONTINUOUS1
100
AcDbLine
 10
25.69934185380693
 20
20.83140908127666
 30
0.0
 11
35.06282880903462
 21
20.82993915491121
 31
0.0
  0
LINE
  5
24B6
330
1F
100
AcDbEntity
  8
CONTINUOUS1
100
AcDbLine
 10
35.06282880903462
 20
16.98058690371856
 30
0.0
 11
25.69934185380694
 21
16.98205683008402
 31
0.0
  0
LINE
  5
24B7
330
1F
100
AcDbEntity
  8
CONTINUOUS1
100
AcDbLine
 10
25.44608656517077
 20
21.59117494718515
 30
0.0
 11
35.44409336264048
 21
21.58970502081971
 31
0.0
  0
LINE
  5
24B8
330
1F
100
AcDbEntity
  8
CONTINUOUS1
100
AcDbLine
 10
25.69934185380694
 20
16.98205683008402
 30
0.0
 11
25.69934185380693
 21
20.83140908127666
 31
0.0
  0
LINE
  5
24B9
330
1F
100
AcDbEntity
  8
CONTINUOUS1
100
AcDbLine
 10
25.44608656517077
 20
20.83140908127666
 30
0.0
 11
25.44608656517077
 21
21.59117494718515
 31
0.0
  0
LINE
  5
24BA
330
1F
100
AcDbEntity
  8
CONTINUOUS1
100
AcDbLine
 10
25.69934185380693
 20
20.83140908127666
 30
0.0
 11
25.44608656517077
 21
20.83140908127666
 31
0.0
  0
LINE
  5
24BB
330
1F
100
AcDbEntity
  8
CONTINUOUS1
100
AcDbLine
 10
27.27965485489658
 20
16.98205683008402
 30
0.0
 11
32.97600523067265
 21
16.98058690371856
 31
0.0
  0
LINE
  5
24BC
330
1F
100
AcDbEntity
  8
CONTINUOUS1
100
AcDbLine
 10
32.56088321290451
 20
22.71704957711928
 30
0.0
 11
33.82715965608532
 21
21.58994274555171
 31
0.0
  0
LINE
  5
24BD
330
1F
100
AcDbEntity
  8
CONTINUOUS1
100
AcDbLine
 10
28.33128741743704
 20
22.71834350728165
 30
0.0
 11
32.56088321290451
 21
22.71704957711928
 31
0.0
  0
LINE
  5
24BE
330
1F
100
AcDbEntity
  8
CONTINUOUS1
100
AcDbLine
 10
27.06501097425622
 20
21.59117494718515
 30
0.0
 11
28.33128741743704
 21
22.71834350728165
 31
0.0
  0
LINE
  5
24BF
330
1F
100
AcDbEntity
  8
CONTINUOUS1
100
AcDbLine
 10
35.06282880903462
 20
20.82993915491121
 30
0.0
 11
35.06282880903462
 21
16.98058690371856
 31
0.0
  0
LINE
  5
24C0
330
1F
100
AcDbEntity
  8
CONTINUOUS1
100
AcDbLine
 10
35.44409336264048
 20
21.58970502081971
 30
0.0
 11
35.44409336264048
 21
20.82993915491121
 31
0.0
  0
LINE
  5
24C1
330
1F
100
AcDbEntity
  8
CONTINUOUS1
100
AcDbLine
 10
35.44409336264048
 20
20.82993915491121
 30
0.0
 11
35.06282880903462
 21
20.82993915491121
 31
0.0
  0
LWPOLYLINE
  5
24C2
330
1F
100
AcDbEntity
  8
CONTINUOUS1
100
AcDbPolyline
 90
       26
 70
     1
 43
0.0
 10
28.33128741743705
 20
46.41307221810587
 10
28.33128741743704
 20
37.58272792719785
 42
0.0369660049486849
 10
28.36617845310463
 20
37.06453340961347
 42
0.0252822381137855
 10
28.40916444058762
 20
36.84710143069974
 42
0.0333370049396491
 10
28.46818423022207
 20
36.66320415035068
 42
0.0210528148099756
 10
28.50336393058372
 20
36.5849622292348
 42
0.024968820541679
 10
28.54210391343465
 20
36.51637466660169
 42
0.0297422291263465
 10
28.58421788332621
 20
36.45777129095958
 42
0.0352858695347816
 10
28.62950331975279
 20
36.40943391818327
 42
0.0411473341775661
 10
28.67774245104607
 20
36.37159499629889
 42
0.0463301388243096
 10
28.72870330161017
 20
36.34443648767224
 42
0.0990336101136683
 10
28.83779799470936
 20
36.32263112814212
 10
32.05437263563218
 20
36.32263112814212
 42
0.0990337321400171
 10
32.16346716466712
 20
36.34443648767215
 42
0.0463301560700589
 10
32.21442794974899
 20
36.37159499629878
 42
0.0411473243825718
 10
32.26266702703105
 20
36.40943391818311
 42
0.0352858430262968
 10
32.30795242117715
 20
36.45777129095941
 42
0.0297421953551336
 10
32.35006636072231
 20
36.5163746666015
 42
0.0249687855652466
 10
32.38880632530682
 20
36.5849622292346
 42
0.0210527816984472
 10
32.42398601956988
 20
36.66320415035048
 42
0.0333369481219702
 10
32.48300583356934
 20
36.84710143069955
 42
0.0252821936172441
 10
32.52599189367921
 20
37.06453340961331
 42
0.0369659417505591
 10
32.56088321290451
 20
37.58272792719785
 10
32.56088321290451
 20
46.41307221810587
 42
0.414213985204715
 10
32.05437263563218
 20
46.91958279537823
 10
28.83779799470937
 20
46.91958279537823
 42
0.4142139852046963
  0
LWPOLYLINE
  5
24C3
330
1F
100
AcDbEntity
  8
CONTINUOUS1
100
AcDbPolyline
 90
        4
 70
     1
 43
0.0
 10
25.44608656517077
 20
49.87203736436838
 10
25.44608656517077
 20
33.37092694519235
 10
35.44608406517077
 20
33.37092694519235
 10
35.44608406517078
 20
49.87203736436838
  0
LWPOLYLINE
  5
24C4
330
1F
100
AcDbEntity
  8
CONTINUOUS1
100
AcDbPolyline
 90
       22
 70
     1
 43
0.0
 10
27.06501097425623
 20
46.66632750674205
 10
27.06501097425623
 20
37.32947263856168
 42
0.0318999916583573
 10
27.09358660242251
 20
36.87636824810816
 42
0.0341706628819348
 10
27.17832734872439
 20
36.44593281291534
 42
0.0379287256411718
 10
27.31630800962142
 20
36.05302472536127
 42
0.0433845966869198
 10
27.50276556926368
 20
35.71120695460712
 42
0.0505665861790404
 10
27.73126361615597
 20
35.43227886042767
 42
0.0588443958785099
 10
27.99391452451109
 20
35.22586888585927
 42
0.0663094821963257
 10
28.28165173071528
 20
35.09910218868894
 42
0.0699873785075868
 10
28.58454270607321
 20
35.05635468496132
 10
32.30762792426835
 20
35.05635468496132
 42
0.0699873031316388
 10
32.61051928369952
 20
35.09910218868895
 42
0.0663094648052627
 10
32.89825677412227
 20
35.2258688858593
 42
0.0588444289036049
 10
33.16090785703016
 20
35.43227886042773
 42
0.0505666457308404
 10
33.389405962784
 20
35.71120695460717
 42
0.0433846632749823
 10
33.57586346356471
 20
36.05302472536132
 42
0.037928789073049
 10
33.71384394990897
 20
36.44593281291538
 42
0.0341707191797887
 10
33.79858441199229
 20
36.87636824810818
 42
0.0319000396596153
 10
33.82715965608532
 20
37.32947263856168
 10
33.82715965608532
 20
46.66632750674205
 42
0.4142139852046983
 10
32.30762792426835
 20
48.18585923855903
 10
28.58454270607321
 20
48.18585923855903
 42
0.4142139852046983
  0
LWPOLYLINE
  5
24C5
330
1F
100
AcDbEntity
  8
CONTINUOUS1
100
AcDbPolyline
 90
        4
 70
     0
 43
0.0
 10
57.35483439751622
 20
39.06674777505052
 10
57.35483374812277
 20
38.60569365166176
 10
58.12963012705729
 20
37.31251949436728
 10
58.12963012705729
 20
36.97484577618573
  0
LINE
  5
24C6
330
1F
100
AcDbEntity
  8
CONTINUOUS1
100
AcDbLine
 10
57.95241593111184
 20
37.60829890781463
 30
0.0
 11
57.95170209830448
 21
36.97484577618573
 31
0.0
  0
LINE
  5
24C7
330
1F
100
AcDbEntity
  8
CONTINUOUS1
100
AcDbLine
 10
57.95170209830448
 20
34.78373909878519
 30
0.0
 11
57.95170209830448
 21
34.28005950690664
 31
0.0
  0
LWPOLYLINE
  5
24C8
330
1F
100
AcDbEntity
  8
CONTINUOUS1
100
AcDbPolyline
 90
        5
 70
     0
 43
0.0
 10
57.35483374812275
 20
49.54693445151078
 10
61.27218639766979
 20
49.54693445151078
 10
61.27218639766979
 20
33.49450064339035
 10
61.27218639766979
 20
33.70694499987246
 10
57.35483374812275
 20
33.70860066337392
  0
LWPOLYLINE
  5
24C9
330
1F
100
AcDbEntity
  8
CONTINUOUS1
100
AcDbPolyline
 90
        4
 70
     1
 43
0.0
 10
33.78890147090297
 20
19.91773695185242
 10
34.82226604047179
 20
19.91773695185242
 10
34.82226604047179
 20
20.65502897586939
 10
33.78890147090297
 20
20.65502897586939
  0
LWPOLYLINE
  5
24CA
330
1F
100
AcDbEntity
  8
CONTINUOUS1
100
AcDbPolyline
 90
        2
 70
     1
 43
0.0
 10
33.78890147090297
 20
20.49703887734098
 10
34.82226604047179
 20
20.49703887734098
  0
LWPOLYLINE
  5
24CB
330
1F
100
AcDbEntity
  8
CONTINUOUS1
100
AcDbPolyline
 90
       10
 70
     0
 43
0.0
 10
61.27218639766979
 20
34.29835619788929
 10
61.47479062857872
 20
34.29835619788929
 10
61.47479062857872
 20
33.70494671497644
 10
61.60969668177173
 20
33.40807343681532
 10
61.60969668177173
 20
32.27459868922869
 10
61.40709245086282
 20
32.27544305439948
 10
61.60969668177173
 20
32.27459868922869
 10
61.40709245086282
 20
32.27459868922869
 10
61.40709245086282
 20
33.36419881526456
 10
61.27218639766979
 20
33.66107209342567
  0
LWPOLYLINE
  5
24CC
330
1F
100
AcDbEntity
  8
CONTINUOUS1
100
AcDbPolyline
 90
        8
 70
     0
 43
0.0
 10
61.27218639766979
 20
49.38037313168698
 10
61.40709245086282
 20
49.67724640984809
 10
61.40709245086282
 20
50.77057394311456
 10
61.60969668177173
 20
50.77057394311456
 10
61.60969668177173
 20
49.63337178829734
 10
61.47479062857872
 20
49.33649851013623
 10
61.47479062857872
 20
48.40641582376235
 10
61.27218639766979
 20
48.40641582376235
  0
LWPOLYLINE
  5
24CD
330
1F
100
AcDbEntity
  8
CONTINUOUS1
100
AcDbPolyline
 90
        4
 70
     1
 43
0.0
 10
57.60153209753932
 20
46.60170894156645
 10
57.60153209753932
 20
48.792815618967
 10
60.68549400943756
 20
48.792815618967
 10
60.68549400943756
 20
46.60170894156645
  0
LWPOLYLINE
  5
24CE
330
1F
100
AcDbEntity
  8
CONTINUOUS1
100
AcDbPolyline
 90
        4
 70
     1
 43
0.0
 10
57.6015320975393
 20
34.78373909878519
 10
57.6015320975393
 20
36.97484577618573
 10
60.68549400943756
 20
36.97484577618573
 10
60.68549400943756
 20
34.78373909878519
  0
LWPOLYLINE
  5
24CF
330
1F
100
AcDbEntity
  8
CONTINUOUS1
100
AcDbPolyline
 90
        8
 70
     0
 43
0.0
 10
33.34265587191326
 20
33.37092694519169
 10
33.34295289455275
 20
33.36840875759158
 10
33.34395172670497
 20
33.36561173043745
 10
33.34568768658543
 20
33.36243696221954
 10
33.34822215688495
 20
33.35877219468918
 42
0.0233598899743123
 10
33.35607650302584
 20
33.34943241597791
 42
0.0104757390761795
 10
33.36863548870203
 20
33.33625971682887
 42
0.0086013682881323
 10
33.51817867062404
 20
33.19294309217636
  0
LWPOLYLINE
  5
24D0
330
1F
100
AcDbEntity
  8
CONTINUOUS1
100
AcDbPolyline
 90
       18
 70
     0
 43
0.0
 10
27.22438094733845
 20
49.87203736436902
 10
27.22408366392818
 20
49.87455519904244
 10
27.22308462191375
 20
49.87735194216941
 10
27.22134849565899
 20
49.88052648521665
 10
27.21881389659017
 20
49.88419107847088
 42
0.0233536735435503
 10
27.2109593886815
 20
49.89353063824591
 42
0.0104728443264919
 10
27.198400351531
 20
49.90670326772971
 42
0.0085989616468703
 10
27.04885814862768
 20
50.05002121738437
 10
27.04885814862768
 20
50.12148002978037
 42
0.9999996859116262
 10
26.72469137917339
 20
50.12148002978037
 10
26.72469137917339
 20
50.05002121738437
 42
0.0085998472788984
 10
26.57514830086983
 20
49.90670326771319
 42
0.0104740064645785
 10
26.56258930974566
 20
49.89353063823028
 42
0.0233565560533312
 10
26.55473494648341
 20
49.88419107845796
 10
26.55220046255505
 20
49.8805264852059
 10
26.55046448506569
 20
49.87735194216148
 10
26.54946563070184
 20
49.87455519903804
 10
26.54916858046261
 20
49.87203736436902
  0
LWPOLYLINE
  5
24D1
330
1F
100
AcDbEntity
  8
CONTINUOUS1
100
AcDbPolyline
 90
       18
 70
     0
 43
0.0
 10
27.54951475842831
 20
33.37092694519169
 10
27.54921747370138
 20
33.36840875759031
 10
27.54821843062733
 20
33.36561173043517
 10
27.54648230353252
 20
33.36243696221646
 10
27.54394770381353
 20
33.35877219468548
 42
-0.0233566500030958
 10
27.53609319508806
 20
33.34943241597342
 42
-0.0104744328017334
 10
27.52353415767768
 20
33.33625971682414
 42
-0.0086003728117002
 10
27.37399195971755
 20
33.19294309217636
 10
27.37399195971755
 20
33.12148427978036
 42
-1.000000405547555
 10
27.04982519026327
 20
33.12148427978036
 10
27.04982519026327
 20
33.19294309217636
 42
-0.0086012684766962
 10
26.90028210701554
 20
33.33625971681233
 42
-0.0104756080981766
 10
26.88772311615132
 20
33.34943241596223
 42
-0.0233595650933779
 10
26.87986875370601
 20
33.35877219467623
 10
26.87733427042797
 20
33.36243696220877
 10
26.87559829377882
 20
33.36561173042949
 10
26.87459944047479
 20
33.36840875758716
 10
26.87430239155248
 20
33.37092694519169
  0
LWPOLYLINE
  5
24D2
330
1F
100
AcDbEntity
  8
CONTINUOUS1
100
AcDbPolyline
 90
       18
 70
     0
 43
0.0
 10
33.6677896830031
 20
49.87203736436907
 10
33.6680867043213
 20
49.87455519905259
 10
33.66908553541017
 20
49.8773519421877
 10
33.67082149444762
 20
49.88052648524136
 10
33.67335596409469
 20
49.88419107850059
 42
-0.0233569137154045
 10
33.68121030941591
 20
49.89353063828193
 42
-0.0104741506771241
 10
33.69376929483129
 20
49.90670326776771
 42
-0.0085999571869842
 10
33.84331248171388
 20
50.05002121738439
 10
33.84331248171388
 20
50.12148002978037
 42
-1.00000018120245
 10
34.16747925116816
 20
50.12148002978037
 10
34.16747925116816
 20
50.05002121738439
 42
-0.008598851828049
 10
34.3170213454839
 20
49.90670326776771
 42
-0.010472700214965
 10
34.32958038834366
 20
49.89353063828193
 42
-0.0233533160742207
 10
34.33743491419477
 20
49.88419107850059
 10
34.339969527546
 20
49.88052648524136
 10
34.34170567225411
 20
49.8773519421877
 10
34.34270473754536
 20
49.87455519905259
 10
34.34300204987895
 20
49.87203736436907
  0
LWPOLYLINE
  5
24D3
330
1F
100
AcDbEntity
  8
CONTINUOUS1
100
AcDbPolyline
 90
        4
 70
     1
 43
0.0
 10
46.52552659448995
 20
55.42678501829306
 42
-3.910975933075007
 10
44.79752702648997
 20
55.42678501829306
 10
44.79752702648997
 20
55.75570253606359
 42
-1.000000248473954
 10
46.52552659448995
 20
55.75570253606359
  0
CIRCLE
  5
24D4
330
1F
100
AcDbEntity
  8
CONTINUOUS1
100
AcDbCircle
 10
34.01793577353272
 20
33.1514997213965
 30
0.0
 40
0.1728521500353537
  0
LWPOLYLINE
  5
24D5
330
1F
100
AcDbEntity
  8
CONTINUOUS1
100
AcDbPolyline
 90
        5
 70
     0
 43
0.0
 10
27.70934794139078
 20
49.87203736436838
 10
27.70934794139078
 20
50.0204301527839
 42
0.4142135907736431
 10
26.88677476390052
 20
50.84336565158205
 42
0.4142135907736443
 10
26.06420158641028
 20
50.0204301527839
 10
26.06420158641028
 20
49.87203736436838
  0
LWPOLYLINE
  5
24D6
330
1F
100
AcDbEntity
  8
CONTINUOUS1
100
AcDbPolyline
 90
        5
 70
     0
 43
0.0
 10
34.82796904393127
 20
49.87203736436841
 10
34.82796904393127
 20
50.0204301527839
 42
0.4142135907736375
 10
34.00539586644102
 20
50.84336565158205
 42
0.4142135907736555
 10
33.18282268895077
 20
50.0204301527839
 10
33.18282268895077
 20
49.87203736436841
  0
LWPOLYLINE
  5
24D7
330
1F
100
AcDbEntity
  8
CONTINUOUS1
100
AcDbPolyline
 90
        5
 70
     0
 43
0.0
 10
28.03448175248066
 20
33.37092694519233
 10
28.03448175248066
 20
33.22253415677683
 42
-0.4142135907736375
 10
27.21190857499041
 20
32.39959865797868
 42
-0.4142135907736481
 10
26.38933539750015
 20
33.22253415677683
 10
26.38933539750015
 20
33.37092694519233
  0
LWPOLYLINE
  5
24D8
330
1F
100
AcDbEntity
  8
CONTINUOUS1
100
AcDbPolyline
 90
        4
 70
     0
 43
0.0
 10
34.38325749565324
 20
32.79519093534817
 42
-0.261924296144218
 10
33.68026205535118
 20
32.39959865797868
 42
-0.4142135907736481
 10
32.85768887786092
 20
33.22253415677683
 10
32.85768887786092
 20
33.37092694519233
  0
TEXT
  5
24D9
330
1F
100
AcDbEntity
  8
TEXT1
100
AcDbText
 10
33.10592202998562
 20
48.61459751649331
 30
0.0
 40
0.48
  1
ON
 41
0.8825226431901262
  7
ROMANS
 72
     1
 11
33.53961887178191
 21
48.85459751649332
 31
0.0
100
AcDbText
 73
     2
  0
TEXT
  5
24DA
330
1F
100
AcDbEntity
  8
TEXT1
100
AcDbText
 10
32.92724164353352
 20
34.14836679306744
 30
0.0
 40
0.48
  1
OFF
 41
0.8930501245289248
  7
ROMANS
 72
     1
 11
33.53961887178192
 21
34.38836679306744
 31
0.0
100
AcDbText
 73
     2
  0
LWPOLYLINE
  5
24DB
330
1F
100
AcDbEntity
  8
CONTINUOUS1
100
AcDbPolyline
 90
        4
 70
     0
 43
0.0
 10
33.50125348874831
 20
33.37092694519235
 10
33.50125348874831
 20
32.79519093534817
 10
34.53461805831715
 20
32.79519093534817
 10
34.53461805831715
 20
33.37092694519235
  0
LWPOLYLINE
  5
24DC
330
1F
100
AcDbEntity
  8
CONTINUOUS1
100
AcDbPolyline
 90
        3
 70
     0
 43
0.0
 10
58.12963012705731
 20
46.60170894156645
 10
58.12963012705731
 20
46.26403522338494
 10
57.95476137779922
 20
46.05620858906137
  0
LINE
  5
24DD
330
1F
100
AcDbEntity
  8
CONTINUOUS1
100
AcDbLine
 10
57.95509117156267
 20
45.99740303875757
 30
0.0
 11
57.95170209830448
 21
46.60170894156645
 31
0.0
  0
LINE
  5
24DE
330
1F
100
AcDbEntity
  8
CONTINUOUS1
100
AcDbLine
 10
57.94696237487828
 20
48.792815618967
 30
0.0
 11
57.94696237487828
 21
49.20638791176525
 31
0.0
  0
LWPOLYLINE
  5
24DF
330
1F
100
AcDbEntity
  8
CONTINUOUS1
100
AcDbPolyline
 90
        4
 70
     1
 43
0.0
 10
35.55378519734992
 20
46.60170894156645
 10
36.10048412566237
 20
46.60170894156645
 10
36.10048412566237
 20
48.79281561896703
 10
35.55378519734992
 20
48.79281561896703
  0
LWPOLYLINE
  5
24E0
330
1F
100
AcDbEntity
  8
CONTINUOUS1
100
AcDbPolyline
 90
        4
 70
     1
 43
0.0
 10
35.55378519734992
 20
34.78961114832753
 10
36.10048412566237
 20
34.78961114832753
 10
36.10048412566237
 20
36.98071782572809
 10
35.55378519734992
 20
36.98071782572809
  0
LWPOLYLINE
  5
24E1
330
1F
100
AcDbEntity
  8
CONTINUOUS1
100
AcDbPolyline
 90
        3
 70
     0
 43
0.0
 10
35.44608406517078
 20
49.220535661997
 10
35.72715850364913
 20
49.220535661997
 10
35.72715850364913
 20
48.79281561896703
  0
LWPOLYLINE
  5
24E2
330
1F
100
AcDbEntity
  8
CONTINUOUS1
100
AcDbPolyline
 90
        3
 70
     0
 43
0.0
 10
35.44608406517078
 20
37.31839154390961
 10
35.72715850364913
 20
37.31839154390961
 10
35.72715850364913
 20
36.9807178257281
  0
LWPOLYLINE
  5
24E3
330
1F
100
AcDbEntity
  8
CONTINUOUS1
100
AcDbPolyline
 90
        3
 70
     0
 43
0.0
 10
35.72715850364913
 20
46.60170894156645
 10
35.72715850364913
 20
46.26403522338494
 10
35.44608406517078
 20
46.26403522338494
  0
LWPOLYLINE
  5
24E4
330
1F
100
AcDbEntity
  8
CONTINUOUS1
100
AcDbPolyline
 90
        3
 70
     0
 43
0.0
 10
35.72715850364913
 20
34.78961114832753
 10
35.72715850364913
 20
34.45193743014603
 10
35.44608406517078
 20
34.45193743014603
  0
LWPOLYLINE
  5
24E5
330
1F
100
AcDbEntity
  8
CONTINUOUS1
100
AcDbPolyline
 90
        6
 70
     0
 43
0.0
 10
58.15022922667013
 20
33.70860066337392
 10
58.15022922667013
 20
33.56908748180032
 10
57.49950631457815
 20
33.56908748180032
 10
57.49950631457815
 20
32.67019096659818
 10
57.32598608174821
 20
32.67019096659818
 10
57.32598608174821
 20
33.37092694519238
  0
LWPOLYLINE
  5
24E6
330
1F
100
AcDbEntity
  8
CONTINUOUS1
100
AcDbPolyline
 90
        4
 70
     0
 43
0.0
 10
25.9716874478455
 20
16.98205683008402
 10
25.9716874478455
 20
16.71764577597823
 10
27.61683380282601
 20
16.71764577597823
 10
27.61683380282601
 20
16.98205683008402
  0
LWPOLYLINE
  5
24E7
330
1F
100
AcDbEntity
  8
CONTINUOUS1
100
AcDbPolyline
 90
        4
 70
     0
 43
0.0
 10
33.14533686001557
 20
16.98058690371856
 10
33.14533686001557
 20
16.71617584961278
 10
34.79048321499608
 20
16.71617584961278
 10
34.79048321499608
 20
16.98058690371856
  0
LWPOLYLINE
  5
24E8
330
1F
100
AcDbEntity
  8
CONTINUOUS1
100
AcDbPolyline
 90
        4
 70
     1
 43
0.0
 10
96.89982747216797
 20
47.50238378935494
 10
78.98918462847447
 20
47.50238378935494
 10
78.98898983037738
 20
43.49921575109357
 10
96.89963267407087
 20
43.49921575109358
  0
LWPOLYLINE
  5
24E9
330
1F
100
AcDbEntity
  8
CONTINUOUS1
100
AcDbPolyline
 90
        4
 70
     1
 43
0.0
 10
86.89805674050674
 20
60.2722921208496
 10
96.89982747216797
 20
60.2722921208496
 10
96.89982747216797
 20
48.98850830779295
 10
86.89805674050674
 20
48.98850830779295
  0
LWPOLYLINE
  5
24EA
330
1F
100
AcDbEntity
  8
CONTINUOUS1
100
AcDbPolyline
 90
        4
 70
     1
 43
0.0
 10
96.89982747216797
 20
6.97200134555053
 10
24.49658257571758
 20
6.97200134555052
 10
24.49658257571758
 20
13.57967565611178
 10
96.89982747216797
 20
13.57967565611178
  0
TEXT
  5
24EB
330
1F
100
AcDbEntity
  8
TEXT1
100
AcDbText
 10
92.15723980161566
 20
15.16174911440327
 30
0.0
 40
0.4800000000000005
  1
MILLIMETERS
 41
0.899560904223706
  7
ROMANS
 11
92.15723980161566
 21
15.40174911440327
 31
0.0
100
AcDbText
 73
     2
  0
TEXT
  5
24EC
330
1F
100
AcDbEntity
  8
TEXT1
100
AcDbText
 10
92.19719980213065
 20
16.00174911440327
 30
0.0
 40
0.6000000000000006
  1
INCHES
 41
0.9255744609279432
  7
ROMANS
 11
92.19719980213065
 21
16.30174911440327
 31
0.0
100
AcDbText
 73
     2
  0
TEXT
  5
24ED
330
1F
100
AcDbEntity
  8
TEXT1
100
AcDbText
 10
85.13001096937079
 20
15.68612398088887
 30
0.0
 40
0.4800000000000005
  1
DUAL DIMENSIONS:
 41
0.9397680245047359
  7
ROMANS
 11
85.13001096937079
 21
15.92612398088887
 31
0.0
100
AcDbText
 73
     2
  0
TEXT
  5
24EE
330
1F
100
AcDbEntity
  8
TEXT1
100
AcDbText
 10
2.316174854656861
 20
9.415752664782866
 30
0.0
 40
0.4800000000000005
  1
NOTES:
 41
1.017740901455128
  7
ROMANS
 11
2.316174854656861
 21
9.655752664782866
 31
0.0
100
AcDbText
 73
     2
  0
TEXT
  5
24EF
330
1F
100
AcDbEntity
  8
TEXT1
100
AcDbText
 10
2.314003541761486
 20
7.619000194697242
 30
0.0
 40
0.4800000000000005
  1
UL LISTED - FILE E-2875
 41
0.89990273320174
  7
ROMANS
 11
2.314003541761486
 21
7.859000194697243
 31
0.0
100
AcDbText
 73
     2
  0
TEXT
  5
24F0
330
1F
100
AcDbEntity
  8
TEXT1
100
AcDbText
 10
2.299906879272026
 20
1.260001700317381
 30
0.0
 40
0.4799999999999998
  1
LUGS SUITABLE FOR 60°C OR 75°C COPPER CONDUCTORS ONLY.
 41
0.9113027676363099
  7
ROMANS
 11
2.299906879272026
 21
1.500001700317381
 31
0.0
100
AcDbText
 73
     2
  0
TEXT
  5
24F1
330
1F
100
AcDbEntity
  8
TEXT1
100
AcDbText
 10
1.207819836218747
 20
1.218873517991148
 30
0.0
 40
0.9000000000000001
  1
+
 41
0.7999999999999999
  7
ROMANS
 72
     1
 11
1.653534121933032
 21
1.668873517991148
 31
0.0
100
AcDbText
 73
     2
  0
TEXT
  5
24F2
330
1F
100
AcDbEntity
  8
TEXT1
100
AcDbText
 10
1.207819836218747
 20
0.9219182917941061
 30
0.0
 40
0.8999999999999998
  1
+
 41
0.8000000000000001
  7
ROMANS
 72
     1
 11
1.653534121933032
 21
1.371918291794106
 31
0.0
100
AcDbText
 73
     2
  0
TEXT
  5
24F3
330
1F
100
AcDbEntity
  8
TEXT1
100
AcDbText
 10
2.314003541761488
 20
6.719000194697249
 30
0.0
 40
0.4800000000000005
  1
NOT SUITABLE FOR USE AS SERVICE EQUIPMENT
 41
0.8999698034768551
  7
ROMANS
 11
2.314003541761488
 21
6.959000194697249
 31
0.0
100
AcDbText
 73
     2
  0
TEXT
  5
24F4
330
1F
100
AcDbEntity
  8
TEXT1
100
AcDbText
 10
2.314003541761488
 20
5.819000194697254
 30
0.0
 40
0.4800000000000005
  1
SHORT CIRCUIT CURRENT RATINGS:
 41
0.9206288780123104
  7
ROMANS
 11
2.314003541761488
 21
6.059000194697254
 31
0.0
100
AcDbText
 73
     2
  0
TEXT
  5
24F5
330
1F
100
AcDbEntity
  8
TEXT1
100
AcDbText
 10
2.314003541761488
 20
3.167732022270174
 30
0.0
 40
0.4799999999999998
  1
WHEN MOUNTING THESE SWITCHES, ALLOW 3.75 [95] MIN CLEARANCE BETWEEN
 41
0.8999887859732734
  7
ROMANS
 11
2.314003541761488
 21
3.407732022270174
 31
0.0
100
AcDbText
 73
     2
  0
TEXT
  5
24F6
330
1F
100
AcDbEntity
  8
TEXT1
100
AcDbText
 10
3.81400354176149
 20
4.919000194697258
 30
0.0
 40
0.4800000000000005
  1
10,000 AMPERES WHEN USED WITH OR PROTECTED BY CLASS H OR K FUSES RATED 30A MAX.
 41
0.9076840553548198
  7
ROMANS
 11
3.81400354176149
 21
5.159000194697259
 31
0.0
100
AcDbText
 73
     2
  0
TEXT
  5
24F7
330
1F
100
AcDbEntity
  8
TEXT1
100
AcDbText
 10
3.81400354176149
 20
2.267732022270178
 30
0.0
 40
0.4799999999999998
  1
ENCLOSURES FOR OPENING OF SIDE HINGED DOOR.
 41
0.91425695738862
  7
ROMANS
 11
3.81400354176149
 21
2.507732022270178
 31
0.0
100
AcDbText
 73
     2
  0
TEXT
  5
24F8
330
1F
100
AcDbEntity
  8
TEXT1
100
AcDbText
 10
3.81400354176149
 20
4.019000194697264
 30
0.0
 40
0.4800000000000005
  1
200,000 AMPERES WHEN USED WITH OR PROTECTED BY CLASS R OR J FUSES RATED 30A MAX.
 41
0.9075868937364804
  7
ROMANS
 11
3.81400354176149
 21
4.259000194697264
 31
0.0
100
AcDbText
 73
     2
  0
TEXT
  5
24F9
330
1F
100
AcDbEntity
  8
TEXT1
100
AcDbText
 10
2.31400354176149
 20
8.519000194697239
 30
0.0
 40
0.4800000000000005
  1
FINISH - GRAY BAKED ENAMEL
 41
0.8999241472314512
  7
ROMANS
 11
2.31400354176149
 21
8.75900019469724
 31
0.0
100
AcDbText
 73
     2
  0
LINE
  5
24FB
330
1F
100
AcDbEntity
  8
CONTINUOUS1
100
AcDbLine
 10
24.49658257571758
 20
8.292001345550524
 30
0.0
 11
96.89982747216797
 21
8.292001345550513
 31
0.0
  0
LINE
  5
24FC
330
1F
100
AcDbEntity
  8
CONTINUOUS1
100
AcDbLine
 10
24.49658257571758
 20
8.299675656111789
 30
0.0
 11
96.89982747216797
 21
8.299675656111777
 31
0.0
  0
LINE
  5
24FD
330
1F
100
AcDbEntity
  8
CONTINUOUS1
100
AcDbLine
 10
33.02795344248052
 20
13.57967565611178
 30
0.0
 11
33.02795344248052
 21
6.972001345550522
 31
0.0
  0
LINE
  5
24FE
330
1F
100
AcDbEntity
  8
CONTINUOUS1
100
AcDbLine
 10
45.14982779560549
 20
13.57967565611178
 30
0.0
 11
45.14982779560549
 21
6.972001345550525
 31
0.0
  0
LINE
  5
24FF
330
1F
100
AcDbEntity
  8
CONTINUOUS1
100
AcDbLine
 10
39.76389061904299
 20
13.57967565611178
 30
0.0
 11
39.76389061904299
 21
6.972001345550523
 31
0.0
  0
LINE
  5
2500
330
1F
100
AcDbEntity
  8
CONTINUOUS1
100
AcDbLine
 10
71.02482714873048
 20
12.25967565611177
 30
0.0
 11
71.02482714873048
 21
6.972001345550527
 31
0.0
  0
LINE
  5
2501
330
1F
100
AcDbEntity
  8
CONTINUOUS1
100
AcDbLine
 10
48.38420247216799
 20
9.61967565611178
 30
0.0
 11
48.38420247216799
 21
6.972001345550523
 31
0.0
  0
LINE
  5
2502
330
1F
100
AcDbEntity
  8
CONTINUOUS1
100
AcDbLine
 10
51.61857714873048
 20
10.88717597954927
 30
0.0
 11
51.61857714873048
 21
6.972001345550523
 31
0.0
  0
LINE
  5
2503
330
1F
100
AcDbEntity
  8
CONTINUOUS1
100
AcDbLine
 10
54.85295279560549
 20
9.61967565611178
 30
0.0
 11
54.8529527956055
 21
6.972001345550525
 31
0.0
  0
LINE
  5
2504
330
1F
100
AcDbEntity
  8
CONTINUOUS1
100
AcDbLine
 10
61.32170214873048
 20
9.619675656111777
 30
0.0
 11
61.32170214873048
 21
6.972001345550525
 31
0.0
  0
LINE
  5
2505
330
1F
100
AcDbEntity
  8
CONTINUOUS1
100
AcDbLine
 10
64.55607682529296
 20
10.88717597954927
 30
0.0
 11
64.55607682529296
 21
6.972001345550527
 31
0.0
  0
LINE
  5
2506
330
1F
100
AcDbEntity
  8
CONTINUOUS1
100
AcDbLine
 10
67.79045247216799
 20
9.593425332674282
 30
0.0
 11
67.79045247216799
 21
6.972001345550527
 31
0.0
  0
CIRCLE
  5
2507
330
1F
100
AcDbEntity
  8
CONTINUOUS1
100
AcDbCircle
 10
58.66394619706594
 20
45.86561226950547
 30
0.0
 40
0.0951456811281837
  0
LINE
  5
2508
330
1F
100
AcDbEntity
  8
CONTINUOUS1
100
AcDbLine
 10
57.95476137779922
 20
46.05620492043573
 30
0.0
 11
57.95476137779922
 21
45.57348661756103
 31
0.0
  0
LWPOLYLINE
  5
2509
330
1F
100
AcDbEntity
  8
CONTINUOUS1
100
AcDbPolyline
 90
        2
 70
     1
 43
0.0
 10
56.24885464972043
 20
41.34992070299569
 10
56.12878277966735
 20
42.4700260931145
 42
0.4351359903812225
  0
LWPOLYLINE
  5
250A
330
1F
100
AcDbEntity
  8
CONTINUOUS1
100
AcDbPolyline
 90
        7
 70
     1
 43
0.0
 10
57.53302390251552
 20
42.78927565405374
 10
57.53302390251552
 20
45.57348661756103
 10
58.22353651647914
 20
45.57348661756103
 10
58.22353651647914
 20
45.37148730564607
 10
57.81933404201459
 20
45.37148730564607
 10
57.81933404201457
 20
43.15611573594229
 10
57.53302390251552
 20
42.78927565405374
  0
LWPOLYLINE
  5
250B
330
1F
100
AcDbEntity
  8
CONTINUOUS1
100
AcDbPolyline
 90
        6
 70
     0
 43
0.0
 10
57.53302390251552
 20
40.99221155818712
 10
57.53302390251552
 20
39.54945548618288
 10
58.22353651647914
 20
39.54945548618288
 10
58.22353651647914
 20
39.75145479809782
 10
57.81933404201457
 20
39.75145479809782
 10
57.81933404201457
 20
41.31523286345927
  0
LINE
  5
250C
330
1F
100
AcDbEntity
  8
CONTINUOUS1
100
AcDbLine
 10
57.95476137779922
 20
39.06673718330819
 30
0.0
 11
57.95476137779922
 21
39.54945548618288
 31
0.0
  0
CIRCLE
  5
250D
330
1F
100
AcDbEntity
  8
CONTINUOUS1
100
AcDbCircle
 10
58.17553417929484
 20
40.04130604107444
 30
0.0
 40
0.0951456811282263
  0
ARC
  5
250E
330
1F
100
AcDbEntity
  8
CONTINUOUS1
100
AcDbCircle
 10
60.20197872230361
 20
44.58832137303083
 30
0.0
 40
0.1282079463269766
100
AcDbArc
 50
219.4307846457568
 51
270.0000000000177
  0
LWPOLYLINE
  5
250F
330
1F
100
AcDbEntity
  8
CONTINUOUS1
100
AcDbPolyline
 90
        6
 70
     0
 43
0.0
 10
55.99798545245199
 20
40.82250153951619
 42
-0.2738947256348077
 10
57.03778335851087
 20
46.05621243735964
 10
58.82892674655844
 20
46.05620492043573
 10
60.10295218664014
 20
44.50689009592122
 10
60.20197872230361
 20
44.46011342670385
 10
60.37275683512904
 20
44.46011342670385
  0
LWPOLYLINE
  5
2510
330
1F
100
AcDbEntity
  8
CONTINUOUS1
100
AcDbPolyline
 90
       10
 70
     0
 43
0.0
 10
56.48329945704978
 20
39.80791420702037
 42
0.0442823932100091
 10
57.03776400991331
 20
39.06674997035432
 10
58.88461258596611
 20
39.06673718330819
 10
59.01282053229309
 20
39.19494512963517
 10
59.01282053229309
 20
41.07522492135439
 10
59.03161768066489
 20
41.14205720989959
 42
0.1379522218096826
 10
59.01282053229356
 20
41.07522527626639
 10
59.0316170993041
 20
41.14205715961571
 10
60.70098969099753
 20
43.87499287293884
 42
0.5856297888894826
 10
60.37275736749702
 20
44.46011342670348
  0
CIRCLE
  5
2511
330
1F
100
AcDbEntity
  8
CONTINUOUS1
100
AcDbCircle
 10
60.39543041043697
 20
44.11196090221449
 30
0.0
 40
0.2282960437860737
  0
LINE
  5
2512
330
1F
100
AcDbEntity
  8
CONTINUOUS1
100
AcDbLine
 10
60.23863722039691
 20
44.99041226261939
 30
0.0
 11
60.59502197711989
 21
44.64512774988939
 31
0.0
  0
CIRCLE
  5
2513
330
1F
100
AcDbEntity
  8
CONTINUOUS1
100
AcDbCircle
 10
60.41682959875839
 20
44.81777000625439
 30
0.0
 40
0.2481092998114462
  0
LINE
  5
2514
330
1F
100
AcDbEntity
  8
CONTINUOUS1
100
AcDbLine
 10
60.58947185512339
 20
44.99596238461591
 30
0.0
 11
60.24418734239339
 21
44.63957762789291
 31
0.0
  0
CIRCLE
  5
2515
330
1F
100
AcDbEntity
  8
CONTINUOUS1
100
AcDbCircle
 10
60.14855062483078
 20
41.00988886982668
 30
0.0
 40
0.2282960437860844
  0
LINE
  5
2516
330
1F
100
AcDbEntity
  8
CONTINUOUS1
100
AcDbLine
 10
55.22700141926935
 20
39.08461578142349
 30
0.0
 11
54.39015225536806
 21
38.07864366928388
 31
0.0
  0
LWPOLYLINE
  5
2517
330
1F
100
AcDbEntity
  8
CONTINUOUS1
100
AcDbPolyline
 90
        8
 70
     1
 43
0.0
 10
54.86729178009323
 20
39.38385132260492
 42
0.4142135623730696
 10
54.62346310922749
 20
39.36147416684845
 10
54.00806562704062
 20
38.62170774273558
 42
0.4142135623731181
 10
54.03044278279705
 20
38.37787907186981
 10
54.74986222260152
 20
37.77940785519779
 42
0.4142135623730998
 10
54.9936908934673
 20
37.80178501095426
 10
55.60908837565416
 20
38.54155143506714
 42
0.4142135623731458
 10
55.58671121989771
 20
38.7853801059329
  0
LWPOLYLINE
  5
2518
330
1F
100
AcDbEntity
  8
CONTINUOUS1
100
AcDbPolyline
 90
        6
 70
     1
 43
0.0
 10
54.8720683062433
 20
39.37987782222625
 10
58.16018586676783
 20
43.59283834563796
 42
-0.4326401784403055
 10
58.72316544423289
 20
43.64445292292454
 10
59.08294671766658
 20
43.32556050620448
 42
-0.4142135623731057
 10
59.11593131756836
 20
42.77808175691208
 10
55.58111980793073
 20
38.7900314941741
  0
CIRCLE
  5
2519
330
1F
100
AcDbEntity
  8
CONTINUOUS1
100
AcDbCircle
 10
55.48422886822355
 20
39.39382642429545
 30
0.0
 40
0.1340606390768357
  0
LWPOLYLINE
  5
251A
330
1F
100
AcDbEntity
  8
CONTINUOUS1
100
AcDbPolyline
 90
        4
 70
     1
 43
0.0
 10
58.49842845627832
 20
43.17479927694806
 10
58.64442781931713
 20
43.06464044530499
 10
58.53186893491879
 20
42.91545767895889
 10
58.38586828980054
 20
43.02561779268144
  0
LINE
  5
251B
330
1F
100
AcDbEntity
  8
CONTINUOUS1
100
AcDbLine
 10
35.66204707247328
 20
39.00516413218038
 30
0.0
 11
36.5079183785054
 21
39.00516413218038
 31
0.0
  0
LINE
  5
251C
330
1F
100
AcDbEntity
  8
CONTINUOUS1
100
AcDbLine
 10
35.71881615161434
 20
37.8824416572546
 30
0.0
 11
36.45114929936434
 21
37.8824416572546
 31
0.0
  0
LINE
  5
251D
330
1F
100
AcDbEntity
  8
CONTINUOUS1
100
AcDbLine
 10
36.23133450863567
 20
43.06094516004999
 30
0.0
 11
36.23133450863567
 21
39.72297150223443
 31
0.0
  0
LINE
  5
251E
330
1F
100
AcDbEntity
  8
CONTINUOUS1
100
AcDbLine
 10
35.44608406517078
 20
44.27315309753524
 30
0.0
 11
35.61545441930755
 21
44.27315309753524
 31
0.0
  0
LINE
  5
251F
330
1F
100
AcDbEntity
  8
CONTINUOUS1
100
AcDbLine
 10
36.12767591724682
 20
43.0148991525561
 30
0.0
 11
36.12767591724682
 21
39.72297150223443
 31
0.0
  0
LINE
  5
2520
330
1F
100
AcDbEntity
  8
CONTINUOUS1
100
AcDbLine
 10
35.44608406517078
 20
43.32882759089108
 30
0.0
 11
36.04913438953855
 21
42.93532710494981
 31
0.0
  0
LINE
  5
2521
330
1F
100
AcDbEntity
  8
CONTINUOUS1
100
AcDbLine
 10
36.04913438953855
 20
42.93532710494981
 30
0.0
 11
36.04913438953855
 21
39.72297150223443
 31
0.0
  0
LWPOLYLINE
  5
2522
330
1F
100
AcDbEntity
  8
CONTINUOUS1
100
AcDbPolyline
 90
        3
 70
     0
 43
0.0
 10
35.51179582791871
 20
44.27315309753524
 10
35.51179582791871
 20
43.38586651574577
 10
36.12767591724682
 20
43.0148991525561
  0
LWPOLYLINE
  5
2523
330
1F
100
AcDbEntity
  8
CONTINUOUS1
100
AcDbPolyline
 90
        8
 70
     1
 43
0.0
 10
36.39248264736434
 20
39.73368627969331
 10
35.77748280361435
 20
39.73368627969331
 10
35.6138816658054
 20
38.7011892263634
 42
0.0787348233226795
 10
35.6138816658054
 20
38.54468978609675
 10
35.77748280361435
 20
37.51219273276685
 10
36.39248264736434
 20
37.51219273276685
 10
36.55608378517328
 20
38.54468978609673
 42
0.0803414507572884
 10
36.55608378517329
 20
38.7011892263634
  0
LWPOLYLINE
  5
2524
330
1F
100
AcDbEntity
  8
CONTINUOUS1
100
AcDbPolyline
 90
        5
 70
     0
 43
0.0
 10
35.44608406517078
 20
46.05620858906137
 10
36.23133450863567
 20
46.05620858906137
 10
36.23133450863567
 20
43.06094516004999
 10
36.23133450863567
 20
45.41346015863988
 10
35.44608406517078
 20
45.41346015863988
  0
LWPOLYLINE
  5
2525
330
1F
100
AcDbEntity
  8
CONTINUOUS1
100
AcDbPolyline
 90
        3
 70
     0
 43
0.0
 10
35.61545441930755
 20
44.27315309753524
 10
35.61545441930755
 20
43.44281366859905
 10
36.23133450863567
 20
43.06094516004999
  0
LINE
  5
2526
330
1F
100
AcDbEntity
  8
CONTINUOUS1
100
AcDbLine
 10
35.28497816372726
 20
17.40907186084094
 30
0.0
 11
35.28497816372726
 21
19.322580864831
 31
0.0
  0
LINE
  5
2527
330
1F
100
AcDbEntity
  8
CONTINUOUS1
100
AcDbLine
 10
35.06282880903462
 20
17.40907186084094
 30
0.0
 11
35.28497816372726
 21
17.40907186084094
 31
0.0
  0
LINE
  5
2528
330
1F
100
AcDbEntity
  8
CONTINUOUS1
100
AcDbLine
 10
35.28497816372726
 20
19.322580864831
 30
0.0
 11
36.20604048919264
 21
19.97584436470795
 31
0.0
  0
LINE
  5
2529
330
1F
100
AcDbEntity
  8
CONTINUOUS1
100
AcDbLine
 10
35.17476098289005
 20
19.51545982054934
 30
0.0
 11
36.06164340864242
 21
20.14919194916171
 31
0.0
  0
ARC
  5
252A
330
1F
100
AcDbEntity
  8
CONTINUOUS1
100
AcDbCircle
 10
35.28497757168114
 20
19.32257996326606
 30
0.0
 40
0.222149354692663
100
AcDbArc
 50
119.744775485339
 51
179.9998413908092
  0
LINE
  5
252B
330
1F
100
AcDbEntity
  8
CONTINUOUS1
100
AcDbLine
 10
35.06282880903462
 20
20.43332763829424
 30
0.0
 11
35.06282880903462
 21
17.40907186084094
 31
0.0
  0
LINE
  5
252C
330
1F
100
AcDbEntity
  8
CONTINUOUS1
100
AcDbLine
 10
35.65152459897012
 20
20.43332763829424
 30
0.0
 11
35.06282880903462
 21
20.43332763829424
 31
0.0
  0
ARC
  5
252D
330
1F
100
AcDbEntity
  8
CONTINUOUS1
100
AcDbCircle
 10
35.95142622780521
 20
20.34207312637361
 30
0.0
 40
0.2221493546926421
100
AcDbArc
 50
299.7446168761707
 51
0.0
  0
ARC
  5
252E
330
1F
100
AcDbEntity
  8
CONTINUOUS1
100
AcDbCircle
 10
36.09582330835543
 20
20.1687233204263
 30
0.0
 40
0.2221493546926448
100
AcDbArc
 50
299.744616876172
 51
0.0
  0
LINE
  5
252F
330
1F
100
AcDbEntity
  8
CONTINUOUS1
100
AcDbLine
 10
36.31797266304806
 20
20.1687233204263
 30
0.0
 11
36.31797266304806
 21
23.21174408011642
 31
0.0
  0
LINE
  5
2530
330
1F
100
AcDbEntity
  8
CONTINUOUS1
100
AcDbLine
 10
36.17357558249786
 20
20.34207312637361
 30
0.0
 11
36.17357558249786
 21
23.21174408011642
 31
0.0
  0
LINE
  5
2531
330
1F
100
AcDbEntity
  8
CONTINUOUS1
100
AcDbLine
 10
35.87367395366278
 20
20.6554769929869
 30
0.0
 11
35.87367395366278
 21
23.21174408011642
 31
0.0
  0
ARC
  5
2532
330
1F
100
AcDbEntity
  8
CONTINUOUS1
100
AcDbCircle
 10
35.65152459897012
 20
20.6554769929869
 30
0.0
 40
0.2221493546926683
100
AcDbArc
 50
269.9997620862376
 51
0.0
  0
LINE
  5
2533
330
1F
100
AcDbEntity
  8
CONTINUOUS1
100
AcDbLine
 10
35.06282880903462
 20
20.6554769929869
 30
0.0
 11
35.59924174834321
 21
20.6554769929869
 31
0.0
  0
LWPOLYLINE
  5
2534
330
1F
100
AcDbEntity
  8
CONTINUOUS1
100
AcDbPolyline
 90
        9
 70
     0
 43
0.0
 10
35.59924063150901
 20
20.65547704954205
 42
0.0576702872494549
 10
35.6269496297715
 20
20.66512579592892
 42
0.0544338182264314
 10
35.65254214715736
 20
20.68117965255966
 42
0.0494990692169045
 10
35.67533079630123
 20
20.70320743019066
 42
0.0441641020110647
 10
35.69470349870927
 20
20.73061748651484
 42
0.0393184142254729
 10
35.71013992452616
 20
20.76267361703471
 42
0.0353660916581525
 10
35.72122546803287
 20
20.79851482871978
 42
0.0323994423413018
 10
35.72766238350825
 20
20.83717846534907
 42
0.0303744192199883
 10
35.72927778235746
 20
20.87762606341716
  0
LINE
  5
2535
330
1F
100
AcDbEntity
  8
CONTINUOUS1
100
AcDbLine
 10
35.72927687311256
 20
20.87762634767956
 30
0.0
 11
35.72927687311256
 21
23.21174408011642
 31
0.0
  0
LWPOLYLINE
  5
2536
330
1F
100
AcDbEntity
  8
CONTINUOUS1
100
AcDbPolyline
 90
        4
 70
     1
 43
0.0
 10
36.56534009327649
 20
23.21174408011642
 10
36.56534009327649
 20
26.42454357846208
 10
35.44788293262884
 20
26.42454357846208
 10
35.44788293262884
 20
23.21174408011642
  0
TEXT
  5
25EC
330
1F
100
AcDbEntity
  8
DIM
100
AcDbText
 10
43.46270718984968
 20
47.57576617235911
 30
0.0
 40
0.5999999999999979
  1
(4 HOLES)
  7
ROMANS
 11
43.46270718984968
 21
47.8757661723591
 31
0.0
100
AcDbText
 73
     2
  0
TEXT
  5
25EF
330
1F
100
AcDbEntity
  8
TEXT2
100
AcDbText
 10
88.36414061637489
 20
58.43916020033241
 30
0.0
 40
0.6000000000000086
  1
WIRING DIAGRAMS
 41
0.8997676519904356
  7
ROMANS
 72
     1
 11
91.89894210633736
 21
58.73916020033242
 31
0.0
100
AcDbText
 73
     2
  0
LWPOLYLINE
  5
25F0
330
1F
100
AcDbEntity
  8
CONTINUOUS1
100
AcDbPolyline
 90
        3
 70
     0
 43
0.0
 10
56.73641978901365
 20
48.04225476556145
 10
55.60949352283085
 20
47.01341832475205
 10
55.60949352283085
 20
40.3247173145089
  0
LWPOLYLINE
  5
25F1
330
1F
100
AcDbEntity
  8
CONTINUOUS1
100
AcDbPolyline
 90
        3
 70
     0
 43
0.0
 10
55.60908837565104
 20
38.54155143506341
 10
55.60908837565104
 20
36.3226311281421
 10
56.73581426718698
 20
35.09697156912244
  0
LINE
  5
25F3
330
1F
100
AcDbEntity
  8
CENTER1
100
AcDbLine
 10
45.44730250005409
 20
53.84770217315452
 30
0.0
 11
45.83647698333449
 21
53.8477021731545
 31
0.0
  0
LINE
  5
25F4
330
1F
100
AcDbEntity
  8
CENTER1
100
AcDbLine
 10
45.66152681048993
 20
53.65071706392729
 30
0.0
 11
45.66152681048993
 21
54.01557303703288
 31
0.0
  0
LINE
  5
25F5
330
1F
100
AcDbEntity
  8
CENTER1
100
AcDbLine
 10
45.44730250005409
 20
55.75570253606359
 30
0.0
 11
45.83647698333449
 21
55.75570253606355
 31
0.0
  0
LINE
  5
25F6
330
1F
100
AcDbEntity
  8
CENTER1
100
AcDbLine
 10
45.66152681048993
 20
55.55871742683635
 30
0.0
 11
45.66152681048993
 21
55.92357339994194
 31
0.0
  0
LWPOLYLINE
  5
25F7
330
1F
100
AcDbEntity
  8
CONTINUOUS1
100
AcDbPolyline
 90
        8
 70
     0
 43
0.0
 10
58.12419560567511
 20
48.792815618967
 10
58.12343340053377
 20
49.13686706700982
 10
57.35483374812277
 20
49.43965726679396
 10
57.35483374812277
 20
49.74703739561838
 10
56.73641978901365
 20
49.74703739561838
 10
57.35483374812277
 20
49.74703739561838
 10
56.73641978901365
 20
49.74703739561838
 10
56.73641978901366
 20
45.68756380574174
  0
LWPOLYLINE
  5
25F8
330
1F
100
AcDbEntity
  8
CONTINUOUS1
100
AcDbPolyline
 90
        6
 70
     0
 43
0.0
 10
56.73429128679084
 20
39.43823890149633
 10
56.73641978901365
 20
33.37092694519238
 10
57.35483374812277
 20
33.37092694519238
 10
57.35483374812271
 20
33.72318461401579
 10
58.12963012705729
 20
34.44606538060362
 10
58.12963012705729
 20
34.78373909878519
  0
LINE
  5
25F9
330
1F
100
AcDbEntity
  8
HIDDEN1
100
AcDbLine
 10
90.143406
 20
53.70487199999999
 30
0.0
 11
93.42720599999999
 21
53.70487199999999
 31
0.0
  0
LWPOLYLINE
  5
25FA
330
1F
100
AcDbEntity
  8
CONTINUOUS1
100
AcDbPolyline
 90
        3
 70
     0
 43
0.0
 10
89.93034009118654
 20
52.40259860024867
 10
89.93034009118654
 20
53.03578660950879
 10
90.30615948815919
 20
54.21755846009474
  0
LWPOLYLINE
  5
25FB
330
1F
100
AcDbEntity
  8
CONTINUOUS1
100
AcDbPolyline
 90
        3
 70
     0
 43
0.0
 10
92.11964749475098
 20
52.40259516702113
 10
92.11964749475098
 20
53.03578317628126
 10
92.49546689172362
 20
54.2175550268672
  0
LWPOLYLINE
  5
25FC
330
1F
100
AcDbEntity
  8
CONTINUOUS1
100
AcDbPolyline
 90
        3
 70
     0
 43
0.0
 10
93.21431607385253
 20
52.40259516702113
 10
93.21431607385253
 20
53.03578317628126
 10
93.59013547082518
 20
54.2175550268672
  0
LINE
  5
25FD
330
1F
100
AcDbEntity
  8
CONTINUOUS1
100
AcDbLine
 10
89.93033780236817
 20
54.19255540833693
 30
0.0
 11
89.93033780236817
 21
54.82574341759705
 31
0.0
  0
LINE
  5
25FE
330
1F
100
AcDbEntity
  8
CONTINUOUS1
100
AcDbLine
 10
92.1196452059326
 20
54.19255197510938
 30
0.0
 11
92.1196452059326
 21
54.82573998436951
 31
0.0
  0
LINE
  5
25FF
330
1F
100
AcDbEntity
  8
CONTINUOUS1
100
AcDbLine
 10
93.21431378503419
 20
54.19255197510938
 30
0.0
 11
93.21431378503419
 21
54.82573998436951
 31
0.0
  0
LWPOLYLINE
  5
2600
330
1F
100
AcDbEntity
  8
CONTINUOUS1
100
AcDbPolyline
 90
        3
 70
     0
 43
0.0
 10
91.02500867028808
 20
52.40259860024867
 10
91.02500867028808
 20
53.03578660950879
 10
91.40082806726073
 20
54.21755846009474
  0
LINE
  5
2601
330
1F
100
AcDbEntity
  8
CONTINUOUS1
100
AcDbLine
 10
91.02500638146972
 20
54.19255540833693
 30
0.0
 11
91.02500638146972
 21
54.82574341759705
 31
0.0
  0
CIRCLE
  5
2602
330
1F
100
AcDbEntity
  8
CONTINUOUS1
100
AcDbCircle
 10
89.9446234621582
 20
55.05437663064026
 30
0.0
 40
0.2290790828122502
  0
CIRCLE
  5
2603
330
1F
100
AcDbEntity
  8
CONTINUOUS1
100
AcDbCircle
 10
92.13393086572265
 20
55.05437319741273
 30
0.0
 40
0.2290790828122509
  0
CIRCLE
  5
2604
330
1F
100
AcDbEntity
  8
CONTINUOUS1
100
AcDbCircle
 10
91.03929204125975
 20
55.05437663064026
 30
0.0
 40
0.2290790828122502
  0
CIRCLE
  5
2605
330
1F
100
AcDbEntity
  8
CONTINUOUS1
100
AcDbCircle
 10
93.22859944482422
 20
55.05437319741273
 30
0.0
 40
0.2290790828122509
  0
CIRCLE
  5
2606
330
1F
100
AcDbEntity
  8
CONTINUOUS1
100
AcDbCircle
 10
92.11964749475098
 20
52.17351608421235
 30
0.0
 40
0.2290790828122502
  0
CIRCLE
  5
2607
330
1F
100
AcDbEntity
  8
CONTINUOUS1
100
AcDbCircle
 10
91.02500867028807
 20
52.17351951743989
 30
0.0
 40
0.2290790828122502
  0
CIRCLE
  5
2608
330
1F
100
AcDbEntity
  8
CONTINUOUS1
100
AcDbCircle
 10
93.21431607385253
 20
52.17351608421235
 30
0.0
 40
0.2290790828122502
  0
CIRCLE
  5
2609
330
1F
100
AcDbEntity
  8
CONTINUOUS1
100
AcDbCircle
 10
89.93034009118652
 20
52.17351951743989
 30
0.0
 40
0.2290790828122502
  0
DIMENSION
  5
28DB
330
1F
100
AcDbEntity
  8
DIM
100
AcDbDimension
  2
*D10
 10
61.60969668177173
 20
29.88450412481872
 30
0.0
 11
58.60939252871139
 21
29.88450412481872
 31
0.0
 70
    32
  3
SCHNEIDERELECTRIC_DUAL_BEL
100
AcDbAlignedDimension
 13
55.60908837565104
 23
36.3226311281421
 33
0.0
 14
61.60969668177173
 24
32.27459868922869
 34
0.0
100
AcDbRotatedDimension
1001
ACAD
1000
DSTYLE
1002
{
1070
    40
1040
6.0
1002
}
  0
DIMENSION
  5
28E9
330
1F
100
AcDbEntity
  8
DIM
100
AcDbDimension
  2
*D11
 10
25.44608656517077
 20
29.88450412481872
 30
0.0
 11
31.00401794233287
 21
29.88450412481872
 31
0.0
 70
    32
  3
SCHNEIDERELECTRIC_DUAL_BEL
100
AcDbAlignedDimension
 13
36.56194931949497
 23
38.16557227496316
 33
0.0
 14
25.44608656517077
 24
33.37092694519235
 34
0.0
100
AcDbRotatedDimension
1001
ACAD
1000
DSTYLE
1002
{
1070
    40
1040
6.0
1002
}
  0
DIMENSION
  5
28F7
330
1F
100
AcDbEntity
  8
DIM
100
AcDbDimension
  2
*D12
 10
16.01012260037515
 20
50.12147997887185
 30
0.0
 11
16.01012260037514
 21
41.62148212932611
 31
0.0
 70
    32
  3
SCHNEIDERELECTRIC_DUAL_BEL
100
AcDbAlignedDimension
 13
27.14940857499039
 23
33.12148427978036
 33
0.0
 14
26.88677476390054
 24
50.12147997887185
 34
0.0
 50
90.0
100
AcDbRotatedDimension
1001
ACAD
1000
DSTYLE
1002
{
1070
    40
1040
6.0
1002
}
  0
DIMENSION
  5
2905
330
1F
100
AcDbEntity
  8
DIM
100
AcDbDimension
  2
*D13
 10
21.2983559134564
 20
33.37092694519235
 30
0.0
 11
21.2983559134564
 21
41.62148215478037
 31
0.0
 70
    32
  3
SCHNEIDERELECTRIC_DUAL_BEL
100
AcDbAlignedDimension
 13
25.44608656517077
 23
49.87203736436838
 33
0.0
 14
25.38358656517077
 24
33.37092694519235
 34
0.0
 50
90.0
100
AcDbRotatedDimension
1001
ACAD
1000
DSTYLE
1002
{
1070
    40
1040
6.0
1002
}
  0
DIMENSION
  5
2913
330
1F
100
AcDbEntity
  8
DIM
100
AcDbDimension
  2
*D14
 10
35.44608406517078
 20
56.66739407701884
 30
0.0
 11
30.44608531517078
 21
56.66739407701884
 31
0.0
 70
    32
  3
SCHNEIDERELECTRIC_DUAL_BEL
100
AcDbAlignedDimension
 13
25.44608656517077
 23
49.87203736436838
 33
0.0
 14
35.44608406517078
 24
49.87203736436838
 34
0.0
100
AcDbRotatedDimension
1001
ACAD
1000
DSTYLE
1002
{
1070
    40
1040
6.0
1002
}
  0
DIMENSION
  5
2921
330
1F
100
AcDbEntity
  8
DIM
100
AcDbDimension
  2
*D15
 10
34.00539586644102
 20
53.46985765515582
 30
0.0
 11
30.44608531517078
 21
53.46985765515582
 31
0.0
 70
    32
  1
<>
  3
SCHNEIDERELECTRIC_DUAL_BEL
100
AcDbAlignedDimension
 13
26.88677476390054
 23
50.12147997887185
 33
0.0
 14
34.00539586644102
 24
50.12148005915026
 34
0.0
100
AcDbRotatedDimension
1001
ACAD
1000
DSTYLE
1002
{
1070
    40
1040
6.0
1002
}
  0
LEADER
  5
299D
330
1F
100
AcDbEntity
  8
DIM
100
AcDbLeader
  3
SCHNEIDERELECTRIC_DUAL_BEL
 73
     0
 74
     0
 75
     1
 40
0.1
 76
     3
 10
34.6050024489065
 20
50.58379815996483
 30
0.0
 10
42.11972765480324
 20
54.80883795608407
 30
0.0
 10
42.53972765480324
 20
54.80883795608407
 30
0.0
340
299E
213
2.016146718269745
223
-0.05
233
0.0
1001
ACAD
1000
DSTYLE
1002
{
1070
     5
1000
SEARROW
1070
    40
1040
6.0
1070
   342
1005
E0D
1002
}
  0
MTEXT
  5
299E
102
{ACAD_REACTORS
330
299D
102
}
330
1F
100
AcDbEntity
  8
0
100
AcDbMText
 10
40.76358093653349
 20
54.85883795608407
 30
0.0
 40
0.1
 41
0.0
 71
     1
 72
     1
  1

  7
ROMANS
1001
ACAD
1000
MTEXTBEGIN
1070
    73
1070
     1
1070
    44
1040
1.0
1070
    74
1070
     0
1000
MTEXTEND
  0
LEADER
  5
29D9
330
1F
100
AcDbEntity
  8
DIM
100
AcDbLeader
  3
SCHNEIDERELECTRIC_DUAL_BEL
 73
     0
 74
     0
 75
     1
 40
1.914285714285714
 41
1.828571428571429
 76
     3
 10
46.24272839992924
 20
56.39499928968063
 30
0.0
 10
47.34405081730873
 20
57.61089108352514
 30
0.0
 10
47.76405081730874
 20
57.61089108352514
 30
0.0
340
29DA
213
0.0
223
-0.4612405157036676
233
0.0
1001
ACAD
1000
DSTYLE
1002
{
1070
     5
1000
SEARROW
1070
    40
1040
6.0
1070
   279
1070
     1
1070
   342
1005
E0D
1002
}
  0
MTEXT
  5
29DA
102
{ACAD_REACTORS
330
29D9
102
}
330
1F
100
AcDbEntity
  8
DIM
100
AcDbMText
 10
48.00405081730874
 20
58.07213159922881
 30
0.0
 40
0.6
 41
0.0
 71
     1
 72
     1
  1
.16R\P[4]
  7
ROMANS
1001
ACAD
1000
MTEXTBEGIN
1070
    73
1070
     1
1070
    44
1040
1.0
1070
    74
1070
     0
1000
MTEXTEND
  0
LEADER
  5
29DB
330
1F
100
AcDbEntity
  8
DIM
100
AcDbLeader
  3
SCHNEIDERELECTRIC_DUAL_BEL
 73
     0
 74
     0
 75
     1
 40
1.914285714285714
 41
1.828571428571428
 76
     3
 10
46.89385522228373
 20
52.53569419145304
 30
0.0
 10
48.26253470924875
 20
50.82209297517742
 30
0.0
 10
48.68253470924876
 20
50.82209297517742
 30
0.0
340
29DC
213
0.0
223
-0.4804467795959681
233
0.0
1001
ACAD
1000
DSTYLE
1002
{
1070
     5
1000
SEARROW
1070
    40
1040
6.0
1070
   279
1070
     1
1070
   342
1005
E0D
1002
}
  0
MTEXT
  5
29DC
102
{ACAD_REACTORS
330
29DB
102
}
330
1F
100
AcDbEntity
  8
DIM
100
AcDbMText
 10
48.92253470924876
 20
51.30253975477339
 30
0.0
 40
0.6
 41
0.0
 71
     1
 72
     1
  1
.25R\P[6]
  7
ROMANS
1001
ACAD
1000
MTEXTBEGIN
1070
    73
1070
     1
1070
    44
1040
1.0
1070
    74
1070
     0
1000
MTEXTEND
  0
DIMENSION
  5
2A36
330
1F
100
AcDbEntity
  8
DIM
100
AcDbDimension
  2
*D16
 10
43.0168605382334
 20
55.75570253606359
 30
0.0
 11
42.65284736391857
 21
56.9466375874603
 31
0.0
 70
   160
  1
.25\P[6]
  3
SCHNEIDERELECTRIC_DUAL_BEL
100
AcDbAlignedDimension
 13
45.44730250005409
 23
53.84770217315452
 33
0.0
 14
45.44730250005409
 24
55.75570253606359
 34
0.0
 50
90.0
100
AcDbRotatedDimension
1001
ACAD
1000
DSTYLE
1002
{
1070
   287
1070
     4
1070
   287
1070
     4
1070
   287
1070
     4
1070
   287
1070
     4
1070
    40
1040
6.0
1070
   279
1070
     1
1002
}
  0
VIEWPORT
  5
32
330
1B
100
AcDbEntity
 67
     1
  8
0
100
AcDbViewport
 10
8.200199104933593
 20
5.04967518871251
 30
0.0
 40
17.20847320761809
 41
10.48641336089227
 68
     1
 69
     1
1001
ACAD
1000
MVIEW
1002
{
1070
    16
1010
0.0
1020
0.0
1030
0.0
1010
0.0
1020
0.0
1030
1.0
1040
0.0
1040
10.48641336089227
1040
8.200199104933593
1040
5.04967518871251
1040
50.0
1040
0.0
1040
0.0
1070
     0
1070
   100
1070
     1
1070
     0
1070
     0
1070
     0
1070
     0
1070
     0
1040
0.0
1040
0.0
1040
0.0
1040
0.5
1040
0.5
1040
0.5
1040
0.5
1070
     0
1002
{
1002
}
1002
}
  0
LWPOLYLINE
  5
175
330
1B
100
AcDbEntity
 67
     1
  8
VIEWPORT
100
AcDbPolyline
 90
        6
 70
     1
 43
0.0
 10
16.40000099999999
 20
10.25
 10
16.40000099999999
 20
0.9120019999999993
 10
8.002461
 20
0.9120019999999993
 10
8.002461
 20
0.0
 10
0.0
 20
0.0
 10
0.0
 20
10.25
1001
GENIUS_GENOREF_13
1005
0
1005
0
1005
0
1005
0
1005
0
1005
0
1005
0
1005
0
  0
VIEWPORT
  5
177
330
1B
100
AcDbEntity
 67
     1
  8
VIEWPORT
100
AcDbViewport
 10
8.200000499999999
 20
5.125
 30
0.0
 40
16.40000099999999
 41
10.25
 68
     2
 69
     2
1001
ACAD
1000
MVIEW
1002
{
1070
    16
1010
0.0
1020
0.0
1030
0.0
1010
0.0
1020
0.0
1030
1.0
1040
0.0
1040
61.5
1040
49.20000322910539
1040
30.75000014319084
1040
50.0
1040
0.0
1040
0.0
1070
     0
1070
   100
1070
     1
1070
     2
1070
     0
1070
     0
1070
     0
1070
     0
1040
0.0
1040
0.0
1040
0.0
1040
0.5
1040
0.5
1040
0.5
1040
0.5
1070
     0
1002
{
1002
}
1002
}
1001
GENIUS_GENOREF_13
1005
0
1005
0
1005
0
1005
0
1005
0
1005
0
1005
0
1005
0
1001
GENIUS_GENSCREG_15
1000
PF
1040
0.0
1000
DF
1040
0.0
1000
MIN
1011
0.0
1021
0.0
1031
0.0
1000
MAX
1011
16.40000099999999
1021
10.25
1031
0.0
1000
FLAGS
1070
     2
  0
INSERT
  5
B2C
330
1B
100
AcDbEntity
 67
     1
  8
TITLEBLOCK
100
AcDbBlockReference
 66
     1
  2
TITLE-PAD
 10
0.0
 20
0.0
 30
0.0
  0
ATTRIB
  5
B2D
330
B2C
100
AcDbEntity
 67
     1
  8
TEXT1
 62
     0
100
AcDbText
 10
10.10183834893798
 20
0.7474460884590166
 30
0.0
 40
0.1
  1

  7
ROMANS
 72
     4
 11
10.10183834893798
 21
0.7474460884590166
 31
0.0
100
AcDbAttribute
  2
DESCRIPTION 1
 70
     0
  0
ATTRIB
  5
B2E
330
B2C
100
AcDbEntity
 67
     1
  8
TEXT1
 62
     0
100
AcDbText
 10
8.923266920366559
 20
0.5517231711406715
 30
0.0
 40
0.1
  1
HEAVY DUTY SAFETY SWITCHES
  7
ROMANS
 72
     4
 11
10.10183834893798
 21
0.6017231711406717
 31
0.0
100
AcDbAttribute
  2
DESCRIPTION 2
 70
     0
  0
ATTRIB
  5
B2F
330
B2C
100
AcDbEntity
 67
     1
  8
TEXT1
 62
     0
100
AcDbText
 10
9.488505015604655
 20
0.4160002538223267
 30
0.0
 40
0.08
  1
VISIBLE BLADE TYPE
  7
ROMANS
 72
     4
 11
10.10183834893798
 21
0.4560002538223267
 31
0.0
100
AcDbAttribute
  2
DESCRIPTION 3
 70
     0
  0
ATTRIB
  5
B30
330
B2C
100
AcDbEntity
 67
     1
  8
TEXT1
 62
     0
100
AcDbText
 10
9.406600253699894
 20
0.2802773365039832
 30
0.0
 40
0.08
  1
30 AMPERE SERIES E1
  7
ROMANS
 72
     4
 11
10.10183834893798
 21
0.3202773365039833
 31
0.0
100
AcDbAttribute
  2
DESCRIPTION 4
 70
     0
  0
ATTRIB
  5
B31
330
B2C
100
AcDbEntity
 67
     1
  8
TEXT1
 62
     0
100
AcDbText
 10
9.046600253699892
 20
0.1502687048999255
 30
0.0
 40
0.08
  1
ENCLOSURE - NEMA TYPE 12/3R
  7
ROMANS
 72
     4
 11
10.10183834893798
 21
0.1845544191856399
 31
0.0
100
AcDbAttribute
  2
DESCRIPTION 5
 70
     0
  0
ATTRIB
  5
B32
330
B2C
100
AcDbEntity
 67
     1
  8
TEXT1
 62
     0
100
AcDbText
 10
12.74772367103195
 20
0.096540546036505
 30
0.0
 40
0.12
  1
3263
 41
0.9512024731840066
  7
M_STANDARD
 11
12.74772367103195
 21
0.156540546036505
 31
0.0
100
AcDbAttribute
  2
DWGNO
 70
     0
 74
     2
  0
ATTRIB
  5
B33
330
B2C
100
AcDbEntity
 67
     1
  8
TEXT1
 62
     0
100
AcDbText
 10
16.35506454949325
 20
-0.1507193079929352
 30
0.0
 40
0.08
  1

  7
ROMANS
 72
     2
 11
16.35506454949325
 21
-0.1107193079929352
 31
0.0
100
AcDbAttribute
  2
REF
 70
     0
 74
     2
  0
ATTRIB
  5
B34
330
B2C
100
AcDbEntity
 67
     1
  8
TEXT1
 62
     0
100
AcDbText
 10
0.0266402374038712
 20
-0.1507193079929352
 30
0.0
 40
0.08
  1
JULY 2002
  7
ROMANS
 11
0.0266402374038712
 21
-0.1107193079929352
 31
0.0
100
AcDbAttribute
  2
DATE
 70
     0
 74
     2
  0
SEQEND
  5
B35
330
B2C
100
AcDbEntity
 67
     1
  8
0
  0
INSERT
  5
1F67
330
1B
100
AcDbEntity
 67
     1
  8
0
100
AcDbBlockReference
  2
SETUP
 10
0.0
 20
0.0
 30
0.0
  0
ENDSEC
  0
SECTION
  2
OBJECTS
  0
DICTIONARY
  5
C
330
0
100
AcDbDictionary
  3
ACAD_GROUP
350
D
  3
ACAD_LAYOUT
350
1A
  3
ACAD_MLINESTYLE
350
17
  3
ACAD_PLOTSETTINGS
350
19
  3
ACAD_PLOTSTYLENAME
350
E
  3
ACDBHEADERROUNDTRIPXREC
350
2BDB
  3
ACDBVARIABLEDICTIONARY
350
374
  3
ACMDICTIONARY
350
383
  3
AMG
350
36B
  3
AMGSNAPSETTINGS
350
399
  3
ASE_INDEX_DICTIONARY
350
6A
  3
DWGPROPS
350
D65
  0
DICTIONARY
  5
73
330
1F
100
AcDbDictionary
280
     1
  3
ACAD_INDEX
360
2A7A
  3
ACAD_LAYOUTSELFREF
360
2BFD
  0
DICTIONARY
  5
75
330
1B
100
AcDbDictionary
280
     1
  3
ACAD_LAYOUTSELFREF
360
2BFC
  0
DICTIONARY
  5
D
102
{ACAD_REACTORS
330
C
102
}
330
C
100
AcDbDictionary
  0
DICTIONARY
  5
1A
102
{ACAD_REACTORS
330
C
102
}
330
C
100
AcDbDictionary
  0
DICTIONARY
  5
17
102
{ACAD_REACTORS
330
C
102
}
330
C
100
AcDbDictionary
  3
STANDARD
350
18
  0
DICTIONARY
  5
19
102
{ACAD_REACTORS
330
C
102
}
330
C
100
AcDbDictionary
  3
A_SIZE_PAPER
350
2FF
  3
B_SIZE_PAPER
350
2FD
  3
D_SIZE_PAPER
350
2FE
  0
ACDBDICTIONARYWDFLT
  5
E
102
{ACAD_REACTORS
330
C
102
}
330
C
100
AcDbDictionary
281
     1
  3
Normal
350
F
100
AcDbDictionaryWithDefault
340
F
  0
DICTIONARY
  5
2BDB
102
{ACAD_REACTORS
330
C
102
}
330
C
100
AcDbDictionary
  3
CEPSNTYPE
350
2BE5
  3
DIMSTYLEDATA
350
2BE9
  3
FINGERPRINTGUID
350
2BE6
  3
HYPERLINKBASE
350
2BDE
  3
INSUNITS
350
2BE4
  3
LAYOUTDICT
350
2BE0
  3
LWETCUNION
350
2BE3
  3
PLOTSETDICT
350
2BE1
  3
PLOTSTYLNAMDICT
350
2BE2
  3
PSVPSCALE
350
2BE8
  3
PUCSBASE
350
2BEC
  3
PUCSORGBACK
350
2BF2
  3
PUCSORGBOTTOM
350
2BEE
  3
PUCSORGFRONT
350
2BF1
  3
PUCSORGLEFT
350
2BEF
  3
PUCSORGRIGHT
350
2BF0
  3
PUCSORGTOP
350
2BED
  3
PUCSORTHOREF
350
2BEA
  3
PUCSORTHOVIEW
350
2BEB
  3
STYLESHEET
350
2BDF
  3
TSTACKALIGN
350
2BDC
  3
TSTACKSIZE
350
2BDD
  3
UCSBASE
350
2BF5
  3
UCSORGBACK
350
2BFB
  3
UCSORGBOTTOM
350
2BF7
  3
UCSORGFRONT
350
2BFA
  3
UCSORGLEFT
350
2BF8
  3
UCSORGRIGHT
350
2BF9
  3
UCSORGTOP
350
2BF6
  3
UCSORTHOREF
350
2BF3
  3
UCSORTHOVIEW
350
2BF4
  3
VERSIONGUID
350
2BE7
  0
DICTIONARY
  5
374
102
{ACAD_REACTORS
330
C
102
}
330
C
100
AcDbDictionary
  3
DIMASSOC
350
1EEC
  3
INDEXCTL
350
375
  0
DICTIONARY
  5
383
102
{ACAD_REACTORS
330
C
102
}
330
C
100
AcDbDictionary
  0
DICTIONARY
  5
36B
102
{ACAD_REACTORS
330
C
102
}
330
C
100
AcDbDictionary
  3
ACMGSETTINGS
350
36C
  0
DICTIONARY
  5
399
102
{ACAD_REACTORS
330
C
102
}
330
C
100
AcDbDictionary
  0
DICTIONARY
  5
6A
102
{ACAD_REACTORS
330
C
102
}
330
C
100
AcDbDictionary
  3
ASEBLOCKHIERARCHYINDEXRECORD
350
6C
1001
DCO15
1040
1379130883.246999
  0
XRECORD
  5
D65
102
{ACAD_REACTORS
330
C
102
}
330
C
100
AcDbXrecord
  1
DWGPROPS COOKIE
  2

  3

  4

  6

  7

  8
mgp706
  9

300
AmdtFileType=84
301
=
302
=
303
=
304
=
305
=
306
=
307
=
308
=
309
=
 40
0.2109203356481482
 41
2451764.535041909
 42
2451851.599312743
  1

 90
        1
  0
DICTIONARY
  5
2A7A
102
{ACAD_REACTORS
330
73
102
}
330
73
100
AcDbDictionary
  3
*A1
350
2A7B
  0
XRECORD
  5
2BFD
102
{ACAD_REACTORS
330
73
102
}
330
73
100
AcDbXrecord
340
1F
  0
XRECORD
  5
2BFC
102
{ACAD_REACTORS
330
75
102
}
330
75
100
AcDbXrecord
340
1B
  0
MLINESTYLE
  5
18
102
{ACAD_REACTORS
330
17
102
}
330
17
100
AcDbMlineStyle
  2
STANDARD
 70
     0
  3

 62
   256
 51
90.0
 52
90.0
 71
     2
 49
0.5
 62
   256
  6
BYLAYER
 49
-0.5
 62
   256
  6
BYLAYER
  0
PLOTSETTINGS
  5
2FF
102
{ACAD_REACTORS
330
19
102
}
330
19
100
AcDbPlotSettings
  1
A Size Paper
  2
none_device
  4
ANSI_A_(8.50_x_11.00_Inches)
  6

 40
6.349999904632568
 41
19.04999923706054
 42
6.350006103515625
 43
19.04998779296875
 44
215.8999938964843
 45
279.3999938964843
 46
19.04999999999999
 47
-9.651999999999999
 48
0.0
 49
0.0
140
0.0
141
0.0
142
1.0
143
1.6
 70
   740
 72
     0
 73
     1
 74
     1
  7
monochrome.ctb
 75
     0
147
0.625
148
0.0034886547032954
149
0.0199946439100934
  0
PLOTSETTINGS
  5
2FD
102
{ACAD_REACTORS
330
19
102
}
330
19
100
AcDbPlotSettings
  1
B Size Paper
  2
none_device
  4
ANSI_B_(11.00_x_17.00_Inches)
  6

 40
6.349999904632568
 41
19.04999923706054
 42
6.350006103515625
 43
19.04998779296875
 44
279.3999938964843
 45
431.7999877929687
 46
1.27
 47
-11.43
 48
0.0
 49
0.0
140
0.0
141
0.0
142
1.0
143
1.0
 70
   756
 72
     0
 73
     1
 74
     1
  7
monochrome.ctb
 75
    16
147
1.0
148
0.0034886547032954
149
0.0199946439100934
  0
PLOTSETTINGS
  5
2FE
102
{ACAD_REACTORS
330
19
102
}
330
19
100
AcDbPlotSettings
  1
D Size Paper
  2
none_device
  4
ANSI_D_(22.00_x_34.00_Inches)
  6

 40
6.349999904632568
 41
19.04999923706054
 42
6.3499755859375
 43
19.04998779296875
 44
558.7999877929687
 45
863.5999755859375
 46
8.889999999999998
 47
-3.809999999999999
 48
0.0
 49
0.0
140
0.0
141
0.0
142
1.0
143
0.5
 70
   740
 72
     0
 73
     1
 74
     1
  7
monochrome.ctb
 75
     0
147
2.0
148
0.0034886547032954
149
0.0199946439100934
  0
ACDBPLACEHOLDER
  5
F
102
{ACAD_REACTORS
330
E
102
}
330
E
100
AcDbPlaceHolder
280
     0
  0
XRECORD
  5
2BE5
102
{ACAD_REACTORS
330
2BDB
102
}
330
2BDB
100
AcDbXrecord
 90
        0
  0
XRECORD
  5
2BE9
102
{ACAD_REACTORS
330
2BDB
102
}
330
2BDB
100
AcDbXrecord
1000
DSTYLE
1002
{
1070
    79
 70
     1
1070
   148
 40
0.1
1070
   341
340
E0D
1070
   342
340
E0D
1070
   371
 70
    -1
1070
   372
 70
    -1
1002
}
  0
XRECORD
  5
2BE6
102
{ACAD_REACTORS
330
2BDB
102
}
330
2BDB
100
AcDbXrecord
  1
{4E694E3A-6C64-11D4-81E3-0004AC4461C9}
  0
XRECORD
  5
2BDE
102
{ACAD_REACTORS
330
2BDB
102
}
330
2BDB
100
AcDbXrecord
  1

  0
XRECORD
  5
2BE4
102
{ACAD_REACTORS
330
2BDB
102
}
330
2BDB
100
AcDbXrecord
 90
        1
  0
XRECORD
  5
2BE0
102
{ACAD_REACTORS
330
2BDB
102
}
330
2BDB
100
AcDbXrecord
340
1A
  0
XRECORD
  5
2BE3
102
{ACAD_REACTORS
330
2BDB
102
}
330
2BDB
100
AcDbXrecord
 90
    10269
  0
XRECORD
  5
2BE1
102
{ACAD_REACTORS
330
2BDB
102
}
330
2BDB
100
AcDbXrecord
340
19
  0
XRECORD
  5
2BE2
102
{ACAD_REACTORS
330
2BDB
102
}
330
2BDB
100
AcDbXrecord
340
E
  0
XRECORD
  5
2BE8
102
{ACAD_REACTORS
330
2BDB
102
}
330
2BDB
100
AcDbXrecord
 40
1.0
  0
XRECORD
  5
2BEC
102
{ACAD_REACTORS
330
2BDB
102
}
330
2BDB
100
AcDbXrecord
340
0
  0
XRECORD
  5
2BF2
102
{ACAD_REACTORS
330
2BDB
102
}
330
2BDB
100
AcDbXrecord
 10
0.0
 20
0.0
 30
0.0
  0
XRECORD
  5
2BEE
102
{ACAD_REACTORS
330
2BDB
102
}
330
2BDB
100
AcDbXrecord
 10
0.0
 20
0.0
 30
0.0
  0
XRECORD
  5
2BF1
102
{ACAD_REACTORS
330
2BDB
102
}
330
2BDB
100
AcDbXrecord
 10
0.0
 20
0.0
 30
0.0
  0
XRECORD
  5
2BEF
102
{ACAD_REACTORS
330
2BDB
102
}
330
2BDB
100
AcDbXrecord
 10
0.0
 20
0.0
 30
0.0
  0
XRECORD
  5
2BF0
102
{ACAD_REACTORS
330
2BDB
102
}
330
2BDB
100
AcDbXrecord
 10
0.0
 20
0.0
 30
0.0
  0
XRECORD
  5
2BED
102
{ACAD_REACTORS
330
2BDB
102
}
330
2BDB
100
AcDbXrecord
 10
0.0
 20
0.0
 30
0.0
  0
XRECORD
  5
2BEA
102
{ACAD_REACTORS
330
2BDB
102
}
330
2BDB
100
AcDbXrecord
340
0
  0
XRECORD
  5
2BEB
102
{ACAD_REACTORS
330
2BDB
102
}
330
2BDB
100
AcDbXrecord
 70
     0
  0
XRECORD
  5
2BDF
102
{ACAD_REACTORS
330
2BDB
102
}
330
2BDB
100
AcDbXrecord
  1

  0
XRECORD
  5
2BDC
102
{ACAD_REACTORS
330
2BDB
102
}
330
2BDB
100
AcDbXrecord
 90
        1
  0
XRECORD
  5
2BDD
102
{ACAD_REACTORS
330
2BDB
102
}
330
2BDB
100
AcDbXrecord
 90
       70
  0
XRECORD
  5
2BF5
102
{ACAD_REACTORS
330
2BDB
102
}
330
2BDB
100
AcDbXrecord
340
0
  0
XRECORD
  5
2BFB
102
{ACAD_REACTORS
330
2BDB
102
}
330
2BDB
100
AcDbXrecord
 10
0.0
 20
0.0
 30
0.0
  0
XRECORD
  5
2BF7
102
{ACAD_REACTORS
330
2BDB
102
}
330
2BDB
100
AcDbXrecord
 10
0.0
 20
0.0
 30
0.0
  0
XRECORD
  5
2BFA
102
{ACAD_REACTORS
330
2BDB
102
}
330
2BDB
100
AcDbXrecord
 10
0.0
 20
0.0
 30
0.0
  0
XRECORD
  5
2BF8
102
{ACAD_REACTORS
330
2BDB
102
}
330
2BDB
100
AcDbXrecord
 10
0.0
 20
0.0
 30
0.0
  0
XRECORD
  5
2BF9
102
{ACAD_REACTORS
330
2BDB
102
}
330
2BDB
100
AcDbXrecord
 10
0.0
 20
0.0
 30
0.0
  0
XRECORD
  5
2BF6
102
{ACAD_REACTORS
330
2BDB
102
}
330
2BDB
100
AcDbXrecord
 10
0.0
 20
0.0
 30
0.0
  0
XRECORD
  5
2BF3
102
{ACAD_REACTORS
330
2BDB
102
}
330
2BDB
100
AcDbXrecord
340
0
  0
XRECORD
  5
2BF4
102
{ACAD_REACTORS
330
2BDB
102
}
330
2BDB
100
AcDbXrecord
 70
     0
  0
XRECORD
  5
2BE7
102
{ACAD_REACTORS
330
2BDB
102
}
330
2BDB
100
AcDbXrecord
  1
{85ED5989-AEB9-11D6-B121-000347A366B5}
  0
DICTIONARYVAR
  5
1EEC
102
{ACAD_REACTORS
330
374
102
}
330
374
100
DictionaryVariables
280
     0
  1
1
  0
DICTIONARYVAR
  5
375
102
{ACAD_REACTORS
330
374
102
}
330
374
100
DictionaryVariables
280
     0
  1
1
  0
DICTIONARY
  5
36C
102
{ACAD_REACTORS
330
36B
102
}
330
36B
100
AcDbDictionary
  3
DWGSETTINGS
350
D51
  0
XRECORD
  5
6C
102
{ACAD_REACTORS
330
6A
102
}
330
6A
100
AcDbXrecord
  0
LAYER_INDEX
  5
2A7B
102
{ACAD_REACTORS
330
2A7A
102
}
330
2A7A
100
AcDbIndex
 40
2452500.360007037
100
AcDbLayerIndex
  8
0
360
2A7C
 90
       28
  8
CONTINUOUS2
360
2A7D
 90
        0
  8
CONTINUOUS3
360
2A7E
 90
        0
  8
TEXT1
360
2A7F
 90
       94
  8
TITLEBLOCK
360
2A80
 90
        0
  8
VIEWPORT
360
2A81
 90
        2
  8
CENTER1
360
2A82
 90
        4
  8
CONTINUOUS1
360
2A83
 90
      164
  8
DIM
360
2A84
 90
       13
  8
HIDDEN1
360
2A85
 90
        1
  8
TEXT2
360
2A86
 90
        1
  8
Defpoints
360
2A87
 90
        0
  0
XRECORD
  5
D51
102
{ACAD_REACTORS
330
36C
102
}
330
36C
100
AcDbXrecord
  1
VERSION
140
15.0
  1
PRODUCT
  2
AutoCAD Mechanical 2000
  0
IDBUFFER
  5
2A7C
330
0
100
AcDbIdBuffer
330
194E
330
1950
330
1952
330
1954
330
1956
330
1958
330
195A
330
195C
330
195E
330
1960
330
1962
330
299E
330
E46
330
1530
330
1531
330
1532
330
1533
330
18F0
330
1936
330
193C
330
193E
330
1940
330
1942
330
1944
330
1946
330
1948
330
194A
330
194C
  0
IDBUFFER
  5
2A7D
330
0
100
AcDbIdBuffer
  0
IDBUFFER
  5
2A7E
330
0
100
AcDbIdBuffer
  0
IDBUFFER
  5
2A7F
330
0
100
AcDbIdBuffer
330
2496
330
2497
330
2498
330
2499
330
249A
330
249B
330
249C
330
249D
330
249E
330
249F
330
24A0
330
24A1
330
24A2
330
24A3
330
24A4
330
24A5
330
24A6
330
24A7
330
24A8
330
24A9
330
24AA
330
24AB
330
24AC
330
24AD
330
24AE
330
24AF
330
24B0
330
24B1
330
24B2
330
24D9
330
24DA
330
24EB
330
24EC
330
24ED
330
24EE
330
24EF
330
24F0
330
24F1
330
24F2
330
24F3
330
24F4
330
24F5
330
24F6
330
24F7
330
24F8
330
24F9
330
2446
330
2448
330
2449
330
244B
330
244C
330
244D
330
244E
330
2450
330
2451
330
246F
330
2470
330
2471
330
2472
330
2473
330
2474
330
2475
330
2476
330
2477
330
2478
330
2479
330
247A
330
247B
330
247C
330
247D
330
247E
330
247F
330
2480
330
2481
330
2482
330
2483
330
2484
330
2485
330
2486
330
2487
330
2488
330
2489
330
248A
330
248B
330
248C
330
248D
330
248E
330
248F
330
2490
330
2491
330
2492
330
2493
330
2494
330
2495
  0
IDBUFFER
  5
2A80
330
0
100
AcDbIdBuffer
  0
IDBUFFER
  5
2A81
330
0
100
AcDbIdBuffer
330
1C30
330
1C31
  0
IDBUFFER
  5
2A82
330
0
100
AcDbIdBuffer
330
25F3
330
25F4
330
25F5
330
25F6
  0
IDBUFFER
  5
2A83
330
0
100
AcDbIdBuffer
330
2517
330
2518
330
2519
330
251A
330
251B
330
251C
330
251D
330
251E
330
251F
330
2520
330
2521
330
2522
330
2523
330
2524
330
2525
330
2526
330
2527
330
2528
330
2529
330
252A
330
252B
330
252C
330
252D
330
252E
330
252F
330
2530
330
2531
330
2532
330
2533
330
2534
330
2535
330
2536
330
25F0
330
25F1
330
25F7
330
25F8
330
25FA
330
25FB
330
25FC
330
25FD
330
25FE
330
25FF
330
2600
330
2601
330
2602
330
2603
330
2604
330
2605
330
2606
330
2607
330
2608
330
2609
330
2447
330
2452
330
2453
330
2454
330
2455
330
2456
330
2457
330
2458
330
2459
330
245A
330
245B
330
245C
330
245D
330
245E
330
245F
330
2460
330
2461
330
2462
330
2463
330
2464
330
2465
330
2466
330
2467
330
2468
330
2469
330
246A
330
246B
330
246C
330
246D
330
246E
330
24B3
330
24B4
330
24B5
330
24B6
330
24B7
330
24B8
330
24B9
330
24BA
330
24BB
330
24BC
330
24BD
330
24BE
330
24BF
330
24C0
330
24C1
330
24C2
330
24C3
330
24C4
330
24C5
330
24C6
330
24C7
330
24C8
330
24C9
330
24CA
330
24CB
330
24CC
330
24CD
330
24CE
330
24CF
330
24D0
330
24D1
330
24D2
330
24D3
330
24D4
330
24D5
330
24D6
330
24D7
330
24D8
330
24DB
330
24DC
330
24DD
330
24DE
330
24DF
330
24E0
330
24E1
330
24E2
330
24E3
330
24E4
330
24E5
330
24E6
330
24E7
330
24E8
330
24E9
330
24EA
330
24FB
330
24FC
330
24FD
330
24FE
330
24FF
330
2500
330
2501
330
2502
330
2503
330
2504
330
2505
330
2506
330
2507
330
2508
330
2509
330
250A
330
250B
330
250C
330
250D
330
250E
330
250F
330
2510
330
2511
330
2512
330
2513
330
2514
330
2515
330
2516
  0
IDBUFFER
  5
2A84
330
0
100
AcDbIdBuffer
330
25EC
330
28DB
330
28E9
330
28F7
330
2905
330
2913
330
2921
330
299D
330
29D9
330
29DA
330
29DB
330
29DC
330
2A36
  0
IDBUFFER
  5
2A85
330
0
100
AcDbIdBuffer
330
25F9
  0
IDBUFFER
  5
2A86
330
0
100
AcDbIdBuffer
330
25EF
  0
IDBUFFER
  5
2A87
330
0
100
AcDbIdBuffer
  0
ENDSEC
  0
EOF
