  0
SECTION
  2
HEADER
  9
$ACADVER
  1
AC1009
  9
$INSBASE
 10
402.590624
 20
-1.041018
 30
0.0
  9
$EXTMIN
 10
-58.202671
 20
32.332779
 30
0.0
  9
$EXTMAX
 10
-14.702671
 20
133.512011
 30
0.0
  9
$LIMMIN
 10
-407.970438
 20
-367.832444
  9
$LIMMAX
 10
429.804077
 20
234.370848
  9
$ORTHOMODE
 70
     0
  9
$REGENMODE
 70
     1
  9
$FILLMODE
 70
     1
  9
$QTEXTMODE
 70
     0
  9
$MIRRTEXT
 70
     1
  9
$DRAGMODE
 70
     2
  9
$LTSCALE
 40
10.0
  9
$OSMODE
 70
    37
  9
$ATTMODE
 70
     1
  9
$TEXTSIZE
 40
6.0
  9
$TRACEWID
 40
1.0
  9
$TEXTSTYLE
  7
ROMANS
  9
$CLAYER
  8
ALPHA
  9
$CELTYPE
  6
BYLAYER
  9
$CECOLOR
 62
   256
  9
$DIMSCALE
 40
1.0
  9
$DIMASZ
 40
5.0
  9
$DIMEXO
 40
2.0
  9
$DIMDLI
 40
0.38
  9
$DIMRND
 40
0.0
  9
$DIMDLE
 40
0.0
  9
$DIMEXE
 40
2.5
  9
$DIMTP
 40
0.0
  9
$DIMTM
 40
0.0
  9
$DIMTXT
 40
2.5
  9
$DIMCEN
 40
0.0
  9
$DIMTSZ
 40
0.0
  9
$DIMTOL
 70
     0
  9
$DIMLIM
 70
     0
  9
$DIMTIH
 70
     1
  9
$DIMTOH
 70
     1
  9
$DIMSE1
 70
     0
  9
$DIMSE2
 70
     0
  9
$DIMTAD
 70
     1
  9
$DIMZIN
 70
    12
  9
$DIMBLK
  1
OPEN30
  9
$DIMASO
 70
     1
  9
$DIMSHO
 70
     1
  9
$DIMPOST
  1

  9
$DIMAPOST
  1

  9
$DIMALT
 70
     0
  9
$DIMALTD
 70
     2
  9
$DIMALTF
 40
25.4
  9
$DIMLFAC
 40
1.0
  9
$DIMTOFL
 70
     0
  9
$DIMTVP
 40
0.0
  9
$DIMTIX
 70
     0
  9
$DIMSOXD
 70
     0
  9
$DIMSAH
 70
     0
  9
$DIMBLK1
  1

  9
$DIMBLK2
  1

  9
$DIMSTYLE
  2
SC_DEFAUT
  9
$DIMCLRD
 70
     0
  9
$DIMCLRE
 70
     0
  9
$DIMCLRT
 70
     0
  9
$DIMTFAC
 40
1.0
  9
$DIMGAP
 40
2.0
  9
$LUNITS
 70
     2
  9
$LUPREC
 70
     1
  9
$SKETCHINC
 40
0.1
  9
$FILLETRAD
 40
5.0
  9
$AUNITS
 70
     0
  9
$AUPREC
 70
     0
  9
$MENU
  1
acad
  9
$ELEVATION
 40
0.0
  9
$PELEVATION
 40
0.0
  9
$THICKNESS
 40
0.0
  9
$LIMCHECK
 70
     0
  9
$BLIPMODE
 70
     0
  9
$CHAMFERA
 40
0.0
  9
$CHAMFERB
 40
0.0
  9
$SKPOLY
 70
     0
  9
$TDCREATE
 40
2450373.687919
  9
$TDUPDATE
 40
2452850.379642
  9
$TDINDWG
 40
1.562592
  9
$TDUSRTIMER
 40
1.562592
  9
$USRTIMER
 70
     1
  9
$ANGBASE
 50
0.0
  9
$ANGDIR
 70
     0
  9
$PDMODE
 70
    32
  9
$PDSIZE
 40
0.0
  9
$PLINEWID
 40
0.0
  9
$COORDS
 70
     1
  9
$SPLFRAME
 70
     0
  9
$SPLINETYPE
 70
     6
  9
$SPLINESEGS
 70
     8
  9
$ATTDIA
 70
     0
  9
$ATTREQ
 70
     1
  9
$HANDLING
 70
     1
  9
$HANDSEED
  5
10566
  9
$SURFTAB1
 70
     6
  9
$SURFTAB2
 70
     6
  9
$SURFTYPE
 70
     6
  9
$SURFU
 70
     6
  9
$SURFV
 70
     6
  9
$UCSNAME
  2

  9
$UCSORG
 10
0.0
 20
0.0
 30
0.0
  9
$UCSXDIR
 10
1.0
 20
0.0
 30
0.0
  9
$UCSYDIR
 10
0.0
 20
1.0
 30
0.0
  9
$PUCSNAME
  2

  9
$PUCSORG
 10
0.0
 20
0.0
 30
0.0
  9
$PUCSXDIR
 10
1.0
 20
0.0
 30
0.0
  9
$PUCSYDIR
 10
0.0
 20
1.0
 30
0.0
  9
$USERI1
 70
     0
  9
$USERI2
 70
     0
  9
$USERI3
 70
     0
  9
$USERI4
 70
     0
  9
$USERI5
 70
     0
  9
$USERR1
 40
0.0
  9
$USERR2
 40
0.0
  9
$USERR3
 40
0.0
  9
$USERR4
 40
0.0
  9
$USERR5
 40
0.0
  9
$WORLDVIEW
 70
     1
  9
$SHADEDGE
 70
     3
  9
$SHADEDIF
 70
    70
  9
$TILEMODE
 70
     1
  9
$MAXACTVP
 70
    16
  9
$PLIMCHECK
 70
     0
  9
$PEXTMIN
 10
-1.452248
 20
-0.437698
 30
0.0
  9
$PEXTMAX
 10
12.749749
 20
8.310198
 30
0.0
  9
$PLIMMIN
 10
0.0
 20
0.0
  9
$PLIMMAX
 10
12.0
 20
9.0
  9
$UNITMODE
 70
     0
  9
$VISRETAIN
 70
     0
  9
$PLINEGEN
 70
     0
  9
$PSLTSCALE
 70
     0
  0
ENDSEC
  0
SECTION
  2
TABLES
  0
TABLE
  2
VPORT
 70
     2
  0
VPORT
  2
*ACTIVE
 70
     0
 10
0.0
 20
0.0
 11
1.0
 21
1.0
 12
-36.445767
 22
82.933298
 13
0.0
 23
0.0
 14
1.0
 24
1.0
 15
10.0
 25
10.0
 16
0.0
 26
0.0
 36
1.0
 17
0.0
 27
0.0
 37
0.0
 40
102.081981
 41
1.56
 42
50.0
 43
0.0
 44
0.0
 50
0.0
 51
0.0
 71
     0
 72
   100
 73
     1
 74
     0
 75
     0
 76
     0
 77
     0
 78
     0
  0
ENDTAB
  0
TABLE
  2
LTYPE
 70
     2
  0
LTYPE
  2
CONTINUOUS
 70
     0
  3
Solid line
 72
    65
 73
     0
 40
0.0
  0
LTYPE
  2
AXES2
 70
     0
  3
___ _ ___ _ ___ _ ___ _ ___ _ ___ _ ___ _ ___ _
 72
    65
 73
     4
 40
1.125
 49
0.75
 49
-0.125
 49
0.125
 49
-0.125
  0
ENDTAB
  0
TABLE
  2
LAYER
 70
     5
  0
LAYER
  2
0
 70
     0
 62
   255
  6
CONTINUOUS
  0
LAYER
  2
COTATION1
 70
     0
 62
     2
  6
CONTINUOUS
  0
LAYER
  2
AXE
 70
     0
 62
    80
  6
AXES2
  0
LAYER
  2
DEFPOINTS
 70
     0
 62
     7
  6
CONTINUOUS
  0
LAYER
  2
ALPHA
 70
     0
 62
   254
  6
CONTINUOUS
  0
ENDTAB
  0
TABLE
  2
STYLE
 70
     2
  0
STYLE
  2
ROMANS
 70
     0
 40
0.0
 41
1.0
 50
0.0
 71
     0
 42
6.0
  3
romans
  4

  0
STYLE
  2
STANDARD
 70
     0
 40
0.2
 41
1.0
 50
0.0
 71
     0
 42
0.2
  3
txt
  4

  0
ENDTAB
  0
TABLE
  2
VIEW
 70
     0
  0
ENDTAB
  0
TABLE
  2
UCS
 70
     0
  0
ENDTAB
  0
TABLE
  2
APPID
 70
     1
  0
APPID
  2
ACAD
 70
     0
  0
ENDTAB
  0
TABLE
  2
DIMSTYLE
 70
     1
  0
DIMSTYLE
  2
SC_DEFAUT
 70
     0
  3

  4

  5
OPEN30
  6

  7

 40
1.0
 41
5.0
 42
2.0
 43
0.38
 44
2.5
 45
0.0
 46
0.0
 47
0.0
 48
0.0
140
2.5
141
0.0
142
0.0
143
25.4
144
1.0
145
0.0
146
1.0
147
2.0
 71
     0
 72
     0
 73
     1
 74
     1
 75
     0
 76
     0
 77
     1
 78
    12
170
     0
171
     2
172
     0
173
     0
174
     0
175
     0
176
     0
177
     0
178
     0
  0
ENDTAB
  0
ENDSEC
  0
SECTION
  2
BLOCKS
  0
BLOCK
  8
0
  2
$MODEL_SPACE
 70
     0
 10
0.0
 20
0.0
 30
0.0
  3
$MODEL_SPACE
  1

  0
ENDBLK
  5
1055F
  8
0
  0
BLOCK
 67
     1
  8
0
  2
$PAPER_SPACE
 70
     0
 10
0.0
 20
0.0
 30
0.0
  3
$PAPER_SPACE
  1

  0
ENDBLK
  5
1055D
 67
     1
  8
0
  0
BLOCK
  8
0
  2
COTE
 70
     0
 10
0.0
 20
0.0
 30
0.0
  3
COTE
  1

  0
ENDBLK
  5
F
  8
0
  0
BLOCK
  8
0
  2
FOND
 70
     0
 10
0.0
 20
0.0
 30
0.0
  3
FOND
  1

  0
ENDBLK
  5
75
  8
0
  0
BLOCK
  8
0
  2
_OPEN30
 70
     0
 10
0.0
 20
0.0
 30
0.0
  3
_OPEN30
  1

  0
LINE
  5
4B05
  8
COTATION1
 62
     0
 10
-1.0
 20
0.267949
 30
0.0
 11
0.0
 21
0.0
 31
0.0
1001
ACAD
1000
RTLwPs
1070
   158
  0
LINE
  5
4B06
  8
COTATION1
 62
     0
 10
0.0
 20
0.0
 30
0.0
 11
-1.0
 21
-0.267949
 31
0.0
1001
ACAD
1000
RTLwPs
1070
   158
  0
LINE
  5
4B07
  8
COTATION1
 62
     0
 10
0.0
 20
0.0
 30
0.0
 11
-1.0
 21
0.0
 31
0.0
1001
ACAD
1000
RTLwPs
1070
   158
  0
ENDBLK
  5
4B09
  8
0
  0
BLOCK
  8
0
  2
*D3
 70
     1
 10
0.0
 20
0.0
 30
0.0
  3
*D3
  1

  0
LINE
  5
10391
  8
COTATION1
 62
     0
 10
-43.202671
 20
126.832779
 30
0.0
 11
-14.702671
 21
126.832779
 31
0.0
1001
ACAD
1000
RTLwPs
1070
   158
  0
LINE
  5
10392
  8
COTATION1
 62
     0
 10
-35.202671
 20
66.832779
 30
0.0
 11
-14.702671
 21
66.832779
 31
0.0
1001
ACAD
1000
RTLwPs
1070
   158
  0
LINE
  5
10393
  8
COTATION1
 62
     0
 10
-17.202671
 20
121.832779
 30
0.0
 11
-17.202671
 21
100.082779
 31
0.0
1001
ACAD
1000
RTLwPs
1070
   158
  0
LINE
  5
10394
  8
COTATION1
 62
     0
 10
-17.202671
 20
71.832779
 30
0.0
 11
-17.202671
 21
93.582779
 31
0.0
1001
ACAD
1000
RTLwPs
1070
   158
  0
INSERT
  5
10395
  8
COTATION1
 62
     0
  2
_OPEN30
 10
-17.202671
 20
126.832779
 30
0.0
 41
5.0
 42
5.0
 43
5.0
 50
90.0
1001
ACAD
1000
RTLwPs
1070
   158
  0
INSERT
  5
10396
  8
COTATION1
 62
     0
  2
_OPEN30
 10
-17.202671
 20
66.832779
 30
0.0
 41
5.0
 42
5.0
 43
5.0
 50
270.0
1001
ACAD
1000
RTLwPs
1070
   158
  0
TEXT
  5
10397
  8
COTATION1
 62
     0
 10
-19.643147
 20
95.582779
 30
0.0
 40
2.5
  1
60
1001
ACAD
1000
MTEXTBEGIN
1070
    73
1070
     1
1070
    44
1040
1.0
1070
    74
1070
     0
1000
MTEXTEND
  0
POINT
  5
10398
  8
DEFPOINTS
 62
     0
 10
-45.202671
 20
126.832779
 30
0.0
  0
POINT
  5
10399
  8
DEFPOINTS
 62
     0
 10
-37.202671
 20
66.832779
 30
0.0
  0
POINT
  5
1039A
  8
DEFPOINTS
 62
     0
 10
-17.202671
 20
66.832779
 30
0.0
  0
ENDBLK
  5
100A8
  8
0
  0
BLOCK
  8
0
  2
*D4
 70
     1
 10
0.0
 20
0.0
 30
0.0
  3
*D4
  1

  0
LINE
  5
1039B
  8
COTATION1
 62
     0
 10
-53.202671
 20
64.832779
 30
0.0
 11
-53.202671
 21
32.332779
 31
0.0
1001
ACAD
1000
RTLwPs
1070
   158
  0
LINE
  5
1039C
  8
COTATION1
 62
     0
 10
-37.202671
 20
64.832779
 30
0.0
 11
-37.202671
 21
32.332779
 31
0.0
1001
ACAD
1000
RTLwPs
1070
   158
  0
LINE
  5
1039D
  8
COTATION1
 62
     0
 10
-48.202671
 20
34.832779
 30
0.0
 11
-42.202671
 21
34.832779
 31
0.0
1001
ACAD
1000
RTLwPs
1070
   158
  0
INSERT
  5
1039E
  8
COTATION1
 62
     0
  2
_OPEN30
 10
-53.202671
 20
34.832779
 30
0.0
 41
5.0
 42
5.0
 43
5.0
 50
180.0
1001
ACAD
1000
RTLwPs
1070
   158
  0
INSERT
  5
1039F
  8
COTATION1
 62
     0
  2
_OPEN30
 10
-37.202671
 20
34.832779
 30
0.0
 41
5.0
 42
5.0
 43
5.0
1001
ACAD
1000
RTLwPs
1070
   158
  0
TEXT
  5
103A0
  8
COTATION1
 62
     0
 10
-47.762194
 20
36.832779
 30
0.0
 40
2.5
  1
16
1001
ACAD
1000
MTEXTBEGIN
1070
    73
1070
     1
1070
    44
1040
1.0
1070
    74
1070
     0
1000
MTEXTEND
  0
POINT
  5
103A1
  8
DEFPOINTS
 62
     0
 10
-53.202671
 20
66.832779
 30
0.0
  0
POINT
  5
103A2
  8
DEFPOINTS
 62
     0
 10
-37.202671
 20
66.832779
 30
0.0
  0
POINT
  5
103A3
  8
DEFPOINTS
 62
     0
 10
-37.202671
 20
34.832779
 30
0.0
  0
ENDBLK
  5
100B4
  8
0
  0
ENDSEC
  0
SECTION
  2
ENTITIES
  0
INSERT
  5
A
  8
0
  2
COTE
 10
0.0
 20
0.0
 30
0.0
  0
INSERT
  5
17
  8
0
  2
COTE
 10
284.010391
 20
6.373258
 30
0.0
  0
INSERT
  5
72
  8
0
  2
FOND
 10
0.0
 20
0.0
 30
0.0
  0
DIMENSION
  5
10076
  8
COTATION1
  2
*D3
 10
-17.202671
 20
66.832779
 30
0.0
 11
-17.202671
 21
96.832779
 31
0.0
 13
-45.202671
 23
126.832779
 33
0.0
 14
-37.202671
 24
66.832779
 34
0.0
 50
90.0
  0
LINE
  5
10077
  8
ALPHA
 10
-48.702671
 20
126.332779
 30
0.0
 11
-48.702671
 21
120.332779
 31
0.0
  0
LINE
  5
10078
  8
ALPHA
 10
-41.702671
 20
126.332779
 30
0.0
 11
-41.702671
 21
120.332779
 31
0.0
  0
LINE
  5
10079
  8
AXE
 10
-45.202671
 20
133.512011
 30
0.0
 11
-45.202671
 21
44.832779
 31
0.0
  0
LINE
  5
1007D
  8
ALPHA
 10
-53.202671
 20
66.832779
 30
0.0
 11
-53.202671
 21
116.832779
 31
0.0
  0
LINE
  5
1007E
  8
ALPHA
 10
-37.202671
 20
66.832779
 30
0.0
 11
-37.202671
 21
116.832779
 31
0.0
  0
DIMENSION
  5
1007F
  8
COTATION1
  2
*D4
 10
-37.202671
 20
34.832779
 30
0.0
 11
-45.202671
 21
38.082779
 31
0.0
 13
-53.202671
 23
66.832779
 33
0.0
 14
-37.202671
 24
66.832779
 34
0.0
  0
TEXT
  5
10080
  8
AXE
 10
-52.678861
 20
44.832779
 30
0.0
 40
8.0
  1
Y
 72
     2
 11
-46.202671
 21
44.832779
 31
0.0
  0
LINE
  5
10086
  8
AXE
 10
-58.202671
 20
91.832779
 30
0.0
 11
-24.702671
 21
91.832779
 31
0.0
  0
LINE
  5
10088
  8
ALPHA
 10
-37.452671
 20
116.278882
 30
0.0
 11
-52.952671
 21
116.278882
 31
0.0
  0
LINE
  5
10089
  8
ALPHA
 10
-50.202671
 20
120.332779
 30
0.0
 11
-45.202671
 21
120.332779
 31
0.0
  0
LINE
  5
1008A
  8
ALPHA
 10
-52.952671
 20
117.832779
 30
0.0
 11
-45.202671
 21
117.832779
 31
0.0
  0
LINE
  5
1008B
  8
ALPHA
 10
-52.452671
 20
118.332779
 30
0.0
 11
-45.202671
 21
118.332779
 31
0.0
  0
LINE
  5
1008C
  8
ALPHA
 10
-53.202671
 20
114.832779
 30
0.0
 11
-37.202671
 21
114.832779
 31
0.0
  0
LINE
  5
1008D
  8
ALPHA
 10
-52.952671
 20
117.832779
 30
0.0
 11
-52.452671
 21
118.332779
 31
0.0
  0
LINE
  5
1008E
  8
ALPHA
 10
-52.952671
 20
117.832779
 30
0.0
 11
-52.952671
 21
116.278882
 31
0.0
  0
LINE
  5
1008F
  8
ALPHA
 10
-50.202671
 20
120.332779
 30
0.0
 11
-51.135286
 21
118.332779
 31
0.0
  0
LINE
  5
10090
  8
ALPHA
 10
-53.202671
 20
116.832779
 30
0.0
 11
-52.952671
 21
116.832779
 31
0.0
  0
LINE
  5
10091
  8
ALPHA
 10
-37.452671
 20
117.832779
 30
0.0
 11
-45.202671
 21
117.832779
 31
0.0
  0
LINE
  5
10092
  8
ALPHA
 10
-37.952671
 20
118.332779
 30
0.0
 11
-45.202671
 21
118.332779
 31
0.0
  0
LINE
  5
10093
  8
ALPHA
 10
-40.202671
 20
120.332779
 30
0.0
 11
-39.270055
 21
118.332779
 31
0.0
  0
LINE
  5
10094
  8
ALPHA
 10
-40.202671
 20
120.332779
 30
0.0
 11
-45.202671
 21
120.332779
 31
0.0
  0
LINE
  5
10095
  8
ALPHA
 10
-37.452671
 20
116.832779
 30
0.0
 11
-37.202671
 21
116.832779
 31
0.0
  0
LINE
  5
10096
  8
ALPHA
 10
-37.452671
 20
117.832779
 30
0.0
 11
-37.952671
 21
118.332779
 31
0.0
  0
LINE
  5
10097
  8
ALPHA
 10
-37.452671
 20
117.832779
 30
0.0
 11
-37.452671
 21
116.278882
 31
0.0
  0
TEXT
  5
10098
  8
AXE
 10
-31.178861
 20
92.832779
 30
0.0
 40
8.0
  1
Z
 72
     2
 11
-24.702671
 21
92.832779
 31
0.0
  0
ARC
  5
10099
  8
ALPHA
 10
-45.202671
 20
114.332779
 30
0.0
 40
12.5
 50
73.739795
 51
106.260205
  0
LINE
  5
1009A
  8
ALPHA
 10
-45.202671
 20
126.332779
 30
0.0
 11
-48.702671
 21
126.332779
 31
0.0
  0
LINE
  5
1009B
  8
ALPHA
 10
-45.202671
 20
126.332779
 30
0.0
 11
-41.702671
 21
126.332779
 31
0.0
  0
ARC
  5
1037F
  8
ALPHA
 10
-45.202671
 20
74.332779
 30
0.0
 40
3.5
 50
0.0
 51
180.0
  0
LINE
  5
10380
  8
ALPHA
 10
-51.952671
 20
80.832779
 30
0.0
 11
-51.952671
 21
66.832779
 31
0.0
  0
LINE
  5
10381
  8
ALPHA
 10
-49.952671
 20
79.332779
 30
0.0
 11
-49.952671
 21
72.832779
 31
0.0
  0
LINE
  5
10382
  8
ALPHA
 10
-40.452671
 20
79.332779
 30
0.0
 11
-40.452671
 21
72.832779
 31
0.0
  0
LINE
  5
10383
  8
ALPHA
 10
-38.452671
 20
80.832779
 30
0.0
 11
-38.452671
 21
66.832779
 31
0.0
  0
LINE
  5
10384
  8
ALPHA
 10
-41.185635
 20
66.832779
 30
0.0
 11
-37.202671
 21
66.832779
 31
0.0
  0
LINE
  5
10385
  8
ALPHA
 10
-53.202671
 20
66.832779
 30
0.0
 11
-48.185635
 21
66.832779
 31
0.0
  0
LINE
  5
10386
  8
ALPHA
 10
-49.952671
 20
72.832779
 30
0.0
 11
-48.702671
 21
72.832779
 31
0.0
  0
LINE
  5
10387
  8
ALPHA
 10
-48.702671
 20
74.332779
 30
0.0
 11
-48.702671
 21
72.332779
 31
0.0
  0
LINE
  5
10388
  8
ALPHA
 10
-40.452671
 20
72.832779
 30
0.0
 11
-41.702671
 21
72.832779
 31
0.0
  0
LINE
  5
10389
  8
ALPHA
 10
-41.702671
 20
74.332779
 30
0.0
 11
-41.702671
 21
72.332779
 31
0.0
  0
LINE
  5
1038A
  8
ALPHA
 10
-38.452671
 20
80.832779
 30
0.0
 11
-45.202671
 21
80.832779
 31
0.0
  0
LINE
  5
1038B
  8
ALPHA
 10
-38.452671
 20
79.332779
 30
0.0
 11
-40.452671
 21
79.332779
 31
0.0
  0
LINE
  5
1038C
  8
ALPHA
 10
-51.952671
 20
80.832779
 30
0.0
 11
-45.202671
 21
80.832779
 31
0.0
  0
LINE
  5
1038D
  8
ALPHA
 10
-51.952671
 20
79.332779
 30
0.0
 11
-49.952671
 21
79.332779
 31
0.0
  0
ARC
  5
1038E
  8
ALPHA
 10
-15.429615
 20
72.028312
 30
0.0
 40
26.27482
 50
179.336055
 51
207.655412
  0
ARC
  5
1038F
  8
ALPHA
 10
-22.429615
 20
72.028312
 30
0.0
 40
26.27482
 50
179.336055
 51
207.655412
  0
LINE
  5
10390
  8
AXE
 10
-47.202671
 20
59.832779
 30
0.0
 11
-37.202671
 21
59.832779
 31
0.0
  0
VIEWPORT
  5
494D
 67
     1
  8
0
 10
4.995325
 20
6.556512
 30
0.0
 40
22.70986
 41
13.988421
 68
    -1
 69
     1
1001
ACAD
1000
MVIEW
1002
{
1070
    16
1010
0.0
1020
0.0
1030
0.0
1010
0.0
1020
0.0
1030
1.0
1040
0.0
1040
13.988421
1040
4.995325
1040
6.556512
1040
50.0
1040
0.0
1040
0.0
1070
     0
1070
   100
1070
     1
1070
     1
1070
     0
1070
     0
1070
     0
1070
     0
1040
0.0
1040
0.0
1040
0.0
1040
10.0
1040
10.0
1040
10.0
1040
10.0
1070
     0
1002
{
1002
}
1002
}
  0
ENDSEC
  0
EOF
