  0
SECTION
  2
HEADER
  9
$ACADVER
  1
AC1014
  9
$ACADMAINTVER
 70
     0
  9
$DWGCODEPAGE
  3
ANSI_1252
  9
$INSBASE
 10
55.351212
 20
91.375103
 30
0.0
  9
$EXTMIN
 10
39.925534
 20
54.79194
 30
0.0
  9
$EXTMAX
 10
80.774263
 20
111.935181
 30
0.0
  9
$LIMMIN
 10
0.0
 20
0.0
  9
$LIMMAX
 10
210.0
 20
297.0
  9
$ORTHOMODE
 70
     1
  9
$REGENMODE
 70
     1
  9
$FILLMODE
 70
     1
  9
$QTEXTMODE
 70
     0
  9
$MIRRTEXT
 70
     1
  9
$DRAGMODE
 70
     2
  9
$LTSCALE
 40
7.0
  9
$OSMODE
 70
     0
  9
$ATTMODE
 70
     1
  9
$TEXTSIZE
 40
0.2
  9
$TRACEWID
 40
0.05
  9
$TEXTSTYLE
  7
STANDARD
  9
$CLAYER
  8
COTATION1
  9
$CELTYPE
  6
BYLAYER
  9
$CECOLOR
 62
   256
  9
$CELTSCALE
 40
1.0
  9
$DELOBJ
 70
     1
  9
$DISPSILH
 70
     0
  9
$DIMSCALE
 40
1.0
  9
$DIMASZ
 40
3.0
  9
$DIMEXO
 40
0.0625
  9
$DIMDLI
 40
0.38
  9
$DIMRND
 40
0.01
  9
$DIMDLE
 40
0.0
  9
$DIMEXE
 40
0.18
  9
$DIMTP
 40
0.0
  9
$DIMTM
 40
0.0
  9
$DIMTXT
 40
2.5
  9
$DIMCEN
 40
0.09
  9
$DIMTSZ
 40
0.0
  9
$DIMTOL
 70
     0
  9
$DIMLIM
 70
     0
  9
$DIMTIH
 70
     0
  9
$DIMTOH
 70
     0
  9
$DIMSE1
 70
     0
  9
$DIMSE2
 70
     0
  9
$DIMTAD
 70
     1
  9
$DIMZIN
 70
    12
  9
$DIMBLK
  1

  9
$DIMASO
 70
     1
  9
$DIMSHO
 70
     1
  9
$DIMPOST
  1

  9
$DIMAPOST
  1

  9
$DIMALT
 70
     0
  9
$DIMALTD
 70
     2
  9
$DIMALTF
 40
25.4
  9
$DIMLFAC
 40
1.0
  9
$DIMTOFL
 70
     1
  9
$DIMTVP
 40
0.0
  9
$DIMTIX
 70
     0
  9
$DIMSOXD
 70
     0
  9
$DIMSAH
 70
     0
  9
$DIMBLK1
  1

  9
$DIMBLK2
  1

  9
$DIMSTYLE
  2
SC_STAND
  9
$DIMCLRD
 70
     0
  9
$DIMCLRE
 70
     0
  9
$DIMCLRT
 70
     0
  9
$DIMTFAC
 40
1.0
  9
$DIMGAP
 40
1.0
  9
$DIMJUST
 70
     0
  9
$DIMSD1
 70
     0
  9
$DIMSD2
 70
     0
  9
$DIMTOLJ
 70
     1
  9
$DIMTZIN
 70
    12
  9
$DIMALTZ
 70
    12
  9
$DIMALTTZ
 70
    12
  9
$DIMFIT
 70
     5
  9
$DIMUPT
 70
     0
  9
$DIMUNIT
 70
     2
  9
$DIMDEC
 70
     4
  9
$DIMTDEC
 70
     4
  9
$DIMALTU
 70
     2
  9
$DIMALTTD
 70
     2
  9
$DIMTXSTY
  7
STANDARD
  9
$DIMAUNIT
 70
     0
  9
$LUNITS
 70
     2
  9
$LUPREC
 70
     4
  9
$SKETCHINC
 40
0.1
  9
$FILLETRAD
 40
0.0
  9
$AUNITS
 70
     0
  9
$AUPREC
 70
     0
  9
$MENU
  1
acad
  9
$ELEVATION
 40
0.0
  9
$PELEVATION
 40
0.0
  9
$THICKNESS
 40
0.0
  9
$LIMCHECK
 70
     0
  9
$BLIPMODE
 70
     1
  9
$CHAMFERA
 40
0.0
  9
$CHAMFERB
 40
0.0
  9
$CHAMFERC
 40
0.0
  9
$CHAMFERD
 40
0.0
  9
$SKPOLY
 70
     0
  9
$TDCREATE
 40
2451086.410413541
  9
$TDUPDATE
 40
2451387.897116435
  9
$TDINDWG
 40
0.0000290625
  9
$TDUSRTIMER
 40
0.0000290625
  9
$USRTIMER
 70
     1
  9
$ANGBASE
 50
0.0
  9
$ANGDIR
 70
     0
  9
$PDMODE
 70
     0
  9
$PDSIZE
 40
0.0
  9
$PLINEWID
 40
0.0
  9
$COORDS
 70
     1
  9
$SPLFRAME
 70
     0
  9
$SPLINETYPE
 70
     6
  9
$SPLINESEGS
 70
     8
  9
$ATTDIA
 70
     0
  9
$ATTREQ
 70
     1
  9
$HANDLING
 70
     1
  9
$HANDSEED
  5
AC1
  9
$SURFTAB1
 70
     6
  9
$SURFTAB2
 70
     6
  9
$SURFTYPE
 70
     6
  9
$SURFU
 70
     6
  9
$SURFV
 70
     6
  9
$UCSNAME
  2

  9
$UCSORG
 10
0.0
 20
0.0
 30
0.0
  9
$UCSXDIR
 10
1.0
 20
0.0
 30
0.0
  9
$UCSYDIR
 10
0.0
 20
1.0
 30
0.0
  9
$PUCSNAME
  2

  9
$PUCSORG
 10
0.0
 20
0.0
 30
0.0
  9
$PUCSXDIR
 10
1.0
 20
0.0
 30
0.0
  9
$PUCSYDIR
 10
0.0
 20
1.0
 30
0.0
  9
$USERI1
 70
     0
  9
$USERI2
 70
     0
  9
$USERI3
 70
     0
  9
$USERI4
 70
     0
  9
$USERI5
 70
     0
  9
$USERR1
 40
0.0
  9
$USERR2
 40
0.0
  9
$USERR3
 40
0.0
  9
$USERR4
 40
0.0
  9
$USERR5
 40
0.0
  9
$WORLDVIEW
 70
     1
  9
$SHADEDGE
 70
     3
  9
$SHADEDIF
 70
    70
  9
$TILEMODE
 70
     1
  9
$MAXACTVP
 70
    16
  9
$PINSBASE
 10
0.0
 20
0.0
 30
0.0
  9
$PLIMCHECK
 70
     0
  9
$PEXTMIN
 10
1.000000E+20
 20
1.000000E+20
 30
1.000000E+20
  9
$PEXTMAX
 10
-1.000000E+20
 20
-1.000000E+20
 30
-1.000000E+20
  9
$PLIMMIN
 10
0.0
 20
0.0
  9
$PLIMMAX
 10
12.0
 20
9.0
  9
$UNITMODE
 70
     0
  9
$VISRETAIN
 70
     0
  9
$PLINEGEN
 70
     0
  9
$PSLTSCALE
 70
     1
  9
$TREEDEPTH
 70
  3020
  9
$PICKSTYLE
 70
     1
  9
$CMLSTYLE
  2
STANDARD
  9
$CMLJUST
 70
     0
  9
$CMLSCALE
 40
1.0
  9
$PROXYGRAPHICS
 70
     1
  9
$MEASUREMENT
 70
     0
  0
ENDSEC
  0
SECTION
  2
CLASSES
  0
CLASS
  1
DICTIONARYVAR
  2
AcDbDictionaryVar
  3
"AutoCAD"
 90
        0
280
     0
281
     0
  0
CLASS
  1
LWPOLYLINE
  2
AcDbPolyline
  3
"AutoCAD"
 90
        0
280
     0
281
     1
  0
ENDSEC
  0
SECTION
  2
TABLES
  0
TABLE
  2
VPORT
  5
A95
100
AcDbSymbolTable
 70
     1
  0
VPORT
  5
ABC
100
AcDbSymbolTableRecord
100
AcDbViewportTableRecord
  2
*ACTIVE
 70
     0
 10
0.0
 20
0.0
 11
1.0
 21
1.0
 12
225.654671
 22
135.037441
 13
0.0
 23
0.0
 14
1.0
 24
1.0
 15
0.0
 25
0.0
 16
0.0
 26
0.0
 36
1.0
 17
0.0
 27
0.0
 37
0.0
 40
270.074882
 41
1.671053
 42
50.0
 43
0.0
 44
0.0
 50
0.0
 51
0.0
 71
     0
 72
   100
 73
     1
 74
     1
 75
     0
 76
     0
 77
     0
 78
     0
  0
ENDTAB
  0
TABLE
  2
LTYPE
  5
A92
100
AcDbSymbolTable
 70
     2
  0
LTYPE
  5
A9E
100
AcDbSymbolTableRecord
100
AcDbLinetypeTableRecord
  2
BYBLOCK
 70
     0
  3

 72
    65
 73
     0
 40
0.0
  0
LTYPE
  5
A9F
100
AcDbSymbolTableRecord
100
AcDbLinetypeTableRecord
  2
BYLAYER
 70
     0
  3

 72
    65
 73
     0
 40
0.0
  0
LTYPE
  5
AA0
100
AcDbSymbolTableRecord
100
AcDbLinetypeTableRecord
  2
CONTINUOUS
 70
     0
  3
Solid line
 72
    65
 73
     0
 40
0.0
  0
LTYPE
  5
AAC
100
AcDbSymbolTableRecord
100
AcDbLinetypeTableRecord
  2
AXES2
 70
     0
  3
___ _ ___ _ ___ _ ___ _ ___ _ ___ _ ___ _ ___ _
 72
    65
 73
     4
 40
1.125
 49
0.75
 74
     0
 49
-0.125
 74
     0
 49
0.125
 74
     0
 49
-0.125
 74
     0
  0
ENDTAB
  0
TABLE
  2
LAYER
  5
A8F
100
AcDbSymbolTable
 70
     5
  0
LAYER
  5
A9B
100
AcDbSymbolTableRecord
100
AcDbLayerTableRecord
  2
0
 70
     0
 62
     7
  6
CONTINUOUS
  0
LAYER
  5
AAF
100
AcDbSymbolTableRecord
100
AcDbLayerTableRecord
  2
AXE
 70
     0
 62
    80
  6
AXES2
  0
LAYER
  5
AB0
100
AcDbSymbolTableRecord
100
AcDbLayerTableRecord
  2
COTATION1
 70
     0
 62
     2
  6
CONTINUOUS
  0
LAYER
  5
AB1
100
AcDbSymbolTableRecord
100
AcDbLayerTableRecord
  2
ALPHA
 70
     0
 62
   255
  6
CONTINUOUS
  0
LAYER
  5
AB2
100
AcDbSymbolTableRecord
100
AcDbLayerTableRecord
  2
DEFPOINTS
 70
     0
 62
     7
  6
CONTINUOUS
  0
ENDTAB
  0
TABLE
  2
STYLE
  5
A90
100
AcDbSymbolTable
 70
     2
  0
STYLE
  5
A9C
100
AcDbSymbolTableRecord
100
AcDbTextStyleTableRecord
  2
STANDARD
 70
     0
 40
0.0
 41
1.0
 50
0.0
 71
     0
 42
0.2
  3
txt
  4

  0
STYLE
  5
AAB
100
AcDbSymbolTableRecord
100
AcDbTextStyleTableRecord
  2
ROMANS
 70
     0
 40
0.0
 41
1.0
 50
0.0
 71
     0
 42
2.9
  3
romans.shx
  4

  0
ENDTAB
  0
TABLE
  2
VIEW
  5
A93
100
AcDbSymbolTable
 70
     0
  0
ENDTAB
  0
TABLE
  2
UCS
  5
A94
100
AcDbSymbolTable
 70
     0
  0
ENDTAB
  0
TABLE
  2
APPID
  5
A96
100
AcDbSymbolTable
 70
     1
  0
APPID
  5
A9D
100
AcDbSymbolTableRecord
100
AcDbRegAppTableRecord
  2
ACAD
 70
     0
  0
ENDTAB
  0
TABLE
  2
DIMSTYLE
  5
A97
100
AcDbSymbolTable
 70
     1
  0
DIMSTYLE
105
AAE
102
{ACAD_REACTORS
330
1F
330
2D
102
}
100
AcDbSymbolTableRecord
100
AcDbDimStyleTableRecord
  2
SC_STAND
 70
     0
  3

  4

  5

  6

  7

 40
1.0
 41
3.0
 42
0.0625
 43
0.38
 44
0.18
 45
0.01
 46
0.0
 47
0.0
 48
0.0
140
2.5
141
0.09
142
0.0
143
25.4
144
1.0
145
0.0
146
1.0
147
1.0
 71
     0
 72
     0
 73
     0
 74
     0
 75
     0
 76
     0
 77
     1
 78
    12
170
     0
171
     2
172
     1
173
     0
174
     0
175
     0
176
     0
177
     0
178
     0
270
     2
271
     4
272
     4
273
     2
274
     2
340
A9C
275
     0
280
     0
281
     0
282
     0
283
     1
284
    12
285
    12
286
    12
287
     5
288
     0
  0
ENDTAB
  0
TABLE
  2
BLOCK_RECORD
  5
A8E
100
AcDbSymbolTable
 70
     2
  0
BLOCK_RECORD
  5
AA4
100
AcDbSymbolTableRecord
100
AcDbBlockTableRecord
  2
*MODEL_SPACE
  0
BLOCK_RECORD
  5
AA1
100
AcDbSymbolTableRecord
100
AcDbBlockTableRecord
  2
*PAPER_SPACE
  0
BLOCK_RECORD
  5
AA9
100
AcDbSymbolTableRecord
100
AcDbBlockTableRecord
  2
*D0
  0
BLOCK_RECORD
  5
AAA
100
AcDbSymbolTableRecord
100
AcDbBlockTableRecord
  2
*D1
  0
ENDTAB
  0
ENDSEC
  0
SECTION
  2
BLOCKS
  0
BLOCK
  5
AB5
100
AcDbEntity
  8
0
100
AcDbBlockBegin
  2
*MODEL_SPACE
 70
     0
 10
0.0
 20
0.0
 30
0.0
  3
*MODEL_SPACE
  1

  0
ENDBLK
  5
AB6
100
AcDbEntity
  8
0
100
AcDbBlockEnd
  0
BLOCK
  5
AB3
100
AcDbEntity
 67
     1
  8
0
100
AcDbBlockBegin
  2
*PAPER_SPACE
 70
     0
 10
0.0
 20
0.0
 30
0.0
  3
*PAPER_SPACE
  1

  0
ENDBLK
  5
AB4
100
AcDbEntity
 67
     1
  8
0
100
AcDbBlockEnd
  0
BLOCK
  5
38
100
AcDbEntity
  8
0
100
AcDbBlockBegin
  2
*D0
 70
     1
 10
0.0
 20
0.0
 30
0.0
  3
*D0
  1
AVE_GLOBAL
  0
LINE
  5
2F
100
AcDbEntity
  8
0
  6
BYBLOCK
 62
     0
100
AcDbLine
 10
40.132641
 20
71.622681
 30
0.0
 11
40.132641
 21
55.11194
 31
0.0
  0
LINE
  5
30
100
AcDbEntity
  8
0
  6
BYBLOCK
 62
     0
100
AcDbLine
 10
69.932641
 20
71.622681
 30
0.0
 11
69.932641
 21
55.11194
 31
0.0
  0
LINE
  5
31
100
AcDbEntity
  8
0
  6
BYBLOCK
 62
     0
100
AcDbLine
 10
43.132641
 20
55.29194
 30
0.0
 11
66.932641
 21
55.29194
 31
0.0
  0
SOLID
  5
32
100
AcDbEntity
  8
0
  6
BYBLOCK
 62
     0
100
AcDbTrace
 10
43.132641
 20
55.79194
 30
0.0
 11
43.132641
 21
54.79194
 31
0.0
 12
40.132641
 22
55.29194
 32
0.0
 13
40.132641
 23
55.29194
 33
0.0
  0
SOLID
  5
33
100
AcDbEntity
  8
0
  6
BYBLOCK
 62
     0
100
AcDbTrace
 10
66.932641
 20
55.79194
 30
0.0
 11
66.932641
 21
54.79194
 31
0.0
 12
69.932641
 22
55.29194
 32
0.0
 13
69.932641
 23
55.29194
 33
0.0
  0
TEXT
  5
34
100
AcDbEntity
  8
0
  6
BYBLOCK
 62
     0
100
AcDbText
 10
50.865974
 20
56.29194
 30
0.0
 40
2.5
  1
29.8
  7
ROMANS
100
AcDbText
  0
POINT
  5
35
100
AcDbEntity
  8
DEFPOINTS
  6
BYBLOCK
 62
     0
100
AcDbPoint
 10
40.132641
 20
71.685181
 30
0.0
  0
POINT
  5
36
100
AcDbEntity
  8
DEFPOINTS
  6
BYBLOCK
 62
     0
100
AcDbPoint
 10
69.932641
 20
71.685181
 30
0.0
  0
POINT
  5
37
100
AcDbEntity
  8
DEFPOINTS
  6
BYBLOCK
 62
     0
100
AcDbPoint
 10
69.932641
 20
55.29194
 30
0.0
  0
ENDBLK
  5
39
100
AcDbEntity
  8
0
100
AcDbBlockEnd
  0
BLOCK
  5
2B
100
AcDbEntity
  8
0
100
AcDbBlockBegin
  2
*D1
 70
     1
 10
0.0
 20
0.0
 30
0.0
  3
*D1
  1
AVE_GLOBAL
  0
LINE
  5
21
100
AcDbEntity
  8
0
  6
BYBLOCK
 62
     0
100
AcDbLine
 10
68.995141
 20
70.685181
 30
0.0
 11
80.454263
 21
70.685181
 31
0.0
  0
LINE
  5
22
100
AcDbEntity
  8
0
  6
BYBLOCK
 62
     0
100
AcDbLine
 10
67.895141
 20
110.485181
 30
0.0
 11
80.454263
 21
110.485181
 31
0.0
  0
LINE
  5
23
100
AcDbEntity
  8
0
  6
BYBLOCK
 62
     0
100
AcDbLine
 10
80.274263
 20
73.685181
 30
0.0
 11
80.274263
 21
107.485181
 31
0.0
  0
SOLID
  5
24
100
AcDbEntity
  8
0
  6
BYBLOCK
 62
     0
100
AcDbTrace
 10
79.774263
 20
73.685181
 30
0.0
 11
80.774263
 21
73.685181
 31
0.0
 12
80.274263
 22
70.685181
 32
0.0
 13
80.274263
 23
70.685181
 33
0.0
  0
SOLID
  5
25
100
AcDbEntity
  8
0
  6
BYBLOCK
 62
     0
100
AcDbTrace
 10
79.774263
 20
107.485181
 30
0.0
 11
80.774263
 21
107.485181
 31
0.0
 12
80.274263
 22
110.485181
 32
0.0
 13
80.274263
 23
110.485181
 33
0.0
  0
TEXT
  5
26
100
AcDbEntity
  8
0
  6
BYBLOCK
 62
     0
100
AcDbText
 10
79.274263
 20
86.418514
 30
0.0
 40
2.5
  1
39.8
 50
90.0
  7
ROMANS
100
AcDbText
  0
POINT
  5
27
100
AcDbEntity
  8
DEFPOINTS
  6
BYBLOCK
 62
     0
100
AcDbPoint
 10
68.932641
 20
70.685181
 30
0.0
  0
POINT
  5
29
100
AcDbEntity
  8
DEFPOINTS
  6
BYBLOCK
 62
     0
100
AcDbPoint
 10
67.832641
 20
110.485181
 30
0.0
  0
POINT
  5
2A
100
AcDbEntity
  8
DEFPOINTS
  6
BYBLOCK
 62
     0
100
AcDbPoint
 10
80.274263
 20
110.485181
 30
0.0
  0
ENDBLK
  5
2C
100
AcDbEntity
  8
0
100
AcDbBlockEnd
  0
ENDSEC
  0
SECTION
  2
ENTITIES
  0
DIMENSION
  5
1F
100
AcDbEntity
  8
COTATION1
100
AcDbDimension
  2
*D1
 10
80.274263
 20
110.485181
 30
0.0
 11
78.024263
 21
90.585181
 31
0.0
  3
SC_STAND
100
AcDbAlignedDimension
 13
68.932641
 23
70.685181
 33
0.0
 14
67.832641
 24
110.485181
 34
0.0
 50
90.0
100
AcDbRotatedDimension
  0
DIMENSION
  5
2D
100
AcDbEntity
  8
COTATION1
100
AcDbDimension
  2
*D0
 10
69.932641
 20
55.29194
 30
0.0
 11
55.032641
 21
57.54194
 31
0.0
  3
SC_STAND
100
AcDbAlignedDimension
 13
40.132641
 23
71.685181
 33
0.0
 14
69.932641
 24
71.685181
 34
0.0
100
AcDbRotatedDimension
  0
LINE
  5
3A
100
AcDbEntity
  8
AXE
100
AcDbLine
 10
63.53169
 20
74.819155
 30
0.0
 11
58.017621
 21
71.635829
 31
0.0
  0
ARC
  5
3D
100
AcDbEntity
  8
AXE
100
AcDbCircle
 10
62.78173
 20
76.118216
 30
0.0
 40
1.5
100
AcDbArc
 50
299.998256
 51
359.998256
  0
LINE
  5
3E
100
AcDbEntity
  8
AXE
100
AcDbLine
 10
64.282603
 20
104.78512
 30
0.0
 11
64.28173
 21
76.11817
 31
0.0
  0
ARC
  5
3F
100
AcDbEntity
  8
AXE
100
AcDbCircle
 10
62.282603
 20
104.785181
 30
0.0
 40
2.0
100
AcDbArc
 50
359.998256
 51
90.0
  0
LINE
  5
40
100
AcDbEntity
  8
AXE
100
AcDbLine
 10
58.771006
 20
106.785181
 30
0.0
 11
62.282603
 21
106.785181
 31
0.0
  0
ARC
  5
41
100
AcDbEntity
  8
ALPHA
100
AcDbCircle
 10
58.771006
 20
108.285181
 30
0.0
 40
1.5
100
AcDbArc
 50
257.905243
 51
270.0
  0
LINE
  5
43
100
AcDbEntity
  8
ALPHA
100
AcDbLine
 10
55.346934
 20
107.484858
 30
0.0
 11
58.456713
 21
106.818477
 31
0.0
  0
ARC
  5
44
100
AcDbEntity
  8
ALPHA
100
AcDbCircle
 10
55.032641
 20
106.018154
 30
0.0
 40
1.5
100
AcDbArc
 50
77.905243
 51
102.094757
  0
LINE
  5
45
100
AcDbEntity
  8
ALPHA
100
AcDbLine
 10
51.608568
 20
106.818477
 30
0.0
 11
54.718347
 21
107.484858
 31
0.0
  0
ARC
  5
46
100
AcDbEntity
  8
ALPHA
100
AcDbCircle
 10
51.294275
 20
108.285181
 30
0.0
 40
1.5
100
AcDbArc
 50
270.0
 51
282.094757
  0
LINE
  5
47
100
AcDbEntity
  8
AXE
100
AcDbLine
 10
47.782679
 20
106.785181
 30
0.0
 11
51.294275
 21
106.785181
 31
0.0
  0
ARC
  5
48
100
AcDbEntity
  8
AXE
100
AcDbCircle
 10
47.782679
 20
104.785181
 30
0.0
 40
2.0
100
AcDbArc
 50
90.0
 51
180.001744
  0
LINE
  5
49
100
AcDbEntity
  8
AXE
100
AcDbLine
 10
45.783551
 20
76.11817
 30
0.0
 11
45.782679
 21
104.78512
 31
0.0
  0
ARC
  5
4A
100
AcDbEntity
  8
AXE
100
AcDbCircle
 10
47.283551
 20
76.118216
 30
0.0
 40
1.5
100
AcDbArc
 50
180.001744
 51
240.001744
  0
LINE
  5
4B
100
AcDbEntity
  8
AXE
100
AcDbLine
 10
52.04766
 20
71.635829
 30
0.0
 11
46.533591
 21
74.819155
 31
0.0
  0
LINE
  5
4C
100
AcDbEntity
  8
ALPHA
100
AcDbLine
 10
58.179403
 20
85.185181
 30
0.0
 11
58.179403
 21
87.685181
 31
0.0
  0
LINE
  5
4D
100
AcDbEntity
  8
ALPHA
100
AcDbLine
 10
65.032641
 20
90.285181
 30
0.0
 11
65.732641
 21
90.285181
 31
0.0
  0
LINE
  5
4E
100
AcDbEntity
  8
ALPHA
100
AcDbLine
 10
65.732641
 20
88.085181
 30
0.0
 11
65.032641
 21
88.085181
 31
0.0
  0
LINE
  5
4F
100
AcDbEntity
  8
ALPHA
100
AcDbLine
 10
58.179403
 20
101.185181
 30
0.0
 11
58.179403
 21
98.685181
 31
0.0
  0
LINE
  5
50
100
AcDbEntity
  8
ALPHA
100
AcDbLine
 10
63.032641
 20
98.685181
 30
0.0
 11
61.032641
 21
98.685181
 31
0.0
  0
LINE
  5
51
100
AcDbEntity
  8
ALPHA
100
AcDbLine
 10
69.132641
 20
98.685181
 30
0.0
 11
66.982641
 21
98.685181
 31
0.0
  0
LINE
  5
52
100
AcDbEntity
  8
ALPHA
100
AcDbLine
 10
64.232641
 20
90.185181
 30
0.0
 11
64.232641
 21
88.185181
 31
0.0
  0
LINE
  5
53
100
AcDbEntity
  8
ALPHA
100
AcDbLine
 10
61.182641
 20
102.219136
 30
0.0
 11
59.982641
 21
102.219136
 31
0.0
  0
LINE
  5
54
100
AcDbEntity
  8
ALPHA
100
AcDbLine
 10
68.782641
 20
101.415146
 30
0.0
 11
69.782641
 21
101.415146
 31
0.0
  0
ARC
  5
55
100
AcDbEntity
  8
ALPHA
100
AcDbCircle
 10
65.032641
 20
79.185181
 30
0.0
 40
3.0
100
AcDbArc
 50
326.44269
 51
31.47412
  0
LINE
  5
56
100
AcDbEntity
  8
ALPHA
100
AcDbLine
 10
65.032641
 20
91.785181
 30
0.0
 11
65.032641
 21
86.585181
 31
0.0
  0
LINE
  5
57
100
AcDbEntity
  8
ALPHA
100
AcDbLine
 10
65.732641
 20
86.185181
 30
0.0
 11
65.732641
 21
92.185181
 31
0.0
  0
LINE
  5
58
100
AcDbEntity
  8
ALPHA
100
AcDbLine
 10
51.086647
 20
72.478722
 30
0.0
 11
51.595076
 21
72.185181
 31
0.0
  0
LINE
  5
59
100
AcDbEntity
  8
ALPHA
100
AcDbLine
 10
50.382641
 20
72.885181
 30
0.0
 11
51.086647
 21
72.478722
 31
0.0
  0
LINE
  5
5A
100
AcDbEntity
  8
ALPHA
100
AcDbLine
 10
51.086647
 20
105.691639
 30
0.0
 11
51.595076
 21
105.985181
 31
0.0
  0
LINE
  5
5B
100
AcDbEntity
  8
ALPHA
100
AcDbLine
 10
50.382641
 20
105.285181
 30
0.0
 11
51.086647
 21
105.691639
 31
0.0
  0
LINE
  5
5C
100
AcDbEntity
  8
ALPHA
100
AcDbLine
 10
61.182641
 20
103.985181
 30
0.0
 11
59.982641
 21
103.985181
 31
0.0
  0
LINE
  5
5D
100
AcDbEntity
  8
ALPHA
100
AcDbLine
 10
55.032641
 20
103.185181
 30
0.0
 11
55.032641
 21
104.785181
 31
0.0
  0
LINE
  5
5E
100
AcDbEntity
  8
ALPHA
100
AcDbLine
 10
55.032641
 20
102.319155
 30
0.0
 11
55.032641
 21
101.185181
 31
0.0
  0
LINE
  5
5F
100
AcDbEntity
  8
ALPHA
100
AcDbLine
 10
55.032641
 20
101.185181
 30
0.0
 11
55.032641
 21
98.685181
 31
0.0
  0
LINE
  5
60
100
AcDbEntity
  8
ALPHA
100
AcDbLine
 10
55.032641
 20
95.185181
 30
0.0
 11
55.032641
 21
91.185181
 31
0.0
  0
LINE
  5
61
100
AcDbEntity
  8
ALPHA
100
AcDbLine
 10
55.032641
 20
87.685181
 30
0.0
 11
55.032641
 21
85.185181
 31
0.0
  0
LINE
  5
62
100
AcDbEntity
  8
ALPHA
100
AcDbLine
 10
55.032641
 20
85.185181
 30
0.0
 11
55.032641
 21
84.051206
 31
0.0
  0
LINE
  5
63
100
AcDbEntity
  8
ALPHA
100
AcDbLine
 10
55.032641
 20
73.585181
 30
0.0
 11
55.032641
 21
83.185181
 31
0.0
  0
LINE
  5
64
100
AcDbEntity
  8
ALPHA
100
AcDbLine
 10
55.032641
 20
73.385181
 30
0.0
 11
55.032641
 21
73.585181
 31
0.0
  0
LINE
  5
65
100
AcDbEntity
  8
ALPHA
100
AcDbLine
 10
60.782641
 20
105.985181
 30
0.0
 11
51.595076
 21
105.985181
 31
0.0
  0
LINE
  5
66
100
AcDbEntity
  8
ALPHA
100
AcDbLine
 10
50.382641
 20
104.985181
 30
0.0
 11
50.382641
 21
105.285181
 31
0.0
  0
LINE
  5
67
100
AcDbEntity
  8
ALPHA
100
AcDbLine
 10
50.382641
 20
104.985181
 30
0.0
 11
50.382641
 21
104.785181
 31
0.0
  0
LINE
  5
68
100
AcDbEntity
  8
ALPHA
100
AcDbLine
 10
60.782641
 20
104.785181
 30
0.0
 11
60.782641
 21
105.985181
 31
0.0
  0
LINE
  5
69
100
AcDbEntity
  8
ALPHA
100
AcDbLine
 10
63.732641
 20
90.685181
 30
0.0
 11
59.732641
 21
90.685181
 31
0.0
  0
LINE
  5
6A
100
AcDbEntity
  8
ALPHA
100
AcDbLine
 10
65.732641
 20
90.685181
 30
0.0
 11
65.032641
 21
90.685181
 31
0.0
  0
LINE
  5
6B
100
AcDbEntity
  8
ALPHA
100
AcDbLine
 10
68.982641
 20
90.685181
 30
0.0
 11
67.032641
 21
90.685181
 31
0.0
  0
LINE
  5
6C
100
AcDbEntity
  8
ALPHA
100
AcDbLine
 10
50.382641
 20
73.185181
 30
0.0
 11
55.032641
 21
73.185181
 31
0.0
  0
LINE
  5
6D
100
AcDbEntity
  8
ALPHA
100
AcDbLine
 10
60.782641
 20
72.185181
 30
0.0
 11
51.595076
 21
72.185181
 31
0.0
  0
LINE
  5
6E
100
AcDbEntity
  8
ALPHA
100
AcDbLine
 10
55.032641
 20
73.385181
 30
0.0
 11
55.032641
 21
73.185181
 31
0.0
  0
LINE
  5
6F
100
AcDbEntity
  8
ALPHA
100
AcDbLine
 10
63.732641
 20
87.685181
 30
0.0
 11
59.732641
 21
87.685181
 31
0.0
  0
LINE
  5
70
100
AcDbEntity
  8
ALPHA
100
AcDbLine
 10
65.732641
 20
87.685181
 30
0.0
 11
65.032641
 21
87.685181
 31
0.0
  0
LINE
  5
71
100
AcDbEntity
  8
ALPHA
100
AcDbLine
 10
68.982641
 20
87.685181
 30
0.0
 11
67.032641
 21
87.685181
 31
0.0
  0
LINE
  5
72
100
AcDbEntity
  8
ALPHA
100
AcDbLine
 10
50.382641
 20
72.885181
 30
0.0
 11
50.382641
 21
73.185181
 31
0.0
  0
LINE
  5
73
100
AcDbEntity
  8
ALPHA
100
AcDbLine
 10
50.382641
 20
73.385181
 30
0.0
 11
50.382641
 21
73.185181
 31
0.0
  0
LINE
  5
74
100
AcDbEntity
  8
ALPHA
100
AcDbLine
 10
60.782641
 20
72.185181
 30
0.0
 11
60.782641
 21
73.385181
 31
0.0
  0
LINE
  5
75
100
AcDbEntity
  8
ALPHA
100
AcDbLine
 10
67.032641
 20
92.185181
 30
0.0
 11
67.032641
 21
86.185181
 31
0.0
  0
ARC
  5
76
100
AcDbEntity
  8
ALPHA
100
AcDbCircle
 10
65.032641
 20
79.185181
 30
0.0
 40
3.0
100
AcDbArc
 50
31.47412
 51
213.55731
  0
LINE
  5
77
100
AcDbEntity
  8
ALPHA
100
AcDbLine
 10
50.382641
 20
104.985181
 30
0.0
 11
55.032641
 21
104.985181
 31
0.0
  0
LINE
  5
78
100
AcDbEntity
  8
ALPHA
100
AcDbLine
 10
55.032641
 20
104.785181
 30
0.0
 11
55.032641
 21
104.985181
 31
0.0
  0
LINE
  5
79
100
AcDbEntity
  8
ALPHA
100
AcDbLine
 10
63.732641
 20
88.185181
 30
0.0
 11
64.232641
 21
88.185181
 31
0.0
  0
LINE
  5
7A
100
AcDbEntity
  8
ALPHA
100
AcDbLine
 10
63.732641
 20
90.185181
 30
0.0
 11
64.232641
 21
90.185181
 31
0.0
  0
LINE
  5
7B
100
AcDbEntity
  8
ALPHA
100
AcDbLine
 10
63.532641
 20
90.435181
 30
0.0
 11
63.732641
 21
90.435181
 31
0.0
  0
LINE
  5
7C
100
AcDbEntity
  8
ALPHA
100
AcDbLine
 10
59.732641
 20
90.435181
 30
0.0
 11
59.932641
 21
90.435181
 31
0.0
  0
LINE
  5
7D
100
AcDbEntity
  8
ALPHA
100
AcDbLine
 10
59.932641
 20
87.935181
 30
0.0
 11
59.732641
 21
87.935181
 31
0.0
  0
LINE
  5
7E
100
AcDbEntity
  8
ALPHA
100
AcDbLine
 10
63.732641
 20
87.935181
 30
0.0
 11
63.532641
 21
87.935181
 31
0.0
  0
LINE
  5
7F
100
AcDbEntity
  8
ALPHA
100
AcDbLine
 10
63.732641
 20
90.185181
 30
0.0
 11
63.732641
 21
88.185181
 31
0.0
  0
LINE
  5
80
100
AcDbEntity
  8
ALPHA
100
AcDbLine
 10
63.732641
 20
90.185181
 30
0.0
 11
63.732641
 21
91.785181
 31
0.0
  0
LINE
  5
81
100
AcDbEntity
  8
ALPHA
100
AcDbLine
 10
63.732641
 20
86.585181
 30
0.0
 11
63.732641
 21
88.185181
 31
0.0
  0
LINE
  5
82
100
AcDbEntity
  8
ALPHA
100
AcDbLine
 10
59.732641
 20
92.185181
 30
0.0
 11
69.032641
 21
92.185181
 31
0.0
  0
LINE
  5
83
100
AcDbEntity
  8
ALPHA
100
AcDbLine
 10
69.032641
 20
86.185181
 30
0.0
 11
59.732641
 21
86.185181
 31
0.0
  0
LINE
  5
84
100
AcDbEntity
  8
ALPHA
100
AcDbLine
 10
68.982641
 20
92.185181
 30
0.0
 11
68.982641
 21
86.185181
 31
0.0
  0
LINE
  5
85
100
AcDbEntity
  8
ALPHA
100
AcDbLine
 10
57.832641
 20
81.185181
 30
0.0
 11
57.532641
 21
81.185181
 31
0.0
  0
LINE
  5
86
100
AcDbEntity
  8
ALPHA
100
AcDbLine
 10
59.982641
 20
104.785181
 30
0.0
 11
55.032641
 21
104.785181
 31
0.0
  0
LINE
  5
87
100
AcDbEntity
  8
ALPHA
100
AcDbLine
 10
58.532641
 20
79.568159
 30
0.0
 11
57.832641
 21
81.185181
 31
0.0
  0
LINE
  5
88
100
AcDbEntity
  8
ALPHA
100
AcDbLine
 10
59.23264
 20
81.185181
 30
0.0
 11
58.532641
 21
79.568159
 31
0.0
  0
LINE
  5
89
100
AcDbEntity
  8
ALPHA
100
AcDbLine
 10
61.182641
 20
104.785181
 30
0.0
 11
60.782641
 21
104.785181
 31
0.0
  0
LINE
  5
8A
100
AcDbEntity
  8
ALPHA
100
AcDbLine
 10
59.532641
 20
81.185181
 30
0.0
 11
59.23264
 21
81.185181
 31
0.0
  0
LINE
  5
8B
100
AcDbEntity
  8
ALPHA
100
AcDbLine
 10
68.782641
 20
104.785181
 30
0.0
 11
61.182641
 21
104.785181
 31
0.0
  0
LINE
  5
8C
100
AcDbEntity
  8
ALPHA
100
AcDbLine
 10
58.68264
 20
79.142627
 30
0.0
 11
59.532641
 21
81.185181
 31
0.0
  0
LINE
  5
8D
100
AcDbEntity
  8
ALPHA
100
AcDbLine
 10
69.782641
 20
104.785181
 30
0.0
 11
68.782641
 21
104.785181
 31
0.0
  0
LINE
  5
8E
100
AcDbEntity
  8
ALPHA
100
AcDbLine
 10
59.532641
 20
77.185181
 30
0.0
 11
58.68264
 21
79.142627
 31
0.0
  0
LINE
  5
8F
100
AcDbEntity
  8
ALPHA
100
AcDbLine
 10
59.23264
 20
77.185181
 30
0.0
 11
59.532641
 21
77.185181
 31
0.0
  0
LINE
  5
90
100
AcDbEntity
  8
ALPHA
100
AcDbLine
 10
55.032641
 20
87.685181
 30
0.0
 11
55.032641
 21
91.185181
 31
0.0
  0
LINE
  5
91
100
AcDbEntity
  8
ALPHA
100
AcDbLine
 10
58.532641
 20
78.802202
 30
0.0
 11
59.23264
 21
77.185181
 31
0.0
  0
LINE
  5
92
100
AcDbEntity
  8
ALPHA
100
AcDbLine
 10
57.832641
 20
77.185181
 30
0.0
 11
58.532641
 21
78.802202
 31
0.0
  0
LINE
  5
93
100
AcDbEntity
  8
ALPHA
100
AcDbLine
 10
69.782641
 20
101.185181
 30
0.0
 11
68.782641
 21
101.185181
 31
0.0
  0
LINE
  5
94
100
AcDbEntity
  8
ALPHA
100
AcDbLine
 10
68.782641
 20
104.785181
 30
0.0
 11
68.782641
 21
101.185181
 31
0.0
  0
LINE
  5
95
100
AcDbEntity
  8
ALPHA
100
AcDbLine
 10
61.182641
 20
104.785181
 30
0.0
 11
61.182641
 21
101.185181
 31
0.0
  0
LINE
  5
96
100
AcDbEntity
  8
ALPHA
100
AcDbLine
 10
59.982641
 20
101.185181
 30
0.0
 11
61.182641
 21
101.185181
 31
0.0
  0
LINE
  5
97
100
AcDbEntity
  8
ALPHA
100
AcDbLine
 10
59.982641
 20
104.785181
 30
0.0
 11
59.982641
 21
101.185181
 31
0.0
  0
LINE
  5
98
100
AcDbEntity
  8
ALPHA
100
AcDbLine
 10
57.532641
 20
77.185181
 30
0.0
 11
57.832641
 21
77.185181
 31
0.0
  0
LINE
  5
99
100
AcDbEntity
  8
ALPHA
100
AcDbLine
 10
58.382641
 20
79.142627
 30
0.0
 11
57.532641
 21
77.185181
 31
0.0
  0
LINE
  5
9A
100
AcDbEntity
  8
ALPHA
100
AcDbLine
 10
57.532641
 20
81.185181
 30
0.0
 11
58.382641
 21
79.142627
 31
0.0
  0
LINE
  5
9B
100
AcDbEntity
  8
ALPHA
100
AcDbLine
 10
55.032641
 20
95.185181
 30
0.0
 11
55.032641
 21
98.685181
 31
0.0
  0
LINE
  5
9C
100
AcDbEntity
  8
ALPHA
100
AcDbLine
 10
56.532641
 20
81.185181
 30
0.0
 11
56.532641
 21
77.185181
 31
0.0
  0
LINE
  5
9D
100
AcDbEntity
  8
ALPHA
100
AcDbLine
 10
56.832641
 20
81.185181
 30
0.0
 11
56.532641
 21
81.185181
 31
0.0
  0
LINE
  5
9E
100
AcDbEntity
  8
ALPHA
100
AcDbLine
 10
56.832641
 20
77.866032
 30
0.0
 11
56.832641
 21
81.185181
 31
0.0
  0
LINE
  5
9F
100
AcDbEntity
  8
ALPHA
100
AcDbLine
 10
57.132641
 20
78.461776
 30
0.0
 11
56.832641
 21
77.866032
 31
0.0
  0
LINE
  5
A0
100
AcDbEntity
  8
ALPHA
100
AcDbLine
 10
57.132641
 20
77.780925
 30
0.0
 11
57.132641
 21
78.461776
 31
0.0
  0
LINE
  5
A1
100
AcDbEntity
  8
ALPHA
100
AcDbLine
 10
56.832641
 20
77.185181
 30
0.0
 11
57.132641
 21
77.780925
 31
0.0
  0
LINE
  5
A2
100
AcDbEntity
  8
ALPHA
100
AcDbLine
 10
56.532641
 20
77.185181
 30
0.0
 11
56.832641
 21
77.185181
 31
0.0
  0
LINE
  5
A3
100
AcDbEntity
  8
ALPHA
100
AcDbLine
 10
57.932641
 20
102.319155
 30
0.0
 11
57.932641
 21
101.185181
 31
0.0
  0
LINE
  5
A4
100
AcDbEntity
  8
ALPHA
100
AcDbLine
 10
57.932641
 20
85.185181
 30
0.0
 11
57.932641
 21
84.051206
 31
0.0
  0
LINE
  5
A5
100
AcDbEntity
  8
ALPHA
100
AcDbLine
 10
55.032641
 20
87.685181
 30
0.0
 11
58.179403
 21
87.685181
 31
0.0
  0
LINE
  5
A6
100
AcDbEntity
  8
ALPHA
100
AcDbLine
 10
58.179403
 20
98.685181
 30
0.0
 11
55.032641
 21
98.685181
 31
0.0
  0
LINE
  5
A7
100
AcDbEntity
  8
ALPHA
100
AcDbLine
 10
57.932641
 20
83.185181
 30
0.0
 11
57.932641
 21
84.051206
 31
0.0
  0
LINE
  5
A8
100
AcDbEntity
  8
ALPHA
100
AcDbLine
 10
55.032641
 20
83.185181
 30
0.0
 11
57.932641
 21
83.185181
 31
0.0
  0
LINE
  5
A9
100
AcDbEntity
  8
ALPHA
100
AcDbLine
 10
55.032641
 20
83.185181
 30
0.0
 11
55.032641
 21
84.051206
 31
0.0
  0
LINE
  5
AA
100
AcDbEntity
  8
ALPHA
100
AcDbLine
 10
55.032641
 20
102.319155
 30
0.0
 11
55.032641
 21
103.185181
 31
0.0
  0
LINE
  5
AB
100
AcDbEntity
  8
ALPHA
100
AcDbLine
 10
55.032641
 20
103.185181
 30
0.0
 11
57.932641
 21
103.185181
 31
0.0
  0
LINE
  5
AC
100
AcDbEntity
  8
ALPHA
100
AcDbLine
 10
57.932641
 20
102.319155
 30
0.0
 11
57.932641
 21
103.185181
 31
0.0
  0
LINE
  5
AD
100
AcDbEntity
  8
ALPHA
100
AcDbLine
 10
55.032641
 20
102.319155
 30
0.0
 11
57.932641
 21
102.319155
 31
0.0
  0
LINE
  5
AE
100
AcDbEntity
  8
ALPHA
100
AcDbLine
 10
55.032641
 20
101.185181
 30
0.0
 11
57.932641
 21
101.185181
 31
0.0
  0
LINE
  5
AF
100
AcDbEntity
  8
ALPHA
100
AcDbLine
 10
55.032641
 20
85.185181
 30
0.0
 11
57.932641
 21
85.185181
 31
0.0
  0
LINE
  5
B0
100
AcDbEntity
  8
ALPHA
100
AcDbLine
 10
55.032641
 20
84.051206
 30
0.0
 11
57.932641
 21
84.051206
 31
0.0
  0
LINE
  5
B1
100
AcDbEntity
  8
ALPHA
100
AcDbLine
 10
59.732641
 20
92.185181
 30
0.0
 11
59.732641
 21
86.185181
 31
0.0
  0
LINE
  5
B2
100
AcDbEntity
  8
ALPHA
100
AcDbLine
 10
69.032641
 20
86.185181
 30
0.0
 11
69.032641
 21
92.185181
 31
0.0
  0
LINE
  5
B3
100
AcDbEntity
  8
ALPHA
100
AcDbLine
 10
67.532641
 20
76.685181
 30
0.0
 11
67.532641
 21
77.526868
 31
0.0
  0
LINE
  5
B4
100
AcDbEntity
  8
ALPHA
100
AcDbLine
 10
66.690953
 20
76.685181
 30
0.0
 11
67.532641
 21
76.685181
 31
0.0
  0
ARC
  5
B5
100
AcDbEntity
  8
ALPHA
100
AcDbCircle
 10
65.032641
 20
79.185181
 30
0.0
 40
3.0
100
AcDbArc
 50
236.44269
 51
303.55731
  0
LINE
  5
B6
100
AcDbEntity
  8
ALPHA
100
AcDbLine
 10
62.532641
 20
76.685181
 30
0.0
 11
63.374328
 21
76.685181
 31
0.0
  0
LINE
  5
B7
100
AcDbEntity
  8
ALPHA
100
AcDbLine
 10
62.532641
 20
77.526868
 30
0.0
 11
62.532641
 21
76.685181
 31
0.0
  0
LINE
  5
B8
100
AcDbEntity
  8
ALPHA
100
AcDbLine
 10
69.132641
 20
99.185181
 30
0.0
 11
66.982641
 21
99.185181
 31
0.0
  0
LINE
  5
B9
100
AcDbEntity
  8
ALPHA
100
AcDbLine
 10
69.132641
 20
96.385181
 30
0.0
 11
69.132641
 21
99.185181
 31
0.0
  0
LINE
  5
BA
100
AcDbEntity
  8
ALPHA
100
AcDbLine
 10
66.982641
 20
96.385181
 30
0.0
 11
69.132641
 21
96.385181
 31
0.0
  0
LINE
  5
BB
100
AcDbEntity
  8
ALPHA
100
AcDbLine
 10
66.982641
 20
99.185181
 30
0.0
 11
66.982641
 21
96.385181
 31
0.0
  0
LINE
  5
BC
100
AcDbEntity
  8
ALPHA
100
AcDbLine
 10
63.032641
 20
99.185181
 30
0.0
 11
61.032641
 21
99.185181
 31
0.0
  0
LINE
  5
BD
100
AcDbEntity
  8
ALPHA
100
AcDbLine
 10
63.032641
 20
96.385181
 30
0.0
 11
63.032641
 21
99.185181
 31
0.0
  0
LINE
  5
BE
100
AcDbEntity
  8
ALPHA
100
AcDbLine
 10
61.032641
 20
96.385181
 30
0.0
 11
63.032641
 21
96.385181
 31
0.0
  0
LINE
  5
BF
100
AcDbEntity
  8
ALPHA
100
AcDbLine
 10
61.032641
 20
99.185181
 30
0.0
 11
61.032641
 21
96.385181
 31
0.0
  0
LINE
  5
C0
100
AcDbEntity
  8
ALPHA
100
AcDbLine
 10
57.332641
 20
95.185181
 30
0.0
 11
57.332641
 21
91.185181
 31
0.0
  0
LINE
  5
C1
100
AcDbEntity
  8
ALPHA
100
AcDbLine
 10
55.032641
 20
95.185181
 30
0.0
 11
57.332641
 21
95.185181
 31
0.0
  0
LINE
  5
C2
100
AcDbEntity
  8
ALPHA
100
AcDbLine
 10
55.032641
 20
73.385181
 30
0.0
 11
69.782641
 21
73.385181
 31
0.0
  0
LINE
  5
C3
100
AcDbEntity
  8
ALPHA
100
AcDbLine
 10
55.032641
 20
91.185181
 30
0.0
 11
57.332641
 21
91.185181
 31
0.0
  0
ARC
  5
C4
100
AcDbEntity
  8
ALPHA
100
AcDbCircle
 10
65.432641
 20
91.785181
 30
0.0
 40
0.4
100
AcDbArc
 50
90.0
 51
180.0
  0
ARC
  5
C5
100
AcDbEntity
  8
ALPHA
100
AcDbCircle
 10
65.432641
 20
86.585181
 30
0.0
 40
0.4
100
AcDbArc
 50
180.0
 51
270.0
  0
ARC
  5
C6
100
AcDbEntity
  8
ALPHA
100
AcDbCircle
 10
63.332641
 20
91.785181
 30
0.0
 40
0.4
100
AcDbArc
 50
0.0
 51
90.0
  0
ARC
  5
C7
100
AcDbEntity
  8
ALPHA
100
AcDbCircle
 10
63.332641
 20
86.585181
 30
0.0
 40
0.4
100
AcDbArc
 50
270.0
 51
0.0
  0
LINE
  5
C8
100
AcDbEntity
  8
ALPHA
100
AcDbLine
 10
57.932641
 20
101.185181
 30
0.0
 11
58.179403
 21
101.185181
 31
0.0
  0
LINE
  5
C9
100
AcDbEntity
  8
ALPHA
100
AcDbLine
 10
58.179403
 20
85.185181
 30
0.0
 11
57.932641
 21
85.185181
 31
0.0
  0
LINE
  5
CA
100
AcDbEntity
  8
ALPHA
100
AcDbLine
 10
58.179403
 20
87.685181
 30
0.0
 11
58.379327
 21
87.685181
 31
0.0
  0
LINE
  5
CB
100
AcDbEntity
  8
ALPHA
100
AcDbLine
 10
58.179403
 20
101.185181
 30
0.0
 11
58.379327
 21
101.185181
 31
0.0
  0
LINE
  5
CC
100
AcDbEntity
  8
ALPHA
100
AcDbLine
 10
69.782641
 20
104.785181
 30
0.0
 11
69.782641
 21
101.415146
 31
0.0
  0
LINE
  5
CD
100
AcDbEntity
  8
ALPHA
100
AcDbLine
 10
69.782641
 20
101.185181
 30
0.0
 11
69.782641
 21
101.415146
 31
0.0
  0
LINE
  5
CE
100
AcDbEntity
  8
ALPHA
100
AcDbLine
 10
69.782641
 20
73.385181
 30
0.0
 11
69.782641
 21
101.185181
 31
0.0
  0
LINE
  5
CF
100
AcDbEntity
  8
ALPHA
100
AcDbLine
 10
58.379403
 20
85.185181
 30
0.0
 11
58.379403
 21
87.685181
 31
0.0
  0
LINE
  5
D0
100
AcDbEntity
  8
ALPHA
100
AcDbLine
 10
58.379327
 20
85.185181
 30
0.0
 11
58.179403
 21
85.185181
 31
0.0
  0
LINE
  5
D1
100
AcDbEntity
  8
ALPHA
100
AcDbLine
 10
58.379403
 20
101.185181
 30
0.0
 11
58.379403
 21
98.685181
 31
0.0
  0
LINE
  5
D2
100
AcDbEntity
  8
ALPHA
100
AcDbLine
 10
58.379327
 20
98.685181
 30
0.0
 11
58.179403
 21
98.685181
 31
0.0
  0
LINE
  5
D3
100
AcDbEntity
  8
ALPHA
100
AcDbLine
 10
51.885879
 20
101.185181
 30
0.0
 11
51.885879
 21
98.685181
 31
0.0
  0
LINE
  5
D4
100
AcDbEntity
  8
ALPHA
100
AcDbLine
 10
50.082641
 20
102.219136
 30
0.0
 11
49.982641
 21
102.219136
 31
0.0
  0
LINE
  5
D5
100
AcDbEntity
  8
ALPHA
100
AcDbLine
 10
50.288448
 20
73.060204
 30
0.0
 11
50.382641
 21
72.989213
 31
0.0
  0
LINE
  5
D6
100
AcDbEntity
  8
ALPHA
100
AcDbLine
 10
50.032641
 20
73.253
 30
0.0
 11
50.288448
 21
73.060204
 31
0.0
  0
LINE
  5
D7
100
AcDbEntity
  8
ALPHA
100
AcDbLine
 10
51.885879
 20
85.185181
 30
0.0
 11
51.885879
 21
87.685181
 31
0.0
  0
LINE
  5
D8
100
AcDbEntity
  8
ALPHA
100
AcDbLine
 10
49.032641
 20
105.985181
 30
0.0
 11
49.032641
 21
104.785181
 31
0.0
  0
LINE
  5
D9
100
AcDbEntity
  8
ALPHA
100
AcDbLine
 10
51.032641
 20
105.985181
 30
0.0
 11
51.032641
 21
105.785181
 31
0.0
  0
LINE
  5
DA
100
AcDbEntity
  8
ALPHA
100
AcDbLine
 10
49.032641
 20
72.485181
 30
0.0
 11
49.032641
 21
72.185181
 31
0.0
  0
LINE
  5
DB
100
AcDbEntity
  8
ALPHA
100
AcDbLine
 10
51.032641
 20
72.499323
 30
0.0
 11
51.032641
 21
72.385181
 31
0.0
  0
LINE
  5
DC
100
AcDbEntity
  8
ALPHA
100
AcDbLine
 10
51.032641
 20
72.385181
 30
0.0
 11
51.032641
 21
72.185181
 31
0.0
  0
LINE
  5
DD
100
AcDbEntity
  8
ALPHA
100
AcDbLine
 10
50.032641
 20
73.385181
 30
0.0
 11
50.032641
 21
72.962531
 31
0.0
  0
LINE
  5
DE
100
AcDbEntity
  8
ALPHA
100
AcDbLine
 10
50.328634
 20
72.791639
 30
0.0
 11
51.032641
 21
72.385181
 31
0.0
  0
LINE
  5
DF
100
AcDbEntity
  8
ALPHA
100
AcDbLine
 10
50.032641
 20
72.962531
 30
0.0
 11
50.328634
 21
72.791639
 31
0.0
  0
LINE
  5
E0
100
AcDbEntity
  8
ALPHA
100
AcDbLine
 10
49.032641
 20
72.185181
 30
0.0
 11
51.032641
 21
72.185181
 31
0.0
  0
LINE
  5
E1
100
AcDbEntity
  8
ALPHA
100
AcDbLine
 10
45.032641
 20
90.485181
 30
0.0
 11
45.032641
 21
90.635181
 31
0.0
  0
LINE
  5
E2
100
AcDbEntity
  8
ALPHA
100
AcDbLine
 10
51.032641
 20
105.785433
 30
0.0
 11
51.032641
 21
105.660458
 31
0.0
  0
LINE
  5
E3
100
AcDbEntity
  8
ALPHA
100
AcDbLine
 10
50.082641
 20
103.985181
 30
0.0
 11
49.982641
 21
103.985181
 31
0.0
  0
LINE
  5
E4
100
AcDbEntity
  8
ALPHA
100
AcDbLine
 10
40.282641
 20
104.785181
 30
0.0
 11
40.282641
 21
104.485181
 31
0.0
  0
LINE
  5
E5
100
AcDbEntity
  8
ALPHA
100
AcDbLine
 10
49.932641
 20
90.685181
 30
0.0
 11
50.332641
 21
90.685181
 31
0.0
  0
LINE
  5
E6
100
AcDbEntity
  8
ALPHA
100
AcDbLine
 10
49.932641
 20
87.685181
 30
0.0
 11
50.332641
 21
87.685181
 31
0.0
  0
LINE
  5
E7
100
AcDbEntity
  8
ALPHA
100
AcDbLine
 10
48.782641
 20
87.685181
 30
0.0
 11
48.932641
 21
87.685181
 31
0.0
  0
LINE
  5
E8
100
AcDbEntity
  8
ALPHA
100
AcDbLine
 10
41.132641
 20
87.685181
 30
0.0
 11
41.282641
 21
87.685181
 31
0.0
  0
LINE
  5
E9
100
AcDbEntity
  8
ALPHA
100
AcDbLine
 10
55.032641
 20
85.185181
 30
0.0
 11
55.032641
 21
87.685181
 31
0.0
  0
LINE
  5
EA
100
AcDbEntity
  8
ALPHA
100
AcDbLine
 10
55.032641
 20
84.051206
 30
0.0
 11
55.032641
 21
85.185181
 31
0.0
  0
LINE
  5
EB
100
AcDbEntity
  8
ALPHA
100
AcDbLine
 10
55.032641
 20
101.185181
 30
0.0
 11
55.032641
 21
102.319155
 31
0.0
  0
LINE
  5
EC
100
AcDbEntity
  8
ALPHA
100
AcDbLine
 10
55.032641
 20
98.685181
 30
0.0
 11
55.032641
 21
101.185181
 31
0.0
  0
LINE
  5
ED
100
AcDbEntity
  8
ALPHA
100
AcDbLine
 10
55.032641
 20
91.185181
 30
0.0
 11
55.032641
 21
95.185181
 31
0.0
  0
LINE
  5
EE
100
AcDbEntity
  8
ALPHA
100
AcDbLine
 10
49.032641
 20
105.985181
 30
0.0
 11
51.032641
 21
105.985181
 31
0.0
  0
LINE
  5
EF
100
AcDbEntity
  8
ALPHA
100
AcDbLine
 10
50.082641
 20
104.785181
 30
0.0
 11
50.032641
 21
104.785181
 31
0.0
  0
LINE
  5
F0
100
AcDbEntity
  8
ALPHA
100
AcDbLine
 10
50.032641
 20
105.20783
 30
0.0
 11
50.032641
 21
104.785181
 31
0.0
  0
LINE
  5
F1
100
AcDbEntity
  8
ALPHA
100
AcDbLine
 10
50.328634
 20
105.378722
 30
0.0
 11
50.032641
 21
105.20783
 31
0.0
  0
LINE
  5
F2
100
AcDbEntity
  8
ALPHA
100
AcDbLine
 10
51.032641
 20
105.785181
 30
0.0
 11
50.328634
 21
105.378722
 31
0.0
  0
LINE
  5
F3
100
AcDbEntity
  8
ALPHA
100
AcDbLine
 10
54.932641
 20
73.485181
 30
0.0
 11
55.032641
 21
73.585181
 31
0.0
  0
LINE
  5
F4
100
AcDbEntity
  8
ALPHA
100
AcDbLine
 10
54.832641
 20
73.385181
 30
0.0
 11
54.932641
 21
73.485181
 31
0.0
  0
LINE
  5
F5
100
AcDbEntity
  8
ALPHA
100
AcDbLine
 10
50.032641
 20
90.435181
 30
0.0
 11
50.332641
 21
90.435181
 31
0.0
  0
LINE
  5
F6
100
AcDbEntity
  8
ALPHA
100
AcDbLine
 10
50.332641
 20
87.935181
 30
0.0
 11
50.032641
 21
87.935181
 31
0.0
  0
LINE
  5
F7
100
AcDbEntity
  8
ALPHA
100
AcDbLine
 10
49.932641
 20
92.185181
 30
0.0
 11
50.332641
 21
92.185181
 31
0.0
  0
LINE
  5
F8
100
AcDbEntity
  8
ALPHA
100
AcDbLine
 10
50.332641
 20
86.185181
 30
0.0
 11
49.932641
 21
86.185181
 31
0.0
  0
LINE
  5
F9
100
AcDbEntity
  8
ALPHA
100
AcDbLine
 10
51.832641
 20
81.185181
 30
0.0
 11
51.532641
 21
81.185181
 31
0.0
  0
LINE
  5
FA
100
AcDbEntity
  8
ALPHA
100
AcDbLine
 10
52.532641
 20
79.568159
 30
0.0
 11
51.832641
 21
81.185181
 31
0.0
  0
LINE
  5
FB
100
AcDbEntity
  8
ALPHA
100
AcDbLine
 10
53.232641
 20
81.185181
 30
0.0
 11
52.532641
 21
79.568159
 31
0.0
  0
LINE
  5
FC
100
AcDbEntity
  8
ALPHA
100
AcDbLine
 10
53.532641
 20
81.185181
 30
0.0
 11
53.232641
 21
81.185181
 31
0.0
  0
LINE
  5
FD
100
AcDbEntity
  8
ALPHA
100
AcDbLine
 10
52.682641
 20
79.142627
 30
0.0
 11
53.532641
 21
81.185181
 31
0.0
  0
LINE
  5
FE
100
AcDbEntity
  8
ALPHA
100
AcDbLine
 10
53.532641
 20
77.185181
 30
0.0
 11
52.682641
 21
79.142627
 31
0.0
  0
LINE
  5
FF
100
AcDbEntity
  8
ALPHA
100
AcDbLine
 10
53.232641
 20
77.185181
 30
0.0
 11
53.532641
 21
77.185181
 31
0.0
  0
LINE
  5
100
100
AcDbEntity
  8
ALPHA
100
AcDbLine
 10
52.532641
 20
78.802202
 30
0.0
 11
53.232641
 21
77.185181
 31
0.0
  0
LINE
  5
101
100
AcDbEntity
  8
ALPHA
100
AcDbLine
 10
51.832641
 20
77.185181
 30
0.0
 11
52.532641
 21
78.802202
 31
0.0
  0
LINE
  5
102
100
AcDbEntity
  8
ALPHA
100
AcDbLine
 10
51.532641
 20
77.185181
 30
0.0
 11
51.832641
 21
77.185181
 31
0.0
  0
LINE
  5
103
100
AcDbEntity
  8
ALPHA
100
AcDbLine
 10
52.38264
 20
79.142627
 30
0.0
 11
51.532641
 21
77.185181
 31
0.0
  0
LINE
  5
104
100
AcDbEntity
  8
ALPHA
100
AcDbLine
 10
51.532641
 20
81.185181
 30
0.0
 11
52.38264
 21
79.142627
 31
0.0
  0
LINE
  5
105
100
AcDbEntity
  8
ALPHA
100
AcDbLine
 10
51.13264
 20
80.759648
 30
0.0
 11
51.13264
 21
81.185181
 31
0.0
  0
LINE
  5
106
100
AcDbEntity
  8
ALPHA
100
AcDbLine
 10
49.932641
 20
78.935941
 30
0.0
 11
51.13264
 21
80.759648
 31
0.0
  0
LINE
  5
107
100
AcDbEntity
  8
ALPHA
100
AcDbLine
 10
50.13264
 20
77.610713
 30
0.0
 11
49.932641
 21
77.678798
 31
0.0
  0
LINE
  5
108
100
AcDbEntity
  8
ALPHA
100
AcDbLine
 10
50.332641
 20
77.610713
 30
0.0
 11
50.13264
 21
77.610713
 31
0.0
  0
LINE
  5
109
100
AcDbEntity
  8
ALPHA
100
AcDbLine
 10
50.582641
 20
77.695819
 30
0.0
 11
50.332641
 21
77.610713
 31
0.0
  0
LINE
  5
10A
100
AcDbEntity
  8
ALPHA
100
AcDbLine
 10
50.73264
 20
77.866032
 30
0.0
 11
50.582641
 21
77.695819
 31
0.0
  0
LINE
  5
10B
100
AcDbEntity
  8
ALPHA
100
AcDbLine
 10
50.832641
 20
78.121351
 30
0.0
 11
50.73264
 21
77.866032
 31
0.0
  0
LINE
  5
10C
100
AcDbEntity
  8
ALPHA
100
AcDbLine
 10
51.082641
 20
78.121351
 30
0.0
 11
50.832641
 21
78.121351
 31
0.0
  0
LINE
  5
10D
100
AcDbEntity
  8
ALPHA
100
AcDbLine
 10
51.032641
 20
77.780925
 30
0.0
 11
51.082641
 21
78.121351
 31
0.0
  0
LINE
  5
10E
100
AcDbEntity
  8
ALPHA
100
AcDbLine
 10
50.832641
 20
77.4405
 30
0.0
 11
51.032641
 21
77.780925
 31
0.0
  0
LINE
  5
10F
100
AcDbEntity
  8
ALPHA
100
AcDbLine
 10
55.032641
 20
104.785181
 30
0.0
 11
50.082641
 21
104.785181
 31
0.0
  0
LINE
  5
110
100
AcDbEntity
  8
ALPHA
100
AcDbLine
 10
50.63264
 20
77.270287
 30
0.0
 11
50.832641
 21
77.4405
 31
0.0
  0
LINE
  5
111
100
AcDbEntity
  8
ALPHA
100
AcDbLine
 10
50.282641
 20
77.185181
 30
0.0
 11
50.63264
 21
77.270287
 31
0.0
  0
LINE
  5
112
100
AcDbEntity
  8
ALPHA
100
AcDbLine
 10
50.082641
 20
77.185181
 30
0.0
 11
50.282641
 21
77.185181
 31
0.0
  0
LINE
  5
113
100
AcDbEntity
  8
ALPHA
100
AcDbLine
 10
48.882641
 20
104.785181
 30
0.0
 11
41.282641
 21
104.785181
 31
0.0
  0
LINE
  5
114
100
AcDbEntity
  8
ALPHA
100
AcDbLine
 10
49.932641
 20
77.227734
 30
0.0
 11
50.082641
 21
77.185181
 31
0.0
  0
LINE
  5
115
100
AcDbEntity
  8
ALPHA
100
AcDbLine
 10
49.032641
 20
104.785181
 30
0.0
 11
48.882641
 21
104.785181
 31
0.0
  0
LINE
  5
116
100
AcDbEntity
  8
ALPHA
100
AcDbLine
 10
40.282641
 20
104.785181
 30
0.0
 11
41.282641
 21
104.785181
 31
0.0
  0
LINE
  5
117
100
AcDbEntity
  8
ALPHA
100
AcDbLine
 10
55.032641
 20
98.685181
 30
0.0
 11
55.032641
 21
95.185181
 31
0.0
  0
LINE
  5
118
100
AcDbEntity
  8
ALPHA
100
AcDbLine
 10
55.032641
 20
103.185181
 30
0.0
 11
55.032641
 21
104.785181
 31
0.0
  0
LINE
  5
119
100
AcDbEntity
  8
ALPHA
100
AcDbLine
 10
50.082641
 20
104.785181
 30
0.0
 11
50.082641
 21
101.185181
 31
0.0
  0
LINE
  5
11A
100
AcDbEntity
  8
ALPHA
100
AcDbLine
 10
50.082641
 20
101.185181
 30
0.0
 11
49.932641
 21
101.185181
 31
0.0
  0
LINE
  5
11B
100
AcDbEntity
  8
ALPHA
100
AcDbLine
 10
48.882641
 20
104.785181
 30
0.0
 11
48.882641
 21
104.485181
 31
0.0
  0
LINE
  5
11C
100
AcDbEntity
  8
ALPHA
100
AcDbLine
 10
41.282641
 20
104.785181
 30
0.0
 11
41.282641
 21
104.485181
 31
0.0
  0
LINE
  5
11D
100
AcDbEntity
  8
ALPHA
100
AcDbLine
 10
54.832641
 20
73.385181
 30
0.0
 11
49.932641
 21
73.385181
 31
0.0
  0
LINE
  5
11E
100
AcDbEntity
  8
ALPHA
100
AcDbLine
 10
55.032641
 20
73.585181
 30
0.0
 11
55.032641
 21
83.185181
 31
0.0
  0
LINE
  5
11F
100
AcDbEntity
  8
ALPHA
100
AcDbLine
 10
50.73264
 20
80.759648
 30
0.0
 11
49.932641
 21
79.561351
 31
0.0
  0
LINE
  5
120
100
AcDbEntity
  8
ALPHA
100
AcDbLine
 10
49.932641
 20
80.759648
 30
0.0
 11
50.73264
 21
80.759648
 31
0.0
  0
LINE
  5
121
100
AcDbEntity
  8
ALPHA
100
AcDbLine
 10
55.032641
 20
91.185181
 30
0.0
 11
55.032641
 21
87.685181
 31
0.0
  0
LINE
  5
122
100
AcDbEntity
  8
ALPHA
100
AcDbLine
 10
51.13264
 20
81.185181
 30
0.0
 11
49.932641
 21
81.185181
 31
0.0
  0
LINE
  5
123
100
AcDbEntity
  8
ALPHA
100
AcDbLine
 10
52.132641
 20
84.051206
 30
0.0
 11
52.132641
 21
85.185181
 31
0.0
  0
LINE
  5
124
100
AcDbEntity
  8
ALPHA
100
AcDbLine
 10
52.132641
 20
101.185181
 30
0.0
 11
52.132641
 21
102.319155
 31
0.0
  0
LINE
  5
125
100
AcDbEntity
  8
ALPHA
100
AcDbLine
 10
55.032641
 20
98.685181
 30
0.0
 11
51.885879
 21
98.685181
 31
0.0
  0
LINE
  5
126
100
AcDbEntity
  8
ALPHA
100
AcDbLine
 10
51.885879
 20
87.685181
 30
0.0
 11
55.032641
 21
87.685181
 31
0.0
  0
LINE
  5
127
100
AcDbEntity
  8
ALPHA
100
AcDbLine
 10
55.032641
 20
84.051206
 30
0.0
 11
55.032641
 21
83.185181
 31
0.0
  0
LINE
  5
128
100
AcDbEntity
  8
ALPHA
100
AcDbLine
 10
55.032641
 20
83.185181
 30
0.0
 11
52.132641
 21
83.185181
 31
0.0
  0
LINE
  5
129
100
AcDbEntity
  8
ALPHA
100
AcDbLine
 10
52.132641
 20
84.051206
 30
0.0
 11
52.132641
 21
83.185181
 31
0.0
  0
LINE
  5
12A
100
AcDbEntity
  8
ALPHA
100
AcDbLine
 10
52.132641
 20
103.185181
 30
0.0
 11
52.132641
 21
102.319155
 31
0.0
  0
LINE
  5
12B
100
AcDbEntity
  8
ALPHA
100
AcDbLine
 10
55.032641
 20
103.185181
 30
0.0
 11
52.132641
 21
103.185181
 31
0.0
  0
LINE
  5
12C
100
AcDbEntity
  8
ALPHA
100
AcDbLine
 10
55.032641
 20
103.185181
 30
0.0
 11
55.032641
 21
102.319155
 31
0.0
  0
LINE
  5
12D
100
AcDbEntity
  8
ALPHA
100
AcDbLine
 10
55.032641
 20
101.185181
 30
0.0
 11
52.132641
 21
101.185181
 31
0.0
  0
LINE
  5
12E
100
AcDbEntity
  8
ALPHA
100
AcDbLine
 10
55.032641
 20
102.319155
 30
0.0
 11
52.132641
 21
102.319155
 31
0.0
  0
LINE
  5
12F
100
AcDbEntity
  8
ALPHA
100
AcDbLine
 10
55.032641
 20
84.051206
 30
0.0
 11
52.132641
 21
84.051206
 31
0.0
  0
LINE
  5
130
100
AcDbEntity
  8
ALPHA
100
AcDbLine
 10
55.032641
 20
85.185181
 30
0.0
 11
52.132641
 21
85.185181
 31
0.0
  0
LINE
  5
131
100
AcDbEntity
  8
ALPHA
100
AcDbLine
 10
52.732641
 20
91.185181
 30
0.0
 11
52.732641
 21
95.185181
 31
0.0
  0
LINE
  5
132
100
AcDbEntity
  8
ALPHA
100
AcDbLine
 10
55.032641
 20
91.185181
 30
0.0
 11
52.732641
 21
91.185181
 31
0.0
  0
LINE
  5
133
100
AcDbEntity
  8
ALPHA
100
AcDbLine
 10
55.032641
 20
95.185181
 30
0.0
 11
52.732641
 21
95.185181
 31
0.0
  0
ARC
  5
134
100
AcDbEntity
  8
ALPHA
100
AcDbCircle
 10
44.632641
 20
86.585181
 30
0.0
 40
0.4
100
AcDbArc
 50
320.997945
 51
345.402794
  0
LINE
  5
135
100
AcDbEntity
  8
ALPHA
100
AcDbLine
 10
52.132641
 20
85.185181
 30
0.0
 11
51.885879
 21
85.185181
 31
0.0
  0
LINE
  5
136
100
AcDbEntity
  8
ALPHA
100
AcDbLine
 10
51.885879
 20
101.185181
 30
0.0
 11
52.132641
 21
101.185181
 31
0.0
  0
LINE
  5
137
100
AcDbEntity
  8
ALPHA
100
AcDbLine
 10
51.885879
 20
85.185181
 30
0.0
 11
51.685954
 21
85.185181
 31
0.0
  0
LINE
  5
138
100
AcDbEntity
  8
ALPHA
100
AcDbLine
 10
51.885879
 20
98.685181
 30
0.0
 11
51.685954
 21
98.685181
 31
0.0
  0
LINE
  5
139
100
AcDbEntity
  8
ALPHA
100
AcDbLine
 10
50.332641
 20
86.185181
 30
0.0
 11
50.332641
 21
92.185181
 31
0.0
  0
LINE
  5
13A
100
AcDbEntity
  8
ALPHA
100
AcDbLine
 10
51.685879
 20
85.185181
 30
0.0
 11
51.685879
 21
87.685181
 31
0.0
  0
LINE
  5
13B
100
AcDbEntity
  8
ALPHA
100
AcDbLine
 10
51.685954
 20
87.685181
 30
0.0
 11
51.885879
 21
87.685181
 31
0.0
  0
LINE
  5
13C
100
AcDbEntity
  8
ALPHA
100
AcDbLine
 10
51.685879
 20
101.185181
 30
0.0
 11
51.685879
 21
98.685181
 31
0.0
  0
LINE
  5
13D
100
AcDbEntity
  8
ALPHA
100
AcDbLine
 10
51.685954
 20
101.185181
 30
0.0
 11
51.885879
 21
101.185181
 31
0.0
  0
LINE
  5
13E
100
AcDbEntity
  8
ALPHA
100
AcDbLine
 10
67.032641
 20
105.410281
 30
0.0
 11
67.032641
 21
104.785181
 31
0.0
  0
LINE
  5
13F
100
AcDbEntity
  8
ALPHA
100
AcDbLine
 10
67.032641
 20
105.410281
 30
0.0
 11
67.332641
 21
105.410281
 31
0.0
  0
LWPOLYLINE
  5
140
100
AcDbEntity
  8
ALPHA
100
AcDbPolyline
 90
        8
 70
     0
 43
0.0
 10
53.666047
 20
110.385181
 10
54.038873
 20
110.612228
 10
54.429817
 20
110.762227
 10
54.830746
 20
110.836746
 10
55.234799
 20
110.836721
 10
55.635694
 20
110.762162
 10
56.026615
 20
110.612127
 10
56.399168
 20
110.385181
  0
LWPOLYLINE
  5
14A
100
AcDbEntity
  8
ALPHA
100
AcDbPolyline
 90
        3
 70
     0
 43
0.0
 10
67.275346
 20
105.585945
 10
67.317958
 20
105.502634
 10
67.332641
 20
105.410281
  0
LWPOLYLINE
  5
14F
100
AcDbEntity
  8
ALPHA
100
AcDbPolyline
 90
        4
 70
     0
 43
0.0
 10
67.032641
 20
105.70914
 10
67.125346
 20
105.694512
 10
67.208976
 20
105.652063
 10
67.275346
 20
105.585945
  0
LINE
  5
155
100
AcDbEntity
  8
ALPHA
100
AcDbLine
 10
67.032641
 20
105.410281
 30
0.0
 11
67.032641
 21
105.70914
 31
0.0
  0
LINE
  5
156
100
AcDbEntity
  8
ALPHA
100
AcDbLine
 10
63.132641
 20
105.410281
 30
0.0
 11
67.032641
 21
105.410281
 31
0.0
  0
LINE
  5
157
100
AcDbEntity
  8
ALPHA
100
AcDbLine
 10
53.666047
 20
110.385181
 30
0.0
 11
52.432641
 21
110.385181
 31
0.0
  0
LWPOLYLINE
  5
158
100
AcDbEntity
  8
ALPHA
100
AcDbPolyline
 90
        4
 70
     0
 43
0.0
 10
53.666047
 20
110.385181
 10
53.472962
 20
110.013207
 10
53.300889
 20
109.612639
 10
53.146858
 20
109.185181
  0
LINE
  5
15E
100
AcDbEntity
  8
ALPHA
100
AcDbLine
 10
63.132641
 20
105.410281
 30
0.0
 11
63.132641
 21
105.70914
 31
0.0
  0
LWPOLYLINE
  5
15F
100
AcDbEntity
  8
ALPHA
100
AcDbPolyline
 90
        4
 70
     0
 43
0.0
 10
56.399168
 20
110.385181
 10
56.592315
 20
110.013216
 10
56.764391
 20
109.612643
 10
56.918423
 20
109.185181
  0
LINE
  5
165
100
AcDbEntity
  8
ALPHA
100
AcDbLine
 10
57.632641
 20
110.385181
 30
0.0
 11
56.399168
 21
110.385181
 31
0.0
  0
LINE
  5
166
100
AcDbEntity
  8
ALPHA
100
AcDbLine
 10
63.132641
 20
105.70914
 30
0.0
 11
67.032641
 21
105.70914
 31
0.0
  0
LWPOLYLINE
  5
167
100
AcDbEntity
  8
ALPHA
100
AcDbPolyline
 90
        5
 70
     0
 43
0.0
 10
63.132641
 20
105.410281
 10
63.017836
 20
105.410159
 10
62.920509
 20
105.410116
 10
62.855477
 20
105.410159
 10
62.832641
 20
105.410281
  0
LINE
  5
16E
100
AcDbEntity
  8
ALPHA
100
AcDbLine
 10
57.632641
 20
110.385181
 30
0.0
 11
57.632641
 21
109.185181
 31
0.0
  0
LWPOLYLINE
  5
16F
100
AcDbEntity
  8
ALPHA
100
AcDbPolyline
 90
        6
 70
     0
 43
0.0
 10
57.632641
 20
110.385181
 10
57.719889
 20
110.366842
 10
57.803615
 20
110.309536
 10
57.870474
 20
110.219509
 10
57.915661
 20
110.101626
 10
57.932641
 20
109.960917
  0
LINE
  5
177
100
AcDbEntity
  8
ALPHA
100
AcDbLine
 10
63.132641
 20
104.785181
 30
0.0
 11
63.132641
 21
105.410281
 31
0.0
  0
LINE
  5
178
100
AcDbEntity
  8
ALPHA
100
AcDbLine
 10
52.432641
 20
109.185181
 30
0.0
 11
52.432641
 21
110.385181
 31
0.0
  0
LWPOLYLINE
  5
179
100
AcDbEntity
  8
ALPHA
100
AcDbPolyline
 90
        6
 70
     0
 43
0.0
 10
52.132641
 20
109.960917
 10
52.14962
 20
110.101626
 10
52.194807
 20
110.219509
 10
52.261666
 20
110.309536
 10
52.345393
 20
110.366842
 10
52.432641
 20
110.385181
  0
LWPOLYLINE
  5
181
100
AcDbEntity
  8
ALPHA
100
AcDbPolyline
 90
        5
 70
     0
 43
0.0
 10
62.832641
 20
105.688495
 10
62.855539
 20
105.803889
 10
62.920622
 20
105.901551
 10
63.017986
 20
105.96678
 10
63.132641
 20
105.989641
  0
LINE
  5
188
100
AcDbEntity
  8
ALPHA
100
AcDbLine
 10
68.932641
 20
71.831306
 30
0.0
 11
68.932641
 21
70.685181
 31
0.0
  0
LINE
  5
189
100
AcDbEntity
  8
ALPHA
100
AcDbLine
 10
48.832641
 20
108.658386
 30
0.0
 11
41.232641
 21
108.658386
 31
0.0
  0
LINE
  5
18A
100
AcDbEntity
  8
ALPHA
100
AcDbLine
 10
48.832641
 20
108.398578
 30
0.0
 11
41.232641
 21
108.398578
 31
0.0
  0
LINE
  5
18B
100
AcDbEntity
  8
ALPHA
100
AcDbLine
 10
68.832641
 20
108.658386
 30
0.0
 11
61.232641
 21
108.658386
 31
0.0
  0
LWPOLYLINE
  5
18C
100
AcDbEntity
  8
ALPHA
100
AcDbPolyline
 90
        7
 70
     0
 43
0.0
 10
68.932641
 20
71.831306
 10
69.189309
 20
71.865323
 10
69.429915
 20
71.965755
 10
69.637193
 20
72.126133
 10
69.797098
 20
72.336272
 10
69.897987
 20
72.581735
 10
69.932641
 20
72.846733
  0
LINE
  5
195
100
AcDbEntity
  8
ALPHA
100
AcDbLine
 10
68.832641
 20
108.398578
 30
0.0
 11
61.232641
 21
108.398578
 31
0.0
  0
LINE
  5
196
100
AcDbEntity
  8
ALPHA
100
AcDbLine
 10
51.906478
 20
71.831306
 30
0.0
 11
41.132641
 21
71.831306
 31
0.0
  0
LINE
  5
197
100
AcDbEntity
  8
ALPHA
100
AcDbLine
 10
68.932641
 20
71.831306
 30
0.0
 11
58.158803
 21
71.831306
 31
0.0
  0
LWPOLYLINE
  5
198
100
AcDbEntity
  8
ALPHA
100
AcDbPolyline
 90
        4
 70
     0
 43
0.0
 10
62.889935
 20
105.585945
 10
62.956305
 20
105.652063
 10
63.039935
 20
105.694512
 10
63.132641
 20
105.70914
  0
LWPOLYLINE
  5
19E
100
AcDbEntity
  8
ALPHA
100
AcDbPolyline
 90
        3
 70
     0
 43
0.0
 10
62.832641
 20
105.410281
 10
62.847324
 20
105.502634
 10
62.889935
 20
105.585945
  0
LINE
  5
1A3
100
AcDbEntity
  8
ALPHA
100
AcDbLine
 10
41.132641
 20
70.685181
 30
0.0
 11
41.132641
 21
71.831306
 31
0.0
  0
LINE
  5
1A4
100
AcDbEntity
  8
ALPHA
100
AcDbLine
 10
52.132641
 20
108.658386
 30
0.0
 11
51.232641
 21
108.658386
 31
0.0
  0
LINE
  5
1A5
100
AcDbEntity
  8
ALPHA
100
AcDbLine
 10
52.132641
 20
108.398578
 30
0.0
 11
51.232641
 21
108.398578
 31
0.0
  0
LINE
  5
1A6
100
AcDbEntity
  8
ALPHA
100
AcDbLine
 10
58.832641
 20
108.658386
 30
0.0
 11
57.932641
 21
108.658386
 31
0.0
  0
LINE
  5
1A7
100
AcDbEntity
  8
ALPHA
100
AcDbLine
 10
58.832641
 20
108.398578
 30
0.0
 11
57.932641
 21
108.398578
 31
0.0
  0
LWPOLYLINE
  5
1A8
100
AcDbEntity
  8
ALPHA
100
AcDbPolyline
 90
        6
 70
     0
 43
0.0
 10
42.732641
 20
105.410281
 10
42.747324
 20
105.410281
 10
42.789935
 20
105.410281
 10
42.856305
 20
105.410281
 10
42.939935
 20
105.410281
 10
43.032641
 20
105.410281
  0
LINE
  5
1B0
100
AcDbEntity
  8
ALPHA
100
AcDbLine
 10
43.032641
 20
105.410281
 30
0.0
 11
43.032641
 21
104.785181
 31
0.0
  0
LINE
  5
1B1
100
AcDbEntity
  8
ALPHA
100
AcDbLine
 10
43.032641
 20
105.989641
 30
0.0
 11
43.032641
 21
105.70914
 31
0.0
  0
LINE
  5
1B2
100
AcDbEntity
  8
ALPHA
100
AcDbLine
 10
43.032641
 20
105.410281
 30
0.0
 11
46.932641
 21
105.410281
 31
0.0
  0
LWPOLYLINE
  5
1B3
100
AcDbEntity
  8
ALPHA
100
AcDbPolyline
 90
        5
 70
     0
 43
0.0
 10
43.032641
 20
105.410281
 10
43.032644
 20
105.517557
 10
43.032639
 20
105.612201
 10
43.032641
 20
105.679137
 10
43.032641
 20
105.70914
  0
LINE
  5
1BA
100
AcDbEntity
  8
ALPHA
100
AcDbLine
 10
43.032641
 20
105.70914
 30
0.0
 11
46.932641
 21
105.70914
 31
0.0
  0
LWPOLYLINE
  5
1BB
100
AcDbEntity
  8
ALPHA
100
AcDbPolyline
 90
        5
 70
     0
 43
0.0
 10
46.932641
 20
105.410281
 10
46.932641
 20
105.519013
 10
46.932641
 20
105.612958
 10
46.932641
 20
105.679343
 10
46.932641
 20
105.70914
  0
LINE
  5
1C2
100
AcDbEntity
  8
ALPHA
100
AcDbLine
 10
46.932641
 20
105.70914
 30
0.0
 11
46.932641
 21
105.989641
 31
0.0
  0
LWPOLYLINE
  5
1C3
100
AcDbEntity
  8
ALPHA
100
AcDbPolyline
 90
        5
 70
     0
 43
0.0
 10
46.932641
 20
105.989641
 10
47.047295
 20
105.96678
 10
47.144659
 20
105.901551
 10
47.209742
 20
105.803889
 10
47.232641
 20
105.688495
  0
LINE
  5
1CA
100
AcDbEntity
  8
ALPHA
100
AcDbLine
 10
46.932641
 20
104.785181
 30
0.0
 11
46.932641
 21
105.410281
 31
0.0
  0
LINE
  5
1CB
100
AcDbEntity
  8
ALPHA
100
AcDbLine
 10
46.932641
 20
105.989641
 30
0.0
 11
43.032641
 21
105.989641
 31
0.0
  0
LINE
  5
1CC
100
AcDbEntity
  8
ALPHA
100
AcDbLine
 10
58.832641
 20
106.80896
 30
0.0
 11
58.432641
 21
106.533737
 31
0.0
  0
LINE
  5
1CD
100
AcDbEntity
  8
ALPHA
100
AcDbLine
 10
58.432641
 20
105.985181
 30
0.0
 11
58.432641
 21
106.533737
 31
0.0
  0
LINE
  5
1CE
100
AcDbEntity
  8
ALPHA
100
AcDbLine
 10
61.632641
 20
106.937882
 30
0.0
 11
61.632641
 21
104.785181
 31
0.0
  0
LINE
  5
1CF
100
AcDbEntity
  8
ALPHA
100
AcDbLine
 10
61.232641
 20
107.213106
 30
0.0
 11
61.632641
 21
106.937882
 31
0.0
  0
LINE
  5
1D0
100
AcDbEntity
  8
ALPHA
100
AcDbLine
 10
69.932641
 20
101.285181
 30
0.0
 11
69.782641
 21
101.285181
 31
0.0
  0
LINE
  5
1D1
100
AcDbEntity
  8
ALPHA
100
AcDbLine
 10
68.832641
 20
107.213106
 30
0.0
 11
68.432641
 21
106.937882
 31
0.0
  0
LINE
  5
1D2
100
AcDbEntity
  8
ALPHA
100
AcDbLine
 10
68.432641
 20
106.937882
 30
0.0
 11
68.432641
 21
104.785181
 31
0.0
  0
LINE
  5
1D3
100
AcDbEntity
  8
ALPHA
100
AcDbLine
 10
68.432641
 20
106.937882
 30
0.0
 11
61.632641
 21
106.937882
 31
0.0
  0
LINE
  5
1D4
100
AcDbEntity
  8
ALPHA
100
AcDbLine
 10
63.132641
 20
105.989641
 30
0.0
 11
63.132641
 21
105.70914
 31
0.0
  0
LINE
  5
1D5
100
AcDbEntity
  8
ALPHA
100
AcDbLine
 10
67.032641
 20
105.70914
 30
0.0
 11
67.032641
 21
105.989641
 31
0.0
  0
LWPOLYLINE
  5
1D6
100
AcDbEntity
  8
ALPHA
100
AcDbPolyline
 90
        5
 70
     0
 43
0.0
 10
67.032641
 20
105.989641
 10
67.147295
 20
105.96678
 10
67.244659
 20
105.901551
 10
67.309742
 20
105.803889
 10
67.332641
 20
105.688495
  0
LINE
  5
1DD
100
AcDbEntity
  8
ALPHA
100
AcDbLine
 10
51.632641
 20
105.985181
 30
0.0
 11
51.632641
 21
106.533737
 31
0.0
  0
LINE
  5
1DE
100
AcDbEntity
  8
ALPHA
100
AcDbLine
 10
51.232641
 20
106.80896
 30
0.0
 11
51.632641
 21
106.533737
 31
0.0
  0
LINE
  5
1DF
100
AcDbEntity
  8
ALPHA
100
AcDbLine
 10
48.832641
 20
107.213106
 30
0.0
 11
48.432641
 21
106.937882
 31
0.0
  0
LINE
  5
1E0
100
AcDbEntity
  8
ALPHA
100
AcDbLine
 10
48.432641
 20
104.785181
 30
0.0
 11
48.432641
 21
106.937882
 31
0.0
  0
LINE
  5
1E1
100
AcDbEntity
  8
ALPHA
100
AcDbLine
 10
41.632641
 20
104.785181
 30
0.0
 11
41.632641
 21
106.937882
 31
0.0
  0
LINE
  5
1E2
100
AcDbEntity
  8
ALPHA
100
AcDbLine
 10
41.232641
 20
107.213106
 30
0.0
 11
41.632641
 21
106.937882
 31
0.0
  0
LINE
  5
1E3
100
AcDbEntity
  8
ALPHA
100
AcDbLine
 10
48.432641
 20
106.937882
 30
0.0
 11
41.632641
 21
106.937882
 31
0.0
  0
LINE
  5
1E4
100
AcDbEntity
  8
ALPHA
100
AcDbLine
 10
58.432641
 20
106.533737
 30
0.0
 11
51.632641
 21
106.533737
 31
0.0
  0
LINE
  5
1E5
100
AcDbEntity
  8
ALPHA
100
AcDbLine
 10
63.132641
 20
105.989641
 30
0.0
 11
67.032641
 21
105.989641
 31
0.0
  0
LINE
  5
1E6
100
AcDbEntity
  8
ALPHA
100
AcDbLine
 10
69.932641
 20
84.285181
 30
0.0
 11
69.782641
 21
84.285181
 31
0.0
  0
LWPOLYLINE
  5
1E7
100
AcDbEntity
  8
ALPHA
100
AcDbPolyline
 90
        6
 70
     0
 43
0.0
 10
40.206979
 20
72.485181
 10
40.268183
 20
72.336272
 10
40.428088
 20
72.126133
 10
40.635366
 20
71.965755
 10
40.875972
 20
71.865323
 10
41.132641
 20
71.831306
  0
LINE
  5
1EF
100
AcDbEntity
  8
ALPHA
100
AcDbLine
 10
51.232641
 20
106.985181
 30
0.0
 11
48.832641
 21
106.985181
 31
0.0
  0
LINE
  5
1F0
100
AcDbEntity
  8
ALPHA
100
AcDbLine
 10
61.232641
 20
106.985181
 30
0.0
 11
58.832641
 21
106.985181
 31
0.0
  0
LWPOLYLINE
  5
1F1
100
AcDbEntity
  8
ALPHA
100
AcDbPolyline
 90
        5
 70
     0
 43
0.0
 10
42.732641
 20
105.688495
 10
42.755539
 20
105.803889
 10
42.820622
 20
105.901551
 10
42.917986
 20
105.96678
 10
43.032641
 20
105.989641
  0
LWPOLYLINE
  5
1F8
100
AcDbEntity
  8
ALPHA
100
AcDbPolyline
 90
        4
 70
     0
 43
0.0
 10
42.789074
 20
105.584753
 10
42.855706
 20
105.651633
 10
42.939548
 20
105.694383
 10
43.032641
 20
105.70914
  0
LWPOLYLINE
  5
1FE
100
AcDbEntity
  8
ALPHA
100
AcDbPolyline
 90
        3
 70
     0
 43
0.0
 10
42.732641
 20
105.410281
 10
42.746893
 20
105.501307
 10
42.789074
 20
105.584753
  0
LWPOLYLINE
  5
203
100
AcDbEntity
  8
ALPHA
100
AcDbPolyline
 90
        4
 70
     0
 43
0.0
 10
47.17488
 20
105.586587
 10
47.107769
 20
105.652925
 10
47.024019
 20
105.694943
 10
46.932641
 20
105.70914
  0
LWPOLYLINE
  5
209
100
AcDbEntity
  8
ALPHA
100
AcDbPolyline
 90
        3
 70
     0
 43
0.0
 10
47.232641
 20
105.410281
 10
47.217816
 20
105.503064
 10
47.17488
 20
105.586587
  0
LINE
  5
20E
100
AcDbEntity
  8
ALPHA
100
AcDbLine
 10
69.782641
 20
81.919797
 30
0.0
 11
69.932641
 21
81.919797
 31
0.0
  0
LINE
  5
20F
100
AcDbEntity
  8
ALPHA
100
AcDbLine
 10
69.782641
 20
81.681791
 30
0.0
 11
69.932641
 21
81.681791
 31
0.0
  0
LWPOLYLINE
  5
210
100
AcDbEntity
  8
ALPHA
100
AcDbPolyline
 90
        6
 70
     0
 43
0.0
 10
47.232641
 20
105.410281
 10
47.217816
 20
105.410322
 10
47.17488
 20
105.410226
 10
47.107769
 20
105.410352
 10
47.024019
 20
105.410223
 10
46.932641
 20
105.410281
  0
LINE
  5
218
100
AcDbEntity
  8
ALPHA
100
AcDbLine
 10
53.857226
 20
109.185181
 30
0.0
 11
53.146858
 21
109.185181
 31
0.0
  0
LINE
  5
219
100
AcDbEntity
  8
ALPHA
100
AcDbLine
 10
56.918423
 20
109.185181
 30
0.0
 11
56.208055
 21
109.185181
 31
0.0
  0
LWPOLYLINE
  5
21A
100
AcDbEntity
  8
ALPHA
100
AcDbPolyline
 90
        6
 70
     0
 43
0.0
 10
56.208055
 20
109.185181
 10
55.749362
 20
109.398935
 10
55.273328
 20
109.504922
 10
54.791953
 20
109.504922
 10
54.315919
 20
109.398935
 10
53.857226
 20
109.185181
  0
LWPOLYLINE
  5
222
100
AcDbEntity
  8
ALPHA
100
AcDbPolyline
 90
        8
 70
     0
 43
0.0
 10
56.61128
 20
107.050294
 10
56.19017
 20
106.893795
 10
55.738025
 20
106.790348
 10
55.269468
 20
106.739052
 10
54.795813
 20
106.739052
 10
54.327256
 20
106.790347
 10
53.875112
 20
106.893795
 10
53.454001
 20
107.050294
  0
LINE
  5
22C
100
AcDbEntity
  8
ALPHA
100
AcDbLine
 10
53.146858
 20
109.185181
 30
0.0
 11
52.432641
 21
109.185181
 31
0.0
  0
LINE
  5
22D
100
AcDbEntity
  8
ALPHA
100
AcDbLine
 10
57.632641
 20
109.185181
 30
0.0
 11
56.918423
 21
109.185181
 31
0.0
  0
LWPOLYLINE
  5
22E
100
AcDbEntity
  8
ALPHA
100
AcDbPolyline
 90
        6
 70
     0
 43
0.0
 10
52.432641
 20
107.050294
 10
52.349076
 20
107.057541
 10
52.26456
 20
107.081733
 10
52.195916
 20
107.120924
 10
52.149642
 20
107.172642
 10
52.132641
 20
107.23341
  0
ARC
  5
236
100
AcDbEntity
  8
ALPHA
100
AcDbCircle
 10
57.632641
 20
108.885181
 30
0.0
 40
0.3
100
AcDbArc
 50
0.0
 51
90.0
  0
ARC
  5
237
100
AcDbEntity
  8
ALPHA
100
AcDbCircle
 10
52.432641
 20
108.885181
 30
0.0
 40
0.3
100
AcDbArc
 50
90.0
 51
180.0
  0
LINE
  5
238
100
AcDbEntity
  8
ALPHA
100
AcDbLine
 10
48.832641
 20
108.658386
 30
0.0
 11
48.832641
 21
108.398578
 31
0.0
  0
LINE
  5
239
100
AcDbEntity
  8
ALPHA
100
AcDbLine
 10
41.232641
 20
108.398578
 30
0.0
 11
41.232641
 21
108.658386
 31
0.0
  0
LINE
  5
23A
100
AcDbEntity
  8
ALPHA
100
AcDbLine
 10
68.832641
 20
108.658386
 30
0.0
 11
68.832641
 21
108.398578
 31
0.0
  0
ARC
  5
23B
100
AcDbEntity
  8
ALPHA
100
AcDbCircle
 10
55.032641
 20
64.685181
 30
0.0
 40
7.8
100
AcDbArc
 50
105.905694
 51
113.627579
  0
ARC
  5
23C
100
AcDbEntity
  8
ALPHA
100
AcDbCircle
 10
55.032641
 20
64.685181
 30
0.0
 40
7.8
100
AcDbArc
 50
66.372421
 51
74.094306
  0
LINE
  5
23D
100
AcDbEntity
  8
ALPHA
100
AcDbLine
 10
61.232641
 20
108.398578
 30
0.0
 11
61.232641
 21
108.658386
 31
0.0
  0
LINE
  5
23E
100
AcDbEntity
  8
ALPHA
100
AcDbLine
 10
52.132641
 20
108.658386
 30
0.0
 11
52.132641
 21
108.398578
 31
0.0
  0
LINE
  5
23F
100
AcDbEntity
  8
ALPHA
100
AcDbLine
 10
51.232641
 20
108.398578
 30
0.0
 11
51.232641
 21
108.658386
 31
0.0
  0
LINE
  5
240
100
AcDbEntity
  8
ALPHA
100
AcDbLine
 10
58.832641
 20
108.658386
 30
0.0
 11
58.832641
 21
108.398578
 31
0.0
  0
LINE
  5
241
100
AcDbEntity
  8
ALPHA
100
AcDbLine
 10
57.932641
 20
108.398578
 30
0.0
 11
57.932641
 21
108.658386
 31
0.0
  0
ARC
  5
242
100
AcDbEntity
  8
ALPHA
100
AcDbCircle
 10
55.032641
 20
64.685181
 30
0.0
 40
7.8
100
AcDbArc
 50
118.087839
 51
129.715137
  0
ARC
  5
243
100
AcDbEntity
  8
ALPHA
100
AcDbCircle
 10
55.032641
 20
64.685181
 30
0.0
 40
7.8
100
AcDbArc
 50
50.284863
 51
61.912017
  0
LINE
  5
244
100
AcDbEntity
  8
ALPHA
100
AcDbLine
 10
68.432641
 20
70.685181
 30
0.0
 11
61.532641
 21
70.685181
 31
0.0
  0
LINE
  5
245
100
AcDbEntity
  8
ALPHA
100
AcDbLine
 10
48.532641
 20
70.685181
 30
0.0
 11
41.632641
 21
70.685181
 31
0.0
  0
LINE
  5
246
100
AcDbEntity
  8
ALPHA
100
AcDbLine
 10
58.832641
 20
105.985181
 30
0.0
 11
58.832641
 21
106.80896
 31
0.0
  0
LINE
  5
247
100
AcDbEntity
  8
ALPHA
100
AcDbLine
 10
61.232641
 20
107.213106
 30
0.0
 11
61.232641
 21
104.785181
 31
0.0
  0
LINE
  5
248
100
AcDbEntity
  8
ALPHA
100
AcDbLine
 10
69.932641
 20
101.285181
 30
0.0
 11
69.932641
 21
101.685181
 31
0.0
  0
LINE
  5
249
100
AcDbEntity
  8
ALPHA
100
AcDbLine
 10
69.932641
 20
101.685181
 30
0.0
 11
69.782641
 21
101.685181
 31
0.0
  0
LINE
  5
24A
100
AcDbEntity
  8
ALPHA
100
AcDbLine
 10
68.832641
 20
107.213106
 30
0.0
 11
68.832641
 21
104.785181
 31
0.0
  0
LINE
  5
24B
100
AcDbEntity
  8
ALPHA
100
AcDbLine
 10
68.832641
 20
108.398578
 30
0.0
 11
68.832641
 21
107.213106
 31
0.0
  0
LINE
  5
24C
100
AcDbEntity
  8
ALPHA
100
AcDbLine
 10
61.232641
 20
108.398578
 30
0.0
 11
61.232641
 21
107.213106
 31
0.0
  0
LINE
  5
24D
100
AcDbEntity
  8
ALPHA
100
AcDbLine
 10
51.232641
 20
105.775928
 30
0.0
 11
51.232641
 21
106.80896
 31
0.0
  0
LINE
  5
24E
100
AcDbEntity
  8
ALPHA
100
AcDbLine
 10
48.832641
 20
104.785181
 30
0.0
 11
48.832641
 21
107.213106
 31
0.0
  0
LINE
  5
24F
100
AcDbEntity
  8
ALPHA
100
AcDbLine
 10
41.232641
 20
104.785181
 30
0.0
 11
41.232641
 21
107.213106
 31
0.0
  0
LINE
  5
250
100
AcDbEntity
  8
ALPHA
100
AcDbLine
 10
41.232641
 20
107.213106
 30
0.0
 11
41.232641
 21
108.398578
 31
0.0
  0
LINE
  5
251
100
AcDbEntity
  8
ALPHA
100
AcDbLine
 10
48.832641
 20
107.213106
 30
0.0
 11
48.832641
 21
108.398578
 31
0.0
  0
LINE
  5
252
100
AcDbEntity
  8
ALPHA
100
AcDbLine
 10
57.932641
 20
107.23341
 30
0.0
 11
57.932641
 21
108.398578
 31
0.0
  0
LINE
  5
253
100
AcDbEntity
  8
ALPHA
100
AcDbLine
 10
57.632641
 20
107.050294
 30
0.0
 11
56.61128
 21
107.050294
 31
0.0
  0
LINE
  5
254
100
AcDbEntity
  8
ALPHA
100
AcDbLine
 10
53.454001
 20
107.050294
 30
0.0
 11
52.432641
 21
107.050294
 31
0.0
  0
LINE
  5
255
100
AcDbEntity
  8
ALPHA
100
AcDbLine
 10
52.132641
 20
107.23341
 30
0.0
 11
52.132641
 21
108.398578
 31
0.0
  0
LINE
  5
256
100
AcDbEntity
  8
ALPHA
100
AcDbLine
 10
51.232641
 20
106.80896
 30
0.0
 11
51.232641
 21
108.398578
 31
0.0
  0
LINE
  5
257
100
AcDbEntity
  8
ALPHA
100
AcDbLine
 10
58.832641
 20
106.80896
 30
0.0
 11
58.832641
 21
108.398578
 31
0.0
  0
ARC
  5
258
100
AcDbEntity
  8
ALPHA
100
AcDbCircle
 10
42.232641
 20
109.485181
 30
0.0
 40
1.0
100
AcDbArc
 50
90.0
 51
180.0
  0
ARC
  5
259
100
AcDbEntity
  8
ALPHA
100
AcDbCircle
 10
67.832641
 20
109.485181
 30
0.0
 40
1.0
100
AcDbArc
 50
0.0
 51
90.0
  0
LINE
  5
25A
100
AcDbEntity
  8
ALPHA
100
AcDbLine
 10
68.432641
 20
70.685181
 30
0.0
 11
68.432641
 21
71.566815
 31
0.0
  0
LINE
  5
25B
100
AcDbEntity
  8
ALPHA
100
AcDbLine
 10
61.532641
 20
71.566815
 30
0.0
 11
68.432641
 21
71.566815
 31
0.0
  0
LINE
  5
25C
100
AcDbEntity
  8
ALPHA
100
AcDbLine
 10
61.532641
 20
70.685181
 30
0.0
 11
61.532641
 21
71.566815
 31
0.0
  0
LINE
  5
25D
100
AcDbEntity
  8
ALPHA
100
AcDbLine
 10
41.232641
 20
109.485181
 30
0.0
 11
41.232641
 21
108.658386
 31
0.0
  0
LINE
  5
25E
100
AcDbEntity
  8
ALPHA
100
AcDbLine
 10
52.132641
 20
108.658386
 30
0.0
 11
52.132641
 21
109.960917
 31
0.0
  0
LINE
  5
25F
100
AcDbEntity
  8
ALPHA
100
AcDbLine
 10
57.932641
 20
108.658386
 30
0.0
 11
57.932641
 21
109.960917
 31
0.0
  0
LINE
  5
260
100
AcDbEntity
  8
ALPHA
100
AcDbLine
 10
68.832641
 20
109.485181
 30
0.0
 11
68.832641
 21
108.658386
 31
0.0
  0
LINE
  5
261
100
AcDbEntity
  8
ALPHA
100
AcDbLine
 10
60.032641
 20
70.685181
 30
0.0
 11
60.032641
 21
71.566815
 31
0.0
  0
LINE
  5
262
100
AcDbEntity
  8
ALPHA
100
AcDbLine
 10
58.704575
 20
71.566815
 30
0.0
 11
60.032641
 21
71.566815
 31
0.0
  0
ARC
  5
263
100
AcDbEntity
  8
ALPHA
100
AcDbCircle
 10
55.032641
 20
64.685181
 30
0.0
 40
7.8
100
AcDbArc
 50
61.916307
 51
66.372421
  0
ARC
  5
264
100
AcDbEntity
  8
ALPHA
100
AcDbCircle
 10
55.032641
 20
64.685181
 30
0.0
 40
7.8
100
AcDbArc
 50
113.627579
 51
118.083693
  0
LINE
  5
265
100
AcDbEntity
  8
ALPHA
100
AcDbLine
 10
50.032641
 20
71.566815
 30
0.0
 11
51.360706
 21
71.566815
 31
0.0
  0
LINE
  5
266
100
AcDbEntity
  8
ALPHA
100
AcDbLine
 10
50.032641
 20
70.685181
 30
0.0
 11
50.032641
 21
71.566815
 31
0.0
  0
LINE
  5
267
100
AcDbEntity
  8
ALPHA
100
AcDbLine
 10
48.532641
 20
70.685181
 30
0.0
 11
48.532641
 21
71.566815
 31
0.0
  0
LINE
  5
268
100
AcDbEntity
  8
ALPHA
100
AcDbLine
 10
41.632641
 20
71.566815
 30
0.0
 11
48.532641
 21
71.566815
 31
0.0
  0
LINE
  5
269
100
AcDbEntity
  8
ALPHA
100
AcDbLine
 10
41.632641
 20
70.685181
 30
0.0
 11
41.632641
 21
71.566815
 31
0.0
  0
ARC
  5
26A
100
AcDbEntity
  8
ALPHA
100
AcDbCircle
 10
59.546231
 20
112.485181
 30
0.0
 40
2.0
100
AcDbArc
 50
234.518642
 51
270.0
  0
ARC
  5
26B
100
AcDbEntity
  8
ALPHA
100
AcDbCircle
 10
50.51905
 20
112.485181
 30
0.0
 40
2.0
100
AcDbArc
 50
270.0
 51
305.481358
  0
ARC
  5
26C
100
AcDbEntity
  8
ALPHA
100
AcDbCircle
 10
55.032641
 20
106.185181
 30
0.0
 40
5.75
100
AcDbArc
 50
54.332551
 51
125.667449
  0
LINE
  5
26D
100
AcDbEntity
  8
ALPHA
100
AcDbLine
 10
69.932641
 20
81.919797
 30
0.0
 11
69.932641
 21
81.681791
 31
0.0
  0
ARC
  5
26E
100
AcDbEntity
  8
ALPHA
100
AcDbCircle
 10
68.932641
 20
71.685181
 30
0.0
 40
1.0
100
AcDbArc
 50
270.0
 51
0.0
  0
LINE
  5
26F
100
AcDbEntity
  8
ALPHA
100
AcDbLine
 10
69.932641
 20
72.846733
 30
0.0
 11
69.932641
 21
71.685181
 31
0.0
  0
LINE
  5
270
100
AcDbEntity
  8
ALPHA
100
AcDbLine
 10
40.132641
 20
71.685181
 30
0.0
 11
40.132641
 21
72.485181
 31
0.0
  0
LINE
  5
271
100
AcDbEntity
  8
ALPHA
100
AcDbLine
 10
69.932641
 20
81.919797
 30
0.0
 11
69.932641
 21
84.285181
 31
0.0
  0
LINE
  5
272
100
AcDbEntity
  8
ALPHA
100
AcDbLine
 10
69.932641
 20
72.846733
 30
0.0
 11
69.932641
 21
81.681791
 31
0.0
  0
LINE
  5
273
100
AcDbEntity
  8
ALPHA
100
AcDbLine
 10
42.232641
 20
110.485181
 30
0.0
 11
50.51905
 21
110.485181
 31
0.0
  0
LINE
  5
274
100
AcDbEntity
  8
ALPHA
100
AcDbLine
 10
59.546231
 20
110.485181
 30
0.0
 11
67.832641
 21
110.485181
 31
0.0
  0
LINE
  5
275
100
AcDbEntity
  8
ALPHA
100
AcDbLine
 10
50.048666
 20
70.685181
 30
0.0
 11
50.032641
 21
70.685181
 31
0.0
  0
LINE
  5
276
100
AcDbEntity
  8
ALPHA
100
AcDbLine
 10
50.032641
 20
70.685181
 30
0.0
 11
48.532641
 21
70.685181
 31
0.0
  0
LINE
  5
277
100
AcDbEntity
  8
ALPHA
100
AcDbLine
 10
41.632641
 20
70.685181
 30
0.0
 11
41.132641
 21
70.685181
 31
0.0
  0
LINE
  5
278
100
AcDbEntity
  8
ALPHA
100
AcDbLine
 10
68.932641
 20
70.685181
 30
0.0
 11
68.432641
 21
70.685181
 31
0.0
  0
LINE
  5
279
100
AcDbEntity
  8
ALPHA
100
AcDbLine
 10
61.532641
 20
70.685181
 30
0.0
 11
60.032641
 21
70.685181
 31
0.0
  0
LINE
  5
27A
100
AcDbEntity
  8
ALPHA
100
AcDbLine
 10
60.032641
 20
70.685181
 30
0.0
 11
60.016615
 21
70.685181
 31
0.0
  0
LWPOLYLINE
  5
27B
100
AcDbEntity
  8
ALPHA
100
AcDbPolyline
 90
        6
 70
     0
 43
0.0
 10
57.932641
 20
107.23341
 10
57.91564
 20
107.172642
 10
57.869365
 20
107.120924
 10
57.800721
 20
107.081733
 10
57.716205
 20
107.057541
 10
57.632641
 20
107.050294
  0
LINE
  5
283
100
AcDbEntity
  8
ALPHA
100
AcDbLine
 10
40.132641
 20
71.685181
 30
0.0
 11
40.132641
 21
72.485181
 31
0.0
  0
ARC
  5
284
100
AcDbEntity
  8
ALPHA
100
AcDbCircle
 10
41.132641
 20
71.685181
 30
0.0
 40
1.0
100
AcDbArc
 50
180.0
 51
270.0
  0
LINE
  5
285
100
AcDbEntity
  8
ALPHA
100
AcDbLine
 10
69.932641
 20
101.285181
 30
0.0
 11
69.932641
 21
84.285181
 31
0.0
  0
LINE
  5
286
100
AcDbEntity
  8
ALPHA
100
AcDbLine
 10
42.732641
 20
105.688495
 30
0.0
 11
42.732641
 21
104.785181
 31
0.0
  0
LINE
  5
287
100
AcDbEntity
  8
ALPHA
100
AcDbLine
 10
47.232641
 20
105.688495
 30
0.0
 11
47.232641
 21
104.785181
 31
0.0
  0
LINE
  5
288
100
AcDbEntity
  8
ALPHA
100
AcDbLine
 10
62.832641
 20
105.688495
 30
0.0
 11
62.832641
 21
104.785181
 31
0.0
  0
LINE
  5
289
100
AcDbEntity
  8
ALPHA
100
AcDbLine
 10
67.332641
 20
105.688495
 30
0.0
 11
67.332641
 21
104.785181
 31
0.0
  0
LINE
  5
28A
100
AcDbEntity
  8
ALPHA
100
AcDbLine
 10
61.692641
 20
90.685181
 30
0.0
 11
61.692641
 21
90.635181
 31
0.0
  0
LINE
  5
28B
100
AcDbEntity
  8
ALPHA
100
AcDbLine
 10
61.682641
 20
87.735181
 30
0.0
 11
61.682641
 21
87.685181
 31
0.0
  0
LINE
  5
28C
100
AcDbEntity
  8
ALPHA
100
AcDbLine
 10
49.932641
 20
90.635181
 30
0.0
 11
50.332641
 21
90.635181
 31
0.0
  0
LINE
  5
28D
100
AcDbEntity
  8
ALPHA
100
AcDbLine
 10
48.932641
 20
87.735181
 30
0.0
 11
48.782641
 21
87.735181
 31
0.0
  0
LINE
  5
28E
100
AcDbEntity
  8
ALPHA
100
AcDbLine
 10
50.332641
 20
87.735181
 30
0.0
 11
49.932641
 21
87.735181
 31
0.0
  0
LINE
  5
28F
100
AcDbEntity
  8
ALPHA
100
AcDbLine
 10
59.732641
 20
90.635181
 30
0.0
 11
61.692641
 21
90.635181
 31
0.0
  0
LINE
  5
290
100
AcDbEntity
  8
ALPHA
100
AcDbLine
 10
61.682641
 20
87.735181
 30
0.0
 11
59.732641
 21
87.735181
 31
0.0
  0
LINE
  5
291
100
AcDbEntity
  8
ALPHA
100
AcDbLine
 10
61.682641
 20
87.735181
 30
0.0
 11
63.732641
 21
87.735181
 31
0.0
  0
LINE
  5
292
100
AcDbEntity
  8
ALPHA
100
AcDbLine
 10
63.732641
 20
90.635181
 30
0.0
 11
61.692641
 21
90.635181
 31
0.0
  0
LINE
  5
293
100
AcDbEntity
  8
ALPHA
100
AcDbLine
 10
45.032641
 20
94.402653
 30
0.0
 11
45.032641
 21
93.825247
 31
0.0
  0
LINE
  5
294
100
AcDbEntity
  8
ALPHA
100
AcDbLine
 10
45.032641
 20
94.784679
 30
0.0
 11
45.032641
 21
94.558937
 31
0.0
  0
LINE
  5
295
100
AcDbEntity
  8
ALPHA
100
AcDbLine
 10
45.032641
 20
82.185682
 30
0.0
 11
45.032641
 21
83.145115
 31
0.0
  0
LINE
  5
296
100
AcDbEntity
  8
ALPHA
100
AcDbLine
 10
49.082641
 20
98.252931
 30
0.0
 11
47.844492
 21
98.252931
 31
0.0
  0
LWPOLYLINE
  5
297
100
AcDbEntity
  8
ALPHA
100
AcDbPolyline
 90
       10
 70
     0
 43
0.0
 10
45.032641
 20
83.145115
 10
45.602386
 20
83.089674
 10
46.152136
 20
82.925066
 10
46.662247
 20
82.656497
 10
47.113941
 20
82.292765
 10
47.489962
 20
81.846304
 10
47.775377
 20
81.333068
 10
47.958444
 20
80.772141
 10
48.031439
 20
80.185036
 10
48.03261
 20
80.099176
  0
LINE
  5
2A3
100
AcDbEntity
  8
ALPHA
100
AcDbLine
 10
49.082641
 20
97.974776
 30
0.0
 11
47.940147
 21
97.974776
 31
0.0
  0
LWPOLYLINE
  5
2A4
100
AcDbEntity
  8
ALPHA
100
AcDbPolyline
 90
        8
 70
     0
 43
0.0
 10
47.902846
 20
95.985181
 10
47.694999
 20
95.4675
 10
47.398387
 20
94.998279
 10
47.023831
 20
94.592994
 10
46.584534
 20
94.264504
 10
46.095421
 20
94.022807
 10
45.572585
 20
93.874992
 10
45.032641
 20
93.825247
  0
LINE
  5
2AE
100
AcDbEntity
  8
ALPHA
100
AcDbLine
 10
49.082641
 20
96.285181
 30
0.0
 11
47.886562
 21
96.285181
 31
0.0
  0
LINE
  5
2AF
100
AcDbEntity
  8
ALPHA
100
AcDbLine
 10
49.932641
 20
104.441062
 30
0.0
 11
48.932641
 21
104.441062
 31
0.0
  0
LWPOLYLINE
  5
2B0
100
AcDbEntity
  8
ALPHA
100
AcDbPolyline
 90
        6
 70
     0
 43
0.0
 10
47.886562
 20
96.285181
 10
47.855116
 20
96.189028
 10
47.826628
 20
96.104063
 10
47.805643
 20
96.039136
 10
47.795018
 20
95.998866
 10
47.795897
 20
95.985181
  0
LINE
  5
2B8
100
AcDbEntity
  8
ALPHA
100
AcDbLine
 10
45.201497
 20
94.402653
 30
0.0
 11
45.032641
 21
94.402653
 31
0.0
  0
LINE
  5
2B9
100
AcDbEntity
  8
ALPHA
100
AcDbLine
 10
45.321815
 20
94.402653
 30
0.0
 11
45.201497
 21
94.402653
 31
0.0
  0
LINE
  5
2BA
100
AcDbEntity
  8
ALPHA
100
AcDbLine
 10
45.032641
 20
94.402653
 30
0.0
 11
45.201497
 21
94.398097
 31
0.0
  0
LINE
  5
2BB
100
AcDbEntity
  8
ALPHA
100
AcDbLine
 10
46.774515
 20
94.906473
 30
0.0
 11
46.34031
 21
94.906473
 31
0.0
  0
LINE
  5
2BC
100
AcDbEntity
  8
ALPHA
100
AcDbLine
 10
46.124644
 20
94.558937
 30
0.0
 11
45.032641
 21
94.558937
 31
0.0
  0
LWPOLYLINE
  5
2BD
100
AcDbEntity
  8
ALPHA
100
AcDbPolyline
 90
        5
 70
     0
 43
0.0
 10
46.34031
 20
94.906473
 10
46.068608
 20
94.788763
 10
45.760621
 20
94.684386
 10
45.416087
 20
94.603831
 10
45.032641
 20
94.558937
  0
LINE
  5
2C4
100
AcDbEntity
  8
ALPHA
100
AcDbLine
 10
41.132641
 20
83.145115
 30
0.0
 11
45.032641
 21
83.145115
 31
0.0
  0
LINE
  5
2C5
100
AcDbEntity
  8
ALPHA
100
AcDbLine
 10
41.532641
 20
72.837275
 30
0.0
 11
48.532641
 21
72.837275
 31
0.0
  0
LINE
  5
2C6
100
AcDbEntity
  8
ALPHA
100
AcDbLine
 10
48.832641
 20
73.352408
 30
0.0
 11
48.832641
 21
72.485181
 31
0.0
  0
LINE
  5
2C7
100
AcDbEntity
  8
ALPHA
100
AcDbLine
 10
42.232641
 20
104.133086
 30
0.0
 11
48.532641
 21
104.133086
 31
0.0
  0
LINE
  5
2C8
100
AcDbEntity
  8
ALPHA
100
AcDbLine
 10
48.832641
 20
103.617953
 30
0.0
 11
48.832641
 21
104.485181
 31
0.0
  0
LINE
  5
2C9
100
AcDbEntity
  8
ALPHA
100
AcDbLine
 10
48.005204
 20
97.226287
 30
0.0
 11
48.011719
 21
97.306996
 31
0.0
  0
LWPOLYLINE
  5
2CA
100
AcDbEntity
  8
ALPHA
100
AcDbPolyline
 90
        7
 70
     0
 43
0.0
 10
46.34031
 20
94.906473
 10
46.831909
 20
95.201376
 10
47.25727
 20
95.583316
 10
47.600731
 20
96.038236
 10
47.849644
 20
96.549388
 10
47.994844
 20
97.097955
 10
48.005204
 20
97.226287
  0
LWPOLYLINE
  5
2D3
100
AcDbEntity
  8
ALPHA
100
AcDbPolyline
 90
        4
 70
     0
 43
0.0
 10
47.886562
 20
96.285181
 10
47.98791
 20
96.700093
 10
48.031091
 20
97.12627
 10
48.032625
 20
97.224074
  0
LINE
  5
2D9
100
AcDbEntity
  8
ALPHA
100
AcDbLine
 10
49.932641
 20
73.985181
 30
0.0
 11
45.032641
 21
73.985181
 31
0.0
  0
LINE
  5
2DA
100
AcDbEntity
  8
ALPHA
100
AcDbLine
 10
48.532641
 20
102.985181
 30
0.0
 11
45.032641
 21
102.985181
 31
0.0
  0
LINE
  5
2DB
100
AcDbEntity
  8
ALPHA
100
AcDbLine
 10
47.193006
 20
98.985181
 30
0.0
 11
49.082641
 21
98.985181
 31
0.0
  0
LINE
  5
2DC
100
AcDbEntity
  8
ALPHA
100
AcDbLine
 10
49.932641
 20
100.585181
 30
0.0
 11
48.532641
 21
100.585181
 31
0.0
  0
LINE
  5
2DD
100
AcDbEntity
  8
ALPHA
100
AcDbLine
 10
48.532641
 20
102.985181
 30
0.0
 11
48.532641
 21
100.585181
 31
0.0
  0
LINE
  5
2DE
100
AcDbEntity
  8
ALPHA
100
AcDbLine
 10
48.532641
 20
102.985181
 30
0.0
 11
48.932641
 21
103.158686
 31
0.0
  0
LINE
  5
2DF
100
AcDbEntity
  8
ALPHA
100
AcDbLine
 10
41.132641
 20
93.825247
 30
0.0
 11
45.032641
 21
93.825247
 31
0.0
  0
LINE
  5
2E0
100
AcDbEntity
  8
ALPHA
100
AcDbLine
 10
48.532641
 20
100.585181
 30
0.0
 11
48.932641
 21
100.985181
 31
0.0
  0
LINE
  5
2E1
100
AcDbEntity
  8
ALPHA
100
AcDbLine
 10
43.132641
 20
82.185682
 30
0.0
 11
45.032641
 21
82.185682
 31
0.0
  0
LINE
  5
2E2
100
AcDbEntity
  8
ALPHA
100
AcDbLine
 10
43.132641
 20
94.784679
 30
0.0
 11
45.032641
 21
94.784679
 31
0.0
  0
LWPOLYLINE
  5
2E3
100
AcDbEntity
  8
ALPHA
100
AcDbPolyline
 90
        6
 70
     0
 43
0.0
 10
45.032641
 20
99.917806
 10
45.511846
 20
99.878692
 10
45.978654
 20
99.762383
 10
46.421909
 20
99.571479
 10
46.830247
 20
99.310371
 10
47.193006
 20
98.985181
  0
LINE
  5
2EB
100
AcDbEntity
  8
ALPHA
100
AcDbLine
 10
47.981642
 20
97.229173
 30
0.0
 11
47.989686
 21
97.309602
 31
0.0
  0
LWPOLYLINE
  5
2EC
100
AcDbEntity
  8
ALPHA
100
AcDbPolyline
 90
        9
 70
     0
 43
0.0
 10
45.032641
 20
94.784679
 10
45.617912
 20
94.841448
 10
46.180691
 20
95.009571
 10
46.699351
 20
95.282589
 10
47.153961
 20
95.65001
 10
47.527049
 20
96.097713
 10
47.804279
 20
96.608494
 10
47.974996
 20
97.162723
 10
47.981642
 20
97.229173
  0
LINE
  5
2F7
100
AcDbEntity
  8
ALPHA
100
AcDbLine
 10
48.46772
 20
73.352408
 30
0.0
 11
48.532641
 21
73.312439
 31
0.0
  0
LINE
  5
2F8
100
AcDbEntity
  8
ALPHA
100
AcDbLine
 10
45.032641
 20
73.352408
 30
0.0
 11
48.832641
 21
73.352408
 31
0.0
  0
LINE
  5
2F9
100
AcDbEntity
  8
ALPHA
100
AcDbLine
 10
45.032641
 20
103.617953
 30
0.0
 11
48.832641
 21
103.617953
 31
0.0
  0
LINE
  5
2FA
100
AcDbEntity
  8
ALPHA
100
AcDbLine
 10
48.532641
 20
103.657922
 30
0.0
 11
48.46772
 21
103.617953
 31
0.0
  0
LINE
  5
2FB
100
AcDbEntity
  8
ALPHA
100
AcDbLine
 10
42.232641
 20
103.726682
 30
0.0
 11
42.232641
 21
104.133086
 31
0.0
  0
LINE
  5
2FC
100
AcDbEntity
  8
ALPHA
100
AcDbLine
 10
41.532641
 20
103.726682
 30
0.0
 11
42.232641
 21
103.726682
 31
0.0
  0
LINE
  5
2FD
100
AcDbEntity
  8
ALPHA
100
AcDbLine
 10
45.032641
 20
102.985181
 30
0.0
 11
45.032641
 21
103.617953
 31
0.0
  0
LINE
  5
2FE
100
AcDbEntity
  8
ALPHA
100
AcDbLine
 10
45.032641
 20
73.352408
 30
0.0
 11
45.032641
 21
73.985181
 31
0.0
  0
LINE
  5
2FF
100
AcDbEntity
  8
ALPHA
100
AcDbLine
 10
41.132641
 20
83.145115
 30
0.0
 11
41.132641
 21
86.335181
 31
0.0
  0
LINE
  5
300
100
AcDbEntity
  8
ALPHA
100
AcDbLine
 10
41.132641
 20
90.635181
 30
0.0
 11
41.132641
 21
93.825247
 31
0.0
  0
LINE
  5
301
100
AcDbEntity
  8
ALPHA
100
AcDbLine
 10
48.932641
 20
103.158686
 30
0.0
 11
48.932641
 21
104.441062
 31
0.0
  0
LWPOLYLINE
  5
302
100
AcDbEntity
  8
ALPHA
100
AcDbPolyline
 90
        7
 70
     0
 43
0.0
 10
46.34031
 20
94.646001
 10
46.831909
 20
94.940903
 10
47.25727
 20
95.322844
 10
47.600731
 20
95.777764
 10
47.849644
 20
96.288916
 10
47.994844
 20
96.837483
 10
48.026094
 20
97.224601
  0
LWPOLYLINE
  5
30B
100
AcDbEntity
  8
ALPHA
100
AcDbPolyline
 90
        4
 70
     0
 43
0.0
 10
47.844492
 20
98.252931
 10
47.669037
 20
98.525712
 10
47.449935
 20
98.769688
 10
47.193006
 20
98.985181
  0
LINE
  5
311
100
AcDbEntity
  8
ALPHA
100
AcDbLine
 10
47.795897
 20
95.985181
 30
0.0
 11
47.902846
 21
95.985181
 31
0.0
  0
LINE
  5
312
100
AcDbEntity
  8
ALPHA
100
AcDbLine
 10
48.782641
 20
89.485181
 30
0.0
 11
48.932641
 21
89.485181
 31
0.0
  0
LINE
  5
313
100
AcDbEntity
  8
ALPHA
100
AcDbLine
 10
46.232641
 20
90.485181
 30
0.0
 11
46.232641
 21
90.635181
 31
0.0
  0
LINE
  5
314
100
AcDbEntity
  8
ALPHA
100
AcDbLine
 10
49.932641
 20
100.985181
 30
0.0
 11
48.932641
 21
100.985181
 31
0.0
  0
LINE
  5
315
100
AcDbEntity
  8
ALPHA
100
AcDbLine
 10
49.932641
 20
100.585181
 30
0.0
 11
49.932641
 21
100.985181
 31
0.0
  0
LINE
  5
316
100
AcDbEntity
  8
ALPHA
100
AcDbLine
 10
48.932641
 20
103.158686
 30
0.0
 11
48.932641
 21
100.985181
 31
0.0
  0
LINE
  5
317
100
AcDbEntity
  8
ALPHA
100
AcDbLine
 10
46.232641
 20
86.335181
 30
0.0
 11
46.232641
 21
86.485181
 31
0.0
  0
LINE
  5
318
100
AcDbEntity
  8
ALPHA
100
AcDbLine
 10
48.782641
 20
87.485181
 30
0.0
 11
48.932641
 21
87.485181
 31
0.0
  0
LWPOLYLINE
  5
319
100
AcDbEntity
  8
ALPHA
100
AcDbPolyline
 90
        7
 70
     0
 43
0.0
 10
45.032641
 20
76.43541
 10
45.536122
 20
76.478618
 10
46.025375
 20
76.607032
 10
46.487314
 20
76.817491
 10
46.908807
 20
77.104638
 10
47.277616
 20
77.460995
 10
47.582641
 20
77.876963
  0
LWPOLYLINE
  5
322
100
AcDbEntity
  8
ALPHA
100
AcDbPolyline
 90
        5
 70
     0
 43
0.0
 10
47.844492
 20
98.252931
 10
47.864898
 20
98.208749
 10
47.889946
 20
98.143366
 10
47.916091
 20
98.062711
 10
47.940147
 20
97.974776
  0
LINE
  5
329
100
AcDbEntity
  8
ALPHA
100
AcDbLine
 10
48.932641
 20
87.985181
 30
0.0
 11
48.932641
 21
87.385181
 31
0.0
  0
LINE
  5
32A
100
AcDbEntity
  8
ALPHA
100
AcDbLine
 10
48.932641
 20
89.585181
 30
0.0
 11
48.932641
 21
88.985181
 31
0.0
  0
LINE
  5
32B
100
AcDbEntity
  8
ALPHA
100
AcDbLine
 10
41.282641
 20
72.485181
 30
0.0
 11
48.832641
 21
72.485181
 31
0.0
  0
LINE
  5
32C
100
AcDbEntity
  8
ALPHA
100
AcDbLine
 10
48.532641
 20
73.352408
 30
0.0
 11
48.532641
 21
72.785181
 31
0.0
  0
ARC
  5
32D
100
AcDbEntity
  8
ALPHA
100
AcDbCircle
 10
48.832641
 20
72.785181
 30
0.0
 40
0.3
100
AcDbArc
 50
180.0
 51
270.0
  0
LINE
  5
32E
100
AcDbEntity
  8
ALPHA
100
AcDbLine
 10
42.232641
 20
104.485181
 30
0.0
 11
48.832641
 21
104.485181
 31
0.0
  0
LINE
  5
32F
100
AcDbEntity
  8
ALPHA
100
AcDbLine
 10
48.532641
 20
103.617953
 30
0.0
 11
48.532641
 21
104.185181
 31
0.0
  0
LINE
  5
330
100
AcDbEntity
  8
ALPHA
100
AcDbLine
 10
49.932641
 20
104.485181
 30
0.0
 11
48.832641
 21
104.485181
 31
0.0
  0
LINE
  5
331
100
AcDbEntity
  8
ALPHA
100
AcDbLine
 10
45.032641
 20
73.985181
 30
0.0
 11
45.032641
 21
76.435181
 31
0.0
  0
LINE
  5
332
100
AcDbEntity
  8
ALPHA
100
AcDbLine
 10
45.032641
 20
99.917806
 30
0.0
 11
45.032641
 21
102.985181
 31
0.0
  0
LINE
  5
333
100
AcDbEntity
  8
ALPHA
100
AcDbLine
 10
49.082641
 20
98.985181
 30
0.0
 11
49.082641
 21
95.985181
 31
0.0
  0
LINE
  5
334
100
AcDbEntity
  8
ALPHA
100
AcDbLine
 10
47.902846
 20
95.985181
 30
0.0
 11
49.082641
 21
95.985181
 31
0.0
  0
LINE
  5
335
100
AcDbEntity
  8
ALPHA
100
AcDbLine
 10
41.132641
 20
90.635181
 30
0.0
 11
48.932641
 21
90.635181
 31
0.0
  0
LINE
  5
336
100
AcDbEntity
  8
ALPHA
100
AcDbLine
 10
48.932641
 20
89.585181
 30
0.0
 11
48.932641
 21
90.635181
 31
0.0
  0
LINE
  5
337
100
AcDbEntity
  8
ALPHA
100
AcDbLine
 10
49.132641
 20
89.585181
 30
0.0
 11
48.932641
 21
89.585181
 31
0.0
  0
LINE
  5
338
100
AcDbEntity
  8
ALPHA
100
AcDbLine
 10
49.132641
 20
89.585181
 30
0.0
 11
49.132641
 21
88.985181
 31
0.0
  0
LINE
  5
339
100
AcDbEntity
  8
ALPHA
100
AcDbLine
 10
49.132641
 20
88.985181
 30
0.0
 11
48.932641
 21
88.985181
 31
0.0
  0
LINE
  5
33A
100
AcDbEntity
  8
ALPHA
100
AcDbLine
 10
48.932641
 20
87.985181
 30
0.0
 11
48.932641
 21
88.985181
 31
0.0
  0
LINE
  5
33B
100
AcDbEntity
  8
ALPHA
100
AcDbLine
 10
49.132641
 20
87.985181
 30
0.0
 11
48.932641
 21
87.985181
 31
0.0
  0
LINE
  5
33C
100
AcDbEntity
  8
ALPHA
100
AcDbLine
 10
49.132641
 20
87.985181
 30
0.0
 11
49.132641
 21
87.385181
 31
0.0
  0
LINE
  5
33D
100
AcDbEntity
  8
ALPHA
100
AcDbLine
 10
49.132641
 20
87.385181
 30
0.0
 11
48.932641
 21
87.385181
 31
0.0
  0
LINE
  5
33E
100
AcDbEntity
  8
ALPHA
100
AcDbLine
 10
48.932641
 20
86.335181
 30
0.0
 11
48.932641
 21
87.385181
 31
0.0
  0
LINE
  5
33F
100
AcDbEntity
  8
ALPHA
100
AcDbLine
 10
41.132641
 20
86.335181
 30
0.0
 11
48.932641
 21
86.335181
 31
0.0
  0
LINE
  5
340
100
AcDbEntity
  8
ALPHA
100
AcDbLine
 10
47.582641
 20
78.494107
 30
0.0
 11
47.582641
 21
76.435181
 31
0.0
  0
LINE
  5
341
100
AcDbEntity
  8
ALPHA
100
AcDbLine
 10
45.032641
 20
76.435181
 30
0.0
 11
47.582641
 21
76.435181
 31
0.0
  0
LWPOLYLINE
  5
342
100
AcDbEntity
  8
ALPHA
100
AcDbPolyline
 90
        3
 70
     0
 43
0.0
 10
48.032625
 20
97.224074
 10
48.014983
 20
97.554204
 10
47.940147
 20
97.974776
  0
LWPOLYLINE
  5
347
100
AcDbEntity
  8
ALPHA
100
AcDbPolyline
 90
        4
 70
     0
 43
0.0
 10
48.03261
 20
80.099176
 10
47.991219
 20
79.594364
 10
47.839465
 20
79.023375
 10
47.582641
 20
78.494107
  0
LWPOLYLINE
  5
34D
100
AcDbEntity
  8
ALPHA
100
AcDbPolyline
 90
        9
 70
     0
 43
0.0
 10
47.99352
 20
79.622427
 10
47.974996
 20
79.807638
 10
47.804279
 20
80.361867
 10
47.527049
 20
80.872648
 10
47.153961
 20
81.320351
 10
46.699351
 20
81.687772
 10
46.180691
 20
81.96079
 10
45.617912
 20
82.128913
 10
45.032641
 20
82.185682
  0
LINE
  5
358
100
AcDbEntity
  8
ALPHA
100
AcDbLine
 10
49.932641
 20
72.485181
 30
0.0
 11
48.832641
 21
72.485181
 31
0.0
  0
LINE
  5
359
100
AcDbEntity
  8
ALPHA
100
AcDbLine
 10
49.932641
 20
104.441062
 30
0.0
 11
49.932641
 21
104.485181
 31
0.0
  0
LINE
  5
35A
100
AcDbEntity
  8
ALPHA
100
AcDbLine
 10
49.932641
 20
104.441062
 30
0.0
 11
49.932641
 21
100.985181
 31
0.0
  0
LINE
  5
35B
100
AcDbEntity
  8
ALPHA
100
AcDbLine
 10
49.932641
 20
73.985181
 30
0.0
 11
49.932641
 21
100.585181
 31
0.0
  0
LINE
  5
35C
100
AcDbEntity
  8
ALPHA
100
AcDbLine
 10
49.932641
 20
72.485181
 30
0.0
 11
49.932641
 21
73.985181
 31
0.0
  0
LWPOLYLINE
  5
35D
100
AcDbEntity
  8
ALPHA
100
AcDbPolyline
 90
        5
 70
     0
 43
0.0
 10
45.201497
 20
94.398097
 10
45.416087
 20
94.406224
 10
45.760621
 20
94.453811
 10
46.068608
 20
94.536315
 10
46.34031
 20
94.646001
  0
LINE
  5
364
100
AcDbEntity
  8
ALPHA
100
AcDbLine
 10
48.832641
 20
72.485181
 30
0.0
 11
41.282641
 21
72.485181
 31
0.0
  0
LINE
  5
365
100
AcDbEntity
  8
ALPHA
100
AcDbLine
 10
42.232641
 20
104.485181
 30
0.0
 11
48.832641
 21
104.485181
 31
0.0
  0
LINE
  5
366
100
AcDbEntity
  8
ALPHA
100
AcDbLine
 10
42.232641
 20
104.485181
 30
0.0
 11
42.232641
 21
104.133086
 31
0.0
  0
LINE
  5
367
100
AcDbEntity
  8
ALPHA
100
AcDbLine
 10
48.532641
 20
103.617953
 30
0.0
 11
48.532641
 21
104.185181
 31
0.0
  0
ARC
  5
368
100
AcDbEntity
  8
ALPHA
100
AcDbCircle
 10
48.832641
 20
104.185181
 30
0.0
 40
0.3
100
AcDbArc
 50
90.0
 51
180.0
  0
LWPOLYLINE
  5
369
100
AcDbEntity
  8
ALPHA
100
AcDbPolyline
 90
       11
 70
     0
 43
0.0
 10
54.5612
 20
108.21821
 10
54.568891
 20
108.182317
 10
54.591213
 20
108.078152
 10
54.625978
 20
107.915911
 10
54.669786
 20
107.711476
 10
54.718347
 20
107.484858
 10
54.766908
 20
107.25824
 10
54.810716
 20
107.053805
 10
54.845481
 20
106.891564
 10
54.867802
 20
106.787399
 10
54.875494
 20
106.751506
  0
LWPOLYLINE
  5
376
100
AcDbEntity
  8
ALPHA
100
AcDbPolyline
 90
       11
 70
     0
 43
0.0
 10
55.504081
 20
108.21821
 10
55.49639
 20
108.182317
 10
55.474069
 20
108.078152
 10
55.439303
 20
107.915911
 10
55.395495
 20
107.711476
 10
55.346934
 20
107.484858
 10
55.298373
 20
107.25824
 10
55.254566
 20
107.053805
 10
55.2198
 20
106.891564
 10
55.197479
 20
106.787399
 10
55.189787
 20
106.751506
  0
LINE
  5
383
100
AcDbEntity
  8
ALPHA
100
AcDbLine
 10
52.226654
 20
71.945878
 30
0.0
 11
52.231993
 21
71.955125
 31
0.0
  0
LINE
  5
384
100
AcDbEntity
  8
ALPHA
100
AcDbLine
 10
51.67268
 20
70.986299
 30
0.0
 11
52.226654
 21
71.945878
 31
0.0
  0
LINE
  5
385
100
AcDbEntity
  8
ALPHA
100
AcDbLine
 10
51.67268
 20
70.986299
 30
0.0
 11
51.012319
 21
71.367532
 31
0.0
  0
LINE
  5
386
100
AcDbEntity
  8
ALPHA
100
AcDbLine
 10
52.132641
 20
107.697804
 30
0.0
 11
54.5612
 21
108.21821
 31
0.0
  0
LINE
  5
387
100
AcDbEntity
  8
ALPHA
100
AcDbLine
 10
51.67268
 20
70.986299
 30
0.0
 11
51.012319
 21
71.367532
 31
0.0
  0
LINE
  5
388
100
AcDbEntity
  8
ALPHA
100
AcDbLine
 10
54.817374
 20
106.739052
 30
0.0
 11
54.875494
 21
106.751506
 31
0.0
  0
LINE
  5
389
100
AcDbEntity
  8
ALPHA
100
AcDbLine
 10
52.132641
 20
107.697804
 30
0.0
 11
54.5612
 21
108.21821
 31
0.0
  0
LINE
  5
38A
100
AcDbEntity
  8
ALPHA
100
AcDbLine
 10
54.817374
 20
106.739052
 30
0.0
 11
54.875494
 21
106.751506
 31
0.0
  0
ARC
  5
38B
100
AcDbEntity
  8
ALPHA
100
AcDbCircle
 10
55.032641
 20
106.018154
 30
0.0
 40
2.25
100
AcDbArc
 50
77.905243
 51
102.094757
  0
ARC
  5
38C
100
AcDbEntity
  8
ALPHA
100
AcDbCircle
 10
55.032641
 20
106.018154
 30
0.0
 40
0.75
100
AcDbArc
 50
77.905243
 51
102.094757
  0
ARC
  5
38D
100
AcDbEntity
  8
ALPHA
100
AcDbCircle
 10
55.032641
 20
106.018154
 30
0.0
 40
2.25
100
AcDbArc
 50
77.905243
 51
102.094757
  0
ARC
  5
38E
100
AcDbEntity
  8
ALPHA
100
AcDbCircle
 10
55.032641
 20
106.018154
 30
0.0
 40
0.75
100
AcDbArc
 50
77.905243
 51
102.094757
  0
LINE
  5
38F
100
AcDbEntity
  8
ALPHA
100
AcDbLine
 10
55.504081
 20
108.21821
 30
0.0
 11
57.932641
 21
107.697804
 31
0.0
  0
LINE
  5
390
100
AcDbEntity
  8
ALPHA
100
AcDbLine
 10
55.189787
 20
106.751506
 30
0.0
 11
55.247907
 21
106.739052
 31
0.0
  0
LINE
  5
391
100
AcDbEntity
  8
ALPHA
100
AcDbLine
 10
55.504081
 20
108.21821
 30
0.0
 11
57.932641
 21
107.697804
 31
0.0
  0
LINE
  5
392
100
AcDbEntity
  8
ALPHA
100
AcDbLine
 10
55.189787
 20
106.751506
 30
0.0
 11
55.247907
 21
106.739052
 31
0.0
  0
LINE
  5
393
100
AcDbEntity
  8
ALPHA
100
AcDbLine
 10
59.053007
 20
71.367558
 30
0.0
 11
58.392601
 21
70.986299
 31
0.0
  0
LINE
  5
394
100
AcDbEntity
  8
ALPHA
100
AcDbLine
 10
59.053007
 20
71.367558
 30
0.0
 11
58.392601
 21
70.986299
 31
0.0
  0
LINE
  5
395
100
AcDbEntity
  8
ALPHA
100
AcDbLine
 10
57.838627
 20
71.945878
 30
0.0
 11
57.833343
 21
71.95503
 31
0.0
  0
LINE
  5
396
100
AcDbEntity
  8
ALPHA
100
AcDbLine
 10
58.392601
 20
70.986299
 30
0.0
 11
57.838627
 21
71.945878
 31
0.0
  0
LWPOLYLINE
  5
397
100
AcDbEntity
  8
ALPHA
100
AcDbPolyline
 90
        3
 70
     0
 43
0.0
 10
42.032645
 20
97.112935
 10
42.089727
 20
96.52165
 10
42.245855
 20
95.985181
  0
LINE
  5
39C
100
AcDbEntity
  8
ALPHA
100
AcDbLine
 10
41.532641
 20
103.885181
 30
0.0
 11
42.132641
 21
103.885181
 31
0.0
  0
LINE
  5
39D
100
AcDbEntity
  8
ALPHA
100
AcDbLine
 10
40.132641
 20
104.441062
 30
0.0
 11
41.132641
 21
104.441062
 31
0.0
  0
LINE
  5
39E
100
AcDbEntity
  8
ALPHA
100
AcDbLine
 10
40.982641
 20
98.177128
 30
0.0
 11
42.221596
 21
98.177128
 31
0.0
  0
LINE
  5
39F
100
AcDbEntity
  8
ALPHA
100
AcDbLine
 10
40.132641
 20
100.585181
 30
0.0
 11
41.532641
 21
100.585181
 31
0.0
  0
LINE
  5
3A0
100
AcDbEntity
  8
ALPHA
100
AcDbLine
 10
41.532641
 20
102.985181
 30
0.0
 11
41.532641
 21
100.585181
 31
0.0
  0
LINE
  5
3A1
100
AcDbEntity
  8
ALPHA
100
AcDbLine
 10
41.532641
 20
100.585181
 30
0.0
 11
41.132641
 21
100.985181
 31
0.0
  0
LINE
  5
3A2
100
AcDbEntity
  8
ALPHA
100
AcDbLine
 10
41.282641
 20
104.485181
 30
0.0
 11
41.282641
 21
103.617953
 31
0.0
  0
LINE
  5
3A3
100
AcDbEntity
  8
ALPHA
100
AcDbLine
 10
41.532641
 20
102.985181
 30
0.0
 11
41.132641
 21
103.158686
 31
0.0
  0
LWPOLYLINE
  5
3A4
100
AcDbEntity
  8
ALPHA
100
AcDbPolyline
 90
        6
 70
     0
 43
0.0
 10
43.132641
 20
82.567373
 10
42.749559
 20
82.186103
 10
42.438758
 20
81.740412
 10
42.210874
 20
81.244279
 10
42.074007
 20
80.714057
 10
42.032646
 20
80.209746
  0
LWPOLYLINE
  5
3AC
100
AcDbEntity
  8
ALPHA
100
AcDbPolyline
 90
        5
 70
     0
 43
0.0
 10
42.06211
 20
97.11803
 10
42.142136
 20
96.655265
 10
42.365659
 20
96.093286
 10
42.700485
 20
95.587768
 10
43.132641
 20
95.159807
  0
LINE
  5
3B3
100
AcDbEntity
  8
ALPHA
100
AcDbLine
 10
42.049949
 20
97.188352
 30
0.0
 11
42.06211
 21
97.11803
 31
0.0
  0
LINE
  5
3B4
100
AcDbEntity
  8
ALPHA
100
AcDbLine
 10
42.04267
 20
97.230445
 30
0.0
 11
42.049949
 21
97.188352
 31
0.0
  0
LWPOLYLINE
  5
3B5
100
AcDbEntity
  8
ALPHA
100
AcDbPolyline
 90
        5
 70
     0
 43
0.0
 10
43.132641
 20
94.402988
 10
42.793841
 20
94.732693
 10
42.509951
 20
95.111807
 10
42.287071
 20
95.532719
 10
42.131418
 20
95.985181
  0
LINE
  5
3BC
100
AcDbEntity
  8
ALPHA
100
AcDbLine
 10
42.983305
 20
98.985181
 30
0.0
 11
40.982641
 21
98.985181
 31
0.0
  0
LINE
  5
3BD
100
AcDbEntity
  8
ALPHA
100
AcDbLine
 10
45.032641
 20
102.985181
 30
0.0
 11
41.532641
 21
102.985181
 31
0.0
  0
LINE
  5
3BE
100
AcDbEntity
  8
ALPHA
100
AcDbLine
 10
45.032641
 20
73.985181
 30
0.0
 11
40.132641
 21
73.985181
 31
0.0
  0
LINE
  5
3BF
100
AcDbEntity
  8
ALPHA
100
AcDbLine
 10
41.932641
 20
86.485181
 30
0.0
 11
41.932641
 21
86.335181
 31
0.0
  0
LINE
  5
3C0
100
AcDbEntity
  8
ALPHA
100
AcDbLine
 10
41.932641
 20
90.635181
 30
0.0
 11
41.932641
 21
90.485181
 31
0.0
  0
LINE
  5
3C1
100
AcDbEntity
  8
ALPHA
100
AcDbLine
 10
41.132641
 20
87.285181
 30
0.0
 11
41.282641
 21
87.198578
 31
0.0
  0
LINE
  5
3C2
100
AcDbEntity
  8
ALPHA
100
AcDbLine
 10
41.282641
 20
89.771783
 30
0.0
 11
41.132641
 21
89.685181
 31
0.0
  0
LINE
  5
3C3
100
AcDbEntity
  8
ALPHA
100
AcDbLine
 10
45.032641
 20
99.917806
 30
0.0
 11
45.032641
 21
99.80672
 31
0.0
  0
LINE
  5
3C4
100
AcDbEntity
  8
ALPHA
100
AcDbLine
 10
45.032641
 20
102.985181
 30
0.0
 11
45.032641
 21
99.917806
 31
0.0
  0
LINE
  5
3C5
100
AcDbEntity
  8
ALPHA
100
AcDbLine
 10
45.032641
 20
103.617953
 30
0.0
 11
45.032641
 21
102.985181
 31
0.0
  0
LINE
  5
3C6
100
AcDbEntity
  8
ALPHA
100
AcDbLine
 10
41.282641
 20
104.485181
 30
0.0
 11
42.132641
 21
104.485181
 31
0.0
  0
LINE
  5
3C7
100
AcDbEntity
  8
ALPHA
100
AcDbLine
 10
42.079733
 20
97.190529
 30
0.0
 11
42.056972
 21
97.398115
 31
0.0
  0
LINE
  5
3C8
100
AcDbEntity
  8
ALPHA
100
AcDbLine
 10
42.087581
 20
97.118958
 30
0.0
 11
42.079733
 21
97.190529
 31
0.0
  0
LWPOLYLINE
  5
3C9
100
AcDbEntity
  8
ALPHA
100
AcDbPolyline
 90
        5
 70
     0
 43
0.0
 10
43.132641
 20
95.333456
 10
42.665784
 20
95.804463
 10
42.316402
 20
96.365574
 10
42.101837
 20
96.988937
 10
42.087581
 20
97.118958
  0
LINE
  5
3D0
100
AcDbEntity
  8
ALPHA
100
AcDbLine
 10
42.132641
 20
104.485181
 30
0.0
 11
42.132641
 21
103.885181
 31
0.0
  0
LINE
  5
3D1
100
AcDbEntity
  8
ALPHA
100
AcDbLine
 10
42.132641
 20
103.885181
 30
0.0
 11
42.132641
 21
103.726682
 31
0.0
  0
LINE
  5
3D2
100
AcDbEntity
  8
ALPHA
100
AcDbLine
 10
41.282641
 20
103.617953
 30
0.0
 11
45.032641
 21
103.617953
 31
0.0
  0
LINE
  5
3D3
100
AcDbEntity
  8
ALPHA
100
AcDbLine
 10
43.132641
 20
94.984154
 30
0.0
 11
43.132641
 21
95.159807
 31
0.0
  0
LINE
  5
3D4
100
AcDbEntity
  8
ALPHA
100
AcDbLine
 10
43.132641
 20
94.899335
 30
0.0
 11
43.132641
 21
94.402988
 31
0.0
  0
LINE
  5
3D5
100
AcDbEntity
  8
ALPHA
100
AcDbLine
 10
43.132641
 20
95.333456
 30
0.0
 11
43.132641
 21
95.159807
 31
0.0
  0
LINE
  5
3D6
100
AcDbEntity
  8
ALPHA
100
AcDbLine
 10
43.132641
 20
94.221874
 30
0.0
 11
42.613025
 21
93.917246
 31
0.0
  0
LINE
  5
3D7
100
AcDbEntity
  8
ALPHA
100
AcDbLine
 10
43.096196
 20
94.963433
 30
0.0
 11
43.07823
 21
94.953218
 31
0.0
  0
LINE
  5
3D8
100
AcDbEntity
  8
ALPHA
100
AcDbLine
 10
43.132641
 20
94.984154
 30
0.0
 11
43.096196
 21
94.963433
 31
0.0
  0
LINE
  5
3D9
100
AcDbEntity
  8
ALPHA
100
AcDbLine
 10
45.032641
 20
76.546496
 30
0.0
 11
45.032641
 21
76.435181
 31
0.0
  0
LINE
  5
3DA
100
AcDbEntity
  8
ALPHA
100
AcDbLine
 10
45.032641
 20
73.985181
 30
0.0
 11
45.032641
 21
73.352408
 31
0.0
  0
LINE
  5
3DB
100
AcDbEntity
  8
ALPHA
100
AcDbLine
 10
45.032641
 20
73.985181
 30
0.0
 11
45.032641
 21
76.435181
 31
0.0
  0
LWPOLYLINE
  5
3DC
100
AcDbEntity
  8
ALPHA
100
AcDbPolyline
 90
        5
 70
     0
 43
0.0
 10
43.132641
 20
81.636906
 10
42.665784
 20
81.165898
 10
42.316402
 20
80.604787
 10
42.101837
 20
79.981424
 10
42.076657
 20
79.751778
  0
LINE
  5
3E3
100
AcDbEntity
  8
ALPHA
100
AcDbLine
 10
41.532641
 20
73.352408
 30
0.0
 11
45.032641
 21
73.352408
 31
0.0
  0
LINE
  5
3E4
100
AcDbEntity
  8
ALPHA
100
AcDbLine
 10
43.132641
 20
81.636906
 30
0.0
 11
43.132641
 21
82.567373
 31
0.0
  0
LINE
  5
3E5
100
AcDbEntity
  8
ALPHA
100
AcDbLine
 10
43.132641
 20
82.748487
 30
0.0
 11
42.613025
 21
83.053115
 31
0.0
  0
LINE
  5
3E6
100
AcDbEntity
  8
ALPHA
100
AcDbLine
 10
40.132641
 20
104.485181
 30
0.0
 11
41.282641
 21
104.485181
 31
0.0
  0
LINE
  5
3E7
100
AcDbEntity
  8
ALPHA
100
AcDbLine
 10
41.132641
 20
103.158686
 30
0.0
 11
41.132641
 21
104.441062
 31
0.0
  0
LWPOLYLINE
  5
3E8
100
AcDbEntity
  8
ALPHA
100
AcDbPolyline
 90
        4
 70
     0
 43
0.0
 10
42.983305
 20
98.985181
 10
42.680804
 20
98.752993
 10
42.424079
 20
98.483802
 10
42.221596
 20
98.177128
  0
LWPOLYLINE
  5
3EE
100
AcDbEntity
  8
ALPHA
100
AcDbPolyline
 90
        3
 70
     0
 43
0.0
 10
42.221596
 20
98.177128
 10
42.07736
 20
97.637114
 10
42.032645
 20
97.112935
  0
LINE
  5
3F3
100
AcDbEntity
  8
ALPHA
100
AcDbLine
 10
42.131418
 20
95.985181
 30
0.0
 11
42.245855
 21
95.985181
 31
0.0
  0
LINE
  5
3F4
100
AcDbEntity
  8
ALPHA
100
AcDbLine
 10
40.132641
 20
100.585181
 30
0.0
 11
40.132641
 21
100.985181
 31
0.0
  0
LINE
  5
3F5
100
AcDbEntity
  8
ALPHA
100
AcDbLine
 10
40.132641
 20
100.985181
 30
0.0
 11
41.132641
 21
100.985181
 31
0.0
  0
LINE
  5
3F6
100
AcDbEntity
  8
ALPHA
100
AcDbLine
 10
41.132641
 20
103.158686
 30
0.0
 11
41.132641
 21
100.985181
 31
0.0
  0
LWPOLYLINE
  5
3F7
100
AcDbEntity
  8
ALPHA
100
AcDbPolyline
 90
        7
 70
     0
 43
0.0
 10
45.032641
 20
76.546496
 10
44.529168
 20
76.589702
 10
44.039906
 20
76.718118
 10
43.577961
 20
76.928581
 10
43.156465
 20
77.215731
 10
42.787659
 20
77.572088
 10
42.482641
 20
77.988049
  0
LINE
  5
400
100
AcDbEntity
  8
ALPHA
100
AcDbLine
 10
43.132641
 20
82.748487
 30
0.0
 11
43.132641
 21
82.567373
 31
0.0
  0
LINE
  5
401
100
AcDbEntity
  8
ALPHA
100
AcDbLine
 10
41.132641
 20
83.053115
 30
0.0
 11
42.613025
 21
83.053115
 31
0.0
  0
LINE
  5
402
100
AcDbEntity
  8
ALPHA
100
AcDbLine
 10
41.132641
 20
87.385181
 30
0.0
 11
40.932641
 21
87.385181
 31
0.0
  0
LINE
  5
403
100
AcDbEntity
  8
ALPHA
100
AcDbLine
 10
40.932641
 20
87.985181
 30
0.0
 11
40.932641
 21
87.385181
 31
0.0
  0
LINE
  5
404
100
AcDbEntity
  8
ALPHA
100
AcDbLine
 10
41.132641
 20
87.985181
 30
0.0
 11
40.932641
 21
87.985181
 31
0.0
  0
LINE
  5
405
100
AcDbEntity
  8
ALPHA
100
AcDbLine
 10
41.132641
 20
88.985181
 30
0.0
 11
40.932641
 21
88.985181
 31
0.0
  0
LINE
  5
406
100
AcDbEntity
  8
ALPHA
100
AcDbLine
 10
40.932641
 20
89.585181
 30
0.0
 11
40.932641
 21
88.985181
 31
0.0
  0
LINE
  5
407
100
AcDbEntity
  8
ALPHA
100
AcDbLine
 10
41.132641
 20
89.585181
 30
0.0
 11
40.932641
 21
89.585181
 31
0.0
  0
LINE
  5
408
100
AcDbEntity
  8
ALPHA
100
AcDbLine
 10
41.132641
 20
93.917246
 30
0.0
 11
42.613025
 21
93.917246
 31
0.0
  0
LINE
  5
409
100
AcDbEntity
  8
ALPHA
100
AcDbLine
 10
43.132641
 20
94.221874
 30
0.0
 11
43.132641
 21
94.402988
 31
0.0
  0
LINE
  5
40A
100
AcDbEntity
  8
ALPHA
100
AcDbLine
 10
42.131418
 20
95.985181
 30
0.0
 11
40.982641
 21
95.985181
 31
0.0
  0
LINE
  5
40B
100
AcDbEntity
  8
ALPHA
100
AcDbLine
 10
40.982641
 20
95.985181
 30
0.0
 11
40.982641
 21
98.985181
 31
0.0
  0
LWPOLYLINE
  5
40C
100
AcDbEntity
  8
ALPHA
100
AcDbPolyline
 90
        5
 70
     0
 43
0.0
 10
42.983305
 20
98.985181
 10
43.430522
 20
99.335947
 10
43.932943
 20
99.594675
 10
44.47348
 20
99.753339
 10
45.032641
 20
99.80672
  0
LINE
  5
413
100
AcDbEntity
  8
ALPHA
100
AcDbLine
 10
45.032641
 20
76.435181
 30
0.0
 11
42.482641
 21
76.435181
 31
0.0
  0
LINE
  5
414
100
AcDbEntity
  8
ALPHA
100
AcDbLine
 10
42.482641
 20
76.435181
 30
0.0
 11
42.482641
 21
78.605193
 31
0.0
  0
LINE
  5
415
100
AcDbEntity
  8
ALPHA
100
AcDbLine
 10
40.132641
 20
72.485181
 30
0.0
 11
41.282641
 21
72.485181
 31
0.0
  0
LINE
  5
416
100
AcDbEntity
  8
ALPHA
100
AcDbLine
 10
40.132641
 20
73.985181
 30
0.0
 11
40.132641
 21
72.485181
 31
0.0
  0
LINE
  5
417
100
AcDbEntity
  8
ALPHA
100
AcDbLine
 10
40.132641
 20
73.985181
 30
0.0
 11
40.132641
 21
100.585181
 31
0.0
  0
LINE
  5
418
100
AcDbEntity
  8
ALPHA
100
AcDbLine
 10
40.132641
 20
104.441062
 30
0.0
 11
40.132641
 21
100.985181
 31
0.0
  0
LINE
  5
419
100
AcDbEntity
  8
ALPHA
100
AcDbLine
 10
40.132641
 20
104.485181
 30
0.0
 11
40.132641
 21
104.441062
 31
0.0
  0
LINE
  5
41A
100
AcDbEntity
  8
ALPHA
100
AcDbLine
 10
41.132641
 20
93.825247
 30
0.0
 11
41.132641
 21
93.917246
 31
0.0
  0
LINE
  5
41B
100
AcDbEntity
  8
ALPHA
100
AcDbLine
 10
41.132641
 20
90.635181
 30
0.0
 11
41.132641
 21
93.825247
 31
0.0
  0
LINE
  5
41C
100
AcDbEntity
  8
ALPHA
100
AcDbLine
 10
41.132641
 20
89.585181
 30
0.0
 11
41.132641
 21
90.635181
 31
0.0
  0
LINE
  5
41D
100
AcDbEntity
  8
ALPHA
100
AcDbLine
 10
41.132641
 20
88.985181
 30
0.0
 11
41.132641
 21
89.585181
 31
0.0
  0
LINE
  5
41E
100
AcDbEntity
  8
ALPHA
100
AcDbLine
 10
41.532641
 20
73.352408
 30
0.0
 11
41.532641
 21
72.735181
 31
0.0
  0
LINE
  5
41F
100
AcDbEntity
  8
ALPHA
100
AcDbLine
 10
41.132641
 20
87.985181
 30
0.0
 11
41.132641
 21
88.985181
 31
0.0
  0
LINE
  5
420
100
AcDbEntity
  8
ALPHA
100
AcDbLine
 10
41.132641
 20
87.385181
 30
0.0
 11
41.132641
 21
87.985181
 31
0.0
  0
LINE
  5
421
100
AcDbEntity
  8
ALPHA
100
AcDbLine
 10
41.132641
 20
86.335181
 30
0.0
 11
41.132641
 21
87.385181
 31
0.0
  0
LINE
  5
422
100
AcDbEntity
  8
ALPHA
100
AcDbLine
 10
41.132641
 20
83.145115
 30
0.0
 11
41.132641
 21
86.335181
 31
0.0
  0
LINE
  5
423
100
AcDbEntity
  8
ALPHA
100
AcDbLine
 10
41.132641
 20
83.053115
 30
0.0
 11
41.132641
 21
83.145115
 31
0.0
  0
LINE
  5
424
100
AcDbEntity
  8
ALPHA
100
AcDbLine
 10
41.532641
 20
104.235181
 30
0.0
 11
41.532641
 21
103.617953
 31
0.0
  0
ARC
  5
425
100
AcDbEntity
  8
ALPHA
100
AcDbCircle
 10
41.282641
 20
72.735181
 30
0.0
 40
0.25
100
AcDbArc
 50
270.0
 51
0.0
  0
LWPOLYLINE
  5
426
100
AcDbEntity
  8
ALPHA
100
AcDbPolyline
 90
        6
 70
     0
 43
0.0
 10
42.035143
 20
97.113018
 10
42.039244
 20
96.98978
 10
42.142136
 20
96.394793
 10
42.365659
 20
95.832814
 10
42.700485
 20
95.327295
 10
43.132641
 20
94.899335
  0
LWPOLYLINE
  5
42E
100
AcDbEntity
  8
ALPHA
100
AcDbPolyline
 90
        4
 70
     0
 43
0.0
 10
42.032646
 20
80.209746
 10
42.089215
 20
79.62111
 10
42.240823
 20
79.094912
 10
42.482641
 20
78.605193
  0
LINE
  5
434
100
AcDbEntity
  8
ALPHA
100
AcDbLine
 10
41.532641
 20
104.235181
 30
0.0
 11
41.532641
 21
103.617953
 31
0.0
  0
ARC
  5
435
100
AcDbEntity
  8
ALPHA
100
AcDbCircle
 10
41.282641
 20
104.235181
 30
0.0
 40
0.25
100
AcDbArc
 50
0.0
 51
90.0
  0
LINE
  5
436
100
AcDbEntity
  8
ALPHA
100
AcDbLine
 10
42.232641
 20
104.085181
 30
0.0
 11
42.132641
 21
104.085181
 31
0.0
  0
LINE
  5
437
100
AcDbEntity
  8
ALPHA
100
AcDbLine
 10
49.982641
 20
101.285181
 30
0.0
 11
49.982641
 21
104.085181
 31
0.0
  0
LINE
  5
438
100
AcDbEntity
  8
ALPHA
100
AcDbLine
 10
49.982641
 20
101.185181
 30
0.0
 11
49.982641
 21
101.285181
 31
0.0
  0
LINE
  5
439
100
AcDbEntity
  8
ALPHA
100
AcDbLine
 10
49.982641
 20
104.085181
 30
0.0
 11
49.982641
 21
101.285181
 31
0.0
  0
LINE
  5
43A
100
AcDbEntity
  8
ALPHA
100
AcDbLine
 10
49.982641
 20
104.085181
 30
0.0
 11
49.932641
 21
104.085181
 31
0.0
  0
LINE
  5
43B
100
AcDbEntity
  8
ALPHA
100
AcDbLine
 10
49.982641
 20
101.285181
 30
0.0
 11
49.932641
 21
101.285181
 31
0.0
  0
ARC
  5
43C
100
AcDbEntity
  8
ALPHA
100
AcDbCircle
 10
55.032641
 20
89.185181
 30
0.0
 40
5.0
100
AcDbArc
 50
189.790974
 51
194.533537
  0
ARC
  5
43D
100
AcDbEntity
  8
ALPHA
100
AcDbCircle
 10
55.032641
 20
89.185181
 30
0.0
 40
5.0
100
AcDbArc
 50
345.466463
 51
348.938141
  0
ARC
  5
43E
100
AcDbEntity
  8
ALPHA
100
AcDbCircle
 10
55.032641
 20
89.185181
 30
0.0
 40
5.0
100
AcDbArc
 50
165.466463
 51
170.209026
  0
ARC
  5
43F
100
AcDbEntity
  8
ALPHA
100
AcDbCircle
 10
55.032641
 20
89.185181
 30
0.0
 40
5.0
100
AcDbArc
 50
11.061859
 51
14.533537
  0
LINE
  5
440
100
AcDbEntity
  8
ALPHA
100
AcDbLine
 10
50.032641
 20
90.035181
 30
0.0
 11
50.332641
 21
90.035181
 31
0.0
  0
LINE
  5
441
100
AcDbEntity
  8
ALPHA
100
AcDbLine
 10
59.732641
 20
90.035181
 30
0.0
 11
59.932641
 21
90.035181
 31
0.0
  0
LINE
  5
442
100
AcDbEntity
  8
ALPHA
100
AcDbLine
 10
50.032641
 20
88.335181
 30
0.0
 11
50.332641
 21
88.335181
 31
0.0
  0
LINE
  5
443
100
AcDbEntity
  8
ALPHA
100
AcDbLine
 10
59.732641
 20
88.335181
 30
0.0
 11
59.932641
 21
88.335181
 31
0.0
  0
LINE
  5
444
100
AcDbEntity
  8
ALPHA
100
AcDbLine
 10
50.032641
 20
90.035181
 30
0.0
 11
50.332641
 21
90.035181
 31
0.0
  0
LINE
  5
445
100
AcDbEntity
  8
ALPHA
100
AcDbLine
 10
59.732641
 20
90.035181
 30
0.0
 11
59.932641
 21
90.035181
 31
0.0
  0
LINE
  5
446
100
AcDbEntity
  8
ALPHA
100
AcDbLine
 10
50.032641
 20
88.335181
 30
0.0
 11
50.332641
 21
88.335181
 31
0.0
  0
LINE
  5
447
100
AcDbEntity
  8
ALPHA
100
AcDbLine
 10
59.732641
 20
88.335181
 30
0.0
 11
59.932641
 21
88.335181
 31
0.0
  0
LINE
  5
448
100
AcDbEntity
  8
ALPHA
100
AcDbLine
 10
61.032641
 20
104.785181
 30
0.0
 11
61.032641
 21
105.085181
 31
0.0
  0
LINE
  5
449
100
AcDbEntity
  8
ALPHA
100
AcDbLine
 10
61.032641
 20
105.085181
 30
0.0
 11
61.032641
 21
104.785181
 31
0.0
  0
LINE
  5
44A
100
AcDbEntity
  8
ALPHA
100
AcDbLine
 10
61.032641
 20
105.085181
 30
0.0
 11
60.782641
 21
105.085181
 31
0.0
  0
LINE
  5
44B
100
AcDbEntity
  8
ALPHA
100
AcDbLine
 10
47.988295
 20
79.674662
 30
0.0
 11
47.778299
 21
79.674662
 31
0.0
  0
LINE
  5
44C
100
AcDbEntity
  8
ALPHA
100
AcDbLine
 10
47.997802
 20
79.674662
 30
0.0
 11
47.988295
 21
79.674662
 31
0.0
  0
LINE
  5
44D
100
AcDbEntity
  8
ALPHA
100
AcDbLine
 10
43.132641
 20
81.988961
 30
0.0
 11
44.282641
 21
81.988961
 31
0.0
  0
LINE
  5
44E
100
AcDbEntity
  8
ALPHA
100
AcDbLine
 10
45.782641
 20
81.988961
 30
0.0
 11
46.086391
 21
81.988961
 31
0.0
  0
LINE
  5
44F
100
AcDbEntity
  8
ALPHA
100
AcDbLine
 10
42.157229
 20
79.385048
 30
0.0
 11
42.250482
 21
79.385048
 31
0.0
  0
LWPOLYLINE
  5
450
100
AcDbEntity
  8
ALPHA
100
AcDbPolyline
 90
        4
 70
     0
 43
0.0
 10
45.782641
 20
81.988961
 10
45.777226
 20
82.033541
 10
45.760425
 20
82.075323
 10
45.748944
 20
82.089769
  0
LINE
  5
456
100
AcDbEntity
  8
ALPHA
100
AcDbLine
 10
45.532641
 20
82.137184
 30
0.0
 11
45.532641
 21
82.018177
 31
0.0
  0
LINE
  5
457
100
AcDbEntity
  8
ALPHA
100
AcDbLine
 10
45.532641
 20
82.14251
 30
0.0
 11
45.532641
 21
82.137184
 31
0.0
  0
LWPOLYLINE
  5
458
100
AcDbEntity
  8
ALPHA
100
AcDbPolyline
 90
        7
 70
     0
 43
0.0
 10
44.282641
 20
81.988961
 10
44.288055
 20
82.033541
 10
44.304856
 20
82.075323
 10
44.333485
 20
82.111347
 10
44.373282
 20
82.13813
 10
44.423265
 20
82.152623
 10
44.447116
 20
82.153962
  0
LINE
  5
461
100
AcDbEntity
  8
ALPHA
100
AcDbLine
 10
44.532641
 20
82.14251
 30
0.0
 11
44.532641
 21
82.019875
 31
0.0
  0
LINE
  5
462
100
AcDbEntity
  8
ALPHA
100
AcDbLine
 10
47.935588
 20
79.385048
 30
0.0
 11
47.814799
 21
79.385048
 31
0.0
  0
LINE
  5
463
100
AcDbEntity
  8
ALPHA
100
AcDbLine
 10
42.084068
 20
79.674662
 30
0.0
 11
42.286982
 21
79.674662
 31
0.0
  0
LINE
  5
464
100
AcDbEntity
  8
ALPHA
100
AcDbLine
 10
44.282641
 20
81.988961
 30
0.0
 11
44.282641
 21
81.959042
 31
0.0
  0
LINE
  5
465
100
AcDbEntity
  8
ALPHA
100
AcDbLine
 10
45.782641
 20
81.988961
 30
0.0
 11
45.782641
 21
81.961062
 31
0.0
  0
LINE
  5
466
100
AcDbEntity
  8
ALPHA
100
AcDbLine
 10
44.482641
 20
82.151193
 30
0.0
 11
44.532641
 21
82.14251
 31
0.0
  0
LINE
  5
467
100
AcDbEntity
  8
ALPHA
100
AcDbLine
 10
45.477731
 20
82.14251
 30
0.0
 11
44.532641
 21
82.14251
 31
0.0
  0
LINE
  5
468
100
AcDbEntity
  8
ALPHA
100
AcDbLine
 10
44.44826
 20
82.154231
 30
0.0
 11
43.132641
 21
82.154231
 31
0.0
  0
LINE
  5
469
100
AcDbEntity
  8
ALPHA
100
AcDbLine
 10
44.447116
 20
82.153962
 30
0.0
 11
44.482641
 21
82.151193
 31
0.0
  0
LINE
  5
46A
100
AcDbEntity
  8
ALPHA
100
AcDbLine
 10
46.896056
 20
95.441568
 30
0.0
 11
45.782641
 21
95.441568
 31
0.0
  0
LINE
  5
46B
100
AcDbEntity
  8
ALPHA
100
AcDbLine
 10
44.282641
 20
95.441568
 30
0.0
 11
43.025481
 21
95.441568
 31
0.0
  0
LWPOLYLINE
  5
46C
100
AcDbEntity
  8
ALPHA
100
AcDbPolyline
 90
        7
 70
     0
 43
0.0
 10
44.282641
 20
95.441568
 10
44.288055
 20
95.396988
 10
44.304856
 20
95.355206
 10
44.333485
 20
95.319182
 10
44.373282
 20
95.292398
 10
44.423265
 20
95.277906
 10
44.447116
 20
95.276567
  0
LINE
  5
475
100
AcDbEntity
  8
ALPHA
100
AcDbLine
 10
44.532641
 20
95.288019
 30
0.0
 11
44.532641
 21
95.465488
 31
0.0
  0
LWPOLYLINE
  5
476
100
AcDbEntity
  8
ALPHA
100
AcDbPolyline
 90
        7
 70
     0
 43
0.0
 10
45.782641
 20
95.441568
 10
45.777226
 20
95.396988
 10
45.760425
 20
95.355206
 10
45.731796
 20
95.319182
 10
45.692
 20
95.292398
 10
45.642016
 20
95.277906
 10
45.618166
 20
95.276567
  0
LINE
  5
47F
100
AcDbEntity
  8
ALPHA
100
AcDbLine
 10
45.532641
 20
95.288019
 30
0.0
 11
45.532641
 21
95.463913
 31
0.0
  0
LINE
  5
480
100
AcDbEntity
  8
ALPHA
100
AcDbLine
 10
47.9791
 20
97.755866
 30
0.0
 11
47.965234
 21
97.755866
 31
0.0
  0
LINE
  5
481
100
AcDbEntity
  8
ALPHA
100
AcDbLine
 10
45.782641
 20
95.441568
 30
0.0
 11
45.782641
 21
95.516678
 31
0.0
  0
LINE
  5
482
100
AcDbEntity
  8
ALPHA
100
AcDbLine
 10
44.282641
 20
95.441568
 30
0.0
 11
44.282641
 21
95.514521
 31
0.0
  0
LINE
  5
483
100
AcDbEntity
  8
ALPHA
100
AcDbLine
 10
43.132641
 20
95.276298
 30
0.0
 11
44.44826
 21
95.276298
 31
0.0
  0
LINE
  5
484
100
AcDbEntity
  8
ALPHA
100
AcDbLine
 10
45.582641
 20
95.279336
 30
0.0
 11
45.532641
 21
95.288019
 31
0.0
  0
LINE
  5
485
100
AcDbEntity
  8
ALPHA
100
AcDbLine
 10
44.532641
 20
95.288019
 30
0.0
 11
45.532641
 21
95.288019
 31
0.0
  0
LINE
  5
486
100
AcDbEntity
  8
ALPHA
100
AcDbLine
 10
44.482641
 20
95.279336
 30
0.0
 11
44.532641
 21
95.288019
 31
0.0
  0
LINE
  5
487
100
AcDbEntity
  8
ALPHA
100
AcDbLine
 10
44.447116
 20
95.276567
 30
0.0
 11
44.482641
 21
95.279336
 31
0.0
  0
LINE
  5
488
100
AcDbEntity
  8
ALPHA
100
AcDbLine
 10
45.617021
 20
95.276298
 30
0.0
 11
46.687399
 21
95.276298
 31
0.0
  0
LINE
  5
489
100
AcDbEntity
  8
ALPHA
100
AcDbLine
 10
45.618166
 20
95.276567
 30
0.0
 11
45.582641
 21
95.279336
 31
0.0
  0
LINE
  5
48A
100
AcDbEntity
  8
ALPHA
100
AcDbLine
 10
42.208131
 20
98.126717
 30
0.0
 11
42.252316
 21
98.126717
 31
0.0
  0
LINE
  5
48B
100
AcDbEntity
  8
ALPHA
100
AcDbLine
 10
47.970286
 20
97.773691
 30
0.0
 11
47.972763
 21
97.791478
 31
0.0
  0
LWPOLYLINE
  5
48C
100
AcDbEntity
  8
ALPHA
100
AcDbPolyline
 90
       22
 70
     0
 43
0.0
 10
42.103658
 20
97.735573
 10
42.104492
 20
97.730187
 10
42.21988
 20
97.345515
 10
42.387122
 20
96.979761
 10
42.603116
 20
96.63971
 10
42.86391
 20
96.331583
 10
43.164659
 20
96.061106
 10
43.499862
 20
95.833224
 10
43.863298
 20
95.652168
 10
44.248302
 20
95.521256
 10
44.647758
 20
95.44291
 10
45.054303
 20
95.418572
 10
45.460639
 20
95.448716
 10
45.859077
 20
95.53281
 10
46.242269
 20
95.669303
 10
46.603144
 20
95.855676
 10
46.935043
 20
96.08849
 10
47.231844
 20
96.363451
 10
47.488072
 20
96.675486
 10
47.698997
 20
97.018838
 10
47.86073
 20
97.387171
 10
47.970286
 20
97.773691
  0
LINE
  5
4A4
100
AcDbEntity
  8
ALPHA
100
AcDbLine
 10
67.917567
 20
78.435181
 30
0.0
 11
67.723267
 21
78.435181
 31
0.0
  0
LINE
  5
4A5
100
AcDbEntity
  8
ALPHA
100
AcDbLine
 10
67.973572
 20
79.685181
 30
0.0
 11
67.783287
 21
79.685181
 31
0.0
  0
LINE
  5
4A6
100
AcDbEntity
  8
ALPHA
100
AcDbLine
 10
67.980123
 20
78.685181
 30
0.0
 11
67.783287
 21
78.685181
 31
0.0
  0
LINE
  5
4A7
100
AcDbEntity
  8
ALPHA
100
AcDbLine
 10
65.782641
 20
76.292834
 30
0.0
 11
65.782641
 21
76.48969
 31
0.0
  0
LINE
  5
4A8
100
AcDbEntity
  8
ALPHA
100
AcDbLine
 10
62.144658
 20
79.935181
 30
0.0
 11
62.342014
 21
79.935181
 31
0.0
  0
LINE
  5
4A9
100
AcDbEntity
  8
ALPHA
100
AcDbLine
 10
64.282641
 20
82.071111
 30
0.0
 11
64.282641
 21
81.879265
 31
0.0
  0
LINE
  5
4AA
100
AcDbEntity
  8
ALPHA
100
AcDbLine
 10
64.532641
 20
76.234141
 30
0.0
 11
64.532641
 21
76.434534
 31
0.0
  0
LINE
  5
4AB
100
AcDbEntity
  8
ALPHA
100
AcDbLine
 10
65.532641
 20
76.234141
 30
0.0
 11
65.532641
 21
76.434534
 31
0.0
  0
LINE
  5
4AC
100
AcDbEntity
  8
ALPHA
100
AcDbLine
 10
62.091738
 20
79.685181
 30
0.0
 11
62.278745
 21
79.685181
 31
0.0
  0
LINE
  5
4AD
100
AcDbEntity
  8
ALPHA
100
AcDbLine
 10
62.085109
 20
78.685181
 30
0.0
 11
62.278746
 21
78.685181
 31
0.0
  0
LINE
  5
4AE
100
AcDbEntity
  8
ALPHA
100
AcDbLine
 10
65.532641
 20
82.128852
 30
0.0
 11
65.532641
 21
81.935827
 31
0.0
  0
LINE
  5
4AF
100
AcDbEntity
  8
ALPHA
100
AcDbLine
 10
64.532641
 20
82.128884
 30
0.0
 11
64.532641
 21
81.935827
 31
0.0
  0
LINE
  5
4B0
100
AcDbEntity
  8
ALPHA
100
AcDbLine
 10
67.920596
 20
79.935181
 30
0.0
 11
67.723267
 21
79.935181
 31
0.0
  0
LINE
  5
4B1
100
AcDbEntity
  8
ALPHA
100
AcDbLine
 10
65.782641
 20
82.071126
 30
0.0
 11
65.782641
 21
81.880679
 31
0.0
  0
LINE
  5
4B2
100
AcDbEntity
  8
ALPHA
100
AcDbLine
 10
64.282641
 20
76.292834
 30
0.0
 11
64.282641
 21
76.491101
 31
0.0
  0
LINE
  5
4B3
100
AcDbEntity
  8
ALPHA
100
AcDbLine
 10
62.147704
 20
78.435181
 30
0.0
 11
62.342014
 21
78.435181
 31
0.0
  0
LINE
  5
4B4
100
AcDbEntity
  8
ALPHA
100
AcDbLine
 10
44.782641
 20
90.635181
 30
0.0
 11
44.782641
 21
90.485181
 31
0.0
  0
LINE
  5
4B5
100
AcDbEntity
  8
ALPHA
100
AcDbLine
 10
42.282641
 20
90.485181
 30
0.0
 11
42.282641
 21
90.635181
 31
0.0
  0
LINE
  5
4B6
100
AcDbEntity
  8
ALPHA
100
AcDbLine
 10
42.282641
 20
86.335181
 30
0.0
 11
42.282641
 21
86.485181
 31
0.0
  0
LINE
  5
4B7
100
AcDbEntity
  8
ALPHA
100
AcDbLine
 10
44.782641
 20
86.485181
 30
0.0
 11
44.782641
 21
86.335181
 31
0.0
  0
LWPOLYLINE
  5
4B8
100
AcDbEntity
  8
ALPHA
100
AcDbPolyline
 90
        4
 70
     0
 43
0.0
 10
42.366589
 20
79.795976
 10
42.385167
 20
79.832332
 10
42.403691
 20
79.868575
 10
42.422161
 20
79.904705
  0
LWPOLYLINE
  5
4BE
100
AcDbEntity
  8
ALPHA
100
AcDbPolyline
 90
        4
 70
     0
 43
0.0
 10
47.64312
 20
79.904705
 10
47.66159
 20
79.868575
 10
47.680114
 20
79.832332
 10
47.698692
 20
79.795976
  0
LINE
  5
4C4
100
AcDbEntity
  8
ALPHA
100
AcDbLine
 10
44.632641
 20
81.232509
 30
0.0
 11
44.632641
 21
79.952259
 31
0.0
  0
LINE
  5
4C5
100
AcDbEntity
  8
ALPHA
100
AcDbLine
 10
45.432641
 20
81.232509
 30
0.0
 11
44.632641
 21
81.232509
 31
0.0
  0
LINE
  5
4C6
100
AcDbEntity
  8
ALPHA
100
AcDbLine
 10
45.409073
 20
79.795976
 30
0.0
 11
47.698692
 21
79.795976
 31
0.0
  0
LWPOLYLINE
  5
4C7
100
AcDbEntity
  8
ALPHA
100
AcDbPolyline
 90
        4
 70
     0
 43
0.0
 10
47.698692
 20
79.795976
 10
47.732187
 20
79.501455
 10
47.732187
 20
79.204169
 10
47.698692
 20
78.909649
  0
LINE
  5
4CD
100
AcDbEntity
  8
ALPHA
100
AcDbLine
 10
42.366589
 20
79.795976
 30
0.0
 11
44.656208
 21
79.795976
 31
0.0
  0
LWPOLYLINE
  5
4CE
100
AcDbEntity
  8
ALPHA
100
AcDbPolyline
 90
        4
 70
     0
 43
0.0
 10
42.366589
 20
78.909649
 10
42.333094
 20
79.204169
 10
42.333094
 20
79.501455
 10
42.366589
 20
79.795976
  0
LINE
  5
4D4
100
AcDbEntity
  8
ALPHA
100
AcDbLine
 10
44.397641
 20
79.065932
 30
0.0
 11
44.397641
 21
79.622444
 31
0.0
  0
LINE
  5
4D5
100
AcDbEntity
  8
ALPHA
100
AcDbLine
 10
44.040773
 20
79.746735
 30
0.0
 11
44.040773
 21
79.065932
 31
0.0
  0
LINE
  5
4D6
100
AcDbEntity
  8
ALPHA
100
AcDbLine
 10
45.667641
 20
79.065932
 30
0.0
 11
45.667641
 21
79.622444
 31
0.0
  0
LINE
  5
4D7
100
AcDbEntity
  8
ALPHA
100
AcDbLine
 10
46.024508
 20
79.746735
 30
0.0
 11
46.024508
 21
79.065932
 31
0.0
  0
LINE
  5
4D8
100
AcDbEntity
  8
ALPHA
100
AcDbLine
 10
45.032641
 20
78.8129
 30
0.0
 11
45.032641
 21
79.169891
 31
0.0
  0
LINE
  5
4D9
100
AcDbEntity
  8
ALPHA
100
AcDbLine
 10
45.032641
 20
79.169891
 30
0.0
 11
45.032641
 21
79.563814
 31
0.0
  0
LINE
  5
4DA
100
AcDbEntity
  8
ALPHA
100
AcDbLine
 10
44.040773
 20
79.746735
 30
0.0
 11
44.397641
 21
79.622444
 31
0.0
  0
LINE
  5
4DB
100
AcDbEntity
  8
ALPHA
100
AcDbLine
 10
44.397641
 20
79.622444
 30
0.0
 11
45.032641
 21
79.563814
 31
0.0
  0
LINE
  5
4DC
100
AcDbEntity
  8
ALPHA
100
AcDbLine
 10
45.032641
 20
79.563814
 30
0.0
 11
45.667641
 21
79.622444
 31
0.0
  0
LINE
  5
4DD
100
AcDbEntity
  8
ALPHA
100
AcDbLine
 10
45.667641
 20
79.622444
 30
0.0
 11
46.024508
 21
79.746735
 31
0.0
  0
LINE
  5
4DE
100
AcDbEntity
  8
ALPHA
100
AcDbLine
 10
45.409073
 20
79.746735
 30
0.0
 11
46.024508
 21
79.746735
 31
0.0
  0
LINE
  5
4DF
100
AcDbEntity
  8
ALPHA
100
AcDbLine
 10
44.040773
 20
79.746735
 30
0.0
 11
44.656208
 21
79.746735
 31
0.0
  0
LINE
  5
4E0
100
AcDbEntity
  8
ALPHA
100
AcDbLine
 10
45.432641
 20
81.232509
 30
0.0
 11
45.432641
 21
79.952259
 31
0.0
  0
LINE
  5
4E1
100
AcDbEntity
  8
ALPHA
100
AcDbLine
 10
45.432641
 20
79.952259
 30
0.0
 11
47.339279
 21
79.952259
 31
0.0
  0
LINE
  5
4E2
100
AcDbEntity
  8
ALPHA
100
AcDbLine
 10
42.726002
 20
79.952259
 30
0.0
 11
44.632641
 21
79.952259
 31
0.0
  0
LWPOLYLINE
  5
4E3
100
AcDbEntity
  8
ALPHA
100
AcDbPolyline
 90
       19
 70
     0
 43
0.0
 10
42.726002
 20
79.065932
 10
42.821127
 20
78.726011
 10
42.968433
 20
78.40272
 10
43.163988
 20
78.105539
 10
43.403386
 20
77.84113
 10
43.680927
 20
77.615817
 10
43.990138
 20
77.434849
 10
44.323768
 20
77.302471
 10
44.674004
 20
77.221784
 10
45.032641
 20
77.194676
 10
45.391277
 20
77.221784
 10
45.741513
 20
77.302471
 10
46.075143
 20
77.434849
 10
46.384354
 20
77.615817
 10
46.661895
 20
77.84113
 10
46.901293
 20
78.105539
 10
47.096849
 20
78.40272
 10
47.244154
 20
78.726011
 10
47.339279
 20
79.065932
  0
LINE
  5
4F8
100
AcDbEntity
  8
ALPHA
100
AcDbLine
 10
45.432641
 20
79.065932
 30
0.0
 11
45.432641
 21
77.785682
 31
0.0
  0
LINE
  5
4F9
100
AcDbEntity
  8
ALPHA
100
AcDbLine
 10
45.432641
 20
77.785682
 30
0.0
 11
44.632641
 21
77.785682
 31
0.0
  0
LINE
  5
4FA
100
AcDbEntity
  8
ALPHA
100
AcDbLine
 10
45.032641
 20
79.169891
 30
0.0
 11
44.678866
 21
79.550955
 31
0.0
  0
LINE
  5
4FB
100
AcDbEntity
  8
ALPHA
100
AcDbLine
 10
45.032641
 20
79.169891
 30
0.0
 11
45.386415
 21
79.550955
 31
0.0
  0
LINE
  5
4FC
100
AcDbEntity
  8
ALPHA
100
AcDbLine
 10
44.674951
 20
79.853874
 30
0.0
 11
45.39033
 21
79.853874
 31
0.0
  0
LINE
  5
4FD
100
AcDbEntity
  8
ALPHA
100
AcDbLine
 10
45.387058
 20
79.600746
 30
0.0
 11
44.678223
 21
79.600746
 31
0.0
  0
LINE
  5
4FE
100
AcDbEntity
  8
ALPHA
100
AcDbLine
 10
44.639892
 20
80.743757
 30
0.0
 11
45.42539
 21
80.743757
 31
0.0
  0
LINE
  5
4FF
100
AcDbEntity
  8
ALPHA
100
AcDbLine
 10
44.639892
 20
78.178268
 30
0.0
 11
45.42539
 21
78.178268
 31
0.0
  0
LINE
  5
500
100
AcDbEntity
  8
ALPHA
100
AcDbLine
 10
44.674951
 20
78.603168
 30
0.0
 11
45.39033
 21
78.603168
 31
0.0
  0
LINE
  5
501
100
AcDbEntity
  8
ALPHA
100
AcDbLine
 10
44.683792
 20
79.169891
 30
0.0
 11
45.032641
 21
79.169891
 31
0.0
  0
LINE
  5
502
100
AcDbEntity
  8
ALPHA
100
AcDbLine
 10
45.032641
 20
79.169891
 30
0.0
 11
44.678866
 21
78.854156
 31
0.0
  0
LINE
  5
503
100
AcDbEntity
  8
ALPHA
100
AcDbLine
 10
45.032641
 20
79.169891
 30
0.0
 11
45.381489
 21
79.169891
 31
0.0
  0
LINE
  5
504
100
AcDbEntity
  8
ALPHA
100
AcDbLine
 10
45.032641
 20
79.169891
 30
0.0
 11
45.386415
 21
78.854156
 31
0.0
  0
LINE
  5
505
100
AcDbEntity
  8
ALPHA
100
AcDbLine
 10
44.632641
 20
79.065932
 30
0.0
 11
44.632641
 21
77.785682
 31
0.0
  0
LINE
  5
506
100
AcDbEntity
  8
ALPHA
100
AcDbLine
 10
45.387058
 20
78.8129
 30
0.0
 11
45.39033
 21
78.603168
 31
0.0
  0
LINE
  5
507
100
AcDbEntity
  8
ALPHA
100
AcDbLine
 10
45.39033
 20
78.603168
 30
0.0
 11
45.42539
 21
78.178268
 31
0.0
  0
LWPOLYLINE
  5
508
100
AcDbEntity
  8
ALPHA
100
AcDbPolyline
 90
        6
 70
     0
 43
0.0
 10
45.42539
 20
78.178268
 10
45.427819
 20
78.135398
 10
45.429857
 20
78.07077
 10
45.431371
 20
77.988764
 10
45.432321
 20
77.891635
 10
45.432641
 20
77.785682
  0
LWPOLYLINE
  5
510
100
AcDbEntity
  8
ALPHA
100
AcDbPolyline
 90
        7
 70
     0
 43
0.0
 10
42.422161
 20
79.904705
 10
42.437552
 20
79.917107
 10
42.470866
 20
79.928731
 10
42.519214
 20
79.938478
 10
42.580061
 20
79.945923
 10
42.651113
 20
79.950669
 10
42.726002
 20
79.952259
  0
LINE
  5
519
100
AcDbEntity
  8
ALPHA
100
AcDbLine
 10
45.409073
 20
78.958889
 30
0.0
 11
45.409073
 21
78.909649
 31
0.0
  0
LINE
  5
51A
100
AcDbEntity
  8
ALPHA
100
AcDbLine
 10
45.432641
 20
79.952259
 30
0.0
 11
45.409073
 21
79.795976
 31
0.0
  0
LWPOLYLINE
  5
51B
100
AcDbEntity
  8
ALPHA
100
AcDbPolyline
 90
        6
 70
     0
 43
0.0
 10
45.432641
 20
81.232509
 10
45.432321
 20
81.122322
 10
45.431371
 20
81.012593
 10
45.429857
 20
80.910501
 10
45.427819
 20
80.818852
 10
45.42539
 20
80.743757
  0
LINE
  5
523
100
AcDbEntity
  8
ALPHA
100
AcDbLine
 10
45.42539
 20
80.743757
 30
0.0
 11
45.39033
 21
79.853874
 31
0.0
  0
LINE
  5
524
100
AcDbEntity
  8
ALPHA
100
AcDbLine
 10
45.39033
 20
79.853874
 30
0.0
 11
45.387058
 21
79.600746
 31
0.0
  0
LINE
  5
525
100
AcDbEntity
  8
ALPHA
100
AcDbLine
 10
45.387058
 20
79.600746
 30
0.0
 11
45.409073
 21
79.746735
 31
0.0
  0
LINE
  5
526
100
AcDbEntity
  8
ALPHA
100
AcDbLine
 10
45.409073
 20
79.795976
 30
0.0
 11
45.409073
 21
79.746735
 31
0.0
  0
LINE
  5
527
100
AcDbEntity
  8
ALPHA
100
AcDbLine
 10
45.386415
 20
79.550955
 30
0.0
 11
45.381489
 21
79.169891
 31
0.0
  0
LINE
  5
528
100
AcDbEntity
  8
ALPHA
100
AcDbLine
 10
45.381489
 20
79.169891
 30
0.0
 11
45.386415
 21
78.854156
 31
0.0
  0
LINE
  5
529
100
AcDbEntity
  8
ALPHA
100
AcDbLine
 10
45.386415
 20
79.550955
 30
0.0
 11
45.386415
 21
78.854156
 31
0.0
  0
LWPOLYLINE
  5
52A
100
AcDbEntity
  8
ALPHA
100
AcDbPolyline
 90
       19
 70
     0
 43
0.0
 10
47.339279
 20
79.952259
 10
47.244154
 20
80.29218
 10
47.096849
 20
80.615471
 10
46.901293
 20
80.912652
 10
46.661895
 20
81.177061
 10
46.384354
 20
81.402374
 10
46.075143
 20
81.583342
 10
45.741513
 20
81.71572
 10
45.391277
 20
81.796408
 10
45.032641
 20
81.823515
 10
44.674004
 20
81.796408
 10
44.323768
 20
81.71572
 10
43.990138
 20
81.583342
 10
43.680927
 20
81.402374
 10
43.403386
 20
81.177061
 10
43.163988
 20
80.912652
 10
42.968433
 20
80.615471
 10
42.821127
 20
80.29218
 10
42.726002
 20
79.952259
  0
LWPOLYLINE
  5
53F
100
AcDbEntity
  8
ALPHA
100
AcDbPolyline
 90
        6
 70
     0
 43
0.0
 10
44.639892
 20
78.178268
 10
44.637462
 20
78.135398
 10
44.635424
 20
78.07077
 10
44.63391
 20
77.988764
 10
44.63296
 20
77.891635
 10
44.632641
 20
77.785682
  0
LINE
  5
547
100
AcDbEntity
  8
ALPHA
100
AcDbLine
 10
44.674951
 20
78.603168
 30
0.0
 11
44.639892
 21
78.178268
 31
0.0
  0
LINE
  5
548
100
AcDbEntity
  8
ALPHA
100
AcDbLine
 10
44.678223
 20
78.8129
 30
0.0
 11
44.674951
 21
78.603168
 31
0.0
  0
LWPOLYLINE
  5
549
100
AcDbEntity
  8
ALPHA
100
AcDbPolyline
 90
        7
 70
     0
 43
0.0
 10
47.339279
 20
79.952259
 10
47.414168
 20
79.950669
 10
47.48522
 20
79.945923
 10
47.546067
 20
79.938478
 10
47.594415
 20
79.928731
 10
47.627729
 20
79.917107
 10
47.64312
 20
79.904705
  0
LINE
  5
552
100
AcDbEntity
  8
ALPHA
100
AcDbLine
 10
44.656208
 20
78.958889
 30
0.0
 11
44.656208
 21
78.909649
 31
0.0
  0
LINE
  5
553
100
AcDbEntity
  8
ALPHA
100
AcDbLine
 10
44.678223
 20
79.600746
 30
0.0
 11
44.656208
 21
79.746735
 31
0.0
  0
LINE
  5
554
100
AcDbEntity
  8
ALPHA
100
AcDbLine
 10
44.674951
 20
79.853874
 30
0.0
 11
44.678223
 21
79.600746
 31
0.0
  0
LINE
  5
555
100
AcDbEntity
  8
ALPHA
100
AcDbLine
 10
44.639892
 20
80.743757
 30
0.0
 11
44.674951
 21
79.853874
 31
0.0
  0
LWPOLYLINE
  5
556
100
AcDbEntity
  8
ALPHA
100
AcDbPolyline
 90
        6
 70
     0
 43
0.0
 10
44.632641
 20
81.232509
 10
44.63296
 20
81.122322
 10
44.63391
 20
81.012593
 10
44.635424
 20
80.910501
 10
44.637462
 20
80.818852
 10
44.639892
 20
80.743757
  0
LINE
  5
55E
100
AcDbEntity
  8
ALPHA
100
AcDbLine
 10
44.632641
 20
79.952259
 30
0.0
 11
44.656208
 21
79.795976
 31
0.0
  0
LINE
  5
55F
100
AcDbEntity
  8
ALPHA
100
AcDbLine
 10
44.656208
 20
79.795976
 30
0.0
 11
44.656208
 21
79.746735
 31
0.0
  0
LINE
  5
560
100
AcDbEntity
  8
ALPHA
100
AcDbLine
 10
44.683792
 20
79.169891
 30
0.0
 11
44.678866
 21
78.854156
 31
0.0
  0
LINE
  5
561
100
AcDbEntity
  8
ALPHA
100
AcDbLine
 10
44.678866
 20
79.550955
 30
0.0
 11
44.683792
 21
79.169891
 31
0.0
  0
LINE
  5
562
100
AcDbEntity
  8
ALPHA
100
AcDbLine
 10
44.678866
 20
79.550955
 30
0.0
 11
44.678866
 21
78.854156
 31
0.0
  0
LWPOLYLINE
  5
563
100
AcDbEntity
  8
ALPHA
100
AcDbPolyline
 90
        4
 70
     0
 43
0.0
 10
47.64312
 20
79.904705
 10
47.541874
 20
80.297674
 10
47.380024
 20
80.670449
 10
47.332549
 20
80.755926
  0
LWPOLYLINE
  5
569
100
AcDbEntity
  8
ALPHA
100
AcDbPolyline
 90
        4
 70
     0
 43
0.0
 10
42.422161
 20
79.904705
 10
42.523408
 20
80.297674
 10
42.685257
 20
80.670449
 10
42.732732
 20
80.755926
  0
LINE
  5
56F
100
AcDbEntity
  8
ALPHA
100
AcDbLine
 10
42.523408
 20
78.625409
 30
0.0
 11
42.422161
 21
79.018378
 31
0.0
  0
LINE
  5
570
100
AcDbEntity
  8
ALPHA
100
AcDbLine
 10
42.524327
 20
78.623292
 30
0.0
 11
42.523408
 21
78.625409
 31
0.0
  0
LWPOLYLINE
  5
571
100
AcDbEntity
  8
ALPHA
100
AcDbPolyline
 90
        9
 70
     0
 43
0.0
 10
45.032641
 20
76.852804
 10
44.62221
 20
76.884307
 10
44.221692
 20
76.978055
 10
43.84076
 20
77.131784
 10
43.488614
 20
77.341782
 10
43.173759
 20
77.602976
 10
42.9038
 20
77.909057
 10
42.685257
 20
78.252634
 10
42.524327
 20
78.623292
  0
LWPOLYLINE
  5
57C
100
AcDbEntity
  8
ALPHA
100
AcDbPolyline
 90
       10
 70
     0
 43
0.0
 10
45.032641
 20
76.852804
 10
45.443071
 20
76.884307
 10
45.843589
 20
76.978055
 10
46.224521
 20
77.131784
 10
46.576667
 20
77.341782
 10
46.891522
 20
77.602976
 10
47.161481
 20
77.909057
 10
47.380024
 20
78.252634
 10
47.541874
 20
78.625409
 10
47.64312
 20
79.018378
  0
LWPOLYLINE
  5
588
100
AcDbEntity
  8
ALPHA
100
AcDbPolyline
 90
        4
 70
     0
 43
0.0
 10
47.698692
 20
78.909649
 10
47.680114
 20
78.946005
 10
47.66159
 20
78.982248
 10
47.64312
 20
79.018378
  0
LWPOLYLINE
  5
58E
100
AcDbEntity
  8
ALPHA
100
AcDbPolyline
 90
        4
 70
     0
 43
0.0
 10
42.422161
 20
79.018378
 10
42.403691
 20
78.982248
 10
42.385167
 20
78.946005
 10
42.366589
 20
78.909649
  0
LINE
  5
594
100
AcDbEntity
  8
ALPHA
100
AcDbLine
 10
45.409073
 20
78.958889
 30
0.0
 11
45.416499
 21
78.958889
 31
0.0
  0
LINE
  5
595
100
AcDbEntity
  8
ALPHA
100
AcDbLine
 10
44.648783
 20
78.958889
 30
0.0
 11
44.656208
 21
78.958889
 31
0.0
  0
LINE
  5
596
100
AcDbEntity
  8
ALPHA
100
AcDbLine
 10
45.387058
 20
78.8129
 30
0.0
 11
44.678223
 21
78.8129
 31
0.0
  0
LINE
  5
597
100
AcDbEntity
  8
ALPHA
100
AcDbLine
 10
45.387058
 20
78.8129
 30
0.0
 11
45.409073
 21
78.958889
 31
0.0
  0
LINE
  5
598
100
AcDbEntity
  8
ALPHA
100
AcDbLine
 10
45.416334
 20
78.957794
 30
0.0
 11
45.409073
 21
78.909649
 31
0.0
  0
LINE
  5
599
100
AcDbEntity
  8
ALPHA
100
AcDbLine
 10
45.432641
 20
79.065932
 30
0.0
 11
45.416334
 21
78.957794
 31
0.0
  0
LINE
  5
59A
100
AcDbEntity
  8
ALPHA
100
AcDbLine
 10
44.648948
 20
78.957794
 30
0.0
 11
44.656208
 21
78.909649
 31
0.0
  0
LINE
  5
59B
100
AcDbEntity
  8
ALPHA
100
AcDbLine
 10
44.632641
 20
79.065932
 30
0.0
 11
44.648948
 21
78.957794
 31
0.0
  0
LINE
  5
59C
100
AcDbEntity
  8
ALPHA
100
AcDbLine
 10
44.678223
 20
78.8129
 30
0.0
 11
44.656208
 21
78.958889
 31
0.0
  0
LWPOLYLINE
  5
59D
100
AcDbEntity
  8
ALPHA
100
AcDbPolyline
 90
        6
 70
     0
 43
0.0
 10
47.818052
 20
78.979247
 10
47.832641
 20
79.161799
 10
47.798168
 20
79.593161
 10
47.695599
 20
80.013902
 10
47.527459
 20
80.413661
 10
47.463716
 20
80.529835
  0
LINE
  5
5A5
100
AcDbEntity
  8
ALPHA
100
AcDbLine
 10
47.527459
 20
77.909938
 30
0.0
 11
47.582641
 21
78.041134
 31
0.0
  0
LWPOLYLINE
  5
5A6
100
AcDbEntity
  8
ALPHA
100
AcDbPolyline
 90
        4
 70
     0
 43
0.0
 10
46.783112
 20
77.019007
 10
47.01254
 20
77.211979
 10
47.297888
 20
77.541004
 10
47.527459
 20
77.909938
  0
LINE
  5
5AC
100
AcDbEntity
  8
ALPHA
100
AcDbLine
 10
42.732732
 20
80.755926
 30
0.0
 11
42.601614
 21
80.529977
 31
0.0
  0
LWPOLYLINE
  5
5AD
100
AcDbEntity
  8
ALPHA
100
AcDbPolyline
 90
       15
 70
     0
 43
0.0
 10
42.732807
 20
80.756056
 10
42.883492
 20
80.986708
 10
43.15124
 20
81.298277
 10
43.464912
 20
81.564898
 10
43.816992
 20
81.780138
 10
44.198828
 20
81.938648
 10
44.601015
 20
82.036513
 10
45.013794
 20
82.071355
 10
45.426994
 20
82.042314
 10
45.830456
 20
81.950138
 10
46.214366
 20
81.797111
 10
46.569392
 20
81.586984
 10
46.886719
 20
81.325055
 10
47.158858
 20
81.017585
 10
47.332462
 20
80.756078
  0
LINE
  5
5BE
100
AcDbEntity
  8
ALPHA
100
AcDbLine
 10
45.432641
 20
79.065932
 30
0.0
 11
47.339279
 21
79.065932
 31
0.0
  0
LINE
  5
5BF
100
AcDbEntity
  8
ALPHA
100
AcDbLine
 10
42.726002
 20
79.065932
 30
0.0
 11
44.632641
 21
79.065932
 31
0.0
  0
LWPOLYLINE
  5
5C0
100
AcDbEntity
  8
ALPHA
100
AcDbPolyline
 90
        7
 70
     0
 43
0.0
 10
42.726002
 20
79.065932
 10
42.651113
 20
79.064342
 10
42.580061
 20
79.059596
 10
42.519214
 20
79.052151
 10
42.470866
 20
79.042404
 10
42.437552
 20
79.03078
 10
42.422161
 20
79.018378
  0
LWPOLYLINE
  5
5C9
100
AcDbEntity
  8
ALPHA
100
AcDbPolyline
 90
        7
 70
     0
 43
0.0
 10
47.64312
 20
79.018378
 10
47.627729
 20
79.03078
 10
47.594415
 20
79.042404
 10
47.546067
 20
79.052151
 10
47.48522
 20
79.059596
 10
47.414168
 20
79.064342
 10
47.339279
 20
79.065932
  0
LWPOLYLINE
  5
5D2
100
AcDbEntity
  8
ALPHA
100
AcDbPolyline
 90
        6
 70
     0
 43
0.0
 10
42.236897
 20
79.10854
 10
42.232641
 20
79.161799
 10
42.267113
 20
79.593161
 10
42.369682
 20
80.013902
 10
42.537822
 20
80.413661
 10
42.601565
 20
80.529835
  0
LINE
  5
5DA
100
AcDbEntity
  8
ALPHA
100
AcDbLine
 10
42.535003
 20
77.916641
 30
0.0
 11
42.501612
 21
77.996028
 31
0.0
  0
LINE
  5
5DB
100
AcDbEntity
  8
ALPHA
100
AcDbLine
 10
47.332549
 20
80.755926
 30
0.0
 11
47.463667
 21
80.529977
 31
0.0
  0
LINE
  5
5DC
100
AcDbEntity
  8
ALPHA
100
AcDbLine
 10
45.409073
 20
97.738742
 30
0.0
 11
47.698692
 21
97.738742
 31
0.0
  0
LWPOLYLINE
  5
5DD
100
AcDbEntity
  8
ALPHA
100
AcDbPolyline
 90
        4
 70
     0
 43
0.0
 10
47.698692
 20
97.738742
 10
47.680114
 20
97.702386
 10
47.66159
 20
97.666143
 10
47.64312
 20
97.630013
  0
LINE
  5
5E3
100
AcDbEntity
  8
ALPHA
100
AcDbLine
 10
42.366589
 20
97.738742
 30
0.0
 11
44.656208
 21
97.738742
 31
0.0
  0
LWPOLYLINE
  5
5E4
100
AcDbEntity
  8
ALPHA
100
AcDbPolyline
 90
        4
 70
     0
 43
0.0
 10
42.422161
 20
97.630013
 10
42.403691
 20
97.666142
 10
42.385167
 20
97.702386
 10
42.366589
 20
97.738742
  0
LINE
  5
5EA
100
AcDbEntity
  8
ALPHA
100
AcDbLine
 10
44.632641
 20
99.749036
 30
0.0
 11
44.632641
 21
98.468786
 31
0.0
  0
LWPOLYLINE
  5
5EB
100
AcDbEntity
  8
ALPHA
100
AcDbPolyline
 90
        4
 70
     0
 43
0.0
 10
47.718788
 20
98.448363
 10
47.732187
 20
98.330548
 10
47.732187
 20
98.033262
 10
47.698692
 20
97.738742
  0
LINE
  5
5F1
100
AcDbEntity
  8
ALPHA
100
AcDbLine
 10
45.432641
 20
99.749036
 30
0.0
 11
44.632641
 21
99.749036
 31
0.0
  0
LWPOLYLINE
  5
5F2
100
AcDbEntity
  8
ALPHA
100
AcDbPolyline
 90
        4
 70
     0
 43
0.0
 10
42.366589
 20
97.738742
 10
42.333094
 20
98.033262
 10
42.333094
 20
98.330548
 10
42.335217
 20
98.349215
  0
LINE
  5
5F8
100
AcDbEntity
  8
ALPHA
100
AcDbLine
 10
44.397641
 20
97.912274
 30
0.0
 11
44.397641
 21
98.468786
 31
0.0
  0
LINE
  5
5F9
100
AcDbEntity
  8
ALPHA
100
AcDbLine
 10
44.040773
 20
98.468786
 30
0.0
 11
44.040773
 21
97.787982
 31
0.0
  0
LINE
  5
5FA
100
AcDbEntity
  8
ALPHA
100
AcDbLine
 10
45.667641
 20
97.912274
 30
0.0
 11
45.667641
 21
98.468786
 31
0.0
  0
LINE
  5
5FB
100
AcDbEntity
  8
ALPHA
100
AcDbLine
 10
46.024508
 20
98.468786
 30
0.0
 11
46.024508
 21
97.787982
 31
0.0
  0
LINE
  5
5FC
100
AcDbEntity
  8
ALPHA
100
AcDbLine
 10
45.032641
 20
97.970903
 30
0.0
 11
45.032641
 21
98.364826
 31
0.0
  0
LINE
  5
5FD
100
AcDbEntity
  8
ALPHA
100
AcDbLine
 10
45.032641
 20
98.364826
 30
0.0
 11
45.032641
 21
98.721817
 31
0.0
  0
LINE
  5
5FE
100
AcDbEntity
  8
ALPHA
100
AcDbLine
 10
45.432641
 20
99.749036
 30
0.0
 11
45.432641
 21
98.468786
 31
0.0
  0
LWPOLYLINE
  5
5FF
100
AcDbEntity
  8
ALPHA
100
AcDbPolyline
 90
        7
 70
     0
 43
0.0
 10
47.64312
 20
97.630013
 10
47.627729
 20
97.617611
 10
47.594415
 20
97.605987
 10
47.546067
 20
97.596239
 10
47.48522
 20
97.588795
 10
47.414168
 20
97.584048
 10
47.339279
 20
97.582459
  0
LWPOLYLINE
  5
608
100
AcDbEntity
  8
ALPHA
100
AcDbPolyline
 90
       19
 70
     0
 43
0.0
 10
42.726002
 20
97.582459
 10
42.821127
 20
97.242537
 10
42.968433
 20
96.919246
 10
43.163988
 20
96.622066
 10
43.403386
 20
96.357656
 10
43.680927
 20
96.132344
 10
43.990138
 20
95.951376
 10
44.323768
 20
95.818998
 10
44.674004
 20
95.73831
 10
45.032641
 20
95.711202
 10
45.391277
 20
95.73831
 10
45.741513
 20
95.818998
 10
46.075143
 20
95.951376
 10
46.384354
 20
96.132344
 10
46.661895
 20
96.357656
 10
46.901293
 20
96.622066
 10
47.096849
 20
96.919246
 10
47.244154
 20
97.242537
 10
47.339279
 20
97.582459
  0
LINE
  5
61D
100
AcDbEntity
  8
ALPHA
100
AcDbLine
 10
45.432641
 20
97.582459
 30
0.0
 11
47.339279
 21
97.582459
 31
0.0
  0
LINE
  5
61E
100
AcDbEntity
  8
ALPHA
100
AcDbLine
 10
45.432641
 20
97.582459
 30
0.0
 11
45.432641
 21
96.302209
 31
0.0
  0
LINE
  5
61F
100
AcDbEntity
  8
ALPHA
100
AcDbLine
 10
45.409073
 20
97.787982
 30
0.0
 11
46.024508
 21
97.787982
 31
0.0
  0
LINE
  5
620
100
AcDbEntity
  8
ALPHA
100
AcDbLine
 10
45.667641
 20
97.912274
 30
0.0
 11
46.024508
 21
97.787982
 31
0.0
  0
LINE
  5
621
100
AcDbEntity
  8
ALPHA
100
AcDbLine
 10
45.032641
 20
97.970903
 30
0.0
 11
45.667641
 21
97.912274
 31
0.0
  0
LINE
  5
622
100
AcDbEntity
  8
ALPHA
100
AcDbLine
 10
44.397641
 20
97.912274
 30
0.0
 11
45.032641
 21
97.970903
 31
0.0
  0
LINE
  5
623
100
AcDbEntity
  8
ALPHA
100
AcDbLine
 10
44.040773
 20
97.787982
 30
0.0
 11
44.397641
 21
97.912274
 31
0.0
  0
LINE
  5
624
100
AcDbEntity
  8
ALPHA
100
AcDbLine
 10
44.040773
 20
97.787982
 30
0.0
 11
44.656208
 21
97.787982
 31
0.0
  0
LINE
  5
625
100
AcDbEntity
  8
ALPHA
100
AcDbLine
 10
45.032641
 20
98.364826
 30
0.0
 11
44.678866
 21
98.680562
 31
0.0
  0
LINE
  5
626
100
AcDbEntity
  8
ALPHA
100
AcDbLine
 10
45.032641
 20
98.364826
 30
0.0
 11
45.386415
 21
98.680562
 31
0.0
  0
LINE
  5
627
100
AcDbEntity
  8
ALPHA
100
AcDbLine
 10
44.674951
 20
98.93155
 30
0.0
 11
45.39033
 21
98.93155
 31
0.0
  0
LINE
  5
628
100
AcDbEntity
  8
ALPHA
100
AcDbLine
 10
45.432641
 20
96.302209
 30
0.0
 11
44.632641
 21
96.302209
 31
0.0
  0
LINE
  5
629
100
AcDbEntity
  8
ALPHA
100
AcDbLine
 10
44.639892
 20
99.35645
 30
0.0
 11
45.42539
 21
99.35645
 31
0.0
  0
LINE
  5
62A
100
AcDbEntity
  8
ALPHA
100
AcDbLine
 10
44.639892
 20
96.790961
 30
0.0
 11
45.42539
 21
96.790961
 31
0.0
  0
LINE
  5
62B
100
AcDbEntity
  8
ALPHA
100
AcDbLine
 10
44.674951
 20
97.680844
 30
0.0
 11
45.39033
 21
97.680844
 31
0.0
  0
LINE
  5
62C
100
AcDbEntity
  8
ALPHA
100
AcDbLine
 10
44.683792
 20
98.364826
 30
0.0
 11
45.032641
 21
98.364826
 31
0.0
  0
LINE
  5
62D
100
AcDbEntity
  8
ALPHA
100
AcDbLine
 10
45.032641
 20
98.364826
 30
0.0
 11
44.678866
 21
97.983763
 31
0.0
  0
LINE
  5
62E
100
AcDbEntity
  8
ALPHA
100
AcDbLine
 10
45.032641
 20
98.364826
 30
0.0
 11
45.381489
 21
98.364826
 31
0.0
  0
LINE
  5
62F
100
AcDbEntity
  8
ALPHA
100
AcDbLine
 10
45.032641
 20
98.364826
 30
0.0
 11
45.386415
 21
97.983763
 31
0.0
  0
LINE
  5
630
100
AcDbEntity
  8
ALPHA
100
AcDbLine
 10
45.387058
 20
97.933971
 30
0.0
 11
44.678223
 21
97.933971
 31
0.0
  0
LINE
  5
631
100
AcDbEntity
  8
ALPHA
100
AcDbLine
 10
45.387058
 20
97.933971
 30
0.0
 11
45.409073
 21
97.787982
 31
0.0
  0
LINE
  5
632
100
AcDbEntity
  8
ALPHA
100
AcDbLine
 10
45.387058
 20
97.933971
 30
0.0
 11
45.39033
 21
97.680844
 31
0.0
  0
LINE
  5
633
100
AcDbEntity
  8
ALPHA
100
AcDbLine
 10
45.39033
 20
97.680844
 30
0.0
 11
45.42539
 21
96.790961
 31
0.0
  0
LWPOLYLINE
  5
634
100
AcDbEntity
  8
ALPHA
100
AcDbPolyline
 90
        6
 70
     0
 43
0.0
 10
45.42539
 20
96.790961
 10
45.427819
 20
96.715866
 10
45.429857
 20
96.624216
 10
45.431371
 20
96.522125
 10
45.432321
 20
96.412395
 10
45.432641
 20
96.302209
  0
LINE
  5
63C
100
AcDbEntity
  8
ALPHA
100
AcDbLine
 10
45.432641
 20
97.582459
 30
0.0
 11
45.409073
 21
97.738742
 31
0.0
  0
LINE
  5
63D
100
AcDbEntity
  8
ALPHA
100
AcDbLine
 10
45.409073
 20
97.787982
 30
0.0
 11
45.409073
 21
97.738742
 31
0.0
  0
LINE
  5
63E
100
AcDbEntity
  8
ALPHA
100
AcDbLine
 10
44.632641
 20
97.582459
 30
0.0
 11
44.632641
 21
96.302209
 31
0.0
  0
LWPOLYLINE
  5
63F
100
AcDbEntity
  8
ALPHA
100
AcDbPolyline
 90
        6
 70
     0
 43
0.0
 10
45.432641
 20
99.749036
 10
45.432321
 20
99.643083
 10
45.431371
 20
99.545953
 10
45.429857
 20
99.463948
 10
45.427819
 20
99.39932
 10
45.42539
 20
99.35645
  0
LINE
  5
647
100
AcDbEntity
  8
ALPHA
100
AcDbLine
 10
45.42539
 20
99.35645
 30
0.0
 11
45.39033
 21
98.93155
 31
0.0
  0
LINE
  5
648
100
AcDbEntity
  8
ALPHA
100
AcDbLine
 10
45.39033
 20
98.93155
 30
0.0
 11
45.387058
 21
98.721817
 31
0.0
  0
LINE
  5
649
100
AcDbEntity
  8
ALPHA
100
AcDbLine
 10
42.726002
 20
97.582459
 30
0.0
 11
44.632641
 21
97.582459
 31
0.0
  0
LINE
  5
64A
100
AcDbEntity
  8
ALPHA
100
AcDbLine
 10
45.409073
 20
98.625069
 30
0.0
 11
45.409073
 21
98.575829
 31
0.0
  0
LINE
  5
64B
100
AcDbEntity
  8
ALPHA
100
AcDbLine
 10
45.386415
 20
98.680562
 30
0.0
 11
45.381489
 21
98.364826
 31
0.0
  0
LINE
  5
64C
100
AcDbEntity
  8
ALPHA
100
AcDbLine
 10
45.381489
 20
98.364826
 30
0.0
 11
45.386415
 21
97.983763
 31
0.0
  0
LINE
  5
64D
100
AcDbEntity
  8
ALPHA
100
AcDbLine
 10
45.386415
 20
98.680562
 30
0.0
 11
45.386415
 21
97.983763
 31
0.0
  0
LINE
  5
64E
100
AcDbEntity
  8
ALPHA
100
AcDbLine
 10
44.632641
 20
97.582459
 30
0.0
 11
44.656208
 21
97.738742
 31
0.0
  0
LWPOLYLINE
  5
64F
100
AcDbEntity
  8
ALPHA
100
AcDbPolyline
 90
        6
 70
     0
 43
0.0
 10
44.639892
 20
96.790961
 10
44.637462
 20
96.715866
 10
44.635424
 20
96.624216
 10
44.63391
 20
96.522125
 10
44.63296
 20
96.412395
 10
44.632641
 20
96.302209
  0
LINE
  5
657
100
AcDbEntity
  8
ALPHA
100
AcDbLine
 10
44.674951
 20
97.680844
 30
0.0
 11
44.639892
 21
96.790961
 31
0.0
  0
LINE
  5
658
100
AcDbEntity
  8
ALPHA
100
AcDbLine
 10
44.678223
 20
97.933971
 30
0.0
 11
44.674951
 21
97.680844
 31
0.0
  0
LINE
  5
659
100
AcDbEntity
  8
ALPHA
100
AcDbLine
 10
44.678223
 20
97.933971
 30
0.0
 11
44.656208
 21
97.787982
 31
0.0
  0
LINE
  5
65A
100
AcDbEntity
  8
ALPHA
100
AcDbLine
 10
44.656208
 20
97.787982
 30
0.0
 11
44.656208
 21
97.738742
 31
0.0
  0
LINE
  5
65B
100
AcDbEntity
  8
ALPHA
100
AcDbLine
 10
44.674951
 20
98.93155
 30
0.0
 11
44.678223
 21
98.721817
 31
0.0
  0
LINE
  5
65C
100
AcDbEntity
  8
ALPHA
100
AcDbLine
 10
44.639892
 20
99.35645
 30
0.0
 11
44.674951
 21
98.93155
 31
0.0
  0
LWPOLYLINE
  5
65D
100
AcDbEntity
  8
ALPHA
100
AcDbPolyline
 90
        6
 70
     0
 43
0.0
 10
44.632641
 20
99.749036
 10
44.63296
 20
99.643083
 10
44.63391
 20
99.545953
 10
44.635424
 20
99.463948
 10
44.637462
 20
99.39932
 10
44.639892
 20
99.35645
  0
LWPOLYLINE
  5
665
100
AcDbEntity
  8
ALPHA
100
AcDbPolyline
 90
        3
 70
     0
 43
0.0
 10
42.857558
 20
98.888663
 10
42.821127
 20
98.808707
 10
42.726002
 20
98.468786
  0
LINE
  5
66A
100
AcDbEntity
  8
ALPHA
100
AcDbLine
 10
47.168775
 20
98.97414
 30
0.0
 11
47.14354
 21
99.029523
 31
0.0
  0
LWPOLYLINE
  5
66B
100
AcDbEntity
  8
ALPHA
100
AcDbPolyline
 90
        3
 70
     0
 43
0.0
 10
47.339279
 20
98.468786
 10
47.244154
 20
98.808707
 10
47.168775
 20
98.97414
  0
LINE
  5
670
100
AcDbEntity
  8
ALPHA
100
AcDbLine
 10
44.656208
 20
98.625069
 30
0.0
 11
44.656208
 21
98.575829
 31
0.0
  0
LINE
  5
671
100
AcDbEntity
  8
ALPHA
100
AcDbLine
 10
44.683792
 20
98.364826
 30
0.0
 11
44.678866
 21
97.983763
 31
0.0
  0
LINE
  5
672
100
AcDbEntity
  8
ALPHA
100
AcDbLine
 10
44.678866
 20
98.680562
 30
0.0
 11
44.683792
 21
98.364826
 31
0.0
  0
LINE
  5
673
100
AcDbEntity
  8
ALPHA
100
AcDbLine
 10
44.678866
 20
98.680562
 30
0.0
 11
44.678866
 21
97.983763
 31
0.0
  0
LWPOLYLINE
  5
674
100
AcDbEntity
  8
ALPHA
100
AcDbPolyline
 90
        4
 70
     0
 43
0.0
 10
47.332549
 20
96.778791
 10
47.380024
 20
96.864269
 10
47.541874
 20
97.237044
 10
47.64312
 20
97.630013
  0
LINE
  5
67A
100
AcDbEntity
  8
ALPHA
100
AcDbLine
 10
47.64312
 20
98.51634
 30
0.0
 11
47.629307
 21
98.569952
 31
0.0
  0
LWPOLYLINE
  5
67B
100
AcDbEntity
  8
ALPHA
100
AcDbPolyline
 90
        7
 70
     0
 43
0.0
 10
42.726002
 20
97.582459
 10
42.651113
 20
97.584048
 10
42.580061
 20
97.588795
 10
42.519214
 20
97.596239
 10
42.470866
 20
97.605987
 10
42.437552
 20
97.617611
 10
42.422161
 20
97.630013
  0
LWPOLYLINE
  5
684
100
AcDbEntity
  8
ALPHA
100
AcDbPolyline
 90
        4
 70
     0
 43
0.0
 10
42.732732
 20
96.778791
 10
42.685257
 20
96.864269
 10
42.523408
 20
97.237044
 10
42.422161
 20
97.630013
  0
LINE
  5
68A
100
AcDbEntity
  8
ALPHA
100
AcDbLine
 10
47.64312
 20
98.51634
 30
0.0
 11
47.655575
 21
98.540702
 31
0.0
  0
LINE
  5
68B
100
AcDbEntity
  8
ALPHA
100
AcDbLine
 10
45.409073
 20
98.575829
 30
0.0
 11
45.416499
 21
98.575829
 31
0.0
  0
LINE
  5
68C
100
AcDbEntity
  8
ALPHA
100
AcDbLine
 10
44.648783
 20
98.575829
 30
0.0
 11
44.656208
 21
98.575829
 31
0.0
  0
LINE
  5
68D
100
AcDbEntity
  8
ALPHA
100
AcDbLine
 10
45.387058
 20
98.721817
 30
0.0
 11
44.678223
 21
98.721817
 31
0.0
  0
LINE
  5
68E
100
AcDbEntity
  8
ALPHA
100
AcDbLine
 10
45.416334
 20
98.576923
 30
0.0
 11
45.409073
 21
98.625069
 31
0.0
  0
LINE
  5
68F
100
AcDbEntity
  8
ALPHA
100
AcDbLine
 10
45.432641
 20
98.468786
 30
0.0
 11
45.416334
 21
98.576923
 31
0.0
  0
LINE
  5
690
100
AcDbEntity
  8
ALPHA
100
AcDbLine
 10
45.387058
 20
98.721817
 30
0.0
 11
45.409073
 21
98.575829
 31
0.0
  0
LINE
  5
691
100
AcDbEntity
  8
ALPHA
100
AcDbLine
 10
44.678223
 20
98.721817
 30
0.0
 11
44.656208
 21
98.575829
 31
0.0
  0
LINE
  5
692
100
AcDbEntity
  8
ALPHA
100
AcDbLine
 10
44.648948
 20
98.576923
 30
0.0
 11
44.656208
 21
98.625069
 31
0.0
  0
LINE
  5
693
100
AcDbEntity
  8
ALPHA
100
AcDbLine
 10
44.632641
 20
98.468786
 30
0.0
 11
44.648948
 21
98.576923
 31
0.0
  0
LINE
  5
694
100
AcDbEntity
  8
ALPHA
100
AcDbLine
 10
42.732732
 20
96.778791
 30
0.0
 11
42.601614
 21
97.004741
 31
0.0
  0
LINE
  5
695
100
AcDbEntity
  8
ALPHA
100
AcDbLine
 10
42.248118
 20
98.179248
 30
0.0
 11
42.245405
 21
98.213189
 31
0.0
  0
LWPOLYLINE
  5
696
100
AcDbEntity
  8
ALPHA
100
AcDbPolyline
 90
        5
 70
     0
 43
0.0
 10
42.601565
 20
97.004883
 10
42.537822
 20
97.121057
 10
42.369682
 20
97.520816
 10
42.267113
 20
97.941556
 10
42.248118
 20
98.179248
  0
LINE
  5
69D
100
AcDbEntity
  8
ALPHA
100
AcDbLine
 10
45.432641
 20
98.468786
 30
0.0
 11
47.339279
 21
98.468786
 31
0.0
  0
LINE
  5
69E
100
AcDbEntity
  8
ALPHA
100
AcDbLine
 10
42.726002
 20
98.468786
 30
0.0
 11
44.632641
 21
98.468786
 31
0.0
  0
LWPOLYLINE
  5
69F
100
AcDbEntity
  8
ALPHA
100
AcDbPolyline
 90
        6
 70
     0
 43
0.0
 10
42.441852
 20
98.502438
 10
42.470866
 20
98.492314
 10
42.519214
 20
98.482566
 10
42.580061
 20
98.475122
 10
42.651113
 20
98.470375
 10
42.726002
 20
98.468786
  0
LWPOLYLINE
  5
6A7
100
AcDbEntity
  8
ALPHA
100
AcDbPolyline
 90
        7
 70
     0
 43
0.0
 10
47.339279
 20
98.468786
 10
47.414168
 20
98.470375
 10
47.48522
 20
98.475122
 10
47.546067
 20
98.482566
 10
47.594415
 20
98.492314
 10
47.627729
 20
98.503938
 10
47.64312
 20
98.51634
  0
LWPOLYLINE
  5
6B0
100
AcDbEntity
  8
ALPHA
100
AcDbPolyline
 90
       15
 70
     0
 43
0.0
 10
47.332461
 20
96.778639
 10
47.158592
 20
96.516782
 10
46.886211
 20
96.209172
 10
46.568593
 20
95.947173
 10
46.213276
 20
95.737071
 10
45.829118
 20
95.584164
 10
45.425492
 20
95.492181
 10
45.012238
 20
95.463374
 10
44.599523
 20
95.498448
 10
44.197512
 20
95.596501
 10
43.815929
 20
95.755121
 10
43.464141
 20
95.970377
 10
43.150754
 20
96.236924
 10
42.883244
 20
96.548349
 10
42.732806
 20
96.778663
  0
LINE
  5
6C1
100
AcDbEntity
  8
ALPHA
100
AcDbLine
 10
47.332549
 20
96.778791
 30
0.0
 11
47.463667
 21
97.004741
 31
0.0
  0
LWPOLYLINE
  5
6C2
100
AcDbEntity
  8
ALPHA
100
AcDbPolyline
 90
        5
 70
     0
 43
0.0
 10
47.463716
 20
97.004883
 10
47.527459
 20
97.121057
 10
47.695599
 20
97.520816
 10
47.798168
 20
97.941556
 10
47.823188
 20
98.254633
  0
LINE
  5
6C9
100
AcDbEntity
  8
ALPHA
100
AcDbLine
 10
47.533845
 20
77.899079
 30
0.0
 11
47.582641
 21
78.006739
 31
0.0
  0
LWPOLYLINE
  5
6CA
100
AcDbEntity
  8
ALPHA
100
AcDbPolyline
 90
        4
 70
     0
 43
0.0
 10
47.265883
 20
77.449658
 10
47.283452
 20
77.470801
 10
47.487389
 20
77.796581
 10
47.533845
 20
77.899079
  0
LINE
  5
6D0
100
AcDbEntity
  8
ALPHA
100
AcDbLine
 10
42.232641
 20
79.161799
 30
0.0
 11
42.235453
 21
79.113551
 31
0.0
  0
LINE
  5
6D1
100
AcDbEntity
  8
ALPHA
100
AcDbLine
 10
48.782641
 20
90.485181
 30
0.0
 11
41.282641
 21
90.485181
 31
0.0
  0
LINE
  5
6D2
100
AcDbEntity
  8
ALPHA
100
AcDbLine
 10
48.782641
 20
86.485181
 30
0.0
 11
41.282641
 21
86.485181
 31
0.0
  0
LINE
  5
6D3
100
AcDbEntity
  8
ALPHA
100
AcDbLine
 10
41.282641
 20
86.485181
 30
0.0
 11
41.282641
 21
90.485181
 31
0.0
  0
LINE
  5
6D4
100
AcDbEntity
  8
ALPHA
100
AcDbLine
 10
48.782641
 20
86.485181
 30
0.0
 11
48.782641
 21
90.485181
 31
0.0
  0
LINE
  5
6D5
100
AcDbEntity
  8
ALPHA
100
AcDbLine
 10
65.032641
 20
79.185181
 30
0.0
 11
65.386415
 21
79.538955
 31
0.0
  0
LINE
  5
6D6
100
AcDbEntity
  8
ALPHA
100
AcDbLine
 10
65.032641
 20
79.185181
 30
0.0
 11
64.683792
 21
79.185181
 31
0.0
  0
LINE
  5
6D7
100
AcDbEntity
  8
ALPHA
100
AcDbLine
 10
65.032641
 20
79.185181
 30
0.0
 11
64.678866
 21
79.538955
 31
0.0
  0
LINE
  5
6D8
100
AcDbEntity
  8
ALPHA
100
AcDbLine
 10
64.632641
 20
77.435181
 30
0.0
 11
65.432641
 21
77.435181
 31
0.0
  0
LINE
  5
6D9
100
AcDbEntity
  8
ALPHA
100
AcDbLine
 10
64.632641
 20
77.435181
 30
0.0
 11
64.632641
 21
78.735181
 31
0.0
  0
LINE
  5
6DA
100
AcDbEntity
  8
ALPHA
100
AcDbLine
 10
64.678223
 20
79.585181
 30
0.0
 11
64.674951
 21
79.820181
 31
0.0
  0
LINE
  5
6DB
100
AcDbEntity
  8
ALPHA
100
AcDbLine
 10
64.674951
 20
79.820181
 30
0.0
 11
64.639892
 21
80.487713
 31
0.0
  0
LWPOLYLINE
  5
6DC
100
AcDbEntity
  8
ALPHA
100
AcDbPolyline
 90
        6
 70
     0
 43
0.0
 10
64.639892
 20
80.487713
 10
64.637462
 20
80.547606
 10
64.635424
 20
80.62695
 10
64.63391
 20
80.720418
 10
64.63296
 20
80.825443
 10
64.632641
 20
80.935181
  0
LINE
  5
6E4
100
AcDbEntity
  8
ALPHA
100
AcDbLine
 10
65.667641
 20
79.585181
 30
0.0
 11
65.667641
 21
78.785181
 31
0.0
  0
LINE
  5
6E5
100
AcDbEntity
  8
ALPHA
100
AcDbLine
 10
64.656208
 20
79.585181
 30
0.0
 11
64.656208
 21
79.635181
 31
0.0
  0
ARC
  5
6E6
100
AcDbEntity
  8
ALPHA
100
AcDbCircle
 10
65.032641
 20
79.185181
 30
0.0
 40
2.350123
100
AcDbArc
 50
11.039128
 51
168.960872
  0
LWPOLYLINE
  5
6E7
100
AcDbEntity
  8
ALPHA
100
AcDbPolyline
 90
        6
 70
     0
 43
0.0
 10
64.632641
 20
77.435181
 10
64.63296
 20
77.544918
 10
64.63391
 20
77.649943
 10
64.635424
 20
77.743411
 10
64.637462
 20
77.822755
 10
64.639892
 20
77.882648
  0
LINE
  5
6EF
100
AcDbEntity
  8
ALPHA
100
AcDbLine
 10
64.639892
 20
77.882648
 30
0.0
 11
64.674951
 21
78.550181
 31
0.0
  0
LINE
  5
6F0
100
AcDbEntity
  8
ALPHA
100
AcDbLine
 10
64.674951
 20
78.550181
 30
0.0
 11
64.678223
 21
78.785181
 31
0.0
  0
ARC
  5
6F1
100
AcDbEntity
  8
ALPHA
100
AcDbCircle
 10
65.032641
 20
79.185181
 30
0.0
 40
2.703762
100
AcDbArc
 50
350.419409
 51
9.580591
  0
LINE
  5
6F2
100
AcDbEntity
  8
ALPHA
100
AcDbLine
 10
64.656208
 20
78.735181
 30
0.0
 11
64.656208
 21
78.785181
 31
0.0
  0
LINE
  5
6F3
100
AcDbEntity
  8
ALPHA
100
AcDbLine
 10
64.678866
 20
78.831406
 30
0.0
 11
64.683792
 21
79.185181
 31
0.0
  0
LINE
  5
6F4
100
AcDbEntity
  8
ALPHA
100
AcDbLine
 10
64.683792
 20
79.185181
 30
0.0
 11
64.678866
 21
79.538955
 31
0.0
  0
LINE
  5
6F5
100
AcDbEntity
  8
ALPHA
100
AcDbLine
 10
64.678866
 20
78.831406
 30
0.0
 11
64.678866
 21
79.538955
 31
0.0
  0
LINE
  5
6F6
100
AcDbEntity
  8
ALPHA
100
AcDbLine
 10
64.632641
 20
79.635181
 30
0.0
 11
64.632641
 21
80.935181
 31
0.0
  0
LWPOLYLINE
  5
6F7
100
AcDbEntity
  8
ALPHA
100
AcDbPolyline
 90
        6
 70
     0
 43
0.0
 10
65.42539
 20
80.487713
 10
65.427819
 20
80.547606
 10
65.429857
 20
80.62695
 10
65.431371
 20
80.720418
 10
65.432321
 20
80.825443
 10
65.432641
 20
80.935181
  0
LINE
  5
6FF
100
AcDbEntity
  8
ALPHA
100
AcDbLine
 10
65.39033
 20
79.820181
 30
0.0
 11
65.42539
 21
80.487713
 31
0.0
  0
LINE
  5
700
100
AcDbEntity
  8
ALPHA
100
AcDbLine
 10
65.387058
 20
79.585181
 30
0.0
 11
65.39033
 21
79.820181
 31
0.0
  0
LINE
  5
701
100
AcDbEntity
  8
ALPHA
100
AcDbLine
 10
64.632641
 20
80.935181
 30
0.0
 11
65.432641
 21
80.935181
 31
0.0
  0
LINE
  5
702
100
AcDbEntity
  8
ALPHA
100
AcDbLine
 10
65.409073
 20
79.585181
 30
0.0
 11
65.409073
 21
79.635181
 31
0.0
  0
LINE
  5
703
100
AcDbEntity
  8
ALPHA
100
AcDbLine
 10
65.432641
 20
79.635181
 30
0.0
 11
65.432641
 21
80.935181
 31
0.0
  0
LINE
  5
704
100
AcDbEntity
  8
ALPHA
100
AcDbLine
 10
65.39033
 20
78.550181
 30
0.0
 11
65.387058
 21
78.785181
 31
0.0
  0
LINE
  5
705
100
AcDbEntity
  8
ALPHA
100
AcDbLine
 10
65.42539
 20
77.882648
 30
0.0
 11
65.39033
 21
78.550181
 31
0.0
  0
LWPOLYLINE
  5
706
100
AcDbEntity
  8
ALPHA
100
AcDbPolyline
 90
        6
 70
     0
 43
0.0
 10
65.432641
 20
77.435181
 10
65.432321
 20
77.544918
 10
65.431371
 20
77.649943
 10
65.429857
 20
77.743411
 10
65.427819
 20
77.822755
 10
65.42539
 20
77.882648
  0
LINE
  5
70E
100
AcDbEntity
  8
ALPHA
100
AcDbLine
 10
64.040773
 20
78.785181
 30
0.0
 11
64.040773
 21
79.585181
 31
0.0
  0
LINE
  5
70F
100
AcDbEntity
  8
ALPHA
100
AcDbLine
 10
65.409073
 20
78.735181
 30
0.0
 11
65.409073
 21
78.785181
 31
0.0
  0
LINE
  5
710
100
AcDbEntity
  8
ALPHA
100
AcDbLine
 10
65.381489
 20
79.185181
 30
0.0
 11
65.386415
 21
79.538955
 31
0.0
  0
LINE
  5
711
100
AcDbEntity
  8
ALPHA
100
AcDbLine
 10
65.386415
 20
78.831406
 30
0.0
 11
65.381489
 21
79.185181
 31
0.0
  0
LINE
  5
712
100
AcDbEntity
  8
ALPHA
100
AcDbLine
 10
65.386415
 20
78.831406
 30
0.0
 11
65.386415
 21
79.538955
 31
0.0
  0
LINE
  5
713
100
AcDbEntity
  8
ALPHA
100
AcDbLine
 10
64.397641
 20
79.585181
 30
0.0
 11
64.397641
 21
78.785181
 31
0.0
  0
LINE
  5
714
100
AcDbEntity
  8
ALPHA
100
AcDbLine
 10
65.381489
 20
79.185181
 30
0.0
 11
65.032641
 21
79.185181
 31
0.0
  0
LINE
  5
715
100
AcDbEntity
  8
ALPHA
100
AcDbLine
 10
65.39033
 20
79.820181
 30
0.0
 11
64.674951
 21
79.820181
 31
0.0
  0
LINE
  5
716
100
AcDbEntity
  8
ALPHA
100
AcDbLine
 10
65.42539
 20
80.487713
 30
0.0
 11
64.639892
 21
80.487713
 31
0.0
  0
ARC
  5
717
100
AcDbEntity
  8
ALPHA
100
AcDbCircle
 10
65.032641
 20
79.185181
 30
0.0
 40
2.350123
100
AcDbArc
 50
191.039128
 51
348.960872
  0
LINE
  5
718
100
AcDbEntity
  8
ALPHA
100
AcDbLine
 10
65.42539
 20
77.882648
 30
0.0
 11
64.639892
 21
77.882648
 31
0.0
  0
LINE
  5
719
100
AcDbEntity
  8
ALPHA
100
AcDbLine
 10
66.024508
 20
78.785181
 30
0.0
 11
66.024508
 21
79.585181
 31
0.0
  0
LINE
  5
71A
100
AcDbEntity
  8
ALPHA
100
AcDbLine
 10
65.39033
 20
78.550181
 30
0.0
 11
64.674951
 21
78.550181
 31
0.0
  0
ARC
  5
71B
100
AcDbEntity
  8
ALPHA
100
AcDbCircle
 10
65.032641
 20
79.185181
 30
0.0
 40
2.648982
100
AcDbArc
 50
189.780644
 51
270.0
  0
LINE
  5
71C
100
AcDbEntity
  8
ALPHA
100
AcDbLine
 10
65.032641
 20
79.185181
 30
0.0
 11
64.678866
 21
78.831406
 31
0.0
  0
LINE
  5
71D
100
AcDbEntity
  8
ALPHA
100
AcDbLine
 10
65.032641
 20
79.185181
 30
0.0
 11
65.386415
 21
78.831406
 31
0.0
  0
ARC
  5
71E
100
AcDbEntity
  8
ALPHA
100
AcDbCircle
 10
65.032641
 20
79.185181
 30
0.0
 40
2.648982
100
AcDbArc
 50
270.0
 51
350.219356
  0
ARC
  5
71F
100
AcDbEntity
  8
ALPHA
100
AcDbCircle
 10
65.032641
 20
79.185181
 30
0.0
 40
2.703762
100
AcDbArc
 50
170.419409
 51
189.580591
  0
ARC
  5
720
100
AcDbEntity
  8
ALPHA
100
AcDbCircle
 10
65.032641
 20
79.185181
 30
0.0
 40
2.648982
100
AcDbArc
 50
9.780644
 51
90.0
  0
ARC
  5
721
100
AcDbEntity
  8
ALPHA
100
AcDbCircle
 10
65.032641
 20
79.185181
 30
0.0
 40
2.648982
100
AcDbArc
 50
90.0
 51
170.219356
  0
LINE
  5
722
100
AcDbEntity
  8
ALPHA
100
AcDbLine
 10
65.032641
 20
79.185181
 30
0.0
 11
65.032641
 21
78.785181
 31
0.0
  0
LINE
  5
723
100
AcDbEntity
  8
ALPHA
100
AcDbLine
 10
65.032641
 20
79.585181
 30
0.0
 11
65.032641
 21
79.185181
 31
0.0
  0
LINE
  5
724
100
AcDbEntity
  8
ALPHA
100
AcDbLine
 10
65.432641
 20
77.435181
 30
0.0
 11
65.432641
 21
78.735181
 31
0.0
  0
LINE
  5
725
100
AcDbEntity
  8
ALPHA
100
AcDbLine
 10
64.678223
 20
79.585181
 30
0.0
 11
65.387058
 21
79.585181
 31
0.0
  0
LINE
  5
726
100
AcDbEntity
  8
ALPHA
100
AcDbLine
 10
64.678223
 20
79.585181
 30
0.0
 11
64.656208
 21
79.585181
 31
0.0
  0
LINE
  5
727
100
AcDbEntity
  8
ALPHA
100
AcDbLine
 10
64.632641
 20
79.635181
 30
0.0
 11
64.656208
 21
79.635181
 31
0.0
  0
LINE
  5
728
100
AcDbEntity
  8
ALPHA
100
AcDbLine
 10
64.632641
 20
78.735181
 30
0.0
 11
64.656208
 21
78.735181
 31
0.0
  0
LINE
  5
729
100
AcDbEntity
  8
ALPHA
100
AcDbLine
 10
64.678223
 20
78.785181
 30
0.0
 11
64.656208
 21
78.785181
 31
0.0
  0
LINE
  5
72A
100
AcDbEntity
  8
ALPHA
100
AcDbLine
 10
65.432641
 20
79.635181
 30
0.0
 11
65.409073
 21
79.635181
 31
0.0
  0
LINE
  5
72B
100
AcDbEntity
  8
ALPHA
100
AcDbLine
 10
65.387058
 20
79.585181
 30
0.0
 11
65.409073
 21
79.585181
 31
0.0
  0
LINE
  5
72C
100
AcDbEntity
  8
ALPHA
100
AcDbLine
 10
65.387058
 20
78.785181
 30
0.0
 11
65.409073
 21
78.785181
 31
0.0
  0
LINE
  5
72D
100
AcDbEntity
  8
ALPHA
100
AcDbLine
 10
65.432641
 20
78.735181
 30
0.0
 11
65.409073
 21
78.735181
 31
0.0
  0
ARC
  5
72E
100
AcDbEntity
  8
ALPHA
100
AcDbCircle
 10
65.032641
 20
79.185181
 30
0.0
 40
2.8
100
AcDbArc
 50
269.552604
 51
270.0
  0
ARC
  5
72F
100
AcDbEntity
  8
ALPHA
100
AcDbCircle
 10
65.032641
 20
79.185181
 30
0.0
 40
2.8
100
AcDbArc
 50
186.789072
 51
269.552604
  0
ARC
  5
730
100
AcDbEntity
  8
ALPHA
100
AcDbCircle
 10
65.032641
 20
79.185181
 30
0.0
 40
2.8
100
AcDbArc
 50
182.041389
 51
186.789072
  0
ARC
  5
731
100
AcDbEntity
  8
ALPHA
100
AcDbCircle
 10
65.032641
 20
79.185181
 30
0.0
 40
2.8
100
AcDbArc
 50
177.958611
 51
182.041389
  0
ARC
  5
732
100
AcDbEntity
  8
ALPHA
100
AcDbCircle
 10
65.032641
 20
79.185181
 30
0.0
 40
2.8
100
AcDbArc
 50
173.211358
 51
177.958611
  0
ARC
  5
733
100
AcDbEntity
  8
ALPHA
100
AcDbCircle
 10
65.032641
 20
79.185181
 30
0.0
 40
2.8
100
AcDbArc
 50
90.446122
 51
173.211358
  0
ARC
  5
734
100
AcDbEntity
  8
ALPHA
100
AcDbCircle
 10
65.032641
 20
79.185181
 30
0.0
 40
2.8
100
AcDbArc
 50
90.0
 51
90.446122
  0
LINE
  5
735
100
AcDbEntity
  8
ALPHA
100
AcDbLine
 10
64.678223
 20
78.785181
 30
0.0
 11
65.387058
 21
78.785181
 31
0.0
  0
LINE
  5
736
100
AcDbEntity
  8
ALPHA
100
AcDbLine
 10
66.024508
 20
79.585181
 30
0.0
 11
65.409073
 21
79.585181
 31
0.0
  0
LINE
  5
737
100
AcDbEntity
  8
ALPHA
100
AcDbLine
 10
64.656208
 20
79.585181
 30
0.0
 11
64.040773
 21
79.585181
 31
0.0
  0
LINE
  5
738
100
AcDbEntity
  8
ALPHA
100
AcDbLine
 10
66.024508
 20
78.785181
 30
0.0
 11
65.409073
 21
78.785181
 31
0.0
  0
LINE
  5
739
100
AcDbEntity
  8
ALPHA
100
AcDbLine
 10
64.656208
 20
78.785181
 30
0.0
 11
64.040773
 21
78.785181
 31
0.0
  0
LINE
  5
73A
100
AcDbEntity
  8
ALPHA
100
AcDbLine
 10
64.632641
 20
78.735181
 30
0.0
 11
62.726002
 21
78.735181
 31
0.0
  0
LINE
  5
73B
100
AcDbEntity
  8
ALPHA
100
AcDbLine
 10
67.339279
 20
78.735181
 30
0.0
 11
65.432641
 21
78.735181
 31
0.0
  0
LINE
  5
73C
100
AcDbEntity
  8
ALPHA
100
AcDbLine
 10
64.632641
 20
79.635181
 30
0.0
 11
62.726002
 21
79.635181
 31
0.0
  0
LINE
  5
73D
100
AcDbEntity
  8
ALPHA
100
AcDbLine
 10
67.339279
 20
79.635181
 30
0.0
 11
65.432641
 21
79.635181
 31
0.0
  0
LINE
  5
73E
100
AcDbEntity
  8
ALPHA
100
AcDbLine
 10
67.64312
 20
78.735181
 30
0.0
 11
67.339279
 21
78.735181
 31
0.0
  0
LINE
  5
73F
100
AcDbEntity
  8
ALPHA
100
AcDbLine
 10
62.726002
 20
78.735181
 30
0.0
 11
62.422161
 21
78.735181
 31
0.0
  0
LINE
  5
740
100
AcDbEntity
  8
ALPHA
100
AcDbLine
 10
67.339279
 20
79.635181
 30
0.0
 11
67.64312
 21
79.635181
 31
0.0
  0
LINE
  5
741
100
AcDbEntity
  8
ALPHA
100
AcDbLine
 10
62.422161
 20
79.635181
 30
0.0
 11
62.726002
 21
79.635181
 31
0.0
  0
ARC
  5
742
100
AcDbEntity
  8
ALPHA
100
AcDbCircle
 10
65.032641
 20
79.185181
 30
0.0
 40
2.8
100
AcDbArc
 50
270.0
 51
272.225844
  0
ARC
  5
743
100
AcDbEntity
  8
ALPHA
100
AcDbCircle
 10
65.032641
 20
79.185181
 30
0.0
 40
2.8
100
AcDbArc
 50
272.225844
 51
1.736353
  0
ARC
  5
744
100
AcDbEntity
  8
ALPHA
100
AcDbCircle
 10
65.032641
 20
79.185181
 30
0.0
 40
2.8
100
AcDbArc
 50
1.736353
 51
3.951418
  0
ARC
  5
745
100
AcDbEntity
  8
ALPHA
100
AcDbCircle
 10
65.032641
 20
79.185181
 30
0.0
 40
2.8
100
AcDbArc
 50
3.951418
 51
6.881521
  0
ARC
  5
746
100
AcDbEntity
  8
ALPHA
100
AcDbCircle
 10
65.032641
 20
79.185181
 30
0.0
 40
2.8
100
AcDbArc
 50
6.881521
 51
87.775598
  0
ARC
  5
747
100
AcDbEntity
  8
ALPHA
100
AcDbCircle
 10
65.032641
 20
79.185181
 30
0.0
 40
2.8
100
AcDbArc
 50
87.775598
 51
90.0
  0
LINE
  5
748
100
AcDbEntity
  8
ALPHA
100
AcDbLine
 10
67.64312
 20
79.635181
 30
0.0
 11
67.698692
 21
79.635181
 31
0.0
  0
LINE
  5
749
100
AcDbEntity
  8
ALPHA
100
AcDbLine
 10
62.366589
 20
79.635181
 30
0.0
 11
62.422161
 21
79.635181
 31
0.0
  0
LINE
  5
74A
100
AcDbEntity
  8
ALPHA
100
AcDbLine
 10
67.698692
 20
78.735181
 30
0.0
 11
67.64312
 21
78.735181
 31
0.0
  0
LINE
  5
74B
100
AcDbEntity
  8
ALPHA
100
AcDbLine
 10
62.422161
 20
78.735181
 30
0.0
 11
62.366589
 21
78.735181
 31
0.0
  0
ARC
  5
74C
100
AcDbEntity
  8
ALPHA
100
AcDbCircle
 10
65.032641
 20
79.185181
 30
0.0
 40
2.8
100
AcDbArc
 50
173.204126
 51
177.953287
  0
ARC
  5
74D
100
AcDbEntity
  8
ALPHA
100
AcDbCircle
 10
65.032641
 20
79.185181
 30
0.0
 40
2.8
100
AcDbArc
 50
90.441205
 51
173.204126
  0
ARC
  5
74E
100
AcDbEntity
  8
ALPHA
100
AcDbCircle
 10
65.032641
 20
79.185181
 30
0.0
 40
2.8
100
AcDbArc
 50
90.003018
 51
90.441205
  0
ARC
  5
74F
100
AcDbEntity
  8
ALPHA
100
AcDbCircle
 10
65.032641
 20
79.185181
 30
0.0
 40
2.8
100
AcDbArc
 50
87.791047
 51
90.003018
  0
ARC
  5
750
100
AcDbEntity
  8
ALPHA
100
AcDbCircle
 10
65.032641
 20
79.185181
 30
0.0
 40
2.8
100
AcDbArc
 50
6.881521
 51
87.791047
  0
ARC
  5
751
100
AcDbEntity
  8
ALPHA
100
AcDbCircle
 10
65.032641
 20
79.185181
 30
0.0
 40
2.8
100
AcDbArc
 50
3.953084
 51
6.881521
  0
ARC
  5
752
100
AcDbEntity
  8
ALPHA
100
AcDbCircle
 10
65.032641
 20
79.185181
 30
0.0
 40
2.8
100
AcDbArc
 50
1.736353
 51
3.953084
  0
ARC
  5
753
100
AcDbEntity
  8
ALPHA
100
AcDbCircle
 10
65.032641
 20
79.185181
 30
0.0
 40
2.8
100
AcDbArc
 50
272.210375
 51
1.736353
  0
ARC
  5
754
100
AcDbEntity
  8
ALPHA
100
AcDbCircle
 10
65.032641
 20
79.185181
 30
0.0
 40
2.8
100
AcDbArc
 50
269.996967
 51
272.210375
  0
ARC
  5
755
100
AcDbEntity
  8
ALPHA
100
AcDbCircle
 10
65.032641
 20
79.185181
 30
0.0
 40
2.8
100
AcDbArc
 50
269.557527
 51
269.996967
  0
ARC
  5
756
100
AcDbEntity
  8
ALPHA
100
AcDbCircle
 10
65.032641
 20
79.185181
 30
0.0
 40
2.8
100
AcDbArc
 50
186.796301
 51
269.557527
  0
ARC
  5
757
100
AcDbEntity
  8
ALPHA
100
AcDbCircle
 10
65.032641
 20
79.185181
 30
0.0
 40
2.8
100
AcDbArc
 50
182.046713
 51
186.796301
  0
LINE
  5
758
100
AcDbEntity
  8
ALPHA
100
AcDbLine
 10
59.932641
 20
87.885181
 30
0.0
 11
60.132641
 21
87.885181
 31
0.0
  0
LINE
  5
759
100
AcDbEntity
  8
ALPHA
100
AcDbLine
 10
59.932641
 20
90.485181
 30
0.0
 11
59.932641
 21
87.885181
 31
0.0
  0
LINE
  5
75A
100
AcDbEntity
  8
ALPHA
100
AcDbLine
 10
60.132641
 20
90.485181
 30
0.0
 11
60.132641
 21
87.885181
 31
0.0
  0
LINE
  5
75B
100
AcDbEntity
  8
ALPHA
100
AcDbLine
 10
63.532641
 20
87.885181
 30
0.0
 11
60.132641
 21
87.885181
 31
0.0
  0
LINE
  5
75C
100
AcDbEntity
  8
ALPHA
100
AcDbLine
 10
63.532641
 20
90.485181
 30
0.0
 11
63.532641
 21
87.885181
 31
0.0
  0
LINE
  5
75D
100
AcDbEntity
  8
ALPHA
100
AcDbLine
 10
63.532641
 20
90.485181
 30
0.0
 11
60.132641
 21
90.485181
 31
0.0
  0
LINE
  5
75E
100
AcDbEntity
  8
ALPHA
100
AcDbLine
 10
63.532641
 20
89.685181
 30
0.0
 11
63.732641
 21
89.685181
 31
0.0
  0
LINE
  5
75F
100
AcDbEntity
  8
ALPHA
100
AcDbLine
 10
59.932641
 20
90.485181
 30
0.0
 11
60.132641
 21
90.485181
 31
0.0
  0
LINE
  5
760
100
AcDbEntity
  8
ALPHA
100
AcDbLine
 10
63.532641
 20
88.685181
 30
0.0
 11
63.732641
 21
88.685181
 31
0.0
  0
LINE
  5
761
100
AcDbEntity
  8
ALPHA
100
AcDbLine
 10
50.032641
 20
90.485181
 30
0.0
 11
49.932641
 21
90.485181
 31
0.0
  0
LINE
  5
762
100
AcDbEntity
  8
ALPHA
100
AcDbLine
 10
50.032641
 20
87.885181
 30
0.0
 11
50.032641
 21
90.485181
 31
0.0
  0
LINE
  5
763
100
AcDbEntity
  8
ALPHA
100
AcDbLine
 10
48.782641
 20
87.885181
 30
0.0
 11
48.932641
 21
87.885181
 31
0.0
  0
LINE
  5
764
100
AcDbEntity
  8
ALPHA
100
AcDbLine
 10
50.032641
 20
87.885181
 30
0.0
 11
49.932641
 21
87.885181
 31
0.0
  0
ENDSEC
  0
SECTION
  2
OBJECTS
  0
DICTIONARY
  5
A99
100
AcDbDictionary
  3
ACAD_GROUP
350
A9A
  3
ACAD_MLINESTYLE
350
AA7
  3
ACDBVARIABLEDICTIONARY
350
AB7
  0
DICTIONARY
  5
A9A
102
{ACAD_REACTORS
330
A99
102
}
100
AcDbDictionary
  0
DICTIONARY
  5
AA7
102
{ACAD_REACTORS
330
A99
102
}
100
AcDbDictionary
  3
STANDARD
350
AA8
  0
DICTIONARY
  5
AB7
102
{ACAD_REACTORS
330
A99
102
}
100
AcDbDictionary
  3
DIMADEC
350
AB8
  0
MLINESTYLE
  5
AA8
102
{ACAD_REACTORS
330
AA7
102
}
100
AcDbMlineStyle
  2
STANDARD
 70
     0
  3

 62
   256
 51
90.0
 52
90.0
 71
     2
 49
0.5
 62
   256
  6
BYLAYER
 49
-0.5
 62
   256
  6
BYLAYER
  0
DICTIONARYVAR
  5
AB8
102
{ACAD_REACTORS
330
AB7
102
}
100
DictionaryVariables
280
     0
  1
0
  0
ENDSEC
  0
EOF
