  0
SECTION
  2
HEADER
  9
$ACADVER
  1
AC1014
  9
$ACADMAINTVER
 70
     0
  9
$DWGCODEPAGE
  3
ANSI_1252
  9
$INSBASE
 10
93.894301
 20
236.06014
 30
0.0
  9
$EXTMIN
 10
-9.180671
 20
-5.706541
 30
0.0
  9
$EXTMAX
 10
44.631292
 20
103.918457
 30
0.0
  9
$LIMMIN
 10
0.0
 20
0.0
  9
$LIMMAX
 10
210.0
 20
297.0
  9
$ORTHOMODE
 70
     1
  9
$REGENMODE
 70
     1
  9
$FILLMODE
 70
     1
  9
$QTEXTMODE
 70
     0
  9
$MIRRTEXT
 70
     0
  9
$DRAGMODE
 70
     1
  9
$LTSCALE
 40
7.0
  9
$OSMODE
 70
  4095
  9
$ATTMODE
 70
     1
  9
$TEXTSIZE
 40
2.5
  9
$TRACEWID
 40
0.05
  9
$TEXTSTYLE
  7
STANDARD
  9
$CLAYER
  8
COTATION1
  9
$CELTYPE
  6
BYLAYER
  9
$CECOLOR
 62
   256
  9
$CELTSCALE
 40
1.0
  9
$DELOBJ
 70
     1
  9
$DISPSILH
 70
     0
  9
$DIMSCALE
 40
1.0
  9
$DIMASZ
 40
3.0
  9
$DIMEXO
 40
0.0625
  9
$DIMDLI
 40
0.38
  9
$DIMRND
 40
0.01
  9
$DIMDLE
 40
0.0
  9
$DIMEXE
 40
0.18
  9
$DIMTP
 40
0.0
  9
$DIMTM
 40
0.0
  9
$DIMTXT
 40
2.5
  9
$DIMCEN
 40
0.09
  9
$DIMTSZ
 40
0.0
  9
$DIMTOL
 70
     0
  9
$DIMLIM
 70
     0
  9
$DIMTIH
 70
     0
  9
$DIMTOH
 70
     0
  9
$DIMSE1
 70
     0
  9
$DIMSE2
 70
     0
  9
$DIMTAD
 70
     1
  9
$DIMZIN
 70
    12
  9
$DIMBLK
  1

  9
$DIMASO
 70
     1
  9
$DIMSHO
 70
     0
  9
$DIMPOST
  1

  9
$DIMAPOST
  1

  9
$DIMALT
 70
     0
  9
$DIMALTD
 70
     2
  9
$DIMALTF
 40
25.4
  9
$DIMLFAC
 40
1.0
  9
$DIMTOFL
 70
     1
  9
$DIMTVP
 40
0.0
  9
$DIMTIX
 70
     0
  9
$DIMSOXD
 70
     0
  9
$DIMSAH
 70
     0
  9
$DIMBLK1
  1

  9
$DIMBLK2
  1

  9
$DIMSTYLE
  2
SC_STAND
  9
$DIMCLRD
 70
     0
  9
$DIMCLRE
 70
     0
  9
$DIMCLRT
 70
     0
  9
$DIMTFAC
 40
1.0
  9
$DIMGAP
 40
1.0
  9
$DIMJUST
 70
     0
  9
$DIMSD1
 70
     0
  9
$DIMSD2
 70
     0
  9
$DIMTOLJ
 70
     1
  9
$DIMTZIN
 70
    12
  9
$DIMALTZ
 70
    12
  9
$DIMALTTZ
 70
    12
  9
$DIMFIT
 70
     5
  9
$DIMUPT
 70
     0
  9
$DIMUNIT
 70
     2
  9
$DIMDEC
 70
     3
  9
$DIMTDEC
 70
     3
  9
$DIMALTU
 70
     2
  9
$DIMALTTD
 70
     2
  9
$DIMTXSTY
  7
STANDARD
  9
$DIMAUNIT
 70
     0
  9
$LUNITS
 70
     2
  9
$LUPREC
 70
     3
  9
$SKETCHINC
 40
0.1
  9
$FILLETRAD
 40
0.0625
  9
$AUNITS
 70
     0
  9
$AUPREC
 70
     0
  9
$MENU
  1
ACAD
  9
$ELEVATION
 40
0.0
  9
$PELEVATION
 40
0.0
  9
$THICKNESS
 40
0.0
  9
$LIMCHECK
 70
     0
  9
$BLIPMODE
 70
     1
  9
$CHAMFERA
 40
0.0
  9
$CHAMFERB
 40
0.0
  9
$CHAMFERC
 40
0.0
  9
$CHAMFERD
 40
0.0
  9
$SKPOLY
 70
     0
  9
$TDCREATE
 40
2450953.590960648
  9
$TDUPDATE
 40
2453950.720924861
  9
$TDINDWG
 40
0.0069092708
  9
$TDUSRTIMER
 40
0.0069092708
  9
$USRTIMER
 70
     1
  9
$ANGBASE
 50
0.0
  9
$ANGDIR
 70
     0
  9
$PDMODE
 70
     0
  9
$PDSIZE
 40
0.0
  9
$PLINEWID
 40
0.0
  9
$COORDS
 70
     0
  9
$SPLFRAME
 70
     0
  9
$SPLINETYPE
 70
     6
  9
$SPLINESEGS
 70
     8
  9
$ATTDIA
 70
     0
  9
$ATTREQ
 70
     1
  9
$HANDLING
 70
     1
  9
$HANDSEED
  5
1784
  9
$SURFTAB1
 70
     6
  9
$SURFTAB2
 70
     6
  9
$SURFTYPE
 70
     6
  9
$SURFU
 70
     6
  9
$SURFV
 70
     6
  9
$UCSNAME
  2

  9
$UCSORG
 10
0.0
 20
0.0
 30
0.0
  9
$UCSXDIR
 10
1.0
 20
0.0
 30
0.0
  9
$UCSYDIR
 10
0.0
 20
1.0
 30
0.0
  9
$PUCSNAME
  2

  9
$PUCSORG
 10
0.0
 20
0.0
 30
0.0
  9
$PUCSXDIR
 10
1.0
 20
0.0
 30
0.0
  9
$PUCSYDIR
 10
0.0
 20
1.0
 30
0.0
  9
$USERI1
 70
     0
  9
$USERI2
 70
     0
  9
$USERI3
 70
     0
  9
$USERI4
 70
     0
  9
$USERI5
 70
     0
  9
$USERR1
 40
0.0
  9
$USERR2
 40
0.0
  9
$USERR3
 40
0.0
  9
$USERR4
 40
0.0
  9
$USERR5
 40
0.0
  9
$WORLDVIEW
 70
     1
  9
$SHADEDGE
 70
     3
  9
$SHADEDIF
 70
    70
  9
$TILEMODE
 70
     1
  9
$MAXACTVP
 70
    32
  9
$PINSBASE
 10
0.0
 20
0.0
 30
0.0
  9
$PLIMCHECK
 70
     0
  9
$PEXTMIN
 10
-3.174999
 20
-3.175
 30
0.0
  9
$PEXTMAX
 10
203.812116
 20
370.276807
 30
0.0
  9
$PLIMMIN
 10
-3.175
 20
-3.175
  9
$PLIMMAX
 10
203.812115
 20
370.276807
  9
$UNITMODE
 70
     0
  9
$VISRETAIN
 70
     0
  9
$PLINEGEN
 70
     0
  9
$PSLTSCALE
 70
     1
  9
$TREEDEPTH
 70
  3020
  9
$PICKSTYLE
 70
     1
  9
$CMLSTYLE
  2
STANDARD
  9
$CMLJUST
 70
     0
  9
$CMLSCALE
 40
1.0
  9
$PROXYGRAPHICS
 70
     1
  9
$MEASUREMENT
 70
     0
  0
ENDSEC
  0
SECTION
  2
CLASSES
  0
CLASS
  1
DICTIONARYVAR
  2
AcDbDictionaryVar
  3
"AutoCAD"
 90
        0
280
     0
281
     0
  0
CLASS
  1
HATCH
  2
AcDbHatch
  3
"ACAD_SEDONA"
 90
        0
280
     0
281
     1
  0
ENDSEC
  0
SECTION
  2
TABLES
  0
TABLE
  2
VPORT
  5
F4
100
AcDbSymbolTable
 70
     2
  0
VPORT
  5
1783
100
AcDbSymbolTableRecord
100
AcDbViewportTableRecord
  2
*ACTIVE
 70
     0
 10
0.0
 20
0.0
 11
1.0
 21
1.0
 12
17.729645
 22
49.098749
 13
0.0
 23
0.0
 14
1.0
 24
1.0
 15
10.0
 25
10.0
 16
0.0
 26
0.0
 36
1.0
 17
0.0
 27
0.0
 37
0.0
 40
110.933311
 41
1.966667
 42
50.0
 43
0.0
 44
0.0
 50
0.0
 51
0.0
 71
     0
 72
   100
 73
     1
 74
     1
 75
     0
 76
     1
 77
     0
 78
     0
  0
ENDTAB
  0
TABLE
  2
LTYPE
  5
F1
100
AcDbSymbolTable
 70
     1
  0
LTYPE
  5
FD
100
AcDbSymbolTableRecord
100
AcDbLinetypeTableRecord
  2
BYBLOCK
 70
     0
  3

 72
    65
 73
     0
 40
0.0
  0
LTYPE
  5
FE
100
AcDbSymbolTableRecord
100
AcDbLinetypeTableRecord
  2
BYLAYER
 70
     0
  3

 72
    65
 73
     0
 40
0.0
  0
LTYPE
  5
FF
100
AcDbSymbolTableRecord
100
AcDbLinetypeTableRecord
  2
CONTINUOUS
 70
     0
  3
Solid line
 72
    65
 73
     0
 40
0.0
  0
ENDTAB
  0
TABLE
  2
LAYER
  5
EE
100
AcDbSymbolTable
 70
     5
  0
LAYER
  5
FA
100
AcDbSymbolTableRecord
100
AcDbLayerTableRecord
  2
0
 70
     0
 62
     7
  6
CONTINUOUS
  0
LAYER
  5
12C
100
AcDbSymbolTableRecord
100
AcDbLayerTableRecord
  2
ALPHA
 70
     0
 62
   255
  6
CONTINUOUS
  0
LAYER
  5
12F
100
AcDbSymbolTableRecord
100
AcDbLayerTableRecord
  2
COTATION1
 70
     0
 62
     2
  6
CONTINUOUS
  0
LAYER
  5
13B
100
AcDbSymbolTableRecord
100
AcDbLayerTableRecord
  2
ASHADE
 70
     0
 62
     7
  6
CONTINUOUS
  0
LAYER
  5
13E
100
AcDbSymbolTableRecord
100
AcDbLayerTableRecord
  2
DEFPOINTS
 70
     0
 62
     7
  6
CONTINUOUS
  0
ENDTAB
  0
TABLE
  2
STYLE
  5
EF
100
AcDbSymbolTable
 70
     1
  0
STYLE
  5
FB
100
AcDbSymbolTableRecord
100
AcDbTextStyleTableRecord
  2
STANDARD
 70
     0
 40
0.0
 41
1.0
 50
0.0
 71
     0
 42
2.5
  3
txt
  4

  0
ENDTAB
  0
TABLE
  2
VIEW
  5
F2
100
AcDbSymbolTable
 70
     0
  0
ENDTAB
  0
TABLE
  2
UCS
  5
F3
100
AcDbSymbolTable
 70
     0
  0
ENDTAB
  0
TABLE
  2
APPID
  5
F5
100
AcDbSymbolTable
 70
     3
  0
APPID
  5
FC
100
AcDbSymbolTableRecord
100
AcDbRegAppTableRecord
  2
ACAD
 70
     0
  0
APPID
  5
127
100
AcDbSymbolTableRecord
100
AcDbRegAppTableRecord
  2
AVE_RENDER
 70
     0
  0
APPID
  5
128
100
AcDbSymbolTableRecord
100
AcDbRegAppTableRecord
  2
AVE_MATERIAL
 70
     0
  0
ENDTAB
  0
TABLE
  2
DIMSTYLE
  5
F6
100
AcDbSymbolTable
 70
     2
  0
DIMSTYLE
105
129
100
AcDbSymbolTableRecord
100
AcDbDimStyleTableRecord
  2
STANDARD
 70
     0
  3

  4

  5

  6

  7

 40
1.0
 41
0.18
 42
0.0625
 43
0.38
 44
0.18
 45
0.0
 46
0.0
 47
0.0
 48
0.0
140
0.18
141
0.09
142
0.0
143
25.4
144
1.0
145
0.0
146
1.0
147
0.09
 71
     0
 72
     0
 73
     1
 74
     1
 75
     0
 76
     0
 77
     0
 78
     0
170
     0
171
     2
172
     0
173
     0
174
     0
175
     0
176
     0
177
     0
178
     0
270
     2
271
     3
272
     3
273
     2
274
     2
340
FB
275
     0
280
     0
281
     0
282
     0
283
     1
284
    12
285
    12
286
    12
287
     5
288
     0
  0
DIMSTYLE
105
12A
102
{ACAD_REACTORS
330
16DE
330
16EB
330
170E
330
171B
330
1733
330
1740
102
}
100
AcDbSymbolTableRecord
100
AcDbDimStyleTableRecord
  2
SC_STAND
 70
     0
  3

  4

  5

  6

  7

 40
1.0
 41
3.0
 42
0.0625
 43
0.38
 44
0.18
 45
0.01
 46
0.0
 47
0.0
 48
0.0
140
2.5
141
0.09
142
0.0
143
25.4
144
1.0
145
0.0
146
1.0
147
1.0
 71
     0
 72
     0
 73
     0
 74
     0
 75
     0
 76
     0
 77
     1
 78
    12
170
     0
171
     2
172
     1
173
     0
174
     0
175
     0
176
     0
177
     0
178
     0
270
     2
271
     3
272
     3
273
     2
274
     2
340
FB
275
     0
280
     0
281
     0
282
     0
283
     1
284
    12
285
    12
286
    12
287
     5
288
     0
  0
ENDTAB
  0
TABLE
  2
BLOCK_RECORD
  5
ED
100
AcDbSymbolTable
 70
     9
  0
BLOCK_RECORD
  5
103
100
AcDbSymbolTableRecord
100
AcDbBlockTableRecord
  2
*MODEL_SPACE
  0
BLOCK_RECORD
  5
100
100
AcDbSymbolTableRecord
100
AcDbBlockTableRecord
  2
*PAPER_SPACE
  0
BLOCK_RECORD
  5
108
100
AcDbSymbolTableRecord
100
AcDbBlockTableRecord
  2
AVE_RENDER
  0
BLOCK_RECORD
  5
109
100
AcDbSymbolTableRecord
100
AcDbBlockTableRecord
  2
AVE_GLOBAL
  0
BLOCK_RECORD
  5
10A
100
AcDbSymbolTableRecord
100
AcDbBlockTableRecord
  2
SCH_IS
  0
BLOCK_RECORD
  5
16D2
100
AcDbSymbolTableRecord
100
AcDbBlockTableRecord
  2
*D3
  0
BLOCK_RECORD
  5
16DF
100
AcDbSymbolTableRecord
100
AcDbBlockTableRecord
  2
*D4
  0
BLOCK_RECORD
  5
1702
100
AcDbSymbolTableRecord
100
AcDbBlockTableRecord
  2
*D5
  0
BLOCK_RECORD
  5
170F
100
AcDbSymbolTableRecord
100
AcDbBlockTableRecord
  2
*D6
  0
BLOCK_RECORD
  5
1727
100
AcDbSymbolTableRecord
100
AcDbBlockTableRecord
  2
*D7
  0
BLOCK_RECORD
  5
1734
100
AcDbSymbolTableRecord
100
AcDbBlockTableRecord
  2
*D8
  0
ENDTAB
  0
ENDSEC
  0
SECTION
  2
BLOCKS
  0
BLOCK
  5
141
100
AcDbEntity
  8
0
100
AcDbBlockBegin
  2
*MODEL_SPACE
 70
     0
 10
0.0
 20
0.0
 30
0.0
  3
*MODEL_SPACE
  1

  0
ENDBLK
  5
142
100
AcDbEntity
  8
0
100
AcDbBlockEnd
  0
BLOCK
  5
13F
100
AcDbEntity
 67
     1
  8
0
100
AcDbBlockBegin
  2
*PAPER_SPACE
 70
     0
 10
0.0
 20
0.0
 30
0.0
  3
*PAPER_SPACE
  1

  0
ENDBLK
  5
140
100
AcDbEntity
 67
     1
  8
0
100
AcDbBlockEnd
  0
BLOCK
  5
8D
100
AcDbEntity
  8
0
100
AcDbBlockBegin
  2
AVE_RENDER
 70
     0
 10
0.0
 20
0.0
 30
0.0
  3
AVE_RENDER
  1
AVE_RENDER
  0
ENDBLK
  5
8E
100
AcDbEntity
  8
0
100
AcDbBlockEnd
  0
BLOCK
  5
90
100
AcDbEntity
  8
0
100
AcDbBlockBegin
  2
AVE_GLOBAL
 70
     0
 10
0.0
 20
0.0
 30
0.0
  3
AVE_GLOBAL
  1
AVE_GLOBAL
  0
ENDBLK
  5
91
100
AcDbEntity
  8
0
100
AcDbBlockEnd
  0
BLOCK
  5
C9
100
AcDbEntity
  8
0
100
AcDbBlockBegin
  2
SCH_IS
 70
     0
 10
0.0
 20
0.0
 30
0.0
  3
SCH_IS
  1

  0
INSERT
  5
C0
100
AcDbEntity
  8
ASHADE
 62
     1
100
AcDbBlockReference
  2
AVE_RENDER
 10
0.0
 20
0.0
 30
0.0
1001
AVE_RENDER
1002
{
1070
     6
1000
Pref
1070
    50
1070
    20
1070
     1
1070
     0
1000

1070
    10
1070
     1
1070
    30
1040
25.4
1070
     1
1040
0.3
1040
0.7
1040
0.0
1040
10.0
1010
-1.0
1020
-1.0
1030
-1.0
1040
0.3
1070
    49
1070
     0
1070
     0
1010
1.0
1020
1.0
1030
1.0
1040
45.0
1070
     1
1070
     0
1000
WCS
1040
0.0
1002
}
  0
INSERT
  5
C1
100
AcDbEntity
  8
ASHADE
 62
     3
100
AcDbBlockReference
  2
AVE_RENDER
 10
0.0
 20
0.0
 30
0.0
1001
AVE_RENDER
1002
{
1070
     0
1000
Full Opt
1070
     0
1070
     1
1070
     1
1070
     1
1070
     0
1070
     0
1070
     0
1070
     1
1070
     1
1040
0.0001
1040
0.0001
1002
}
  0
INSERT
  5
C2
100
AcDbEntity
  8
ASHADE
 62
     4
100
AcDbBlockReference
  2
AVE_RENDER
 10
0.0
 20
0.0
 30
0.0
1001
AVE_RENDER
1002
{
1070
     0
1000
Quick Opt
1070
     0
1070
     1
1070
     1
1070
     1
1070
     0
1070
     0
1070
     1
1002
}
  0
INSERT
  5
C3
100
AcDbEntity
  8
ASHADE
 62
     5
100
AcDbBlockReference
  2
AVE_RENDER
 10
0.0
 20
0.0
 30
0.0
1001
AVE_RENDER
1002
{
1070
     1
1000
Scanl Opt
1070
     2
1070
     0
1070
     2
1040
2.0
1040
4.0
1070
     0
1070
     1
1070
     0
1040
0.03
1002
}
  0
INSERT
  5
C4
100
AcDbEntity
  8
ASHADE
 62
     6
100
AcDbBlockReference
  2
AVE_RENDER
 10
0.0
 20
0.0
 30
0.0
1001
AVE_RENDER
1002
{
1070
     2
1000
Raytr Opt
1070
     2
1070
     0
1070
     2
1040
2.0
1040
4.0
1070
     0
1070
     1
1070
     1
1040
0.03
1070
     3
1040
0.03
1002
}
  0
INSERT
  5
C5
100
AcDbEntity
  8
ASHADE
 62
     7
100
AcDbBlockReference
  2
AVE_RENDER
 10
0.0
 20
0.0
 30
0.0
1001
AVE_RENDER
1002
{
1070
     0
1000
RFile Opt
1070
     5
1070
   640
1070
   480
1070
 10000
1070
     3
1070
    32
1070
    24
1070
     0
1070
     0
1070
     0
1070
     1
1070
     0
1070
     0
1070
     0
1002
}
  0
INSERT
  5
C6
100
AcDbEntity
  8
ASHADE
 62
     8
100
AcDbBlockReference
  2
AVE_RENDER
 10
0.0
 20
0.0
 30
0.0
1001
AVE_RENDER
1002
{
1070
     0
1000
Fog Opt
1070
     0
1070
     0
1040
0.0
1040
1.0
1040
0.0
1040
1.0
1010
0.5
1020
0.5
1030
0.5
1002
}
  0
INSERT
  5
C7
100
AcDbEntity
  8
ASHADE
 62
     9
100
AcDbBlockReference
  2
AVE_RENDER
 10
0.0
 20
0.0
 30
0.0
1001
AVE_RENDER
1002
{
1070
     0
1000
BG Opt
1070
     0
1070
     1
1010
0.0
1020
0.0
1030
0.0
1010
1.0
1020
0.0
1030
0.0
1010
0.0
1020
1.0
1030
0.0
1010
0.0
1020
0.0
1030
1.0
1040
0.5
1040
0.33
1040
0.0
1000

1070
     1
1000

1070
     1
1070
     1
1040
1.0
1040
1.0
1040
0.0
1040
0.0
1070
     0
1002
}
  0
INSERT
  5
C8
100
AcDbEntity
  8
ASHADE
 62
     1
100
AcDbBlockReference
  2
AVE_GLOBAL
 10
0.0
 20
0.0
 30
0.0
1001
AVE_MATERIAL
1002
{
1000
*GLOBAL*
1000
1
1000
Finition globale.
1002
{
1002
}
1002
{
1070
    63
1002
{
1002
{
1010
-1.0
1020
-1.0
1030
-1.0
1002
}
1040
0.1
1000

1040
0.0
1002
{
1002
}
1040
0.0
1002
{
1002
}
1040
0.0
1002
}
1002
{
1002
{
1010
-1.0
1020
-1.0
1030
-1.0
1002
}
1040
0.7
1000

1040
0.0
1002
{
1002
}
1040
0.0
1002
{
1002
}
1040
0.0
1002
}
1002
{
1002
{
1010
-1.0
1020
-1.0
1030
-1.0
1002
}
1040
0.2
1000

1040
0.0
1002
{
1002
}
1040
0.0
1002
{
1002
}
1040
0.0
1002
}
1002
{
1070
     0
1002
{
1070
     1
1002
{
1040
1.0
1040
1.0
1000

1040
0.0
1002
{
1002
}
1040
0.0
1002
{
1002
}
1040
0.0
1002
}
1002
}
1040
1.0
1040
0.0
1040
0.0
1002
}
1002
{
1040
1.0
1040
1.0
1000

1040
0.0
1002
{
1002
}
1040
0.0
1002
{
1002
}
1040
0.0
1002
}
1002
{
1040
0.5
1040
1.0
1000

1040
0.0
1002
{
1002
}
1040
0.0
1002
{
1002
}
1040
0.0
1002
}
1002
{
1070
     0
1040
0.0
1002
{
1002
}
1040
1.0
1002
{
1002
}
1040
0.0
1002
}
1002
{
1040
0.0
1002
{
1002
{
1010
0.0
1020
0.0
1030
0.0
1002
}
1040
1.0
1000

1040
0.0
1002
{
1002
}
1040
0.0
1002
{
1002
}
1040
0.0
1002
}
1002
}
1002
{
1002
{
1070
     1
1002
{
1040
0.0
1040
1.0
1000

1040
0.0
1002
{
1002
}
1040
0.0
1002
{
1002
}
1040
0.0
1002
}
1002
}
1040
0.0
1002
{
1002
}
1010
1.0
1020
0.0
1030
0.0
1010
0.0
1020
1.0
1030
0.0
1010
0.0
1020
0.0
1030
1.0
1070
     0
1002
}
1002
{
1002
{
1040
1.0
1040
1.0
1002
{
1070
     1
1002
{
1040
1.0
1040
1.0
1000

1040
0.0
1002
{
1002
}
1040
0.0
1002
{
1002
}
1040
0.0
1002
}
1002
}
1002
}
1070
     0
1040
0.0
1002
{
1002
}
1002
}
1002
{
1002
}
1002
}
1002
{
1071
        3
1070
     3
1070
     0
1002
{
1070
     2
1070
     0
1070
     0
1040
0.0
1002
}
1070
     0
1070
     2
1002
{
1002
}
1002
}
1002
{
1040
8030.0
1040
190.300003
1040
0.305
1040
228.0
1040
545.0
1040
14.0
1040
17.4
1040
0.456
1002
}
1002
}
  0
ENDBLK
  5
CA
100
AcDbEntity
  8
0
100
AcDbBlockEnd
  0
BLOCK
  5
16D3
100
AcDbEntity
  8
0
100
AcDbBlockBegin
  2
*D3
 70
     1
 10
0.0
 20
0.0
 30
0.0
  3
*D3
  1

  0
LINE
  5
16D4
100
AcDbEntity
  8
0
  6
BYBLOCK
 62
     0
100
AcDbLine
 10
0.136489
 20
85.091884
 30
0.0
 11
0.136489
 21
93.603424
 31
0.0
  0
LINE
  5
16D5
100
AcDbEntity
  8
0
  6
BYBLOCK
 62
     0
100
AcDbLine
 10
14.135982
 20
66.07157
 30
0.0
 11
14.135982
 21
93.603424
 31
0.0
  0
LINE
  5
16D6
100
AcDbEntity
  8
0
  6
BYBLOCK
 62
     0
100
AcDbLine
 10
3.136489
 20
93.423424
 30
0.0
 11
11.135982
 21
93.423424
 31
0.0
  0
SOLID
  5
16D7
100
AcDbEntity
  8
0
  6
BYBLOCK
 62
     0
100
AcDbTrace
 10
3.136489
 20
93.923424
 30
0.0
 11
3.136489
 21
92.923424
 31
0.0
 12
0.136489
 22
93.423424
 32
0.0
 13
0.136489
 23
93.423424
 33
0.0
  0
SOLID
  5
16D8
100
AcDbEntity
  8
0
  6
BYBLOCK
 62
     0
100
AcDbTrace
 10
11.135982
 20
93.923424
 30
0.0
 11
11.135982
 21
92.923424
 31
0.0
 12
14.135982
 22
93.423424
 32
0.0
 13
14.135982
 23
93.423424
 33
0.0
  0
MTEXT
  5
16D9
100
AcDbEntity
  8
0
  6
BYBLOCK
 62
     0
100
AcDbMText
 10
7.136236
 20
95.673424
 30
0.0
 40
2.5
 41
0.0
 71
     5
 72
     1
  1
\A1;14
  0
POINT
  5
16DA
100
AcDbEntity
  8
DEFPOINTS
  6
BYBLOCK
 62
     0
100
AcDbPoint
 10
0.136489
 20
85.029384
 30
0.0
  0
POINT
  5
16DB
100
AcDbEntity
  8
DEFPOINTS
  6
BYBLOCK
 62
     0
100
AcDbPoint
 10
14.135982
 20
66.00907
 30
0.0
  0
POINT
  5
16DC
100
AcDbEntity
  8
DEFPOINTS
  6
BYBLOCK
 62
     0
100
AcDbPoint
 10
14.135982
 20
93.423424
 30
0.0
  0
ENDBLK
  5
16DD
100
AcDbEntity
  8
0
100
AcDbBlockEnd
  0
BLOCK
  5
16F7
100
AcDbEntity
  8
0
100
AcDbBlockBegin
  2
*D4
 70
     1
 10
0.0
 20
0.0
 30
0.0
  3
*D4
  1

  0
LINE
  5
16F8
100
AcDbEntity
  8
0
  6
BYBLOCK
 62
     0
100
AcDbLine
 10
14.135982
 20
88.946316
 30
0.0
 11
14.135982
 21
93.603424
 31
0.0
  0
LINE
  5
16F9
100
AcDbEntity
  8
0
  6
BYBLOCK
 62
     0
100
AcDbLine
 10
25.131359
 20
66.07157
 30
0.0
 11
25.131359
 21
93.603424
 31
0.0
  0
LINE
  5
16FA
100
AcDbEntity
  8
0
  6
BYBLOCK
 62
     0
100
AcDbLine
 10
17.135982
 20
93.423424
 30
0.0
 11
22.131359
 21
93.423424
 31
0.0
  0
SOLID
  5
16FB
100
AcDbEntity
  8
0
  6
BYBLOCK
 62
     0
100
AcDbTrace
 10
17.135982
 20
93.923424
 30
0.0
 11
17.135982
 21
92.923424
 31
0.0
 12
14.135982
 22
93.423424
 32
0.0
 13
14.135982
 23
93.423424
 33
0.0
  0
SOLID
  5
16FC
100
AcDbEntity
  8
0
  6
BYBLOCK
 62
     0
100
AcDbTrace
 10
22.131359
 20
93.923424
 30
0.0
 11
22.131359
 21
92.923424
 31
0.0
 12
25.131359
 22
93.423424
 32
0.0
 13
25.131359
 23
93.423424
 33
0.0
  0
MTEXT
  5
16FD
100
AcDbEntity
  8
0
  6
BYBLOCK
 62
     0
100
AcDbMText
 10
19.633671
 20
95.673424
 30
0.0
 40
2.5
 41
0.0
 71
     5
 72
     1
  1
\A1;11
  0
POINT
  5
16FE
100
AcDbEntity
  8
DEFPOINTS
  6
BYBLOCK
 62
     0
100
AcDbPoint
 10
14.135982
 20
88.883816
 30
0.0
  0
POINT
  5
16FF
100
AcDbEntity
  8
DEFPOINTS
  6
BYBLOCK
 62
     0
100
AcDbPoint
 10
25.131359
 20
66.00907
 30
0.0
  0
POINT
  5
1700
100
AcDbEntity
  8
DEFPOINTS
  6
BYBLOCK
 62
     0
100
AcDbPoint
 10
25.131359
 20
93.423424
 30
0.0
  0
ENDBLK
  5
1701
100
AcDbEntity
  8
0
100
AcDbBlockEnd
  0
BLOCK
  5
1703
100
AcDbEntity
  8
0
100
AcDbBlockBegin
  2
*D5
 70
     1
 10
0.0
 20
0.0
 30
0.0
  3
*D5
  1

  0
LINE
  5
1704
100
AcDbEntity
  8
0
  6
BYBLOCK
 62
     0
100
AcDbLine
 10
0.136489
 20
89.410154
 30
0.0
 11
0.136489
 21
100.598457
 31
0.0
  0
LINE
  5
1705
100
AcDbEntity
  8
0
  6
BYBLOCK
 62
     0
100
AcDbLine
 10
30.136394
 20
62.707779
 30
0.0
 11
30.136394
 21
100.598457
 31
0.0
  0
LINE
  5
1706
100
AcDbEntity
  8
0
  6
BYBLOCK
 62
     0
100
AcDbLine
 10
3.136489
 20
100.418457
 30
0.0
 11
27.136394
 21
100.418457
 31
0.0
  0
SOLID
  5
1707
100
AcDbEntity
  8
0
  6
BYBLOCK
 62
     0
100
AcDbTrace
 10
3.136489
 20
100.918457
 30
0.0
 11
3.136489
 21
99.918457
 31
0.0
 12
0.136489
 22
100.418457
 32
0.0
 13
0.136489
 23
100.418457
 33
0.0
  0
SOLID
  5
1708
100
AcDbEntity
  8
0
  6
BYBLOCK
 62
     0
100
AcDbTrace
 10
27.136394
 20
100.918457
 30
0.0
 11
27.136394
 21
99.918457
 31
0.0
 12
30.136394
 22
100.418457
 32
0.0
 13
30.136394
 23
100.418457
 33
0.0
  0
MTEXT
  5
1709
100
AcDbEntity
  8
0
  6
BYBLOCK
 62
     0
100
AcDbMText
 10
15.136442
 20
102.668457
 30
0.0
 40
2.5
 41
0.0
 71
     5
 72
     1
  1
\A1;30
  0
POINT
  5
170A
100
AcDbEntity
  8
DEFPOINTS
  6
BYBLOCK
 62
     0
100
AcDbPoint
 10
0.136489
 20
89.347654
 30
0.0
  0
POINT
  5
170B
100
AcDbEntity
  8
DEFPOINTS
  6
BYBLOCK
 62
     0
100
AcDbPoint
 10
30.136394
 20
62.645279
 30
0.0
  0
POINT
  5
170C
100
AcDbEntity
  8
DEFPOINTS
  6
BYBLOCK
 62
     0
100
AcDbPoint
 10
30.136394
 20
100.418457
 30
0.0
  0
ENDBLK
  5
170D
100
AcDbEntity
  8
0
100
AcDbBlockEnd
  0
BLOCK
  5
171C
100
AcDbEntity
  8
0
100
AcDbBlockBegin
  2
*D6
 70
     1
 10
0.0
 20
0.0
 30
0.0
  3
*D6
  1

  0
LINE
  5
171D
100
AcDbEntity
  8
0
  6
BYBLOCK
 62
     0
100
AcDbLine
 10
30.136394
 20
94.418595
 30
0.0
 11
30.136394
 21
100.598457
 31
0.0
  0
LINE
  5
171E
100
AcDbEntity
  8
0
  6
BYBLOCK
 62
     0
100
AcDbLine
 10
41.135899
 20
63.174114
 30
0.0
 11
41.135899
 21
100.598457
 31
0.0
  0
LINE
  5
171F
100
AcDbEntity
  8
0
  6
BYBLOCK
 62
     0
100
AcDbLine
 10
33.136394
 20
100.418457
 30
0.0
 11
38.135899
 21
100.418457
 31
0.0
  0
SOLID
  5
1720
100
AcDbEntity
  8
0
  6
BYBLOCK
 62
     0
100
AcDbTrace
 10
33.136394
 20
100.918457
 30
0.0
 11
33.136394
 21
99.918457
 31
0.0
 12
30.136394
 22
100.418457
 32
0.0
 13
30.136394
 23
100.418457
 33
0.0
  0
SOLID
  5
1721
100
AcDbEntity
  8
0
  6
BYBLOCK
 62
     0
100
AcDbTrace
 10
38.135899
 20
100.918457
 30
0.0
 11
38.135899
 21
99.918457
 31
0.0
 12
41.135899
 22
100.418457
 32
0.0
 13
41.135899
 23
100.418457
 33
0.0
  0
MTEXT
  5
1722
100
AcDbEntity
  8
0
  6
BYBLOCK
 62
     0
100
AcDbMText
 10
35.636147
 20
102.668457
 30
0.0
 40
2.5
 41
0.0
 71
     5
 72
     1
  1
\A1;11
  0
POINT
  5
1723
100
AcDbEntity
  8
DEFPOINTS
  6
BYBLOCK
 62
     0
100
AcDbPoint
 10
30.136394
 20
94.356095
 30
0.0
  0
POINT
  5
1724
100
AcDbEntity
  8
DEFPOINTS
  6
BYBLOCK
 62
     0
100
AcDbPoint
 10
41.135899
 20
63.111614
 30
0.0
  0
POINT
  5
1725
100
AcDbEntity
  8
DEFPOINTS
  6
BYBLOCK
 62
     0
100
AcDbPoint
 10
41.135899
 20
100.418457
 30
0.0
  0
ENDBLK
  5
1726
100
AcDbEntity
  8
0
100
AcDbBlockEnd
  0
BLOCK
  5
1728
100
AcDbEntity
  8
0
100
AcDbBlockBegin
  2
*D7
 70
     1
 10
0.0
 20
0.0
 30
0.0
  3
*D7
  1

  0
LINE
  5
1729
100
AcDbEntity
  8
0
  6
BYBLOCK
 62
     0
100
AcDbLine
 10
7.093404
 20
88.883816
 30
0.0
 11
-5.860671
 21
88.883816
 31
0.0
  0
LINE
  5
172A
100
AcDbEntity
  8
0
  6
BYBLOCK
 62
     0
100
AcDbLine
 10
7.093404
 20
-0.116091
 30
0.0
 11
-5.860671
 21
-0.116091
 31
0.0
  0
LINE
  5
172B
100
AcDbEntity
  8
0
  6
BYBLOCK
 62
     0
100
AcDbLine
 10
-5.680671
 20
85.883816
 30
0.0
 11
-5.680671
 21
2.883909
 31
0.0
  0
SOLID
  5
172C
100
AcDbEntity
  8
0
  6
BYBLOCK
 62
     0
100
AcDbTrace
 10
-6.180671
 20
85.883816
 30
0.0
 11
-5.180671
 21
85.883816
 31
0.0
 12
-5.680671
 22
88.883816
 32
0.0
 13
-5.680671
 23
88.883816
 33
0.0
  0
SOLID
  5
172D
100
AcDbEntity
  8
0
  6
BYBLOCK
 62
     0
100
AcDbTrace
 10
-6.180671
 20
2.883909
 30
0.0
 11
-5.180671
 21
2.883909
 31
0.0
 12
-5.680671
 22
-0.116091
 32
0.0
 13
-5.680671
 23
-0.116091
 33
0.0
  0
MTEXT
  5
172E
100
AcDbEntity
  8
0
  6
BYBLOCK
 62
     0
100
AcDbMText
 10
-7.930671
 20
44.383862
 30
0.0
 40
2.5
 41
0.0
 71
     5
 72
     1
  1
\A1;89
 11
0.0
 21
1.0
 31
0.0
  0
POINT
  5
172F
100
AcDbEntity
  8
DEFPOINTS
  6
BYBLOCK
 62
     0
100
AcDbPoint
 10
7.155904
 20
88.883816
 30
0.0
  0
POINT
  5
1730
100
AcDbEntity
  8
DEFPOINTS
  6
BYBLOCK
 62
     0
100
AcDbPoint
 10
7.155904
 20
-0.116091
 30
0.0
  0
POINT
  5
1731
100
AcDbEntity
  8
DEFPOINTS
  6
BYBLOCK
 62
     0
100
AcDbPoint
 10
-5.680671
 20
-0.116091
 30
0.0
  0
ENDBLK
  5
1732
100
AcDbEntity
  8
0
100
AcDbBlockEnd
  0
BLOCK
  5
176D
100
AcDbEntity
  8
0
100
AcDbBlockBegin
  2
*D8
 70
     1
 10
0.0
 20
0.0
 30
0.0
  3
*D8
  1

  0
LINE
  5
176E
100
AcDbEntity
  8
0
  6
BYBLOCK
 62
     0
100
AcDbLine
 10
0.136489
 20
1.071301
 30
0.0
 11
0.136489
 21
-5.386541
 31
0.0
  0
LINE
  5
176F
100
AcDbEntity
  8
0
  6
BYBLOCK
 62
     0
100
AcDbLine
 10
44.631292
 20
1.071301
 30
0.0
 11
44.631292
 21
-5.386541
 31
0.0
  0
LINE
  5
1770
100
AcDbEntity
  8
0
  6
BYBLOCK
 62
     0
100
AcDbLine
 10
3.136489
 20
-5.206541
 30
0.0
 11
41.631292
 21
-5.206541
 31
0.0
  0
SOLID
  5
1771
100
AcDbEntity
  8
0
  6
BYBLOCK
 62
     0
100
AcDbTrace
 10
3.136489
 20
-4.706541
 30
0.0
 11
3.136489
 21
-5.706541
 31
0.0
 12
0.136489
 22
-5.206541
 32
0.0
 13
0.136489
 23
-5.206541
 33
0.0
  0
SOLID
  5
1772
100
AcDbEntity
  8
0
  6
BYBLOCK
 62
     0
100
AcDbTrace
 10
41.631292
 20
-4.706541
 30
0.0
 11
41.631292
 21
-5.706541
 31
0.0
 12
44.631292
 22
-5.206541
 32
0.0
 13
44.631292
 23
-5.206541
 33
0.0
  0
MTEXT
  5
1773
100
AcDbEntity
  8
0
  6
BYBLOCK
 62
     0
100
AcDbMText
 10
22.383891
 20
-2.956541
 30
0.0
 40
2.5
 41
0.0
 71
     5
 72
     1
  1
\A1;44.5
  0
POINT
  5
1774
100
AcDbEntity
  8
DEFPOINTS
  6
BYBLOCK
 62
     0
100
AcDbPoint
 10
0.136489
 20
1.133801
 30
0.0
  0
POINT
  5
1775
100
AcDbEntity
  8
DEFPOINTS
  6
BYBLOCK
 62
     0
100
AcDbPoint
 10
44.631292
 20
1.133801
 30
0.0
  0
POINT
  5
1776
100
AcDbEntity
  8
DEFPOINTS
  6
BYBLOCK
 62
     0
100
AcDbPoint
 10
44.631292
 20
-5.206541
 30
0.0
  0
ENDBLK
  5
1777
100
AcDbEntity
  8
0
100
AcDbBlockEnd
  0
ENDSEC
  0
SECTION
  2
ENTITIES
  0
INSERT
  5
CC
100
AcDbEntity
  8
0
100
AcDbBlockReference
  2
SCH_IS
 10
-68.718396
 20
-140.042541
 30
0.0
  0
INSERT
  5
EC
100
AcDbEntity
  8
COTATION1
100
AcDbBlockReference
  2
SCH_IS
 10
0.0
 20
0.0
 30
0.0
  0
POLYLINE
  5
11CC
100
AcDbEntity
  8
ALPHA
100
AcDb2dPolyline
 66
     1
 10
0.0
 20
0.0
 30
0.0
  0
VERTEX
  5
11CD
100
AcDbEntity
  8
ALPHA
100
AcDbVertex
100
AcDb2dVertex
 10
4.383969
 20
-0.116091
 30
0.0
  0
VERTEX
  5
11CE
100
AcDbEntity
  8
ALPHA
100
AcDbVertex
100
AcDb2dVertex
 10
40.383812
 20
-0.116091
 30
0.0
  0
SEQEND
  5
11CF
100
AcDbEntity
  8
ALPHA
  0
POLYLINE
  5
11D0
100
AcDbEntity
  8
ALPHA
100
AcDb2dPolyline
 66
     1
 10
0.0
 20
0.0
 30
0.0
  0
VERTEX
  5
11D1
100
AcDbEntity
  8
ALPHA
100
AcDbVertex
100
AcDb2dVertex
 10
0.136489
 20
1.133801
 30
0.0
  0
VERTEX
  5
11D2
100
AcDbEntity
  8
ALPHA
100
AcDbVertex
100
AcDb2dVertex
 10
44.631292
 20
1.133801
 30
0.0
  0
SEQEND
  5
11D3
100
AcDbEntity
  8
ALPHA
  0
POLYLINE
  5
11D4
100
AcDbEntity
  8
ALPHA
100
AcDb2dPolyline
 66
     1
 10
0.0
 20
0.0
 30
0.0
  0
VERTEX
  5
11D5
100
AcDbEntity
  8
ALPHA
100
AcDbVertex
100
AcDb2dVertex
 10
0.136489
 20
23.013801
 30
0.0
  0
VERTEX
  5
11D6
100
AcDbEntity
  8
ALPHA
100
AcDbVertex
100
AcDb2dVertex
 10
44.631292
 20
23.013801
 30
0.0
  0
SEQEND
  5
11D7
100
AcDbEntity
  8
ALPHA
  0
POLYLINE
  5
11D8
100
AcDbEntity
  8
ALPHA
100
AcDb2dPolyline
 66
     1
 10
0.0
 20
0.0
 30
0.0
  0
VERTEX
  5
11D9
100
AcDbEntity
  8
ALPHA
100
AcDbVertex
100
AcDb2dVertex
 10
14.135982
 20
63.009083
 30
0.0
  0
VERTEX
  5
11DA
100
AcDbEntity
  8
ALPHA
100
AcDbVertex
100
AcDb2dVertex
 10
25.131359
 20
63.009083
 30
0.0
  0
SEQEND
  5
11DB
100
AcDbEntity
  8
ALPHA
  0
POLYLINE
  5
11DC
100
AcDbEntity
  8
ALPHA
100
AcDb2dPolyline
 66
     1
 10
0.0
 20
0.0
 30
0.0
  0
VERTEX
  5
11DD
100
AcDbEntity
  8
ALPHA
100
AcDbVertex
100
AcDb2dVertex
 10
14.135982
 20
66.00907
 30
0.0
  0
VERTEX
  5
11DE
100
AcDbEntity
  8
ALPHA
100
AcDbVertex
100
AcDb2dVertex
 10
41.135899
 20
66.00907
 30
0.0
  0
SEQEND
  5
11DF
100
AcDbEntity
  8
ALPHA
  0
POLYLINE
  5
11E0
100
AcDbEntity
  8
ALPHA
100
AcDb2dPolyline
 66
     1
 10
0.0
 20
0.0
 30
0.0
  0
VERTEX
  5
11E1
100
AcDbEntity
  8
ALPHA
100
AcDbVertex
100
AcDb2dVertex
 10
0.136489
 20
68.013801
 30
0.0
  0
VERTEX
  5
11E2
100
AcDbEntity
  8
ALPHA
100
AcDbVertex
100
AcDb2dVertex
 10
44.631292
 20
68.013801
 30
0.0
  0
SEQEND
  5
11E3
100
AcDbEntity
  8
ALPHA
  0
POLYLINE
  5
11E4
100
AcDbEntity
  8
ALPHA
100
AcDb2dPolyline
 66
     1
 10
0.0
 20
0.0
 30
0.0
  0
VERTEX
  5
11E5
100
AcDbEntity
  8
ALPHA
100
AcDbVertex
100
AcDb2dVertex
 10
0.136489
 20
76.008803
 30
0.0
  0
VERTEX
  5
11E6
100
AcDbEntity
  8
ALPHA
100
AcDbVertex
100
AcDb2dVertex
 10
44.631292
 20
76.008803
 30
0.0
  0
SEQEND
  5
11E7
100
AcDbEntity
  8
ALPHA
  0
POLYLINE
  5
11E8
100
AcDbEntity
  8
ALPHA
100
AcDb2dPolyline
 66
     1
 10
0.0
 20
0.0
 30
0.0
  0
VERTEX
  5
11E9
100
AcDbEntity
  8
ALPHA
100
AcDbVertex
100
AcDb2dVertex
 10
0.136489
 20
87.884043
 30
0.0
  0
VERTEX
  5
11EA
100
AcDbEntity
  8
ALPHA
100
AcDbVertex
100
AcDb2dVertex
 10
44.631292
 20
87.884043
 30
0.0
  0
SEQEND
  5
11EB
100
AcDbEntity
  8
ALPHA
  0
POLYLINE
  5
11EC
100
AcDbEntity
  8
ALPHA
100
AcDb2dPolyline
 66
     1
 10
0.0
 20
0.0
 30
0.0
  0
VERTEX
  5
11ED
100
AcDbEntity
  8
ALPHA
100
AcDbVertex
100
AcDb2dVertex
 10
4.383969
 20
87.884043
 30
0.0
  0
VERTEX
  5
11EE
100
AcDbEntity
  8
ALPHA
100
AcDbVertex
100
AcDb2dVertex
 10
4.383969
 20
88.883816
 30
0.0
  0
VERTEX
  5
11EF
100
AcDbEntity
  8
ALPHA
100
AcDbVertex
100
AcDb2dVertex
 10
40.383812
 20
88.883816
 30
0.0
  0
VERTEX
  5
11F0
100
AcDbEntity
  8
ALPHA
100
AcDbVertex
100
AcDb2dVertex
 10
40.383812
 20
87.884043
 30
0.0
  0
SEQEND
  5
11F1
100
AcDbEntity
  8
ALPHA
  0
POLYLINE
  5
11F2
100
AcDbEntity
  8
ALPHA
100
AcDb2dPolyline
 66
     1
 10
0.0
 20
0.0
 30
0.0
  0
VERTEX
  5
11F3
100
AcDbEntity
  8
ALPHA
100
AcDbVertex
100
AcDb2dVertex
 10
14.135982
 20
53.008644
 30
0.0
  0
VERTEX
  5
11F4
100
AcDbEntity
  8
ALPHA
100
AcDbVertex
100
AcDb2dVertex
 10
25.131359
 20
53.008644
 30
0.0
  0
SEQEND
  5
11F5
100
AcDbEntity
  8
ALPHA
  0
POLYLINE
  5
11F6
100
AcDbEntity
  8
ALPHA
100
AcDb2dPolyline
 66
     1
 10
0.0
 20
0.0
 30
0.0
  0
VERTEX
  5
11F7
100
AcDbEntity
  8
ALPHA
100
AcDbVertex
100
AcDb2dVertex
 10
14.135982
 20
43.50915
 30
0.0
  0
VERTEX
  5
11F8
100
AcDbEntity
  8
ALPHA
100
AcDbVertex
100
AcDb2dVertex
 10
14.138564
 20
43.458
 30
0.0
  0
VERTEX
  5
11F9
100
AcDbEntity
  8
ALPHA
100
AcDbVertex
100
AcDb2dVertex
 10
14.146144
 20
43.408328
 30
0.0
  0
VERTEX
  5
11FA
100
AcDbEntity
  8
ALPHA
100
AcDbVertex
100
AcDb2dVertex
 10
14.15847
 20
43.360386
 30
0.0
  0
VERTEX
  5
11FB
100
AcDbEntity
  8
ALPHA
100
AcDbVertex
100
AcDb2dVertex
 10
14.17529
 20
43.314425
 30
0.0
  0
VERTEX
  5
11FC
100
AcDbEntity
  8
ALPHA
100
AcDbVertex
100
AcDb2dVertex
 10
14.196353
 20
43.270697
 30
0.0
  0
VERTEX
  5
11FD
100
AcDbEntity
  8
ALPHA
100
AcDbVertex
100
AcDb2dVertex
 10
14.221409
 20
43.229452
 30
0.0
  0
VERTEX
  5
11FE
100
AcDbEntity
  8
ALPHA
100
AcDbVertex
100
AcDb2dVertex
 10
14.250205
 20
43.190943
 30
0.0
  0
VERTEX
  5
11FF
100
AcDbEntity
  8
ALPHA
100
AcDbVertex
100
AcDb2dVertex
 10
14.28249
 20
43.15542
 30
0.0
  0
VERTEX
  5
1200
100
AcDbEntity
  8
ALPHA
100
AcDbVertex
100
AcDb2dVertex
 10
14.318013
 20
43.123134
 30
0.0
  0
VERTEX
  5
1201
100
AcDbEntity
  8
ALPHA
100
AcDbVertex
100
AcDb2dVertex
 10
14.356523
 20
43.094338
 30
0.0
  0
VERTEX
  5
1202
100
AcDbEntity
  8
ALPHA
100
AcDbVertex
100
AcDb2dVertex
 10
14.397768
 20
43.069283
 30
0.0
  0
VERTEX
  5
1203
100
AcDbEntity
  8
ALPHA
100
AcDbVertex
100
AcDb2dVertex
 10
14.441496
 20
43.048219
 30
0.0
  0
VERTEX
  5
1204
100
AcDbEntity
  8
ALPHA
100
AcDbVertex
100
AcDb2dVertex
 10
14.487457
 20
43.031399
 30
0.0
  0
VERTEX
  5
1205
100
AcDbEntity
  8
ALPHA
100
AcDbVertex
100
AcDb2dVertex
 10
14.535399
 20
43.019073
 30
0.0
  0
VERTEX
  5
1206
100
AcDbEntity
  8
ALPHA
100
AcDbVertex
100
AcDb2dVertex
 10
14.585071
 20
43.011493
 30
0.0
  0
VERTEX
  5
1207
100
AcDbEntity
  8
ALPHA
100
AcDbVertex
100
AcDb2dVertex
 10
14.636221
 20
43.008911
 30
0.0
  0
SEQEND
  5
1208
100
AcDbEntity
  8
ALPHA
  0
POLYLINE
  5
1209
100
AcDbEntity
  8
ALPHA
100
AcDb2dPolyline
 66
     1
 10
0.0
 20
0.0
 30
0.0
  0
VERTEX
  5
120A
100
AcDbEntity
  8
ALPHA
100
AcDbVertex
100
AcDb2dVertex
 10
13.145876
 20
31.513523
 30
0.0
  0
VERTEX
  5
120B
100
AcDbEntity
  8
ALPHA
100
AcDbVertex
100
AcDb2dVertex
 10
17.645838
 20
31.513523
 30
0.0
  0
SEQEND
  5
120C
100
AcDbEntity
  8
ALPHA
  0
POLYLINE
  5
120D
100
AcDbEntity
  8
ALPHA
100
AcDb2dPolyline
 66
     1
 10
0.0
 20
0.0
 30
0.0
  0
VERTEX
  5
120E
100
AcDbEntity
  8
ALPHA
100
AcDbVertex
100
AcDb2dVertex
 10
13.145876
 20
34.51351
 30
0.0
  0
VERTEX
  5
120F
100
AcDbEntity
  8
ALPHA
100
AcDbVertex
100
AcDb2dVertex
 10
17.645838
 20
34.51351
 30
0.0
  0
SEQEND
  5
1210
100
AcDbEntity
  8
ALPHA
  0
POLYLINE
  5
1211
100
AcDbEntity
  8
ALPHA
100
AcDb2dPolyline
 66
     1
 10
0.0
 20
0.0
 30
0.0
  0
VERTEX
  5
1212
100
AcDbEntity
  8
ALPHA
100
AcDbVertex
100
AcDb2dVertex
 10
0.136489
 20
1.133801
 30
0.0
  0
VERTEX
  5
1213
100
AcDbEntity
  8
ALPHA
100
AcDbVertex
100
AcDb2dVertex
 10
0.136489
 20
87.884043
 30
0.0
  0
SEQEND
  5
1214
100
AcDbEntity
  8
ALPHA
  0
POLYLINE
  5
1215
100
AcDbEntity
  8
ALPHA
100
AcDb2dPolyline
 66
     1
 10
0.0
 20
0.0
 30
0.0
  0
VERTEX
  5
1216
100
AcDbEntity
  8
ALPHA
100
AcDbVertex
100
AcDb2dVertex
 10
4.383969
 20
-0.116091
 30
0.0
  0
VERTEX
  5
1217
100
AcDbEntity
  8
ALPHA
100
AcDbVertex
100
AcDb2dVertex
 10
4.383969
 20
0.883681
 30
0.0
  0
SEQEND
  5
1218
100
AcDbEntity
  8
ALPHA
  0
POLYLINE
  5
1219
100
AcDbEntity
  8
ALPHA
100
AcDb2dPolyline
 66
     1
 10
0.0
 20
0.0
 30
0.0
  0
VERTEX
  5
121A
100
AcDbEntity
  8
ALPHA
100
AcDbVertex
100
AcDb2dVertex
 10
12.646342
 20
8.509043
 30
0.0
  0
VERTEX
  5
121B
100
AcDbEntity
  8
ALPHA
100
AcDbVertex
100
AcDb2dVertex
 10
12.626979
 20
8.892418
 30
0.0
  0
VERTEX
  5
121C
100
AcDbEntity
  8
ALPHA
100
AcDbVertex
100
AcDb2dVertex
 10
12.570146
 20
9.264719
 30
0.0
  0
VERTEX
  5
121D
100
AcDbEntity
  8
ALPHA
100
AcDbVertex
100
AcDb2dVertex
 10
12.477729
 20
9.624061
 30
0.0
  0
VERTEX
  5
121E
100
AcDbEntity
  8
ALPHA
100
AcDbVertex
100
AcDb2dVertex
 10
12.351612
 20
9.968561
 30
0.0
  0
VERTEX
  5
121F
100
AcDbEntity
  8
ALPHA
100
AcDbVertex
100
AcDb2dVertex
 10
12.193683
 20
10.296332
 30
0.0
  0
VERTEX
  5
1220
100
AcDbEntity
  8
ALPHA
100
AcDbVertex
100
AcDb2dVertex
 10
12.005825
 20
10.60549
 30
0.0
  0
VERTEX
  5
1221
100
AcDbEntity
  8
ALPHA
100
AcDbVertex
100
AcDb2dVertex
 10
11.789925
 20
10.894151
 30
0.0
  0
VERTEX
  5
1222
100
AcDbEntity
  8
ALPHA
100
AcDbVertex
100
AcDb2dVertex
 10
11.547867
 20
11.160429
 30
0.0
  0
VERTEX
  5
1223
100
AcDbEntity
  8
ALPHA
100
AcDbVertex
100
AcDb2dVertex
 10
11.281538
 20
11.402439
 30
0.0
  0
VERTEX
  5
1224
100
AcDbEntity
  8
ALPHA
100
AcDbVertex
100
AcDb2dVertex
 10
10.992822
 20
11.618296
 30
0.0
  0
VERTEX
  5
1225
100
AcDbEntity
  8
ALPHA
100
AcDbVertex
100
AcDb2dVertex
 10
10.683605
 20
11.806116
 30
0.0
  0
VERTEX
  5
1226
100
AcDbEntity
  8
ALPHA
100
AcDbVertex
100
AcDb2dVertex
 10
10.355773
 20
11.964014
 30
0.0
  0
VERTEX
  5
1227
100
AcDbEntity
  8
ALPHA
100
AcDbVertex
100
AcDb2dVertex
 10
10.011211
 20
12.090104
 30
0.0
  0
VERTEX
  5
1228
100
AcDbEntity
  8
ALPHA
100
AcDbVertex
100
AcDb2dVertex
 10
9.651804
 20
12.182503
 30
0.0
  0
VERTEX
  5
1229
100
AcDbEntity
  8
ALPHA
100
AcDbVertex
100
AcDb2dVertex
 10
9.279437
 20
12.239324
 30
0.0
  0
VERTEX
  5
122A
100
AcDbEntity
  8
ALPHA
100
AcDbVertex
100
AcDb2dVertex
 10
8.895997
 20
12.258683
 30
0.0
  0
VERTEX
  5
122B
100
AcDbEntity
  8
ALPHA
100
AcDbVertex
100
AcDb2dVertex
 10
8.512565
 20
12.239324
 30
0.0
  0
VERTEX
  5
122C
100
AcDbEntity
  8
ALPHA
100
AcDbVertex
100
AcDb2dVertex
 10
8.14022
 20
12.182503
 30
0.0
  0
VERTEX
  5
122D
100
AcDbEntity
  8
ALPHA
100
AcDbVertex
100
AcDb2dVertex
 10
7.780848
 20
12.090104
 30
0.0
  0
VERTEX
  5
122E
100
AcDbEntity
  8
ALPHA
100
AcDbVertex
100
AcDb2dVertex
 10
7.436331
 20
11.964014
 30
0.0
  0
VERTEX
  5
122F
100
AcDbEntity
  8
ALPHA
100
AcDbVertex
100
AcDb2dVertex
 10
7.108552
 20
11.806116
 30
0.0
  0
VERTEX
  5
1230
100
AcDbEntity
  8
ALPHA
100
AcDbVertex
100
AcDb2dVertex
 10
6.799395
 20
11.618296
 30
0.0
  0
VERTEX
  5
1231
100
AcDbEntity
  8
ALPHA
100
AcDbVertex
100
AcDb2dVertex
 10
6.510743
 20
11.402439
 30
0.0
  0
VERTEX
  5
1232
100
AcDbEntity
  8
ALPHA
100
AcDbVertex
100
AcDb2dVertex
 10
6.244479
 20
11.160429
 30
0.0
  0
VERTEX
  5
1233
100
AcDbEntity
  8
ALPHA
100
AcDbVertex
100
AcDb2dVertex
 10
6.002488
 20
10.894151
 30
0.0
  0
VERTEX
  5
1234
100
AcDbEntity
  8
ALPHA
100
AcDbVertex
100
AcDb2dVertex
 10
5.786651
 20
10.60549
 30
0.0
  0
VERTEX
  5
1235
100
AcDbEntity
  8
ALPHA
100
AcDbVertex
100
AcDb2dVertex
 10
5.598853
 20
10.296332
 30
0.0
  0
VERTEX
  5
1236
100
AcDbEntity
  8
ALPHA
100
AcDbVertex
100
AcDb2dVertex
 10
5.440977
 20
9.968561
 30
0.0
  0
VERTEX
  5
1237
100
AcDbEntity
  8
ALPHA
100
AcDbVertex
100
AcDb2dVertex
 10
5.314906
 20
9.624061
 30
0.0
  0
VERTEX
  5
1238
100
AcDbEntity
  8
ALPHA
100
AcDbVertex
100
AcDb2dVertex
 10
5.222523
 20
9.264719
 30
0.0
  0
VERTEX
  5
1239
100
AcDbEntity
  8
ALPHA
100
AcDbVertex
100
AcDb2dVertex
 10
5.165713
 20
8.892418
 30
0.0
  0
VERTEX
  5
123A
100
AcDbEntity
  8
ALPHA
100
AcDbVertex
100
AcDb2dVertex
 10
5.146357
 20
8.509043
 30
0.0
  0
VERTEX
  5
123B
100
AcDbEntity
  8
ALPHA
100
AcDbVertex
100
AcDb2dVertex
 10
5.165713
 20
8.125604
 30
0.0
  0
VERTEX
  5
123C
100
AcDbEntity
  8
ALPHA
100
AcDbVertex
100
AcDb2dVertex
 10
5.222523
 20
7.753238
 30
0.0
  0
VERTEX
  5
123D
100
AcDbEntity
  8
ALPHA
100
AcDbVertex
100
AcDb2dVertex
 10
5.314906
 20
7.393833
 30
0.0
  0
VERTEX
  5
123E
100
AcDbEntity
  8
ALPHA
100
AcDbVertex
100
AcDb2dVertex
 10
5.440977
 20
7.049273
 30
0.0
  0
VERTEX
  5
123F
100
AcDbEntity
  8
ALPHA
100
AcDbVertex
100
AcDb2dVertex
 10
5.598853
 20
6.721443
 30
0.0
  0
VERTEX
  5
1240
100
AcDbEntity
  8
ALPHA
100
AcDbVertex
100
AcDb2dVertex
 10
5.786651
 20
6.412229
 30
0.0
  0
VERTEX
  5
1241
100
AcDbEntity
  8
ALPHA
100
AcDbVertex
100
AcDb2dVertex
 10
6.002488
 20
6.123517
 30
0.0
  0
VERTEX
  5
1242
100
AcDbEntity
  8
ALPHA
100
AcDbVertex
100
AcDb2dVertex
 10
6.244479
 20
5.857191
 30
0.0
  0
VERTEX
  5
1243
100
AcDbEntity
  8
ALPHA
100
AcDbVertex
100
AcDb2dVertex
 10
6.510743
 20
5.615137
 30
0.0
  0
VERTEX
  5
1244
100
AcDbEntity
  8
ALPHA
100
AcDbVertex
100
AcDb2dVertex
 10
6.799395
 20
5.399239
 30
0.0
  0
VERTEX
  5
1245
100
AcDbEntity
  8
ALPHA
100
AcDbVertex
100
AcDb2dVertex
 10
7.108552
 20
5.211385
 30
0.0
  0
VERTEX
  5
1246
100
AcDbEntity
  8
ALPHA
100
AcDbVertex
100
AcDb2dVertex
 10
7.436331
 20
5.053458
 30
0.0
  0
VERTEX
  5
1247
100
AcDbEntity
  8
ALPHA
100
AcDbVertex
100
AcDb2dVertex
 10
7.780848
 20
4.927344
 30
0.0
  0
VERTEX
  5
1248
100
AcDbEntity
  8
ALPHA
100
AcDbVertex
100
AcDb2dVertex
 10
8.14022
 20
4.834928
 30
0.0
  0
VERTEX
  5
1249
100
AcDbEntity
  8
ALPHA
100
AcDbVertex
100
AcDb2dVertex
 10
8.512565
 20
4.778096
 30
0.0
  0
VERTEX
  5
124A
100
AcDbEntity
  8
ALPHA
100
AcDbVertex
100
AcDb2dVertex
 10
8.895997
 20
4.758733
 30
0.0
  0
VERTEX
  5
124B
100
AcDbEntity
  8
ALPHA
100
AcDbVertex
100
AcDb2dVertex
 10
9.279437
 20
4.778096
 30
0.0
  0
VERTEX
  5
124C
100
AcDbEntity
  8
ALPHA
100
AcDbVertex
100
AcDb2dVertex
 10
9.651804
 20
4.834928
 30
0.0
  0
VERTEX
  5
124D
100
AcDbEntity
  8
ALPHA
100
AcDbVertex
100
AcDb2dVertex
 10
10.011211
 20
4.927344
 30
0.0
  0
VERTEX
  5
124E
100
AcDbEntity
  8
ALPHA
100
AcDbVertex
100
AcDb2dVertex
 10
10.355773
 20
5.053458
 30
0.0
  0
VERTEX
  5
124F
100
AcDbEntity
  8
ALPHA
100
AcDbVertex
100
AcDb2dVertex
 10
10.683605
 20
5.211385
 30
0.0
  0
VERTEX
  5
1250
100
AcDbEntity
  8
ALPHA
100
AcDbVertex
100
AcDb2dVertex
 10
10.992822
 20
5.399239
 30
0.0
  0
VERTEX
  5
1251
100
AcDbEntity
  8
ALPHA
100
AcDbVertex
100
AcDb2dVertex
 10
11.281538
 20
5.615137
 30
0.0
  0
VERTEX
  5
1252
100
AcDbEntity
  8
ALPHA
100
AcDbVertex
100
AcDb2dVertex
 10
11.547867
 20
5.857191
 30
0.0
  0
VERTEX
  5
1253
100
AcDbEntity
  8
ALPHA
100
AcDbVertex
100
AcDb2dVertex
 10
11.789925
 20
6.123517
 30
0.0
  0
VERTEX
  5
1254
100
AcDbEntity
  8
ALPHA
100
AcDbVertex
100
AcDb2dVertex
 10
12.005825
 20
6.412229
 30
0.0
  0
VERTEX
  5
1255
100
AcDbEntity
  8
ALPHA
100
AcDbVertex
100
AcDb2dVertex
 10
12.193683
 20
6.721443
 30
0.0
  0
VERTEX
  5
1256
100
AcDbEntity
  8
ALPHA
100
AcDbVertex
100
AcDb2dVertex
 10
12.351612
 20
7.049273
 30
0.0
  0
VERTEX
  5
1257
100
AcDbEntity
  8
ALPHA
100
AcDbVertex
100
AcDb2dVertex
 10
12.477729
 20
7.393833
 30
0.0
  0
VERTEX
  5
1258
100
AcDbEntity
  8
ALPHA
100
AcDbVertex
100
AcDb2dVertex
 10
12.570146
 20
7.753238
 30
0.0
  0
VERTEX
  5
1259
100
AcDbEntity
  8
ALPHA
100
AcDbVertex
100
AcDb2dVertex
 10
12.626979
 20
8.125604
 30
0.0
  0
VERTEX
  5
125A
100
AcDbEntity
  8
ALPHA
100
AcDbVertex
100
AcDb2dVertex
 10
12.646342
 20
8.509043
 30
0.0
  0
SEQEND
  5
125B
100
AcDbEntity
  8
ALPHA
  0
POLYLINE
  5
125C
100
AcDbEntity
  8
ALPHA
100
AcDb2dPolyline
 66
     1
 10
0.0
 20
0.0
 30
0.0
  0
VERTEX
  5
125D
100
AcDbEntity
  8
ALPHA
100
AcDbVertex
100
AcDb2dVertex
 10
8.895997
 20
7.801759
 30
0.0
  0
VERTEX
  5
125E
100
AcDbEntity
  8
ALPHA
100
AcDbVertex
100
AcDb2dVertex
 10
7.337425
 20
6.243222
 30
0.0
  0
SEQEND
  5
125F
100
AcDbEntity
  8
ALPHA
  0
POLYLINE
  5
1260
100
AcDbEntity
  8
ALPHA
100
AcDb2dPolyline
 66
     1
 10
0.0
 20
0.0
 30
0.0
  0
VERTEX
  5
1261
100
AcDbEntity
  8
ALPHA
100
AcDbVertex
100
AcDb2dVertex
 10
8.189066
 20
8.509043
 30
0.0
  0
VERTEX
  5
1262
100
AcDbEntity
  8
ALPHA
100
AcDbVertex
100
AcDb2dVertex
 10
6.630493
 20
6.950471
 30
0.0
  0
SEQEND
  5
1263
100
AcDbEntity
  8
ALPHA
  0
POLYLINE
  5
1264
100
AcDbEntity
  8
ALPHA
100
AcDb2dPolyline
 66
     1
 10
0.0
 20
0.0
 30
0.0
  0
VERTEX
  5
1265
100
AcDbEntity
  8
ALPHA
100
AcDbVertex
100
AcDb2dVertex
 10
5.891177
 20
10.806932
 30
0.0
  0
VERTEX
  5
1266
100
AcDbEntity
  8
ALPHA
100
AcDbVertex
100
AcDb2dVertex
 10
8.189066
 20
8.509043
 30
0.0
  0
SEQEND
  5
1267
100
AcDbEntity
  8
ALPHA
  0
POLYLINE
  5
1268
100
AcDbEntity
  8
ALPHA
100
AcDb2dPolyline
 66
     1
 10
0.0
 20
0.0
 30
0.0
  0
VERTEX
  5
1269
100
AcDbEntity
  8
ALPHA
100
AcDbVertex
100
AcDb2dVertex
 10
6.598108
 20
11.513863
 30
0.0
  0
VERTEX
  5
126A
100
AcDbEntity
  8
ALPHA
100
AcDbVertex
100
AcDb2dVertex
 10
8.895997
 20
9.215975
 30
0.0
  0
SEQEND
  5
126B
100
AcDbEntity
  8
ALPHA
  0
POLYLINE
  5
126C
100
AcDbEntity
  8
ALPHA
100
AcDb2dPolyline
 66
     1
 10
0.0
 20
0.0
 30
0.0
  0
VERTEX
  5
126D
100
AcDbEntity
  8
ALPHA
100
AcDbVertex
100
AcDb2dVertex
 10
6.630493
 20
6.950471
 30
0.0
  0
VERTEX
  5
126E
100
AcDbEntity
  8
ALPHA
100
AcDbVertex
100
AcDb2dVertex
 10
6.782236
 20
6.749908
 30
0.0
  0
VERTEX
  5
126F
100
AcDbEntity
  8
ALPHA
100
AcDbVertex
100
AcDb2dVertex
 10
6.951415
 20
6.564422
 30
0.0
  0
VERTEX
  5
1270
100
AcDbEntity
  8
ALPHA
100
AcDbVertex
100
AcDb2dVertex
 10
7.136866
 20
6.395149
 30
0.0
  0
VERTEX
  5
1271
100
AcDbEntity
  8
ALPHA
100
AcDbVertex
100
AcDb2dVertex
 10
7.337425
 20
6.243222
 30
0.0
  0
SEQEND
  5
1272
100
AcDbEntity
  8
ALPHA
  0
POLYLINE
  5
1273
100
AcDbEntity
  8
ALPHA
100
AcDb2dPolyline
 66
     1
 10
0.0
 20
0.0
 30
0.0
  0
VERTEX
  5
1274
100
AcDbEntity
  8
ALPHA
100
AcDbVertex
100
AcDb2dVertex
 10
9.603634
 20
8.509043
 30
0.0
  0
VERTEX
  5
1275
100
AcDbEntity
  8
ALPHA
100
AcDbVertex
100
AcDb2dVertex
 10
11.901487
 20
6.210837
 30
0.0
  0
SEQEND
  5
1276
100
AcDbEntity
  8
ALPHA
  0
POLYLINE
  5
1277
100
AcDbEntity
  8
ALPHA
100
AcDb2dPolyline
 66
     1
 10
0.0
 20
0.0
 30
0.0
  0
VERTEX
  5
1278
100
AcDbEntity
  8
ALPHA
100
AcDbVertex
100
AcDb2dVertex
 10
8.895997
 20
7.801759
 30
0.0
  0
VERTEX
  5
1279
100
AcDbEntity
  8
ALPHA
100
AcDbVertex
100
AcDb2dVertex
 10
11.194556
 20
5.503553
 30
0.0
  0
SEQEND
  5
127A
100
AcDbEntity
  8
ALPHA
  0
POLYLINE
  5
127B
100
AcDbEntity
  8
ALPHA
100
AcDb2dPolyline
 66
     1
 10
0.0
 20
0.0
 30
0.0
  0
VERTEX
  5
127C
100
AcDbEntity
  8
ALPHA
100
AcDbVertex
100
AcDb2dVertex
 10
11.162171
 20
10.067616
 30
0.0
  0
VERTEX
  5
127D
100
AcDbEntity
  8
ALPHA
100
AcDbVertex
100
AcDb2dVertex
 10
9.603634
 20
8.509043
 30
0.0
  0
SEQEND
  5
127E
100
AcDbEntity
  8
ALPHA
  0
POLYLINE
  5
127F
100
AcDbEntity
  8
ALPHA
100
AcDb2dPolyline
 66
     1
 10
0.0
 20
0.0
 30
0.0
  0
VERTEX
  5
1280
100
AcDbEntity
  8
ALPHA
100
AcDbVertex
100
AcDb2dVertex
 10
10.454569
 20
10.774547
 30
0.0
  0
VERTEX
  5
1281
100
AcDbEntity
  8
ALPHA
100
AcDbVertex
100
AcDb2dVertex
 10
8.895997
 20
9.215975
 30
0.0
  0
SEQEND
  5
1282
100
AcDbEntity
  8
ALPHA
  0
POLYLINE
  5
1283
100
AcDbEntity
  8
ALPHA
100
AcDb2dPolyline
 66
     1
 10
0.0
 20
0.0
 30
0.0
  0
VERTEX
  5
1284
100
AcDbEntity
  8
ALPHA
100
AcDbVertex
100
AcDb2dVertex
 10
11.162171
 20
10.067616
 30
0.0
  0
VERTEX
  5
1285
100
AcDbEntity
  8
ALPHA
100
AcDbVertex
100
AcDb2dVertex
 10
11.01004
 20
10.268125
 30
0.0
  0
VERTEX
  5
1286
100
AcDbEntity
  8
ALPHA
100
AcDbVertex
100
AcDb2dVertex
 10
10.840662
 20
10.453493
 30
0.0
  0
VERTEX
  5
1287
100
AcDbEntity
  8
ALPHA
100
AcDbVertex
100
AcDb2dVertex
 10
10.655138
 20
10.622655
 30
0.0
  0
VERTEX
  5
1288
100
AcDbEntity
  8
ALPHA
100
AcDbVertex
100
AcDb2dVertex
 10
10.454569
 20
10.774547
 30
0.0
  0
SEQEND
  5
1289
100
AcDbEntity
  8
ALPHA
  0
POLYLINE
  5
128A
100
AcDbEntity
  8
ALPHA
100
AcDb2dPolyline
 66
     1
 10
0.0
 20
0.0
 30
0.0
  0
VERTEX
  5
128B
100
AcDbEntity
  8
ALPHA
100
AcDbVertex
100
AcDb2dVertex
 10
12.646342
 20
32.013762
 30
0.0
  0
VERTEX
  5
128C
100
AcDbEntity
  8
ALPHA
100
AcDbVertex
100
AcDb2dVertex
 10
12.646342
 20
34.013659
 30
0.0
  0
SEQEND
  5
128D
100
AcDbEntity
  8
ALPHA
  0
POLYLINE
  5
128E
100
AcDbEntity
  8
ALPHA
100
AcDb2dPolyline
 66
     1
 10
0.0
 20
0.0
 30
0.0
  0
VERTEX
  5
128F
100
AcDbEntity
  8
ALPHA
100
AcDbVertex
100
AcDb2dVertex
 10
12.646342
 20
32.013762
 30
0.0
  0
VERTEX
  5
1290
100
AcDbEntity
  8
ALPHA
100
AcDbVertex
100
AcDb2dVertex
 10
12.648924
 20
31.962611
 30
0.0
  0
VERTEX
  5
1291
100
AcDbEntity
  8
ALPHA
100
AcDbVertex
100
AcDb2dVertex
 10
12.656502
 20
31.91294
 30
0.0
  0
VERTEX
  5
1292
100
AcDbEntity
  8
ALPHA
100
AcDbVertex
100
AcDb2dVertex
 10
12.668822
 20
31.864998
 30
0.0
  0
VERTEX
  5
1293
100
AcDbEntity
  8
ALPHA
100
AcDbVertex
100
AcDb2dVertex
 10
12.685634
 20
31.819037
 30
0.0
  0
VERTEX
  5
1294
100
AcDbEntity
  8
ALPHA
100
AcDbVertex
100
AcDb2dVertex
 10
12.706685
 20
31.775309
 30
0.0
  0
VERTEX
  5
1295
100
AcDbEntity
  8
ALPHA
100
AcDbVertex
100
AcDb2dVertex
 10
12.731723
 20
31.734064
 30
0.0
  0
VERTEX
  5
1296
100
AcDbEntity
  8
ALPHA
100
AcDbVertex
100
AcDb2dVertex
 10
12.760495
 20
31.695554
 30
0.0
  0
VERTEX
  5
1297
100
AcDbEntity
  8
ALPHA
100
AcDbVertex
100
AcDb2dVertex
 10
12.792749
 20
31.660031
 30
0.0
  0
VERTEX
  5
1298
100
AcDbEntity
  8
ALPHA
100
AcDbVertex
100
AcDb2dVertex
 10
12.828234
 20
31.627746
 30
0.0
  0
VERTEX
  5
1299
100
AcDbEntity
  8
ALPHA
100
AcDbVertex
100
AcDb2dVertex
 10
12.866696
 20
31.59895
 30
0.0
  0
VERTEX
  5
129A
100
AcDbEntity
  8
ALPHA
100
AcDbVertex
100
AcDb2dVertex
 10
12.907883
 20
31.573894
 30
0.0
  0
VERTEX
  5
129B
100
AcDbEntity
  8
ALPHA
100
AcDbVertex
100
AcDb2dVertex
 10
12.951544
 20
31.552831
 30
0.0
  0
VERTEX
  5
129C
100
AcDbEntity
  8
ALPHA
100
AcDbVertex
100
AcDb2dVertex
 10
12.997426
 20
31.536011
 30
0.0
  0
VERTEX
  5
129D
100
AcDbEntity
  8
ALPHA
100
AcDbVertex
100
AcDb2dVertex
 10
13.045277
 20
31.523685
 30
0.0
  0
VERTEX
  5
129E
100
AcDbEntity
  8
ALPHA
100
AcDbVertex
100
AcDb2dVertex
 10
13.094844
 20
31.516105
 30
0.0
  0
VERTEX
  5
129F
100
AcDbEntity
  8
ALPHA
100
AcDbVertex
100
AcDb2dVertex
 10
13.145876
 20
31.513523
 30
0.0
  0
SEQEND
  5
12A0
100
AcDbEntity
  8
ALPHA
  0
POLYLINE
  5
12A1
100
AcDbEntity
  8
ALPHA
100
AcDb2dPolyline
 66
     1
 10
0.0
 20
0.0
 30
0.0
  0
VERTEX
  5
12A2
100
AcDbEntity
  8
ALPHA
100
AcDbVertex
100
AcDb2dVertex
 10
13.145876
 20
34.51351
 30
0.0
  0
VERTEX
  5
12A3
100
AcDbEntity
  8
ALPHA
100
AcDbVertex
100
AcDb2dVertex
 10
13.094844
 20
34.510928
 30
0.0
  0
VERTEX
  5
12A4
100
AcDbEntity
  8
ALPHA
100
AcDbVertex
100
AcDb2dVertex
 10
13.045277
 20
34.50335
 30
0.0
  0
VERTEX
  5
12A5
100
AcDbEntity
  8
ALPHA
100
AcDbVertex
100
AcDb2dVertex
 10
12.997426
 20
34.491027
 30
0.0
  0
VERTEX
  5
12A6
100
AcDbEntity
  8
ALPHA
100
AcDbVertex
100
AcDb2dVertex
 10
12.951544
 20
34.474212
 30
0.0
  0
VERTEX
  5
12A7
100
AcDbEntity
  8
ALPHA
100
AcDbVertex
100
AcDb2dVertex
 10
12.907883
 20
34.453157
 30
0.0
  0
VERTEX
  5
12A8
100
AcDbEntity
  8
ALPHA
100
AcDbVertex
100
AcDb2dVertex
 10
12.866696
 20
34.428112
 30
0.0
  0
VERTEX
  5
12A9
100
AcDbEntity
  8
ALPHA
100
AcDbVertex
100
AcDb2dVertex
 10
12.828234
 20
34.39933
 30
0.0
  0
VERTEX
  5
12AA
100
AcDbEntity
  8
ALPHA
100
AcDbVertex
100
AcDb2dVertex
 10
12.792749
 20
34.367063
 30
0.0
  0
VERTEX
  5
12AB
100
AcDbEntity
  8
ALPHA
100
AcDbVertex
100
AcDb2dVertex
 10
12.760495
 20
34.331562
 30
0.0
  0
VERTEX
  5
12AC
100
AcDbEntity
  8
ALPHA
100
AcDbVertex
100
AcDb2dVertex
 10
12.731723
 20
34.293079
 30
0.0
  0
VERTEX
  5
12AD
100
AcDbEntity
  8
ALPHA
100
AcDbVertex
100
AcDb2dVertex
 10
12.706685
 20
34.251865
 30
0.0
  0
VERTEX
  5
12AE
100
AcDbEntity
  8
ALPHA
100
AcDbVertex
100
AcDb2dVertex
 10
12.685634
 20
34.208174
 30
0.0
  0
VERTEX
  5
12AF
100
AcDbEntity
  8
ALPHA
100
AcDbVertex
100
AcDb2dVertex
 10
12.668822
 20
34.162256
 30
0.0
  0
VERTEX
  5
12B0
100
AcDbEntity
  8
ALPHA
100
AcDbVertex
100
AcDb2dVertex
 10
12.656502
 20
34.114362
 30
0.0
  0
VERTEX
  5
12B1
100
AcDbEntity
  8
ALPHA
100
AcDbVertex
100
AcDb2dVertex
 10
12.648924
 20
34.064746
 30
0.0
  0
VERTEX
  5
12B2
100
AcDbEntity
  8
ALPHA
100
AcDbVertex
100
AcDb2dVertex
 10
12.646342
 20
34.013659
 30
0.0
  0
SEQEND
  5
12B3
100
AcDbEntity
  8
ALPHA
  0
POLYLINE
  5
12B4
100
AcDbEntity
  8
ALPHA
100
AcDb2dPolyline
 66
     1
 10
0.0
 20
0.0
 30
0.0
  0
VERTEX
  5
12B5
100
AcDbEntity
  8
ALPHA
100
AcDbVertex
100
AcDb2dVertex
 10
12.646342
 20
80.508801
 30
0.0
  0
VERTEX
  5
12B6
100
AcDbEntity
  8
ALPHA
100
AcDbVertex
100
AcDb2dVertex
 10
12.626979
 20
80.892241
 30
0.0
  0
VERTEX
  5
12B7
100
AcDbEntity
  8
ALPHA
100
AcDbVertex
100
AcDb2dVertex
 10
12.570146
 20
81.264606
 30
0.0
  0
VERTEX
  5
12B8
100
AcDbEntity
  8
ALPHA
100
AcDbVertex
100
AcDb2dVertex
 10
12.477729
 20
81.624011
 30
0.0
  0
VERTEX
  5
12B9
100
AcDbEntity
  8
ALPHA
100
AcDbVertex
100
AcDb2dVertex
 10
12.351612
 20
81.968571
 30
0.0
  0
VERTEX
  5
12BA
100
AcDbEntity
  8
ALPHA
100
AcDbVertex
100
AcDb2dVertex
 10
12.193683
 20
82.296401
 30
0.0
  0
VERTEX
  5
12BB
100
AcDbEntity
  8
ALPHA
100
AcDbVertex
100
AcDb2dVertex
 10
12.005825
 20
82.605615
 30
0.0
  0
VERTEX
  5
12BC
100
AcDbEntity
  8
ALPHA
100
AcDbVertex
100
AcDb2dVertex
 10
11.789925
 20
82.894327
 30
0.0
  0
VERTEX
  5
12BD
100
AcDbEntity
  8
ALPHA
100
AcDbVertex
100
AcDb2dVertex
 10
11.547867
 20
83.160653
 30
0.0
  0
VERTEX
  5
12BE
100
AcDbEntity
  8
ALPHA
100
AcDbVertex
100
AcDb2dVertex
 10
11.281538
 20
83.402708
 30
0.0
  0
VERTEX
  5
12BF
100
AcDbEntity
  8
ALPHA
100
AcDbVertex
100
AcDb2dVertex
 10
10.992822
 20
83.618605
 30
0.0
  0
VERTEX
  5
12C0
100
AcDbEntity
  8
ALPHA
100
AcDbVertex
100
AcDb2dVertex
 10
10.683605
 20
83.806459
 30
0.0
  0
VERTEX
  5
12C1
100
AcDbEntity
  8
ALPHA
100
AcDbVertex
100
AcDb2dVertex
 10
10.355773
 20
83.964386
 30
0.0
  0
VERTEX
  5
12C2
100
AcDbEntity
  8
ALPHA
100
AcDbVertex
100
AcDb2dVertex
 10
10.011211
 20
84.0905
 30
0.0
  0
VERTEX
  5
12C3
100
AcDbEntity
  8
ALPHA
100
AcDbVertex
100
AcDb2dVertex
 10
9.651804
 20
84.182916
 30
0.0
  0
VERTEX
  5
12C4
100
AcDbEntity
  8
ALPHA
100
AcDbVertex
100
AcDb2dVertex
 10
9.279437
 20
84.239748
 30
0.0
  0
VERTEX
  5
12C5
100
AcDbEntity
  8
ALPHA
100
AcDbVertex
100
AcDb2dVertex
 10
8.895997
 20
84.259111
 30
0.0
  0
VERTEX
  5
12C6
100
AcDbEntity
  8
ALPHA
100
AcDbVertex
100
AcDb2dVertex
 10
8.512565
 20
84.239748
 30
0.0
  0
VERTEX
  5
12C7
100
AcDbEntity
  8
ALPHA
100
AcDbVertex
100
AcDb2dVertex
 10
8.14022
 20
84.182916
 30
0.0
  0
VERTEX
  5
12C8
100
AcDbEntity
  8
ALPHA
100
AcDbVertex
100
AcDb2dVertex
 10
7.780848
 20
84.0905
 30
0.0
  0
VERTEX
  5
12C9
100
AcDbEntity
  8
ALPHA
100
AcDbVertex
100
AcDb2dVertex
 10
7.436331
 20
83.964386
 30
0.0
  0
VERTEX
  5
12CA
100
AcDbEntity
  8
ALPHA
100
AcDbVertex
100
AcDb2dVertex
 10
7.108552
 20
83.806459
 30
0.0
  0
VERTEX
  5
12CB
100
AcDbEntity
  8
ALPHA
100
AcDbVertex
100
AcDb2dVertex
 10
6.799395
 20
83.618605
 30
0.0
  0
VERTEX
  5
12CC
100
AcDbEntity
  8
ALPHA
100
AcDbVertex
100
AcDb2dVertex
 10
6.510743
 20
83.402708
 30
0.0
  0
VERTEX
  5
12CD
100
AcDbEntity
  8
ALPHA
100
AcDbVertex
100
AcDb2dVertex
 10
6.244479
 20
83.160653
 30
0.0
  0
VERTEX
  5
12CE
100
AcDbEntity
  8
ALPHA
100
AcDbVertex
100
AcDb2dVertex
 10
6.002488
 20
82.894327
 30
0.0
  0
VERTEX
  5
12CF
100
AcDbEntity
  8
ALPHA
100
AcDbVertex
100
AcDb2dVertex
 10
5.786651
 20
82.605615
 30
0.0
  0
VERTEX
  5
12D0
100
AcDbEntity
  8
ALPHA
100
AcDbVertex
100
AcDb2dVertex
 10
5.598853
 20
82.296401
 30
0.0
  0
VERTEX
  5
12D1
100
AcDbEntity
  8
ALPHA
100
AcDbVertex
100
AcDb2dVertex
 10
5.440977
 20
81.968571
 30
0.0
  0
VERTEX
  5
12D2
100
AcDbEntity
  8
ALPHA
100
AcDbVertex
100
AcDb2dVertex
 10
5.314906
 20
81.624011
 30
0.0
  0
VERTEX
  5
12D3
100
AcDbEntity
  8
ALPHA
100
AcDbVertex
100
AcDb2dVertex
 10
5.222523
 20
81.264606
 30
0.0
  0
VERTEX
  5
12D4
100
AcDbEntity
  8
ALPHA
100
AcDbVertex
100
AcDb2dVertex
 10
5.165713
 20
80.892241
 30
0.0
  0
VERTEX
  5
12D5
100
AcDbEntity
  8
ALPHA
100
AcDbVertex
100
AcDb2dVertex
 10
5.146357
 20
80.508801
 30
0.0
  0
VERTEX
  5
12D6
100
AcDbEntity
  8
ALPHA
100
AcDbVertex
100
AcDb2dVertex
 10
5.165713
 20
80.125368
 30
0.0
  0
VERTEX
  5
12D7
100
AcDbEntity
  8
ALPHA
100
AcDbVertex
100
AcDb2dVertex
 10
5.222523
 20
79.753024
 30
0.0
  0
VERTEX
  5
12D8
100
AcDbEntity
  8
ALPHA
100
AcDbVertex
100
AcDb2dVertex
 10
5.314906
 20
79.393652
 30
0.0
  0
VERTEX
  5
12D9
100
AcDbEntity
  8
ALPHA
100
AcDbVertex
100
AcDb2dVertex
 10
5.440977
 20
79.049135
 30
0.0
  0
VERTEX
  5
12DA
100
AcDbEntity
  8
ALPHA
100
AcDbVertex
100
AcDb2dVertex
 10
5.598853
 20
78.721356
 30
0.0
  0
VERTEX
  5
12DB
100
AcDbEntity
  8
ALPHA
100
AcDbVertex
100
AcDb2dVertex
 10
5.786651
 20
78.412199
 30
0.0
  0
VERTEX
  5
12DC
100
AcDbEntity
  8
ALPHA
100
AcDbVertex
100
AcDb2dVertex
 10
6.002488
 20
78.123547
 30
0.0
  0
VERTEX
  5
12DD
100
AcDbEntity
  8
ALPHA
100
AcDbVertex
100
AcDb2dVertex
 10
6.244479
 20
77.857283
 30
0.0
  0
VERTEX
  5
12DE
100
AcDbEntity
  8
ALPHA
100
AcDbVertex
100
AcDb2dVertex
 10
6.510743
 20
77.615291
 30
0.0
  0
VERTEX
  5
12DF
100
AcDbEntity
  8
ALPHA
100
AcDbVertex
100
AcDb2dVertex
 10
6.799395
 20
77.399455
 30
0.0
  0
VERTEX
  5
12E0
100
AcDbEntity
  8
ALPHA
100
AcDbVertex
100
AcDb2dVertex
 10
7.108552
 20
77.211657
 30
0.0
  0
VERTEX
  5
12E1
100
AcDbEntity
  8
ALPHA
100
AcDbVertex
100
AcDb2dVertex
 10
7.436331
 20
77.053781
 30
0.0
  0
VERTEX
  5
12E2
100
AcDbEntity
  8
ALPHA
100
AcDbVertex
100
AcDb2dVertex
 10
7.780848
 20
76.92771
 30
0.0
  0
VERTEX
  5
12E3
100
AcDbEntity
  8
ALPHA
100
AcDbVertex
100
AcDb2dVertex
 10
8.14022
 20
76.835327
 30
0.0
  0
VERTEX
  5
12E4
100
AcDbEntity
  8
ALPHA
100
AcDbVertex
100
AcDb2dVertex
 10
8.512565
 20
76.778516
 30
0.0
  0
VERTEX
  5
12E5
100
AcDbEntity
  8
ALPHA
100
AcDbVertex
100
AcDb2dVertex
 10
8.895997
 20
76.759161
 30
0.0
  0
VERTEX
  5
12E6
100
AcDbEntity
  8
ALPHA
100
AcDbVertex
100
AcDb2dVertex
 10
9.279437
 20
76.778516
 30
0.0
  0
VERTEX
  5
12E7
100
AcDbEntity
  8
ALPHA
100
AcDbVertex
100
AcDb2dVertex
 10
9.651804
 20
76.835327
 30
0.0
  0
VERTEX
  5
12E8
100
AcDbEntity
  8
ALPHA
100
AcDbVertex
100
AcDb2dVertex
 10
10.011211
 20
76.92771
 30
0.0
  0
VERTEX
  5
12E9
100
AcDbEntity
  8
ALPHA
100
AcDbVertex
100
AcDb2dVertex
 10
10.355773
 20
77.053781
 30
0.0
  0
VERTEX
  5
12EA
100
AcDbEntity
  8
ALPHA
100
AcDbVertex
100
AcDb2dVertex
 10
10.683605
 20
77.211657
 30
0.0
  0
VERTEX
  5
12EB
100
AcDbEntity
  8
ALPHA
100
AcDbVertex
100
AcDb2dVertex
 10
10.992822
 20
77.399455
 30
0.0
  0
VERTEX
  5
12EC
100
AcDbEntity
  8
ALPHA
100
AcDbVertex
100
AcDb2dVertex
 10
11.281538
 20
77.615291
 30
0.0
  0
VERTEX
  5
12ED
100
AcDbEntity
  8
ALPHA
100
AcDbVertex
100
AcDb2dVertex
 10
11.547867
 20
77.857283
 30
0.0
  0
VERTEX
  5
12EE
100
AcDbEntity
  8
ALPHA
100
AcDbVertex
100
AcDb2dVertex
 10
11.789925
 20
78.123547
 30
0.0
  0
VERTEX
  5
12EF
100
AcDbEntity
  8
ALPHA
100
AcDbVertex
100
AcDb2dVertex
 10
12.005825
 20
78.412199
 30
0.0
  0
VERTEX
  5
12F0
100
AcDbEntity
  8
ALPHA
100
AcDbVertex
100
AcDb2dVertex
 10
12.193683
 20
78.721356
 30
0.0
  0
VERTEX
  5
12F1
100
AcDbEntity
  8
ALPHA
100
AcDbVertex
100
AcDb2dVertex
 10
12.351612
 20
79.049135
 30
0.0
  0
VERTEX
  5
12F2
100
AcDbEntity
  8
ALPHA
100
AcDbVertex
100
AcDb2dVertex
 10
12.477729
 20
79.393652
 30
0.0
  0
VERTEX
  5
12F3
100
AcDbEntity
  8
ALPHA
100
AcDbVertex
100
AcDb2dVertex
 10
12.570146
 20
79.753024
 30
0.0
  0
VERTEX
  5
12F4
100
AcDbEntity
  8
ALPHA
100
AcDbVertex
100
AcDb2dVertex
 10
12.626979
 20
80.125368
 30
0.0
  0
VERTEX
  5
12F5
100
AcDbEntity
  8
ALPHA
100
AcDbVertex
100
AcDb2dVertex
 10
12.646342
 20
80.508801
 30
0.0
  0
SEQEND
  5
12F6
100
AcDbEntity
  8
ALPHA
  0
POLYLINE
  5
12F7
100
AcDbEntity
  8
ALPHA
100
AcDb2dPolyline
 66
     1
 10
0.0
 20
0.0
 30
0.0
  0
VERTEX
  5
12F8
100
AcDbEntity
  8
ALPHA
100
AcDbVertex
100
AcDb2dVertex
 10
8.189066
 20
80.508801
 30
0.0
  0
VERTEX
  5
12F9
100
AcDbEntity
  8
ALPHA
100
AcDbVertex
100
AcDb2dVertex
 10
6.630493
 20
82.067338
 30
0.0
  0
SEQEND
  5
12FA
100
AcDbEntity
  8
ALPHA
  0
POLYLINE
  5
12FB
100
AcDbEntity
  8
ALPHA
100
AcDb2dPolyline
 66
     1
 10
0.0
 20
0.0
 30
0.0
  0
VERTEX
  5
12FC
100
AcDbEntity
  8
ALPHA
100
AcDbVertex
100
AcDb2dVertex
 10
9.603634
 20
80.508801
 30
0.0
  0
VERTEX
  5
12FD
100
AcDbEntity
  8
ALPHA
100
AcDbVertex
100
AcDb2dVertex
 10
11.901487
 20
82.807007
 30
0.0
  0
SEQEND
  5
12FE
100
AcDbEntity
  8
ALPHA
  0
POLYLINE
  5
12FF
100
AcDbEntity
  8
ALPHA
100
AcDb2dPolyline
 66
     1
 10
0.0
 20
0.0
 30
0.0
  0
VERTEX
  5
1300
100
AcDbEntity
  8
ALPHA
100
AcDbVertex
100
AcDb2dVertex
 10
11.645864
 20
58.008881
 30
0.0
  0
VERTEX
  5
1301
100
AcDbEntity
  8
ALPHA
100
AcDbVertex
100
AcDb2dVertex
 10
11.625214
 20
58.41783
 30
0.0
  0
VERTEX
  5
1302
100
AcDbEntity
  8
ALPHA
100
AcDbVertex
100
AcDb2dVertex
 10
11.564604
 20
58.814967
 30
0.0
  0
VERTEX
  5
1303
100
AcDbEntity
  8
ALPHA
100
AcDbVertex
100
AcDb2dVertex
 10
11.466045
 20
59.198281
 30
0.0
  0
VERTEX
  5
1304
100
AcDbEntity
  8
ALPHA
100
AcDbVertex
100
AcDb2dVertex
 10
11.331546
 20
59.56576
 30
0.0
  0
VERTEX
  5
1305
100
AcDbEntity
  8
ALPHA
100
AcDbVertex
100
AcDb2dVertex
 10
11.163119
 20
59.915396
 30
0.0
  0
VERTEX
  5
1306
100
AcDbEntity
  8
ALPHA
100
AcDbVertex
100
AcDb2dVertex
 10
10.962773
 20
60.245177
 30
0.0
  0
VERTEX
  5
1307
100
AcDbEntity
  8
ALPHA
100
AcDbVertex
100
AcDb2dVertex
 10
10.73252
 20
60.553092
 30
0.0
  0
VERTEX
  5
1308
100
AcDbEntity
  8
ALPHA
100
AcDbVertex
100
AcDb2dVertex
 10
10.474369
 20
60.837131
 30
0.0
  0
VERTEX
  5
1309
100
AcDbEntity
  8
ALPHA
100
AcDbVertex
100
AcDb2dVertex
 10
10.190331
 20
61.095284
 30
0.0
  0
VERTEX
  5
130A
100
AcDbEntity
  8
ALPHA
100
AcDbVertex
100
AcDb2dVertex
 10
9.882417
 20
61.325539
 30
0.0
  0
VERTEX
  5
130B
100
AcDbEntity
  8
ALPHA
100
AcDbVertex
100
AcDb2dVertex
 10
9.552636
 20
61.525887
 30
0.0
  0
VERTEX
  5
130C
100
AcDbEntity
  8
ALPHA
100
AcDbVertex
100
AcDb2dVertex
 10
9.203
 20
61.694317
 30
0.0
  0
VERTEX
  5
130D
100
AcDbEntity
  8
ALPHA
100
AcDbVertex
100
AcDb2dVertex
 10
8.835518
 20
61.828817
 30
0.0
  0
VERTEX
  5
130E
100
AcDbEntity
  8
ALPHA
100
AcDbVertex
100
AcDb2dVertex
 10
8.452201
 20
61.927379
 30
0.0
  0
VERTEX
  5
130F
100
AcDbEntity
  8
ALPHA
100
AcDbVertex
100
AcDb2dVertex
 10
8.05506
 20
61.98799
 30
0.0
  0
VERTEX
  5
1310
100
AcDbEntity
  8
ALPHA
100
AcDbVertex
100
AcDb2dVertex
 10
7.646105
 20
62.00864
 30
0.0
  0
VERTEX
  5
1311
100
AcDbEntity
  8
ALPHA
100
AcDbVertex
100
AcDb2dVertex
 10
7.237156
 20
61.98799
 30
0.0
  0
VERTEX
  5
1312
100
AcDbEntity
  8
ALPHA
100
AcDbVertex
100
AcDb2dVertex
 10
6.840019
 20
61.927379
 30
0.0
  0
VERTEX
  5
1313
100
AcDbEntity
  8
ALPHA
100
AcDbVertex
100
AcDb2dVertex
 10
6.456706
 20
61.828817
 30
0.0
  0
VERTEX
  5
1314
100
AcDbEntity
  8
ALPHA
100
AcDbVertex
100
AcDb2dVertex
 10
6.089226
 20
61.694317
 30
0.0
  0
VERTEX
  5
1315
100
AcDbEntity
  8
ALPHA
100
AcDbVertex
100
AcDb2dVertex
 10
5.73959
 20
61.525887
 30
0.0
  0
VERTEX
  5
1316
100
AcDbEntity
  8
ALPHA
100
AcDbVertex
100
AcDb2dVertex
 10
5.40981
 20
61.325539
 30
0.0
  0
VERTEX
  5
1317
100
AcDbEntity
  8
ALPHA
100
AcDbVertex
100
AcDb2dVertex
 10
5.101894
 20
61.095284
 30
0.0
  0
VERTEX
  5
1318
100
AcDbEntity
  8
ALPHA
100
AcDbVertex
100
AcDb2dVertex
 10
4.817855
 20
60.837131
 30
0.0
  0
VERTEX
  5
1319
100
AcDbEntity
  8
ALPHA
100
AcDbVertex
100
AcDb2dVertex
 10
4.559702
 20
60.553092
 30
0.0
  0
VERTEX
  5
131A
100
AcDbEntity
  8
ALPHA
100
AcDbVertex
100
AcDb2dVertex
 10
4.329447
 20
60.245177
 30
0.0
  0
VERTEX
  5
131B
100
AcDbEntity
  8
ALPHA
100
AcDbVertex
100
AcDb2dVertex
 10
4.129099
 20
59.915396
 30
0.0
  0
VERTEX
  5
131C
100
AcDbEntity
  8
ALPHA
100
AcDbVertex
100
AcDb2dVertex
 10
3.960669
 20
59.56576
 30
0.0
  0
VERTEX
  5
131D
100
AcDbEntity
  8
ALPHA
100
AcDbVertex
100
AcDb2dVertex
 10
3.826169
 20
59.198281
 30
0.0
  0
VERTEX
  5
131E
100
AcDbEntity
  8
ALPHA
100
AcDbVertex
100
AcDb2dVertex
 10
3.727608
 20
58.814967
 30
0.0
  0
VERTEX
  5
131F
100
AcDbEntity
  8
ALPHA
100
AcDbVertex
100
AcDb2dVertex
 10
3.666997
 20
58.41783
 30
0.0
  0
VERTEX
  5
1320
100
AcDbEntity
  8
ALPHA
100
AcDbVertex
100
AcDb2dVertex
 10
3.646346
 20
58.008881
 30
0.0
  0
VERTEX
  5
1321
100
AcDbEntity
  8
ALPHA
100
AcDbVertex
100
AcDb2dVertex
 10
3.666997
 20
57.599926
 30
0.0
  0
VERTEX
  5
1322
100
AcDbEntity
  8
ALPHA
100
AcDbVertex
100
AcDb2dVertex
 10
3.727608
 20
57.202785
 30
0.0
  0
VERTEX
  5
1323
100
AcDbEntity
  8
ALPHA
100
AcDbVertex
100
AcDb2dVertex
 10
3.826169
 20
56.819468
 30
0.0
  0
VERTEX
  5
1324
100
AcDbEntity
  8
ALPHA
100
AcDbVertex
100
AcDb2dVertex
 10
3.960669
 20
56.451987
 30
0.0
  0
VERTEX
  5
1325
100
AcDbEntity
  8
ALPHA
100
AcDbVertex
100
AcDb2dVertex
 10
4.129099
 20
56.10235
 30
0.0
  0
VERTEX
  5
1326
100
AcDbEntity
  8
ALPHA
100
AcDbVertex
100
AcDb2dVertex
 10
4.329447
 20
55.77257
 30
0.0
  0
VERTEX
  5
1327
100
AcDbEntity
  8
ALPHA
100
AcDbVertex
100
AcDb2dVertex
 10
4.559702
 20
55.464655
 30
0.0
  0
VERTEX
  5
1328
100
AcDbEntity
  8
ALPHA
100
AcDbVertex
100
AcDb2dVertex
 10
4.817855
 20
55.180617
 30
0.0
  0
VERTEX
  5
1329
100
AcDbEntity
  8
ALPHA
100
AcDbVertex
100
AcDb2dVertex
 10
5.101894
 20
54.922467
 30
0.0
  0
VERTEX
  5
132A
100
AcDbEntity
  8
ALPHA
100
AcDbVertex
100
AcDb2dVertex
 10
5.40981
 20
54.692213
 30
0.0
  0
VERTEX
  5
132B
100
AcDbEntity
  8
ALPHA
100
AcDbVertex
100
AcDb2dVertex
 10
5.73959
 20
54.491868
 30
0.0
  0
VERTEX
  5
132C
100
AcDbEntity
  8
ALPHA
100
AcDbVertex
100
AcDb2dVertex
 10
6.089226
 20
54.32344
 30
0.0
  0
VERTEX
  5
132D
100
AcDbEntity
  8
ALPHA
100
AcDbVertex
100
AcDb2dVertex
 10
6.456706
 20
54.188942
 30
0.0
  0
VERTEX
  5
132E
100
AcDbEntity
  8
ALPHA
100
AcDbVertex
100
AcDb2dVertex
 10
6.840019
 20
54.090382
 30
0.0
  0
VERTEX
  5
132F
100
AcDbEntity
  8
ALPHA
100
AcDbVertex
100
AcDb2dVertex
 10
7.237156
 20
54.029772
 30
0.0
  0
VERTEX
  5
1330
100
AcDbEntity
  8
ALPHA
100
AcDbVertex
100
AcDb2dVertex
 10
7.646105
 20
54.009122
 30
0.0
  0
VERTEX
  5
1331
100
AcDbEntity
  8
ALPHA
100
AcDbVertex
100
AcDb2dVertex
 10
8.05506
 20
54.029772
 30
0.0
  0
VERTEX
  5
1332
100
AcDbEntity
  8
ALPHA
100
AcDbVertex
100
AcDb2dVertex
 10
8.452201
 20
54.090382
 30
0.0
  0
VERTEX
  5
1333
100
AcDbEntity
  8
ALPHA
100
AcDbVertex
100
AcDb2dVertex
 10
8.835518
 20
54.188942
 30
0.0
  0
VERTEX
  5
1334
100
AcDbEntity
  8
ALPHA
100
AcDbVertex
100
AcDb2dVertex
 10
9.203
 20
54.32344
 30
0.0
  0
VERTEX
  5
1335
100
AcDbEntity
  8
ALPHA
100
AcDbVertex
100
AcDb2dVertex
 10
9.552636
 20
54.491868
 30
0.0
  0
VERTEX
  5
1336
100
AcDbEntity
  8
ALPHA
100
AcDbVertex
100
AcDb2dVertex
 10
9.882417
 20
54.692213
 30
0.0
  0
VERTEX
  5
1337
100
AcDbEntity
  8
ALPHA
100
AcDbVertex
100
AcDb2dVertex
 10
10.190331
 20
54.922467
 30
0.0
  0
VERTEX
  5
1338
100
AcDbEntity
  8
ALPHA
100
AcDbVertex
100
AcDb2dVertex
 10
10.474369
 20
55.180617
 30
0.0
  0
VERTEX
  5
1339
100
AcDbEntity
  8
ALPHA
100
AcDbVertex
100
AcDb2dVertex
 10
10.73252
 20
55.464655
 30
0.0
  0
VERTEX
  5
133A
100
AcDbEntity
  8
ALPHA
100
AcDbVertex
100
AcDb2dVertex
 10
10.962773
 20
55.77257
 30
0.0
  0
VERTEX
  5
133B
100
AcDbEntity
  8
ALPHA
100
AcDbVertex
100
AcDb2dVertex
 10
11.163119
 20
56.10235
 30
0.0
  0
VERTEX
  5
133C
100
AcDbEntity
  8
ALPHA
100
AcDbVertex
100
AcDb2dVertex
 10
11.331546
 20
56.451987
 30
0.0
  0
VERTEX
  5
133D
100
AcDbEntity
  8
ALPHA
100
AcDbVertex
100
AcDb2dVertex
 10
11.466045
 20
56.819468
 30
0.0
  0
VERTEX
  5
133E
100
AcDbEntity
  8
ALPHA
100
AcDbVertex
100
AcDb2dVertex
 10
11.564604
 20
57.202785
 30
0.0
  0
VERTEX
  5
133F
100
AcDbEntity
  8
ALPHA
100
AcDbVertex
100
AcDb2dVertex
 10
11.625214
 20
57.599926
 30
0.0
  0
VERTEX
  5
1340
100
AcDbEntity
  8
ALPHA
100
AcDbVertex
100
AcDb2dVertex
 10
11.645864
 20
58.008881
 30
0.0
  0
SEQEND
  5
1341
100
AcDbEntity
  8
ALPHA
  0
POLYLINE
  5
1342
100
AcDbEntity
  8
ALPHA
100
AcDb2dPolyline
 66
     1
 10
0.0
 20
0.0
 30
0.0
  0
VERTEX
  5
1343
100
AcDbEntity
  8
ALPHA
100
AcDbVertex
100
AcDb2dVertex
 10
14.135982
 20
43.50915
 30
0.0
  0
VERTEX
  5
1344
100
AcDbEntity
  8
ALPHA
100
AcDbVertex
100
AcDb2dVertex
 10
14.135982
 20
66.00907
 30
0.0
  0
SEQEND
  5
1345
100
AcDbEntity
  8
ALPHA
  0
POLYLINE
  5
1346
100
AcDbEntity
  8
ALPHA
100
AcDb2dPolyline
 66
     1
 10
0.0
 20
0.0
 30
0.0
  0
VERTEX
  5
1347
100
AcDbEntity
  8
ALPHA
100
AcDbVertex
100
AcDb2dVertex
 10
7.896225
 20
57.758762
 30
0.0
  0
VERTEX
  5
1348
100
AcDbEntity
  8
ALPHA
100
AcDbVertex
100
AcDb2dVertex
 10
9.646355
 20
57.758762
 30
0.0
  0
SEQEND
  5
1349
100
AcDbEntity
  8
ALPHA
  0
POLYLINE
  5
134A
100
AcDbEntity
  8
ALPHA
100
AcDb2dPolyline
 66
     1
 10
0.0
 20
0.0
 30
0.0
  0
VERTEX
  5
134B
100
AcDbEntity
  8
ALPHA
100
AcDbVertex
100
AcDb2dVertex
 10
7.896225
 20
58.258965
 30
0.0
  0
VERTEX
  5
134C
100
AcDbEntity
  8
ALPHA
100
AcDbVertex
100
AcDb2dVertex
 10
9.646355
 20
58.258965
 30
0.0
  0
SEQEND
  5
134D
100
AcDbEntity
  8
ALPHA
  0
POLYLINE
  5
134E
100
AcDbEntity
  8
ALPHA
100
AcDb2dPolyline
 66
     1
 10
0.0
 20
0.0
 30
0.0
  0
VERTEX
  5
134F
100
AcDbEntity
  8
ALPHA
100
AcDbVertex
100
AcDb2dVertex
 10
7.646105
 20
54.009122
 30
0.0
  0
VERTEX
  5
1350
100
AcDbEntity
  8
ALPHA
100
AcDbVertex
100
AcDb2dVertex
 10
8.146344
 20
55.008894
 30
0.0
  0
SEQEND
  5
1351
100
AcDbEntity
  8
ALPHA
  0
POLYLINE
  5
1352
100
AcDbEntity
  8
ALPHA
100
AcDb2dPolyline
 66
     1
 10
0.0
 20
0.0
 30
0.0
  0
VERTEX
  5
1353
100
AcDbEntity
  8
ALPHA
100
AcDbVertex
100
AcDb2dVertex
 10
7.646105
 20
54.009122
 30
0.0
  0
VERTEX
  5
1354
100
AcDbEntity
  8
ALPHA
100
AcDbVertex
100
AcDb2dVertex
 10
7.145902
 20
55.008894
 30
0.0
  0
SEQEND
  5
1355
100
AcDbEntity
  8
ALPHA
  0
POLYLINE
  5
1356
100
AcDbEntity
  8
ALPHA
100
AcDb2dPolyline
 66
     1
 10
0.0
 20
0.0
 30
0.0
  0
VERTEX
  5
1357
100
AcDbEntity
  8
ALPHA
100
AcDbVertex
100
AcDb2dVertex
 10
7.145902
 20
55.008894
 30
0.0
  0
VERTEX
  5
1358
100
AcDbEntity
  8
ALPHA
100
AcDbVertex
100
AcDb2dVertex
 10
8.146344
 20
55.008894
 30
0.0
  0
SEQEND
  5
1359
100
AcDbEntity
  8
ALPHA
  0
POLYLINE
  5
135A
100
AcDbEntity
  8
ALPHA
100
AcDb2dPolyline
 66
     1
 10
0.0
 20
0.0
 30
0.0
  0
VERTEX
  5
135B
100
AcDbEntity
  8
ALPHA
100
AcDbVertex
100
AcDb2dVertex
 10
5.645891
 20
57.758762
 30
0.0
  0
VERTEX
  5
135C
100
AcDbEntity
  8
ALPHA
100
AcDbVertex
100
AcDb2dVertex
 10
7.396021
 20
57.758762
 30
0.0
  0
SEQEND
  5
135D
100
AcDbEntity
  8
ALPHA
  0
POLYLINE
  5
135E
100
AcDbEntity
  8
ALPHA
100
AcDb2dPolyline
 66
     1
 10
0.0
 20
0.0
 30
0.0
  0
VERTEX
  5
135F
100
AcDbEntity
  8
ALPHA
100
AcDbVertex
100
AcDb2dVertex
 10
5.645891
 20
58.258965
 30
0.0
  0
VERTEX
  5
1360
100
AcDbEntity
  8
ALPHA
100
AcDbVertex
100
AcDb2dVertex
 10
7.396021
 20
58.258965
 30
0.0
  0
SEQEND
  5
1361
100
AcDbEntity
  8
ALPHA
  0
POLYLINE
  5
1362
100
AcDbEntity
  8
ALPHA
100
AcDb2dPolyline
 66
     1
 10
0.0
 20
0.0
 30
0.0
  0
VERTEX
  5
1363
100
AcDbEntity
  8
ALPHA
100
AcDbVertex
100
AcDb2dVertex
 10
5.645891
 20
57.758762
 30
0.0
  0
VERTEX
  5
1364
100
AcDbEntity
  8
ALPHA
100
AcDbVertex
100
AcDb2dVertex
 10
5.645891
 20
58.258965
 30
0.0
  0
SEQEND
  5
1365
100
AcDbEntity
  8
ALPHA
  0
POLYLINE
  5
1366
100
AcDbEntity
  8
ALPHA
100
AcDb2dPolyline
 66
     1
 10
0.0
 20
0.0
 30
0.0
  0
VERTEX
  5
1367
100
AcDbEntity
  8
ALPHA
100
AcDbVertex
100
AcDb2dVertex
 10
7.396021
 20
56.50887
 30
0.0
  0
VERTEX
  5
1368
100
AcDbEntity
  8
ALPHA
100
AcDbVertex
100
AcDb2dVertex
 10
7.396021
 20
57.758762
 30
0.0
  0
SEQEND
  5
1369
100
AcDbEntity
  8
ALPHA
  0
POLYLINE
  5
136A
100
AcDbEntity
  8
ALPHA
100
AcDb2dPolyline
 66
     1
 10
0.0
 20
0.0
 30
0.0
  0
VERTEX
  5
136B
100
AcDbEntity
  8
ALPHA
100
AcDbVertex
100
AcDb2dVertex
 10
7.396021
 20
58.258965
 30
0.0
  0
VERTEX
  5
136C
100
AcDbEntity
  8
ALPHA
100
AcDbVertex
100
AcDb2dVertex
 10
7.396021
 20
59.508857
 30
0.0
  0
SEQEND
  5
136D
100
AcDbEntity
  8
ALPHA
  0
POLYLINE
  5
136E
100
AcDbEntity
  8
ALPHA
100
AcDb2dPolyline
 66
     1
 10
0.0
 20
0.0
 30
0.0
  0
VERTEX
  5
136F
100
AcDbEntity
  8
ALPHA
100
AcDbVertex
100
AcDb2dVertex
 10
7.896225
 20
56.50887
 30
0.0
  0
VERTEX
  5
1370
100
AcDbEntity
  8
ALPHA
100
AcDbVertex
100
AcDb2dVertex
 10
7.896225
 20
57.758762
 30
0.0
  0
SEQEND
  5
1371
100
AcDbEntity
  8
ALPHA
  0
POLYLINE
  5
1372
100
AcDbEntity
  8
ALPHA
100
AcDb2dPolyline
 66
     1
 10
0.0
 20
0.0
 30
0.0
  0
VERTEX
  5
1373
100
AcDbEntity
  8
ALPHA
100
AcDbVertex
100
AcDb2dVertex
 10
7.896225
 20
58.258965
 30
0.0
  0
VERTEX
  5
1374
100
AcDbEntity
  8
ALPHA
100
AcDbVertex
100
AcDb2dVertex
 10
7.896225
 20
59.508857
 30
0.0
  0
SEQEND
  5
1375
100
AcDbEntity
  8
ALPHA
  0
POLYLINE
  5
1376
100
AcDbEntity
  8
ALPHA
100
AcDb2dPolyline
 66
     1
 10
0.0
 20
0.0
 30
0.0
  0
VERTEX
  5
1377
100
AcDbEntity
  8
ALPHA
100
AcDbVertex
100
AcDb2dVertex
 10
7.396021
 20
56.50887
 30
0.0
  0
VERTEX
  5
1378
100
AcDbEntity
  8
ALPHA
100
AcDbVertex
100
AcDb2dVertex
 10
7.896225
 20
56.50887
 30
0.0
  0
SEQEND
  5
1379
100
AcDbEntity
  8
ALPHA
  0
POLYLINE
  5
137A
100
AcDbEntity
  8
ALPHA
100
AcDb2dPolyline
 66
     1
 10
0.0
 20
0.0
 30
0.0
  0
VERTEX
  5
137B
100
AcDbEntity
  8
ALPHA
100
AcDbVertex
100
AcDb2dVertex
 10
7.396021
 20
59.508857
 30
0.0
  0
VERTEX
  5
137C
100
AcDbEntity
  8
ALPHA
100
AcDbVertex
100
AcDb2dVertex
 10
7.896225
 20
59.508857
 30
0.0
  0
SEQEND
  5
137D
100
AcDbEntity
  8
ALPHA
  0
POLYLINE
  5
137E
100
AcDbEntity
  8
ALPHA
100
AcDb2dPolyline
 66
     1
 10
0.0
 20
0.0
 30
0.0
  0
VERTEX
  5
137F
100
AcDbEntity
  8
ALPHA
100
AcDbVertex
100
AcDb2dVertex
 10
9.646355
 20
57.758762
 30
0.0
  0
VERTEX
  5
1380
100
AcDbEntity
  8
ALPHA
100
AcDbVertex
100
AcDb2dVertex
 10
9.646355
 20
58.258965
 30
0.0
  0
SEQEND
  5
1381
100
AcDbEntity
  8
ALPHA
  0
POLYLINE
  5
1382
100
AcDbEntity
  8
ALPHA
100
AcDb2dPolyline
 66
     1
 10
0.0
 20
0.0
 30
0.0
  0
VERTEX
  5
1383
100
AcDbEntity
  8
ALPHA
100
AcDbVertex
100
AcDb2dVertex
 10
6.598108
 20
77.503628
 30
0.0
  0
VERTEX
  5
1384
100
AcDbEntity
  8
ALPHA
100
AcDbVertex
100
AcDb2dVertex
 10
8.895997
 20
79.801869
 30
0.0
  0
SEQEND
  5
1385
100
AcDbEntity
  8
ALPHA
  0
POLYLINE
  5
1386
100
AcDbEntity
  8
ALPHA
100
AcDb2dPolyline
 66
     1
 10
0.0
 20
0.0
 30
0.0
  0
VERTEX
  5
1387
100
AcDbEntity
  8
ALPHA
100
AcDbVertex
100
AcDb2dVertex
 10
5.891177
 20
78.210912
 30
0.0
  0
VERTEX
  5
1388
100
AcDbEntity
  8
ALPHA
100
AcDbVertex
100
AcDb2dVertex
 10
8.189066
 20
80.508801
 30
0.0
  0
SEQEND
  5
1389
100
AcDbEntity
  8
ALPHA
  0
POLYLINE
  5
138A
100
AcDbEntity
  8
ALPHA
100
AcDb2dPolyline
 66
     1
 10
0.0
 20
0.0
 30
0.0
  0
VERTEX
  5
138B
100
AcDbEntity
  8
ALPHA
100
AcDbVertex
100
AcDb2dVertex
 10
10.454569
 20
78.243297
 30
0.0
  0
VERTEX
  5
138C
100
AcDbEntity
  8
ALPHA
100
AcDbVertex
100
AcDb2dVertex
 10
8.895997
 20
79.801869
 30
0.0
  0
SEQEND
  5
138D
100
AcDbEntity
  8
ALPHA
  0
POLYLINE
  5
138E
100
AcDbEntity
  8
ALPHA
100
AcDb2dPolyline
 66
     1
 10
0.0
 20
0.0
 30
0.0
  0
VERTEX
  5
138F
100
AcDbEntity
  8
ALPHA
100
AcDbVertex
100
AcDb2dVertex
 10
11.162171
 20
78.950228
 30
0.0
  0
VERTEX
  5
1390
100
AcDbEntity
  8
ALPHA
100
AcDbVertex
100
AcDb2dVertex
 10
9.603634
 20
80.508801
 30
0.0
  0
SEQEND
  5
1391
100
AcDbEntity
  8
ALPHA
  0
POLYLINE
  5
1392
100
AcDbEntity
  8
ALPHA
100
AcDb2dPolyline
 66
     1
 10
0.0
 20
0.0
 30
0.0
  0
VERTEX
  5
1393
100
AcDbEntity
  8
ALPHA
100
AcDbVertex
100
AcDb2dVertex
 10
10.454569
 20
78.243297
 30
0.0
  0
VERTEX
  5
1394
100
AcDbEntity
  8
ALPHA
100
AcDbVertex
100
AcDb2dVertex
 10
10.655138
 20
78.39502
 30
0.0
  0
VERTEX
  5
1395
100
AcDbEntity
  8
ALPHA
100
AcDbVertex
100
AcDb2dVertex
 10
10.840662
 20
78.564193
 30
0.0
  0
VERTEX
  5
1396
100
AcDbEntity
  8
ALPHA
100
AcDbVertex
100
AcDb2dVertex
 10
11.01004
 20
78.74965
 30
0.0
  0
VERTEX
  5
1397
100
AcDbEntity
  8
ALPHA
100
AcDbVertex
100
AcDb2dVertex
 10
11.162171
 20
78.950228
 30
0.0
  0
SEQEND
  5
1398
100
AcDbEntity
  8
ALPHA
  0
POLYLINE
  5
1399
100
AcDbEntity
  8
ALPHA
100
AcDb2dPolyline
 66
     1
 10
0.0
 20
0.0
 30
0.0
  0
VERTEX
  5
139A
100
AcDbEntity
  8
ALPHA
100
AcDbVertex
100
AcDb2dVertex
 10
8.895997
 20
81.21605
 30
0.0
  0
VERTEX
  5
139B
100
AcDbEntity
  8
ALPHA
100
AcDbVertex
100
AcDb2dVertex
 10
7.337425
 20
82.774622
 30
0.0
  0
SEQEND
  5
139C
100
AcDbEntity
  8
ALPHA
  0
POLYLINE
  5
139D
100
AcDbEntity
  8
ALPHA
100
AcDb2dPolyline
 66
     1
 10
0.0
 20
0.0
 30
0.0
  0
VERTEX
  5
139E
100
AcDbEntity
  8
ALPHA
100
AcDbVertex
100
AcDb2dVertex
 10
7.337425
 20
82.774622
 30
0.0
  0
VERTEX
  5
139F
100
AcDbEntity
  8
ALPHA
100
AcDbVertex
100
AcDb2dVertex
 10
7.136866
 20
82.622695
 30
0.0
  0
VERTEX
  5
13A0
100
AcDbEntity
  8
ALPHA
100
AcDbVertex
100
AcDb2dVertex
 10
6.951415
 20
82.453418
 30
0.0
  0
VERTEX
  5
13A1
100
AcDbEntity
  8
ALPHA
100
AcDbVertex
100
AcDb2dVertex
 10
6.782236
 20
82.267922
 30
0.0
  0
VERTEX
  5
13A2
100
AcDbEntity
  8
ALPHA
100
AcDbVertex
100
AcDb2dVertex
 10
6.630493
 20
82.067338
 30
0.0
  0
SEQEND
  5
13A3
100
AcDbEntity
  8
ALPHA
  0
POLYLINE
  5
13A4
100
AcDbEntity
  8
ALPHA
100
AcDb2dPolyline
 66
     1
 10
0.0
 20
0.0
 30
0.0
  0
VERTEX
  5
13A5
100
AcDbEntity
  8
ALPHA
100
AcDbVertex
100
AcDb2dVertex
 10
8.895997
 20
81.21605
 30
0.0
  0
VERTEX
  5
13A6
100
AcDbEntity
  8
ALPHA
100
AcDbVertex
100
AcDb2dVertex
 10
11.194556
 20
83.514291
 30
0.0
  0
SEQEND
  5
13A7
100
AcDbEntity
  8
ALPHA
  0
POLYLINE
  5
13A8
100
AcDbEntity
  8
ALPHA
100
AcDb2dPolyline
 66
     1
 10
0.0
 20
0.0
 30
0.0
  0
VERTEX
  5
13A9
100
AcDbEntity
  8
ALPHA
100
AcDbVertex
100
AcDb2dVertex
 10
44.631292
 20
1.133801
 30
0.0
  0
VERTEX
  5
13AA
100
AcDbEntity
  8
ALPHA
100
AcDbVertex
100
AcDb2dVertex
 10
44.631292
 20
87.884043
 30
0.0
  0
SEQEND
  5
13AB
100
AcDbEntity
  8
ALPHA
  0
POLYLINE
  5
13AC
100
AcDbEntity
  8
ALPHA
100
AcDb2dPolyline
 66
     1
 10
0.0
 20
0.0
 30
0.0
  0
VERTEX
  5
13AD
100
AcDbEntity
  8
ALPHA
100
AcDbVertex
100
AcDb2dVertex
 10
26.121466
 20
24.013573
 30
0.0
  0
VERTEX
  5
13AE
100
AcDbEntity
  8
ALPHA
100
AcDbVertex
100
AcDb2dVertex
 10
43.621184
 20
24.013573
 30
0.0
  0
SEQEND
  5
13AF
100
AcDbEntity
  8
ALPHA
  0
POLYLINE
  5
13B0
100
AcDbEntity
  8
ALPHA
100
AcDb2dPolyline
 66
     1
 10
0.0
 20
0.0
 30
0.0
  0
VERTEX
  5
13B1
100
AcDbEntity
  8
ALPHA
100
AcDbVertex
100
AcDb2dVertex
 10
26.121466
 20
32.013762
 30
0.0
  0
VERTEX
  5
13B2
100
AcDbEntity
  8
ALPHA
100
AcDbVertex
100
AcDb2dVertex
 10
43.621184
 20
32.013762
 30
0.0
  0
SEQEND
  5
13B3
100
AcDbEntity
  8
ALPHA
  0
POLYLINE
  5
13B4
100
AcDbEntity
  8
ALPHA
100
AcDb2dPolyline
 66
     1
 10
0.0
 20
0.0
 30
0.0
  0
VERTEX
  5
13B5
100
AcDbEntity
  8
ALPHA
100
AcDbVertex
100
AcDb2dVertex
 10
39.621424
 20
8.509043
 30
0.0
  0
VERTEX
  5
13B6
100
AcDbEntity
  8
ALPHA
100
AcDbVertex
100
AcDb2dVertex
 10
39.602061
 20
8.892418
 30
0.0
  0
VERTEX
  5
13B7
100
AcDbEntity
  8
ALPHA
100
AcDbVertex
100
AcDb2dVertex
 10
39.545228
 20
9.264719
 30
0.0
  0
VERTEX
  5
13B8
100
AcDbEntity
  8
ALPHA
100
AcDbVertex
100
AcDb2dVertex
 10
39.452811
 20
9.624061
 30
0.0
  0
VERTEX
  5
13B9
100
AcDbEntity
  8
ALPHA
100
AcDbVertex
100
AcDb2dVertex
 10
39.326695
 20
9.968561
 30
0.0
  0
VERTEX
  5
13BA
100
AcDbEntity
  8
ALPHA
100
AcDbVertex
100
AcDb2dVertex
 10
39.168766
 20
10.296332
 30
0.0
  0
VERTEX
  5
13BB
100
AcDbEntity
  8
ALPHA
100
AcDbVertex
100
AcDb2dVertex
 10
38.980909
 20
10.60549
 30
0.0
  0
VERTEX
  5
13BC
100
AcDbEntity
  8
ALPHA
100
AcDbVertex
100
AcDb2dVertex
 10
38.76501
 20
10.894151
 30
0.0
  0
VERTEX
  5
13BD
100
AcDbEntity
  8
ALPHA
100
AcDbVertex
100
AcDb2dVertex
 10
38.522954
 20
11.160429
 30
0.0
  0
VERTEX
  5
13BE
100
AcDbEntity
  8
ALPHA
100
AcDbVertex
100
AcDb2dVertex
 10
38.256626
 20
11.402439
 30
0.0
  0
VERTEX
  5
13BF
100
AcDbEntity
  8
ALPHA
100
AcDbVertex
100
AcDb2dVertex
 10
37.967913
 20
11.618296
 30
0.0
  0
VERTEX
  5
13C0
100
AcDbEntity
  8
ALPHA
100
AcDbVertex
100
AcDb2dVertex
 10
37.658699
 20
11.806116
 30
0.0
  0
VERTEX
  5
13C1
100
AcDbEntity
  8
ALPHA
100
AcDbVertex
100
AcDb2dVertex
 10
37.33087
 20
11.964014
 30
0.0
  0
VERTEX
  5
13C2
100
AcDbEntity
  8
ALPHA
100
AcDbVertex
100
AcDb2dVertex
 10
36.986312
 20
12.090104
 30
0.0
  0
VERTEX
  5
13C3
100
AcDbEntity
  8
ALPHA
100
AcDbVertex
100
AcDb2dVertex
 10
36.62691
 20
12.182503
 30
0.0
  0
VERTEX
  5
13C4
100
AcDbEntity
  8
ALPHA
100
AcDbVertex
100
AcDb2dVertex
 10
36.254549
 20
12.239324
 30
0.0
  0
VERTEX
  5
13C5
100
AcDbEntity
  8
ALPHA
100
AcDbVertex
100
AcDb2dVertex
 10
35.871114
 20
12.258683
 30
0.0
  0
VERTEX
  5
13C6
100
AcDbEntity
  8
ALPHA
100
AcDbVertex
100
AcDb2dVertex
 10
35.487682
 20
12.239324
 30
0.0
  0
VERTEX
  5
13C7
100
AcDbEntity
  8
ALPHA
100
AcDbVertex
100
AcDb2dVertex
 10
35.115336
 20
12.182503
 30
0.0
  0
VERTEX
  5
13C8
100
AcDbEntity
  8
ALPHA
100
AcDbVertex
100
AcDb2dVertex
 10
34.755962
 20
12.090104
 30
0.0
  0
VERTEX
  5
13C9
100
AcDbEntity
  8
ALPHA
100
AcDbVertex
100
AcDb2dVertex
 10
34.411443
 20
11.964014
 30
0.0
  0
VERTEX
  5
13CA
100
AcDbEntity
  8
ALPHA
100
AcDbVertex
100
AcDb2dVertex
 10
34.083661
 20
11.806116
 30
0.0
  0
VERTEX
  5
13CB
100
AcDbEntity
  8
ALPHA
100
AcDbVertex
100
AcDb2dVertex
 10
33.774501
 20
11.618296
 30
0.0
  0
VERTEX
  5
13CC
100
AcDbEntity
  8
ALPHA
100
AcDbVertex
100
AcDb2dVertex
 10
33.485846
 20
11.402439
 30
0.0
  0
VERTEX
  5
13CD
100
AcDbEntity
  8
ALPHA
100
AcDbVertex
100
AcDb2dVertex
 10
33.219579
 20
11.160429
 30
0.0
  0
VERTEX
  5
13CE
100
AcDbEntity
  8
ALPHA
100
AcDbVertex
100
AcDb2dVertex
 10
32.977584
 20
10.894151
 30
0.0
  0
VERTEX
  5
13CF
100
AcDbEntity
  8
ALPHA
100
AcDbVertex
100
AcDb2dVertex
 10
32.761745
 20
10.60549
 30
0.0
  0
VERTEX
  5
13D0
100
AcDbEntity
  8
ALPHA
100
AcDbVertex
100
AcDb2dVertex
 10
32.573943
 20
10.296332
 30
0.0
  0
VERTEX
  5
13D1
100
AcDbEntity
  8
ALPHA
100
AcDbVertex
100
AcDb2dVertex
 10
32.416065
 20
9.968561
 30
0.0
  0
VERTEX
  5
13D2
100
AcDbEntity
  8
ALPHA
100
AcDbVertex
100
AcDb2dVertex
 10
32.289991
 20
9.624061
 30
0.0
  0
VERTEX
  5
13D3
100
AcDbEntity
  8
ALPHA
100
AcDbVertex
100
AcDb2dVertex
 10
32.197607
 20
9.264719
 30
0.0
  0
VERTEX
  5
13D4
100
AcDbEntity
  8
ALPHA
100
AcDbVertex
100
AcDb2dVertex
 10
32.140795
 20
8.892418
 30
0.0
  0
VERTEX
  5
13D5
100
AcDbEntity
  8
ALPHA
100
AcDbVertex
100
AcDb2dVertex
 10
32.121439
 20
8.509043
 30
0.0
  0
VERTEX
  5
13D6
100
AcDbEntity
  8
ALPHA
100
AcDbVertex
100
AcDb2dVertex
 10
32.140795
 20
8.125604
 30
0.0
  0
VERTEX
  5
13D7
100
AcDbEntity
  8
ALPHA
100
AcDbVertex
100
AcDb2dVertex
 10
32.197607
 20
7.753238
 30
0.0
  0
VERTEX
  5
13D8
100
AcDbEntity
  8
ALPHA
100
AcDbVertex
100
AcDb2dVertex
 10
32.289991
 20
7.393833
 30
0.0
  0
VERTEX
  5
13D9
100
AcDbEntity
  8
ALPHA
100
AcDbVertex
100
AcDb2dVertex
 10
32.416065
 20
7.049273
 30
0.0
  0
VERTEX
  5
13DA
100
AcDbEntity
  8
ALPHA
100
AcDbVertex
100
AcDb2dVertex
 10
32.573943
 20
6.721443
 30
0.0
  0
VERTEX
  5
13DB
100
AcDbEntity
  8
ALPHA
100
AcDbVertex
100
AcDb2dVertex
 10
32.761745
 20
6.412229
 30
0.0
  0
VERTEX
  5
13DC
100
AcDbEntity
  8
ALPHA
100
AcDbVertex
100
AcDb2dVertex
 10
32.977584
 20
6.123517
 30
0.0
  0
VERTEX
  5
13DD
100
AcDbEntity
  8
ALPHA
100
AcDbVertex
100
AcDb2dVertex
 10
33.219579
 20
5.857191
 30
0.0
  0
VERTEX
  5
13DE
100
AcDbEntity
  8
ALPHA
100
AcDbVertex
100
AcDb2dVertex
 10
33.485846
 20
5.615137
 30
0.0
  0
VERTEX
  5
13DF
100
AcDbEntity
  8
ALPHA
100
AcDbVertex
100
AcDb2dVertex
 10
33.774501
 20
5.399239
 30
0.0
  0
VERTEX
  5
13E0
100
AcDbEntity
  8
ALPHA
100
AcDbVertex
100
AcDb2dVertex
 10
34.083661
 20
5.211385
 30
0.0
  0
VERTEX
  5
13E1
100
AcDbEntity
  8
ALPHA
100
AcDbVertex
100
AcDb2dVertex
 10
34.411443
 20
5.053458
 30
0.0
  0
VERTEX
  5
13E2
100
AcDbEntity
  8
ALPHA
100
AcDbVertex
100
AcDb2dVertex
 10
34.755962
 20
4.927344
 30
0.0
  0
VERTEX
  5
13E3
100
AcDbEntity
  8
ALPHA
100
AcDbVertex
100
AcDb2dVertex
 10
35.115336
 20
4.834928
 30
0.0
  0
VERTEX
  5
13E4
100
AcDbEntity
  8
ALPHA
100
AcDbVertex
100
AcDb2dVertex
 10
35.487682
 20
4.778096
 30
0.0
  0
VERTEX
  5
13E5
100
AcDbEntity
  8
ALPHA
100
AcDbVertex
100
AcDb2dVertex
 10
35.871114
 20
4.758733
 30
0.0
  0
VERTEX
  5
13E6
100
AcDbEntity
  8
ALPHA
100
AcDbVertex
100
AcDb2dVertex
 10
36.254549
 20
4.778096
 30
0.0
  0
VERTEX
  5
13E7
100
AcDbEntity
  8
ALPHA
100
AcDbVertex
100
AcDb2dVertex
 10
36.62691
 20
4.834928
 30
0.0
  0
VERTEX
  5
13E8
100
AcDbEntity
  8
ALPHA
100
AcDbVertex
100
AcDb2dVertex
 10
36.986312
 20
4.927344
 30
0.0
  0
VERTEX
  5
13E9
100
AcDbEntity
  8
ALPHA
100
AcDbVertex
100
AcDb2dVertex
 10
37.33087
 20
5.053458
 30
0.0
  0
VERTEX
  5
13EA
100
AcDbEntity
  8
ALPHA
100
AcDbVertex
100
AcDb2dVertex
 10
37.658699
 20
5.211385
 30
0.0
  0
VERTEX
  5
13EB
100
AcDbEntity
  8
ALPHA
100
AcDbVertex
100
AcDb2dVertex
 10
37.967913
 20
5.399239
 30
0.0
  0
VERTEX
  5
13EC
100
AcDbEntity
  8
ALPHA
100
AcDbVertex
100
AcDb2dVertex
 10
38.256626
 20
5.615137
 30
0.0
  0
VERTEX
  5
13ED
100
AcDbEntity
  8
ALPHA
100
AcDbVertex
100
AcDb2dVertex
 10
38.522954
 20
5.857191
 30
0.0
  0
VERTEX
  5
13EE
100
AcDbEntity
  8
ALPHA
100
AcDbVertex
100
AcDb2dVertex
 10
38.76501
 20
6.123517
 30
0.0
  0
VERTEX
  5
13EF
100
AcDbEntity
  8
ALPHA
100
AcDbVertex
100
AcDb2dVertex
 10
38.980909
 20
6.412229
 30
0.0
  0
VERTEX
  5
13F0
100
AcDbEntity
  8
ALPHA
100
AcDbVertex
100
AcDb2dVertex
 10
39.168766
 20
6.721443
 30
0.0
  0
VERTEX
  5
13F1
100
AcDbEntity
  8
ALPHA
100
AcDbVertex
100
AcDb2dVertex
 10
39.326695
 20
7.049273
 30
0.0
  0
VERTEX
  5
13F2
100
AcDbEntity
  8
ALPHA
100
AcDbVertex
100
AcDb2dVertex
 10
39.452811
 20
7.393833
 30
0.0
  0
VERTEX
  5
13F3
100
AcDbEntity
  8
ALPHA
100
AcDbVertex
100
AcDb2dVertex
 10
39.545228
 20
7.753238
 30
0.0
  0
VERTEX
  5
13F4
100
AcDbEntity
  8
ALPHA
100
AcDbVertex
100
AcDb2dVertex
 10
39.602061
 20
8.125604
 30
0.0
  0
VERTEX
  5
13F5
100
AcDbEntity
  8
ALPHA
100
AcDbVertex
100
AcDb2dVertex
 10
39.621424
 20
8.509043
 30
0.0
  0
SEQEND
  5
13F6
100
AcDbEntity
  8
ALPHA
  0
POLYLINE
  5
13F7
100
AcDbEntity
  8
ALPHA
100
AcDb2dPolyline
 66
     1
 10
0.0
 20
0.0
 30
0.0
  0
VERTEX
  5
13F8
100
AcDbEntity
  8
ALPHA
100
AcDbVertex
100
AcDb2dVertex
 10
26.121466
 20
8.509043
 30
0.0
  0
VERTEX
  5
13F9
100
AcDbEntity
  8
ALPHA
100
AcDbVertex
100
AcDb2dVertex
 10
26.102103
 20
8.892418
 30
0.0
  0
VERTEX
  5
13FA
100
AcDbEntity
  8
ALPHA
100
AcDbVertex
100
AcDb2dVertex
 10
26.045271
 20
9.264719
 30
0.0
  0
VERTEX
  5
13FB
100
AcDbEntity
  8
ALPHA
100
AcDbVertex
100
AcDb2dVertex
 10
25.952855
 20
9.624061
 30
0.0
  0
VERTEX
  5
13FC
100
AcDbEntity
  8
ALPHA
100
AcDbVertex
100
AcDb2dVertex
 10
25.826741
 20
9.968561
 30
0.0
  0
VERTEX
  5
13FD
100
AcDbEntity
  8
ALPHA
100
AcDbVertex
100
AcDb2dVertex
 10
25.668814
 20
10.296332
 30
0.0
  0
VERTEX
  5
13FE
100
AcDbEntity
  8
ALPHA
100
AcDbVertex
100
AcDb2dVertex
 10
25.48096
 20
10.60549
 30
0.0
  0
VERTEX
  5
13FF
100
AcDbEntity
  8
ALPHA
100
AcDbVertex
100
AcDb2dVertex
 10
25.265062
 20
10.894151
 30
0.0
  0
VERTEX
  5
1400
100
AcDbEntity
  8
ALPHA
100
AcDbVertex
100
AcDb2dVertex
 10
25.023008
 20
11.160429
 30
0.0
  0
VERTEX
  5
1401
100
AcDbEntity
  8
ALPHA
100
AcDbVertex
100
AcDb2dVertex
 10
24.756682
 20
11.402439
 30
0.0
  0
VERTEX
  5
1402
100
AcDbEntity
  8
ALPHA
100
AcDbVertex
100
AcDb2dVertex
 10
24.46797
 20
11.618296
 30
0.0
  0
VERTEX
  5
1403
100
AcDbEntity
  8
ALPHA
100
AcDbVertex
100
AcDb2dVertex
 10
24.158756
 20
11.806116
 30
0.0
  0
VERTEX
  5
1404
100
AcDbEntity
  8
ALPHA
100
AcDbVertex
100
AcDb2dVertex
 10
23.830926
 20
11.964014
 30
0.0
  0
VERTEX
  5
1405
100
AcDbEntity
  8
ALPHA
100
AcDbVertex
100
AcDb2dVertex
 10
23.486366
 20
12.090104
 30
0.0
  0
VERTEX
  5
1406
100
AcDbEntity
  8
ALPHA
100
AcDbVertex
100
AcDb2dVertex
 10
23.126961
 20
12.182503
 30
0.0
  0
VERTEX
  5
1407
100
AcDbEntity
  8
ALPHA
100
AcDbVertex
100
AcDb2dVertex
 10
22.754595
 20
12.239324
 30
0.0
  0
VERTEX
  5
1408
100
AcDbEntity
  8
ALPHA
100
AcDbVertex
100
AcDb2dVertex
 10
22.371156
 20
12.258683
 30
0.0
  0
VERTEX
  5
1409
100
AcDbEntity
  8
ALPHA
100
AcDbVertex
100
AcDb2dVertex
 10
21.987723
 20
12.239324
 30
0.0
  0
VERTEX
  5
140A
100
AcDbEntity
  8
ALPHA
100
AcDbVertex
100
AcDb2dVertex
 10
21.615379
 20
12.182503
 30
0.0
  0
VERTEX
  5
140B
100
AcDbEntity
  8
ALPHA
100
AcDbVertex
100
AcDb2dVertex
 10
21.256007
 20
12.090104
 30
0.0
  0
VERTEX
  5
140C
100
AcDbEntity
  8
ALPHA
100
AcDbVertex
100
AcDb2dVertex
 10
20.91149
 20
11.964014
 30
0.0
  0
VERTEX
  5
140D
100
AcDbEntity
  8
ALPHA
100
AcDbVertex
100
AcDb2dVertex
 10
20.583711
 20
11.806116
 30
0.0
  0
VERTEX
  5
140E
100
AcDbEntity
  8
ALPHA
100
AcDbVertex
100
AcDb2dVertex
 10
20.274554
 20
11.618296
 30
0.0
  0
VERTEX
  5
140F
100
AcDbEntity
  8
ALPHA
100
AcDbVertex
100
AcDb2dVertex
 10
19.985902
 20
11.402439
 30
0.0
  0
VERTEX
  5
1410
100
AcDbEntity
  8
ALPHA
100
AcDbVertex
100
AcDb2dVertex
 10
19.719638
 20
11.160429
 30
0.0
  0
VERTEX
  5
1411
100
AcDbEntity
  8
ALPHA
100
AcDbVertex
100
AcDb2dVertex
 10
19.477646
 20
10.894151
 30
0.0
  0
VERTEX
  5
1412
100
AcDbEntity
  8
ALPHA
100
AcDbVertex
100
AcDb2dVertex
 10
19.26181
 20
10.60549
 30
0.0
  0
VERTEX
  5
1413
100
AcDbEntity
  8
ALPHA
100
AcDbVertex
100
AcDb2dVertex
 10
19.074012
 20
10.296332
 30
0.0
  0
VERTEX
  5
1414
100
AcDbEntity
  8
ALPHA
100
AcDbVertex
100
AcDb2dVertex
 10
18.916135
 20
9.968561
 30
0.0
  0
VERTEX
  5
1415
100
AcDbEntity
  8
ALPHA
100
AcDbVertex
100
AcDb2dVertex
 10
18.790064
 20
9.624061
 30
0.0
  0
VERTEX
  5
1416
100
AcDbEntity
  8
ALPHA
100
AcDbVertex
100
AcDb2dVertex
 10
18.697682
 20
9.264719
 30
0.0
  0
VERTEX
  5
1417
100
AcDbEntity
  8
ALPHA
100
AcDbVertex
100
AcDb2dVertex
 10
18.640871
 20
8.892418
 30
0.0
  0
VERTEX
  5
1418
100
AcDbEntity
  8
ALPHA
100
AcDbVertex
100
AcDb2dVertex
 10
18.621516
 20
8.509043
 30
0.0
  0
VERTEX
  5
1419
100
AcDbEntity
  8
ALPHA
100
AcDbVertex
100
AcDb2dVertex
 10
18.640871
 20
8.125604
 30
0.0
  0
VERTEX
  5
141A
100
AcDbEntity
  8
ALPHA
100
AcDbVertex
100
AcDb2dVertex
 10
18.697682
 20
7.753238
 30
0.0
  0
VERTEX
  5
141B
100
AcDbEntity
  8
ALPHA
100
AcDbVertex
100
AcDb2dVertex
 10
18.790064
 20
7.393833
 30
0.0
  0
VERTEX
  5
141C
100
AcDbEntity
  8
ALPHA
100
AcDbVertex
100
AcDb2dVertex
 10
18.916135
 20
7.049273
 30
0.0
  0
VERTEX
  5
141D
100
AcDbEntity
  8
ALPHA
100
AcDbVertex
100
AcDb2dVertex
 10
19.074012
 20
6.721443
 30
0.0
  0
VERTEX
  5
141E
100
AcDbEntity
  8
ALPHA
100
AcDbVertex
100
AcDb2dVertex
 10
19.26181
 20
6.412229
 30
0.0
  0
VERTEX
  5
141F
100
AcDbEntity
  8
ALPHA
100
AcDbVertex
100
AcDb2dVertex
 10
19.477646
 20
6.123517
 30
0.0
  0
VERTEX
  5
1420
100
AcDbEntity
  8
ALPHA
100
AcDbVertex
100
AcDb2dVertex
 10
19.719638
 20
5.857191
 30
0.0
  0
VERTEX
  5
1421
100
AcDbEntity
  8
ALPHA
100
AcDbVertex
100
AcDb2dVertex
 10
19.985902
 20
5.615137
 30
0.0
  0
VERTEX
  5
1422
100
AcDbEntity
  8
ALPHA
100
AcDbVertex
100
AcDb2dVertex
 10
20.274554
 20
5.399239
 30
0.0
  0
VERTEX
  5
1423
100
AcDbEntity
  8
ALPHA
100
AcDbVertex
100
AcDb2dVertex
 10
20.583711
 20
5.211385
 30
0.0
  0
VERTEX
  5
1424
100
AcDbEntity
  8
ALPHA
100
AcDbVertex
100
AcDb2dVertex
 10
20.91149
 20
5.053458
 30
0.0
  0
VERTEX
  5
1425
100
AcDbEntity
  8
ALPHA
100
AcDbVertex
100
AcDb2dVertex
 10
21.256007
 20
4.927344
 30
0.0
  0
VERTEX
  5
1426
100
AcDbEntity
  8
ALPHA
100
AcDbVertex
100
AcDb2dVertex
 10
21.615379
 20
4.834928
 30
0.0
  0
VERTEX
  5
1427
100
AcDbEntity
  8
ALPHA
100
AcDbVertex
100
AcDb2dVertex
 10
21.987723
 20
4.778096
 30
0.0
  0
VERTEX
  5
1428
100
AcDbEntity
  8
ALPHA
100
AcDbVertex
100
AcDb2dVertex
 10
22.371156
 20
4.758733
 30
0.0
  0
VERTEX
  5
1429
100
AcDbEntity
  8
ALPHA
100
AcDbVertex
100
AcDb2dVertex
 10
22.754595
 20
4.778096
 30
0.0
  0
VERTEX
  5
142A
100
AcDbEntity
  8
ALPHA
100
AcDbVertex
100
AcDb2dVertex
 10
23.126961
 20
4.834928
 30
0.0
  0
VERTEX
  5
142B
100
AcDbEntity
  8
ALPHA
100
AcDbVertex
100
AcDb2dVertex
 10
23.486366
 20
4.927344
 30
0.0
  0
VERTEX
  5
142C
100
AcDbEntity
  8
ALPHA
100
AcDbVertex
100
AcDb2dVertex
 10
23.830926
 20
5.053458
 30
0.0
  0
VERTEX
  5
142D
100
AcDbEntity
  8
ALPHA
100
AcDbVertex
100
AcDb2dVertex
 10
24.158756
 20
5.211385
 30
0.0
  0
VERTEX
  5
142E
100
AcDbEntity
  8
ALPHA
100
AcDbVertex
100
AcDb2dVertex
 10
24.46797
 20
5.399239
 30
0.0
  0
VERTEX
  5
142F
100
AcDbEntity
  8
ALPHA
100
AcDbVertex
100
AcDb2dVertex
 10
24.756682
 20
5.615137
 30
0.0
  0
VERTEX
  5
1430
100
AcDbEntity
  8
ALPHA
100
AcDbVertex
100
AcDb2dVertex
 10
25.023008
 20
5.857191
 30
0.0
  0
VERTEX
  5
1431
100
AcDbEntity
  8
ALPHA
100
AcDbVertex
100
AcDb2dVertex
 10
25.265062
 20
6.123517
 30
0.0
  0
VERTEX
  5
1432
100
AcDbEntity
  8
ALPHA
100
AcDbVertex
100
AcDb2dVertex
 10
25.48096
 20
6.412229
 30
0.0
  0
VERTEX
  5
1433
100
AcDbEntity
  8
ALPHA
100
AcDbVertex
100
AcDb2dVertex
 10
25.668814
 20
6.721443
 30
0.0
  0
VERTEX
  5
1434
100
AcDbEntity
  8
ALPHA
100
AcDbVertex
100
AcDb2dVertex
 10
25.826741
 20
7.049273
 30
0.0
  0
VERTEX
  5
1435
100
AcDbEntity
  8
ALPHA
100
AcDbVertex
100
AcDb2dVertex
 10
25.952855
 20
7.393833
 30
0.0
  0
VERTEX
  5
1436
100
AcDbEntity
  8
ALPHA
100
AcDbVertex
100
AcDb2dVertex
 10
26.045271
 20
7.753238
 30
0.0
  0
VERTEX
  5
1437
100
AcDbEntity
  8
ALPHA
100
AcDbVertex
100
AcDb2dVertex
 10
26.102103
 20
8.125604
 30
0.0
  0
VERTEX
  5
1438
100
AcDbEntity
  8
ALPHA
100
AcDbVertex
100
AcDb2dVertex
 10
26.121466
 20
8.509043
 30
0.0
  0
SEQEND
  5
1439
100
AcDbEntity
  8
ALPHA
  0
POLYLINE
  5
143A
100
AcDbEntity
  8
ALPHA
100
AcDb2dPolyline
 66
     1
 10
0.0
 20
0.0
 30
0.0
  0
VERTEX
  5
143B
100
AcDbEntity
  8
ALPHA
100
AcDbVertex
100
AcDb2dVertex
 10
20.073267
 20
11.513863
 30
0.0
  0
VERTEX
  5
143C
100
AcDbEntity
  8
ALPHA
100
AcDbVertex
100
AcDb2dVertex
 10
22.371156
 20
9.215975
 30
0.0
  0
SEQEND
  5
143D
100
AcDbEntity
  8
ALPHA
  0
POLYLINE
  5
143E
100
AcDbEntity
  8
ALPHA
100
AcDb2dPolyline
 66
     1
 10
0.0
 20
0.0
 30
0.0
  0
VERTEX
  5
143F
100
AcDbEntity
  8
ALPHA
100
AcDbVertex
100
AcDb2dVertex
 10
19.36563
 20
10.806932
 30
0.0
  0
VERTEX
  5
1440
100
AcDbEntity
  8
ALPHA
100
AcDbVertex
100
AcDb2dVertex
 10
21.664224
 20
8.509043
 30
0.0
  0
SEQEND
  5
1441
100
AcDbEntity
  8
ALPHA
  0
POLYLINE
  5
1442
100
AcDbEntity
  8
ALPHA
100
AcDb2dPolyline
 66
     1
 10
0.0
 20
0.0
 30
0.0
  0
VERTEX
  5
1443
100
AcDbEntity
  8
ALPHA
100
AcDbVertex
100
AcDb2dVertex
 10
21.664224
 20
8.509043
 30
0.0
  0
VERTEX
  5
1444
100
AcDbEntity
  8
ALPHA
100
AcDbVertex
100
AcDb2dVertex
 10
20.105652
 20
6.950471
 30
0.0
  0
SEQEND
  5
1445
100
AcDbEntity
  8
ALPHA
  0
POLYLINE
  5
1446
100
AcDbEntity
  8
ALPHA
100
AcDb2dPolyline
 66
     1
 10
0.0
 20
0.0
 30
0.0
  0
VERTEX
  5
1447
100
AcDbEntity
  8
ALPHA
100
AcDbVertex
100
AcDb2dVertex
 10
20.105652
 20
6.950471
 30
0.0
  0
VERTEX
  5
1448
100
AcDbEntity
  8
ALPHA
100
AcDbVertex
100
AcDb2dVertex
 10
20.25739
 20
6.749908
 30
0.0
  0
VERTEX
  5
1449
100
AcDbEntity
  8
ALPHA
100
AcDbVertex
100
AcDb2dVertex
 10
20.426561
 20
6.564422
 30
0.0
  0
VERTEX
  5
144A
100
AcDbEntity
  8
ALPHA
100
AcDbVertex
100
AcDb2dVertex
 10
20.61201
 20
6.395149
 30
0.0
  0
VERTEX
  5
144B
100
AcDbEntity
  8
ALPHA
100
AcDbVertex
100
AcDb2dVertex
 10
20.812583
 20
6.243222
 30
0.0
  0
SEQEND
  5
144C
100
AcDbEntity
  8
ALPHA
  0
POLYLINE
  5
144D
100
AcDbEntity
  8
ALPHA
100
AcDb2dPolyline
 66
     1
 10
0.0
 20
0.0
 30
0.0
  0
VERTEX
  5
144E
100
AcDbEntity
  8
ALPHA
100
AcDbVertex
100
AcDb2dVertex
 10
23.078087
 20
8.509043
 30
0.0
  0
VERTEX
  5
144F
100
AcDbEntity
  8
ALPHA
100
AcDbVertex
100
AcDb2dVertex
 10
25.376646
 20
6.210837
 30
0.0
  0
SEQEND
  5
1450
100
AcDbEntity
  8
ALPHA
  0
POLYLINE
  5
1451
100
AcDbEntity
  8
ALPHA
100
AcDb2dPolyline
 66
     1
 10
0.0
 20
0.0
 30
0.0
  0
VERTEX
  5
1452
100
AcDbEntity
  8
ALPHA
100
AcDbVertex
100
AcDb2dVertex
 10
23.929692
 20
10.774547
 30
0.0
  0
VERTEX
  5
1453
100
AcDbEntity
  8
ALPHA
100
AcDbVertex
100
AcDb2dVertex
 10
22.371156
 20
9.215975
 30
0.0
  0
SEQEND
  5
1454
100
AcDbEntity
  8
ALPHA
  0
POLYLINE
  5
1455
100
AcDbEntity
  8
ALPHA
100
AcDb2dPolyline
 66
     1
 10
0.0
 20
0.0
 30
0.0
  0
VERTEX
  5
1456
100
AcDbEntity
  8
ALPHA
100
AcDbVertex
100
AcDb2dVertex
 10
24.636624
 20
10.067616
 30
0.0
  0
VERTEX
  5
1457
100
AcDbEntity
  8
ALPHA
100
AcDbVertex
100
AcDb2dVertex
 10
23.078087
 20
8.509043
 30
0.0
  0
SEQEND
  5
1458
100
AcDbEntity
  8
ALPHA
  0
POLYLINE
  5
1459
100
AcDbEntity
  8
ALPHA
100
AcDb2dPolyline
 66
     1
 10
0.0
 20
0.0
 30
0.0
  0
VERTEX
  5
145A
100
AcDbEntity
  8
ALPHA
100
AcDbVertex
100
AcDb2dVertex
 10
22.371156
 20
7.801759
 30
0.0
  0
VERTEX
  5
145B
100
AcDbEntity
  8
ALPHA
100
AcDbVertex
100
AcDb2dVertex
 10
24.669009
 20
5.503553
 30
0.0
  0
SEQEND
  5
145C
100
AcDbEntity
  8
ALPHA
  0
POLYLINE
  5
145D
100
AcDbEntity
  8
ALPHA
100
AcDb2dPolyline
 66
     1
 10
0.0
 20
0.0
 30
0.0
  0
VERTEX
  5
145E
100
AcDbEntity
  8
ALPHA
100
AcDbVertex
100
AcDb2dVertex
 10
22.371156
 20
7.801759
 30
0.0
  0
VERTEX
  5
145F
100
AcDbEntity
  8
ALPHA
100
AcDbVertex
100
AcDb2dVertex
 10
20.812583
 20
6.243222
 30
0.0
  0
SEQEND
  5
1460
100
AcDbEntity
  8
ALPHA
  0
POLYLINE
  5
1461
100
AcDbEntity
  8
ALPHA
100
AcDb2dPolyline
 66
     1
 10
0.0
 20
0.0
 30
0.0
  0
VERTEX
  5
1462
100
AcDbEntity
  8
ALPHA
100
AcDbVertex
100
AcDb2dVertex
 10
24.636624
 20
10.067616
 30
0.0
  0
VERTEX
  5
1463
100
AcDbEntity
  8
ALPHA
100
AcDbVertex
100
AcDb2dVertex
 10
24.484901
 20
10.268125
 30
0.0
  0
VERTEX
  5
1464
100
AcDbEntity
  8
ALPHA
100
AcDbVertex
100
AcDb2dVertex
 10
24.315728
 20
10.453493
 30
0.0
  0
VERTEX
  5
1465
100
AcDbEntity
  8
ALPHA
100
AcDbVertex
100
AcDb2dVertex
 10
24.130271
 20
10.622655
 30
0.0
  0
VERTEX
  5
1466
100
AcDbEntity
  8
ALPHA
100
AcDbVertex
100
AcDb2dVertex
 10
23.929692
 20
10.774547
 30
0.0
  0
SEQEND
  5
1467
100
AcDbEntity
  8
ALPHA
  0
POLYLINE
  5
1468
100
AcDbEntity
  8
ALPHA
100
AcDb2dPolyline
 66
     1
 10
0.0
 20
0.0
 30
0.0
  0
VERTEX
  5
1469
100
AcDbEntity
  8
ALPHA
100
AcDbVertex
100
AcDb2dVertex
 10
18.146077
 20
32.013762
 30
0.0
  0
VERTEX
  5
146A
100
AcDbEntity
  8
ALPHA
100
AcDbVertex
100
AcDb2dVertex
 10
18.146077
 20
34.013659
 30
0.0
  0
SEQEND
  5
146B
100
AcDbEntity
  8
ALPHA
  0
POLYLINE
  5
146C
100
AcDbEntity
  8
ALPHA
100
AcDb2dPolyline
 66
     1
 10
0.0
 20
0.0
 30
0.0
  0
VERTEX
  5
146D
100
AcDbEntity
  8
ALPHA
100
AcDbVertex
100
AcDb2dVertex
 10
17.645838
 20
31.513523
 30
0.0
  0
VERTEX
  5
146E
100
AcDbEntity
  8
ALPHA
100
AcDbVertex
100
AcDb2dVertex
 10
17.696988
 20
31.516105
 30
0.0
  0
VERTEX
  5
146F
100
AcDbEntity
  8
ALPHA
100
AcDbVertex
100
AcDb2dVertex
 10
17.74666
 20
31.523685
 30
0.0
  0
VERTEX
  5
1470
100
AcDbEntity
  8
ALPHA
100
AcDbVertex
100
AcDb2dVertex
 10
17.794602
 20
31.536011
 30
0.0
  0
VERTEX
  5
1471
100
AcDbEntity
  8
ALPHA
100
AcDbVertex
100
AcDb2dVertex
 10
17.840563
 20
31.552831
 30
0.0
  0
VERTEX
  5
1472
100
AcDbEntity
  8
ALPHA
100
AcDbVertex
100
AcDb2dVertex
 10
17.884291
 20
31.573894
 30
0.0
  0
VERTEX
  5
1473
100
AcDbEntity
  8
ALPHA
100
AcDbVertex
100
AcDb2dVertex
 10
17.925536
 20
31.59895
 30
0.0
  0
VERTEX
  5
1474
100
AcDbEntity
  8
ALPHA
100
AcDbVertex
100
AcDb2dVertex
 10
17.964046
 20
31.627746
 30
0.0
  0
VERTEX
  5
1475
100
AcDbEntity
  8
ALPHA
100
AcDbVertex
100
AcDb2dVertex
 10
17.999569
 20
31.660031
 30
0.0
  0
VERTEX
  5
1476
100
AcDbEntity
  8
ALPHA
100
AcDbVertex
100
AcDb2dVertex
 10
18.031854
 20
31.695554
 30
0.0
  0
VERTEX
  5
1477
100
AcDbEntity
  8
ALPHA
100
AcDbVertex
100
AcDb2dVertex
 10
18.06065
 20
31.734064
 30
0.0
  0
VERTEX
  5
1478
100
AcDbEntity
  8
ALPHA
100
AcDbVertex
100
AcDb2dVertex
 10
18.085705
 20
31.775309
 30
0.0
  0
VERTEX
  5
1479
100
AcDbEntity
  8
ALPHA
100
AcDbVertex
100
AcDb2dVertex
 10
18.106769
 20
31.819037
 30
0.0
  0
VERTEX
  5
147A
100
AcDbEntity
  8
ALPHA
100
AcDbVertex
100
AcDb2dVertex
 10
18.123589
 20
31.864998
 30
0.0
  0
VERTEX
  5
147B
100
AcDbEntity
  8
ALPHA
100
AcDbVertex
100
AcDb2dVertex
 10
18.135915
 20
31.91294
 30
0.0
  0
VERTEX
  5
147C
100
AcDbEntity
  8
ALPHA
100
AcDbVertex
100
AcDb2dVertex
 10
18.143495
 20
31.962611
 30
0.0
  0
VERTEX
  5
147D
100
AcDbEntity
  8
ALPHA
100
AcDbVertex
100
AcDb2dVertex
 10
18.146077
 20
32.013762
 30
0.0
  0
SEQEND
  5
147E
100
AcDbEntity
  8
ALPHA
  0
POLYLINE
  5
147F
100
AcDbEntity
  8
ALPHA
100
AcDb2dPolyline
 66
     1
 10
0.0
 20
0.0
 30
0.0
  0
VERTEX
  5
1480
100
AcDbEntity
  8
ALPHA
100
AcDbVertex
100
AcDb2dVertex
 10
18.146077
 20
34.013659
 30
0.0
  0
VERTEX
  5
1481
100
AcDbEntity
  8
ALPHA
100
AcDbVertex
100
AcDb2dVertex
 10
18.143495
 20
34.064746
 30
0.0
  0
VERTEX
  5
1482
100
AcDbEntity
  8
ALPHA
100
AcDbVertex
100
AcDb2dVertex
 10
18.135915
 20
34.114362
 30
0.0
  0
VERTEX
  5
1483
100
AcDbEntity
  8
ALPHA
100
AcDbVertex
100
AcDb2dVertex
 10
18.123589
 20
34.162256
 30
0.0
  0
VERTEX
  5
1484
100
AcDbEntity
  8
ALPHA
100
AcDbVertex
100
AcDb2dVertex
 10
18.106769
 20
34.208174
 30
0.0
  0
VERTEX
  5
1485
100
AcDbEntity
  8
ALPHA
100
AcDbVertex
100
AcDb2dVertex
 10
18.085705
 20
34.251865
 30
0.0
  0
VERTEX
  5
1486
100
AcDbEntity
  8
ALPHA
100
AcDbVertex
100
AcDb2dVertex
 10
18.06065
 20
34.293079
 30
0.0
  0
VERTEX
  5
1487
100
AcDbEntity
  8
ALPHA
100
AcDbVertex
100
AcDb2dVertex
 10
18.031854
 20
34.331562
 30
0.0
  0
VERTEX
  5
1488
100
AcDbEntity
  8
ALPHA
100
AcDbVertex
100
AcDb2dVertex
 10
17.999569
 20
34.367063
 30
0.0
  0
VERTEX
  5
1489
100
AcDbEntity
  8
ALPHA
100
AcDbVertex
100
AcDb2dVertex
 10
17.964046
 20
34.39933
 30
0.0
  0
VERTEX
  5
148A
100
AcDbEntity
  8
ALPHA
100
AcDbVertex
100
AcDb2dVertex
 10
17.925536
 20
34.428112
 30
0.0
  0
VERTEX
  5
148B
100
AcDbEntity
  8
ALPHA
100
AcDbVertex
100
AcDb2dVertex
 10
17.884291
 20
34.453157
 30
0.0
  0
VERTEX
  5
148C
100
AcDbEntity
  8
ALPHA
100
AcDbVertex
100
AcDb2dVertex
 10
17.840563
 20
34.474212
 30
0.0
  0
VERTEX
  5
148D
100
AcDbEntity
  8
ALPHA
100
AcDbVertex
100
AcDb2dVertex
 10
17.794602
 20
34.491027
 30
0.0
  0
VERTEX
  5
148E
100
AcDbEntity
  8
ALPHA
100
AcDbVertex
100
AcDb2dVertex
 10
17.74666
 20
34.50335
 30
0.0
  0
VERTEX
  5
148F
100
AcDbEntity
  8
ALPHA
100
AcDbVertex
100
AcDb2dVertex
 10
17.696988
 20
34.510928
 30
0.0
  0
VERTEX
  5
1490
100
AcDbEntity
  8
ALPHA
100
AcDbVertex
100
AcDb2dVertex
 10
17.645838
 20
34.51351
 30
0.0
  0
SEQEND
  5
1491
100
AcDbEntity
  8
ALPHA
  0
POLYLINE
  5
1492
100
AcDbEntity
  8
ALPHA
100
AcDb2dPolyline
 66
     1
 10
0.0
 20
0.0
 30
0.0
  0
VERTEX
  5
1493
100
AcDbEntity
  8
ALPHA
100
AcDbVertex
100
AcDb2dVertex
 10
26.121466
 20
24.013573
 30
0.0
  0
VERTEX
  5
1494
100
AcDbEntity
  8
ALPHA
100
AcDbVertex
100
AcDb2dVertex
 10
26.121466
 20
32.013762
 30
0.0
  0
SEQEND
  5
1495
100
AcDbEntity
  8
ALPHA
  0
POLYLINE
  5
1496
100
AcDbEntity
  8
ALPHA
100
AcDb2dPolyline
 66
     1
 10
0.0
 20
0.0
 30
0.0
  0
VERTEX
  5
1497
100
AcDbEntity
  8
ALPHA
100
AcDbVertex
100
AcDb2dVertex
 10
32.866294
 20
10.806932
 30
0.0
  0
VERTEX
  5
1498
100
AcDbEntity
  8
ALPHA
100
AcDbVertex
100
AcDb2dVertex
 10
35.164148
 20
8.509043
 30
0.0
  0
SEQEND
  5
1499
100
AcDbEntity
  8
ALPHA
  0
POLYLINE
  5
149A
100
AcDbEntity
  8
ALPHA
100
AcDb2dPolyline
 66
     1
 10
0.0
 20
0.0
 30
0.0
  0
VERTEX
  5
149B
100
AcDbEntity
  8
ALPHA
100
AcDbVertex
100
AcDb2dVertex
 10
33.573226
 20
11.513863
 30
0.0
  0
VERTEX
  5
149C
100
AcDbEntity
  8
ALPHA
100
AcDbVertex
100
AcDb2dVertex
 10
35.871114
 20
9.215975
 30
0.0
  0
SEQEND
  5
149D
100
AcDbEntity
  8
ALPHA
  0
POLYLINE
  5
149E
100
AcDbEntity
  8
ALPHA
100
AcDb2dPolyline
 66
     1
 10
0.0
 20
0.0
 30
0.0
  0
VERTEX
  5
149F
100
AcDbEntity
  8
ALPHA
100
AcDbVertex
100
AcDb2dVertex
 10
37.429651
 20
10.774547
 30
0.0
  0
VERTEX
  5
14A0
100
AcDbEntity
  8
ALPHA
100
AcDbVertex
100
AcDb2dVertex
 10
35.871114
 20
9.215975
 30
0.0
  0
SEQEND
  5
14A1
100
AcDbEntity
  8
ALPHA
  0
POLYLINE
  5
14A2
100
AcDbEntity
  8
ALPHA
100
AcDb2dPolyline
 66
     1
 10
0.0
 20
0.0
 30
0.0
  0
VERTEX
  5
14A3
100
AcDbEntity
  8
ALPHA
100
AcDbVertex
100
AcDb2dVertex
 10
35.871114
 20
7.801759
 30
0.0
  0
VERTEX
  5
14A4
100
AcDbEntity
  8
ALPHA
100
AcDbVertex
100
AcDb2dVertex
 10
38.168968
 20
5.503553
 30
0.0
  0
SEQEND
  5
14A5
100
AcDbEntity
  8
ALPHA
  0
POLYLINE
  5
14A6
100
AcDbEntity
  8
ALPHA
100
AcDb2dPolyline
 66
     1
 10
0.0
 20
0.0
 30
0.0
  0
VERTEX
  5
14A7
100
AcDbEntity
  8
ALPHA
100
AcDbVertex
100
AcDb2dVertex
 10
33.605611
 20
6.950471
 30
0.0
  0
VERTEX
  5
14A8
100
AcDbEntity
  8
ALPHA
100
AcDbVertex
100
AcDb2dVertex
 10
33.757334
 20
6.749908
 30
0.0
  0
VERTEX
  5
14A9
100
AcDbEntity
  8
ALPHA
100
AcDbVertex
100
AcDb2dVertex
 10
33.926506
 20
6.564422
 30
0.0
  0
VERTEX
  5
14AA
100
AcDbEntity
  8
ALPHA
100
AcDbVertex
100
AcDb2dVertex
 10
34.111964
 20
6.395149
 30
0.0
  0
VERTEX
  5
14AB
100
AcDbEntity
  8
ALPHA
100
AcDbVertex
100
AcDb2dVertex
 10
34.312542
 20
6.243222
 30
0.0
  0
SEQEND
  5
14AC
100
AcDbEntity
  8
ALPHA
  0
POLYLINE
  5
14AD
100
AcDbEntity
  8
ALPHA
100
AcDb2dPolyline
 66
     1
 10
0.0
 20
0.0
 30
0.0
  0
VERTEX
  5
14AE
100
AcDbEntity
  8
ALPHA
100
AcDbVertex
100
AcDb2dVertex
 10
35.871114
 20
7.801759
 30
0.0
  0
VERTEX
  5
14AF
100
AcDbEntity
  8
ALPHA
100
AcDbVertex
100
AcDb2dVertex
 10
34.312542
 20
6.243222
 30
0.0
  0
SEQEND
  5
14B0
100
AcDbEntity
  8
ALPHA
  0
POLYLINE
  5
14B1
100
AcDbEntity
  8
ALPHA
100
AcDb2dPolyline
 66
     1
 10
0.0
 20
0.0
 30
0.0
  0
VERTEX
  5
14B2
100
AcDbEntity
  8
ALPHA
100
AcDbVertex
100
AcDb2dVertex
 10
35.164148
 20
8.509043
 30
0.0
  0
VERTEX
  5
14B3
100
AcDbEntity
  8
ALPHA
100
AcDbVertex
100
AcDb2dVertex
 10
33.605611
 20
6.950471
 30
0.0
  0
SEQEND
  5
14B4
100
AcDbEntity
  8
ALPHA
  0
POLYLINE
  5
14B5
100
AcDbEntity
  8
ALPHA
100
AcDb2dPolyline
 66
     1
 10
0.0
 20
0.0
 30
0.0
  0
VERTEX
  5
14B6
100
AcDbEntity
  8
ALPHA
100
AcDbVertex
100
AcDb2dVertex
 10
36.578046
 20
8.509043
 30
0.0
  0
VERTEX
  5
14B7
100
AcDbEntity
  8
ALPHA
100
AcDbVertex
100
AcDb2dVertex
 10
38.876605
 20
6.210837
 30
0.0
  0
SEQEND
  5
14B8
100
AcDbEntity
  8
ALPHA
  0
POLYLINE
  5
14B9
100
AcDbEntity
  8
ALPHA
100
AcDb2dPolyline
 66
     1
 10
0.0
 20
0.0
 30
0.0
  0
VERTEX
  5
14BA
100
AcDbEntity
  8
ALPHA
100
AcDbVertex
100
AcDb2dVertex
 10
38.136583
 20
10.067616
 30
0.0
  0
VERTEX
  5
14BB
100
AcDbEntity
  8
ALPHA
100
AcDbVertex
100
AcDb2dVertex
 10
36.578046
 20
8.509043
 30
0.0
  0
SEQEND
  5
14BC
100
AcDbEntity
  8
ALPHA
  0
POLYLINE
  5
14BD
100
AcDbEntity
  8
ALPHA
100
AcDb2dPolyline
 66
     1
 10
0.0
 20
0.0
 30
0.0
  0
VERTEX
  5
14BE
100
AcDbEntity
  8
ALPHA
100
AcDbVertex
100
AcDb2dVertex
 10
38.136583
 20
10.067616
 30
0.0
  0
VERTEX
  5
14BF
100
AcDbEntity
  8
ALPHA
100
AcDbVertex
100
AcDb2dVertex
 10
37.98486
 20
10.268125
 30
0.0
  0
VERTEX
  5
14C0
100
AcDbEntity
  8
ALPHA
100
AcDbVertex
100
AcDb2dVertex
 10
37.815687
 20
10.453493
 30
0.0
  0
VERTEX
  5
14C1
100
AcDbEntity
  8
ALPHA
100
AcDbVertex
100
AcDb2dVertex
 10
37.63023
 20
10.622655
 30
0.0
  0
VERTEX
  5
14C2
100
AcDbEntity
  8
ALPHA
100
AcDbVertex
100
AcDb2dVertex
 10
37.429651
 20
10.774547
 30
0.0
  0
SEQEND
  5
14C3
100
AcDbEntity
  8
ALPHA
  0
POLYLINE
  5
14C4
100
AcDbEntity
  8
ALPHA
100
AcDb2dPolyline
 66
     1
 10
0.0
 20
0.0
 30
0.0
  0
VERTEX
  5
14C5
100
AcDbEntity
  8
ALPHA
100
AcDbVertex
100
AcDb2dVertex
 10
40.383812
 20
-0.116091
 30
0.0
  0
VERTEX
  5
14C6
100
AcDbEntity
  8
ALPHA
100
AcDbVertex
100
AcDb2dVertex
 10
40.383812
 20
0.883681
 30
0.0
  0
SEQEND
  5
14C7
100
AcDbEntity
  8
ALPHA
  0
POLYLINE
  5
14C8
100
AcDbEntity
  8
ALPHA
100
AcDb2dPolyline
 66
     1
 10
0.0
 20
0.0
 30
0.0
  0
VERTEX
  5
14C9
100
AcDbEntity
  8
ALPHA
100
AcDbVertex
100
AcDb2dVertex
 10
43.621184
 20
24.013573
 30
0.0
  0
VERTEX
  5
14CA
100
AcDbEntity
  8
ALPHA
100
AcDbVertex
100
AcDb2dVertex
 10
43.621184
 20
32.013762
 30
0.0
  0
SEQEND
  5
14CB
100
AcDbEntity
  8
ALPHA
  0
POLYLINE
  5
14CC
100
AcDbEntity
  8
ALPHA
100
AcDb2dPolyline
 66
     1
 10
0.0
 20
0.0
 30
0.0
  0
VERTEX
  5
14CD
100
AcDbEntity
  8
ALPHA
100
AcDbVertex
100
AcDb2dVertex
 10
39.621424
 20
80.508801
 30
0.0
  0
VERTEX
  5
14CE
100
AcDbEntity
  8
ALPHA
100
AcDbVertex
100
AcDb2dVertex
 10
39.602061
 20
80.892241
 30
0.0
  0
VERTEX
  5
14CF
100
AcDbEntity
  8
ALPHA
100
AcDbVertex
100
AcDb2dVertex
 10
39.545228
 20
81.264606
 30
0.0
  0
VERTEX
  5
14D0
100
AcDbEntity
  8
ALPHA
100
AcDbVertex
100
AcDb2dVertex
 10
39.452811
 20
81.624011
 30
0.0
  0
VERTEX
  5
14D1
100
AcDbEntity
  8
ALPHA
100
AcDbVertex
100
AcDb2dVertex
 10
39.326695
 20
81.968571
 30
0.0
  0
VERTEX
  5
14D2
100
AcDbEntity
  8
ALPHA
100
AcDbVertex
100
AcDb2dVertex
 10
39.168766
 20
82.296401
 30
0.0
  0
VERTEX
  5
14D3
100
AcDbEntity
  8
ALPHA
100
AcDbVertex
100
AcDb2dVertex
 10
38.980909
 20
82.605615
 30
0.0
  0
VERTEX
  5
14D4
100
AcDbEntity
  8
ALPHA
100
AcDbVertex
100
AcDb2dVertex
 10
38.76501
 20
82.894327
 30
0.0
  0
VERTEX
  5
14D5
100
AcDbEntity
  8
ALPHA
100
AcDbVertex
100
AcDb2dVertex
 10
38.522954
 20
83.160653
 30
0.0
  0
VERTEX
  5
14D6
100
AcDbEntity
  8
ALPHA
100
AcDbVertex
100
AcDb2dVertex
 10
38.256626
 20
83.402708
 30
0.0
  0
VERTEX
  5
14D7
100
AcDbEntity
  8
ALPHA
100
AcDbVertex
100
AcDb2dVertex
 10
37.967913
 20
83.618605
 30
0.0
  0
VERTEX
  5
14D8
100
AcDbEntity
  8
ALPHA
100
AcDbVertex
100
AcDb2dVertex
 10
37.658699
 20
83.806459
 30
0.0
  0
VERTEX
  5
14D9
100
AcDbEntity
  8
ALPHA
100
AcDbVertex
100
AcDb2dVertex
 10
37.33087
 20
83.964386
 30
0.0
  0
VERTEX
  5
14DA
100
AcDbEntity
  8
ALPHA
100
AcDbVertex
100
AcDb2dVertex
 10
36.986312
 20
84.0905
 30
0.0
  0
VERTEX
  5
14DB
100
AcDbEntity
  8
ALPHA
100
AcDbVertex
100
AcDb2dVertex
 10
36.62691
 20
84.182916
 30
0.0
  0
VERTEX
  5
14DC
100
AcDbEntity
  8
ALPHA
100
AcDbVertex
100
AcDb2dVertex
 10
36.254549
 20
84.239748
 30
0.0
  0
VERTEX
  5
14DD
100
AcDbEntity
  8
ALPHA
100
AcDbVertex
100
AcDb2dVertex
 10
35.871114
 20
84.259111
 30
0.0
  0
VERTEX
  5
14DE
100
AcDbEntity
  8
ALPHA
100
AcDbVertex
100
AcDb2dVertex
 10
35.487682
 20
84.239748
 30
0.0
  0
VERTEX
  5
14DF
100
AcDbEntity
  8
ALPHA
100
AcDbVertex
100
AcDb2dVertex
 10
35.115336
 20
84.182916
 30
0.0
  0
VERTEX
  5
14E0
100
AcDbEntity
  8
ALPHA
100
AcDbVertex
100
AcDb2dVertex
 10
34.755962
 20
84.0905
 30
0.0
  0
VERTEX
  5
14E1
100
AcDbEntity
  8
ALPHA
100
AcDbVertex
100
AcDb2dVertex
 10
34.411443
 20
83.964386
 30
0.0
  0
VERTEX
  5
14E2
100
AcDbEntity
  8
ALPHA
100
AcDbVertex
100
AcDb2dVertex
 10
34.083661
 20
83.806459
 30
0.0
  0
VERTEX
  5
14E3
100
AcDbEntity
  8
ALPHA
100
AcDbVertex
100
AcDb2dVertex
 10
33.774501
 20
83.618605
 30
0.0
  0
VERTEX
  5
14E4
100
AcDbEntity
  8
ALPHA
100
AcDbVertex
100
AcDb2dVertex
 10
33.485846
 20
83.402708
 30
0.0
  0
VERTEX
  5
14E5
100
AcDbEntity
  8
ALPHA
100
AcDbVertex
100
AcDb2dVertex
 10
33.219579
 20
83.160653
 30
0.0
  0
VERTEX
  5
14E6
100
AcDbEntity
  8
ALPHA
100
AcDbVertex
100
AcDb2dVertex
 10
32.977584
 20
82.894327
 30
0.0
  0
VERTEX
  5
14E7
100
AcDbEntity
  8
ALPHA
100
AcDbVertex
100
AcDb2dVertex
 10
32.761745
 20
82.605615
 30
0.0
  0
VERTEX
  5
14E8
100
AcDbEntity
  8
ALPHA
100
AcDbVertex
100
AcDb2dVertex
 10
32.573943
 20
82.296401
 30
0.0
  0
VERTEX
  5
14E9
100
AcDbEntity
  8
ALPHA
100
AcDbVertex
100
AcDb2dVertex
 10
32.416065
 20
81.968571
 30
0.0
  0
VERTEX
  5
14EA
100
AcDbEntity
  8
ALPHA
100
AcDbVertex
100
AcDb2dVertex
 10
32.289991
 20
81.624011
 30
0.0
  0
VERTEX
  5
14EB
100
AcDbEntity
  8
ALPHA
100
AcDbVertex
100
AcDb2dVertex
 10
32.197607
 20
81.264606
 30
0.0
  0
VERTEX
  5
14EC
100
AcDbEntity
  8
ALPHA
100
AcDbVertex
100
AcDb2dVertex
 10
32.140795
 20
80.892241
 30
0.0
  0
VERTEX
  5
14ED
100
AcDbEntity
  8
ALPHA
100
AcDbVertex
100
AcDb2dVertex
 10
32.121439
 20
80.508801
 30
0.0
  0
VERTEX
  5
14EE
100
AcDbEntity
  8
ALPHA
100
AcDbVertex
100
AcDb2dVertex
 10
32.140795
 20
80.125368
 30
0.0
  0
VERTEX
  5
14EF
100
AcDbEntity
  8
ALPHA
100
AcDbVertex
100
AcDb2dVertex
 10
32.197607
 20
79.753024
 30
0.0
  0
VERTEX
  5
14F0
100
AcDbEntity
  8
ALPHA
100
AcDbVertex
100
AcDb2dVertex
 10
32.289991
 20
79.393652
 30
0.0
  0
VERTEX
  5
14F1
100
AcDbEntity
  8
ALPHA
100
AcDbVertex
100
AcDb2dVertex
 10
32.416065
 20
79.049135
 30
0.0
  0
VERTEX
  5
14F2
100
AcDbEntity
  8
ALPHA
100
AcDbVertex
100
AcDb2dVertex
 10
32.573943
 20
78.721356
 30
0.0
  0
VERTEX
  5
14F3
100
AcDbEntity
  8
ALPHA
100
AcDbVertex
100
AcDb2dVertex
 10
32.761745
 20
78.412199
 30
0.0
  0
VERTEX
  5
14F4
100
AcDbEntity
  8
ALPHA
100
AcDbVertex
100
AcDb2dVertex
 10
32.977584
 20
78.123547
 30
0.0
  0
VERTEX
  5
14F5
100
AcDbEntity
  8
ALPHA
100
AcDbVertex
100
AcDb2dVertex
 10
33.219579
 20
77.857283
 30
0.0
  0
VERTEX
  5
14F6
100
AcDbEntity
  8
ALPHA
100
AcDbVertex
100
AcDb2dVertex
 10
33.485846
 20
77.615291
 30
0.0
  0
VERTEX
  5
14F7
100
AcDbEntity
  8
ALPHA
100
AcDbVertex
100
AcDb2dVertex
 10
33.774501
 20
77.399455
 30
0.0
  0
VERTEX
  5
14F8
100
AcDbEntity
  8
ALPHA
100
AcDbVertex
100
AcDb2dVertex
 10
34.083661
 20
77.211657
 30
0.0
  0
VERTEX
  5
14F9
100
AcDbEntity
  8
ALPHA
100
AcDbVertex
100
AcDb2dVertex
 10
34.411443
 20
77.053781
 30
0.0
  0
VERTEX
  5
14FA
100
AcDbEntity
  8
ALPHA
100
AcDbVertex
100
AcDb2dVertex
 10
34.755962
 20
76.92771
 30
0.0
  0
VERTEX
  5
14FB
100
AcDbEntity
  8
ALPHA
100
AcDbVertex
100
AcDb2dVertex
 10
35.115336
 20
76.835327
 30
0.0
  0
VERTEX
  5
14FC
100
AcDbEntity
  8
ALPHA
100
AcDbVertex
100
AcDb2dVertex
 10
35.487682
 20
76.778516
 30
0.0
  0
VERTEX
  5
14FD
100
AcDbEntity
  8
ALPHA
100
AcDbVertex
100
AcDb2dVertex
 10
35.871114
 20
76.759161
 30
0.0
  0
VERTEX
  5
14FE
100
AcDbEntity
  8
ALPHA
100
AcDbVertex
100
AcDb2dVertex
 10
36.254549
 20
76.778516
 30
0.0
  0
VERTEX
  5
14FF
100
AcDbEntity
  8
ALPHA
100
AcDbVertex
100
AcDb2dVertex
 10
36.62691
 20
76.835327
 30
0.0
  0
VERTEX
  5
1500
100
AcDbEntity
  8
ALPHA
100
AcDbVertex
100
AcDb2dVertex
 10
36.986312
 20
76.92771
 30
0.0
  0
VERTEX
  5
1501
100
AcDbEntity
  8
ALPHA
100
AcDbVertex
100
AcDb2dVertex
 10
37.33087
 20
77.053781
 30
0.0
  0
VERTEX
  5
1502
100
AcDbEntity
  8
ALPHA
100
AcDbVertex
100
AcDb2dVertex
 10
37.658699
 20
77.211657
 30
0.0
  0
VERTEX
  5
1503
100
AcDbEntity
  8
ALPHA
100
AcDbVertex
100
AcDb2dVertex
 10
37.967913
 20
77.399455
 30
0.0
  0
VERTEX
  5
1504
100
AcDbEntity
  8
ALPHA
100
AcDbVertex
100
AcDb2dVertex
 10
38.256626
 20
77.615291
 30
0.0
  0
VERTEX
  5
1505
100
AcDbEntity
  8
ALPHA
100
AcDbVertex
100
AcDb2dVertex
 10
38.522954
 20
77.857283
 30
0.0
  0
VERTEX
  5
1506
100
AcDbEntity
  8
ALPHA
100
AcDbVertex
100
AcDb2dVertex
 10
38.76501
 20
78.123547
 30
0.0
  0
VERTEX
  5
1507
100
AcDbEntity
  8
ALPHA
100
AcDbVertex
100
AcDb2dVertex
 10
38.980909
 20
78.412199
 30
0.0
  0
VERTEX
  5
1508
100
AcDbEntity
  8
ALPHA
100
AcDbVertex
100
AcDb2dVertex
 10
39.168766
 20
78.721356
 30
0.0
  0
VERTEX
  5
1509
100
AcDbEntity
  8
ALPHA
100
AcDbVertex
100
AcDb2dVertex
 10
39.326695
 20
79.049135
 30
0.0
  0
VERTEX
  5
150A
100
AcDbEntity
  8
ALPHA
100
AcDbVertex
100
AcDb2dVertex
 10
39.452811
 20
79.393652
 30
0.0
  0
VERTEX
  5
150B
100
AcDbEntity
  8
ALPHA
100
AcDbVertex
100
AcDb2dVertex
 10
39.545228
 20
79.753024
 30
0.0
  0
VERTEX
  5
150C
100
AcDbEntity
  8
ALPHA
100
AcDbVertex
100
AcDb2dVertex
 10
39.602061
 20
80.125368
 30
0.0
  0
VERTEX
  5
150D
100
AcDbEntity
  8
ALPHA
100
AcDbVertex
100
AcDb2dVertex
 10
39.621424
 20
80.508801
 30
0.0
  0
SEQEND
  5
150E
100
AcDbEntity
  8
ALPHA
  0
POLYLINE
  5
150F
100
AcDbEntity
  8
ALPHA
100
AcDb2dPolyline
 66
     1
 10
0.0
 20
0.0
 30
0.0
  0
VERTEX
  5
1510
100
AcDbEntity
  8
ALPHA
100
AcDbVertex
100
AcDb2dVertex
 10
31.386286
 20
44.008683
 30
0.0
  0
VERTEX
  5
1511
100
AcDbEntity
  8
ALPHA
100
AcDbVertex
100
AcDb2dVertex
 10
39.886008
 20
44.008683
 30
0.0
  0
SEQEND
  5
1512
100
AcDbEntity
  8
ALPHA
  0
POLYLINE
  5
1513
100
AcDbEntity
  8
ALPHA
100
AcDb2dPolyline
 66
     1
 10
0.0
 20
0.0
 30
0.0
  0
VERTEX
  5
1514
100
AcDbEntity
  8
ALPHA
100
AcDbVertex
100
AcDb2dVertex
 10
30.76134
 20
48.524521
 30
0.0
  0
VERTEX
  5
1515
100
AcDbEntity
  8
ALPHA
100
AcDbVertex
100
AcDb2dVertex
 10
40.386247
 20
48.508681
 30
0.0
  0
SEQEND
  5
1516
100
AcDbEntity
  8
ALPHA
  0
POLYLINE
  5
1517
100
AcDbEntity
  8
ALPHA
100
AcDb2dPolyline
 66
     1
 10
0.0
 20
0.0
 30
0.0
  0
VERTEX
  5
1518
100
AcDbEntity
  8
ALPHA
100
AcDbVertex
100
AcDb2dVertex
 10
30.136394
 20
57.508642
 30
0.0
  0
VERTEX
  5
1519
100
AcDbEntity
  8
ALPHA
100
AcDbVertex
100
AcDb2dVertex
 10
41.135899
 20
57.508642
 30
0.0
  0
SEQEND
  5
151A
100
AcDbEntity
  8
ALPHA
  0
POLYLINE
  5
151B
100
AcDbEntity
  8
ALPHA
100
AcDb2dPolyline
 66
     1
 10
0.0
 20
0.0
 30
0.0
  0
VERTEX
  5
151C
100
AcDbEntity
  8
ALPHA
100
AcDbVertex
100
AcDb2dVertex
 10
26.121466
 20
80.508801
 30
0.0
  0
VERTEX
  5
151D
100
AcDbEntity
  8
ALPHA
100
AcDbVertex
100
AcDb2dVertex
 10
26.102103
 20
80.892241
 30
0.0
  0
VERTEX
  5
151E
100
AcDbEntity
  8
ALPHA
100
AcDbVertex
100
AcDb2dVertex
 10
26.045271
 20
81.264606
 30
0.0
  0
VERTEX
  5
151F
100
AcDbEntity
  8
ALPHA
100
AcDbVertex
100
AcDb2dVertex
 10
25.952855
 20
81.624011
 30
0.0
  0
VERTEX
  5
1520
100
AcDbEntity
  8
ALPHA
100
AcDbVertex
100
AcDb2dVertex
 10
25.826741
 20
81.968571
 30
0.0
  0
VERTEX
  5
1521
100
AcDbEntity
  8
ALPHA
100
AcDbVertex
100
AcDb2dVertex
 10
25.668814
 20
82.296401
 30
0.0
  0
VERTEX
  5
1522
100
AcDbEntity
  8
ALPHA
100
AcDbVertex
100
AcDb2dVertex
 10
25.48096
 20
82.605615
 30
0.0
  0
VERTEX
  5
1523
100
AcDbEntity
  8
ALPHA
100
AcDbVertex
100
AcDb2dVertex
 10
25.265062
 20
82.894327
 30
0.0
  0
VERTEX
  5
1524
100
AcDbEntity
  8
ALPHA
100
AcDbVertex
100
AcDb2dVertex
 10
25.023008
 20
83.160653
 30
0.0
  0
VERTEX
  5
1525
100
AcDbEntity
  8
ALPHA
100
AcDbVertex
100
AcDb2dVertex
 10
24.756682
 20
83.402708
 30
0.0
  0
VERTEX
  5
1526
100
AcDbEntity
  8
ALPHA
100
AcDbVertex
100
AcDb2dVertex
 10
24.46797
 20
83.618605
 30
0.0
  0
VERTEX
  5
1527
100
AcDbEntity
  8
ALPHA
100
AcDbVertex
100
AcDb2dVertex
 10
24.158756
 20
83.806459
 30
0.0
  0
VERTEX
  5
1528
100
AcDbEntity
  8
ALPHA
100
AcDbVertex
100
AcDb2dVertex
 10
23.830926
 20
83.964386
 30
0.0
  0
VERTEX
  5
1529
100
AcDbEntity
  8
ALPHA
100
AcDbVertex
100
AcDb2dVertex
 10
23.486366
 20
84.0905
 30
0.0
  0
VERTEX
  5
152A
100
AcDbEntity
  8
ALPHA
100
AcDbVertex
100
AcDb2dVertex
 10
23.126961
 20
84.182916
 30
0.0
  0
VERTEX
  5
152B
100
AcDbEntity
  8
ALPHA
100
AcDbVertex
100
AcDb2dVertex
 10
22.754595
 20
84.239748
 30
0.0
  0
VERTEX
  5
152C
100
AcDbEntity
  8
ALPHA
100
AcDbVertex
100
AcDb2dVertex
 10
22.371156
 20
84.259111
 30
0.0
  0
VERTEX
  5
152D
100
AcDbEntity
  8
ALPHA
100
AcDbVertex
100
AcDb2dVertex
 10
21.987723
 20
84.239748
 30
0.0
  0
VERTEX
  5
152E
100
AcDbEntity
  8
ALPHA
100
AcDbVertex
100
AcDb2dVertex
 10
21.615379
 20
84.182916
 30
0.0
  0
VERTEX
  5
152F
100
AcDbEntity
  8
ALPHA
100
AcDbVertex
100
AcDb2dVertex
 10
21.256007
 20
84.0905
 30
0.0
  0
VERTEX
  5
1530
100
AcDbEntity
  8
ALPHA
100
AcDbVertex
100
AcDb2dVertex
 10
20.91149
 20
83.964386
 30
0.0
  0
VERTEX
  5
1531
100
AcDbEntity
  8
ALPHA
100
AcDbVertex
100
AcDb2dVertex
 10
20.583711
 20
83.806459
 30
0.0
  0
VERTEX
  5
1532
100
AcDbEntity
  8
ALPHA
100
AcDbVertex
100
AcDb2dVertex
 10
20.274554
 20
83.618605
 30
0.0
  0
VERTEX
  5
1533
100
AcDbEntity
  8
ALPHA
100
AcDbVertex
100
AcDb2dVertex
 10
19.985902
 20
83.402708
 30
0.0
  0
VERTEX
  5
1534
100
AcDbEntity
  8
ALPHA
100
AcDbVertex
100
AcDb2dVertex
 10
19.719638
 20
83.160653
 30
0.0
  0
VERTEX
  5
1535
100
AcDbEntity
  8
ALPHA
100
AcDbVertex
100
AcDb2dVertex
 10
19.477646
 20
82.894327
 30
0.0
  0
VERTEX
  5
1536
100
AcDbEntity
  8
ALPHA
100
AcDbVertex
100
AcDb2dVertex
 10
19.26181
 20
82.605615
 30
0.0
  0
VERTEX
  5
1537
100
AcDbEntity
  8
ALPHA
100
AcDbVertex
100
AcDb2dVertex
 10
19.074012
 20
82.296401
 30
0.0
  0
VERTEX
  5
1538
100
AcDbEntity
  8
ALPHA
100
AcDbVertex
100
AcDb2dVertex
 10
18.916135
 20
81.968571
 30
0.0
  0
VERTEX
  5
1539
100
AcDbEntity
  8
ALPHA
100
AcDbVertex
100
AcDb2dVertex
 10
18.790064
 20
81.624011
 30
0.0
  0
VERTEX
  5
153A
100
AcDbEntity
  8
ALPHA
100
AcDbVertex
100
AcDb2dVertex
 10
18.697682
 20
81.264606
 30
0.0
  0
VERTEX
  5
153B
100
AcDbEntity
  8
ALPHA
100
AcDbVertex
100
AcDb2dVertex
 10
18.640871
 20
80.892241
 30
0.0
  0
VERTEX
  5
153C
100
AcDbEntity
  8
ALPHA
100
AcDbVertex
100
AcDb2dVertex
 10
18.621516
 20
80.508801
 30
0.0
  0
VERTEX
  5
153D
100
AcDbEntity
  8
ALPHA
100
AcDbVertex
100
AcDb2dVertex
 10
18.640871
 20
80.125368
 30
0.0
  0
VERTEX
  5
153E
100
AcDbEntity
  8
ALPHA
100
AcDbVertex
100
AcDb2dVertex
 10
18.697682
 20
79.753024
 30
0.0
  0
VERTEX
  5
153F
100
AcDbEntity
  8
ALPHA
100
AcDbVertex
100
AcDb2dVertex
 10
18.790064
 20
79.393652
 30
0.0
  0
VERTEX
  5
1540
100
AcDbEntity
  8
ALPHA
100
AcDbVertex
100
AcDb2dVertex
 10
18.916135
 20
79.049135
 30
0.0
  0
VERTEX
  5
1541
100
AcDbEntity
  8
ALPHA
100
AcDbVertex
100
AcDb2dVertex
 10
19.074012
 20
78.721356
 30
0.0
  0
VERTEX
  5
1542
100
AcDbEntity
  8
ALPHA
100
AcDbVertex
100
AcDb2dVertex
 10
19.26181
 20
78.412199
 30
0.0
  0
VERTEX
  5
1543
100
AcDbEntity
  8
ALPHA
100
AcDbVertex
100
AcDb2dVertex
 10
19.477646
 20
78.123547
 30
0.0
  0
VERTEX
  5
1544
100
AcDbEntity
  8
ALPHA
100
AcDbVertex
100
AcDb2dVertex
 10
19.719638
 20
77.857283
 30
0.0
  0
VERTEX
  5
1545
100
AcDbEntity
  8
ALPHA
100
AcDbVertex
100
AcDb2dVertex
 10
19.985902
 20
77.615291
 30
0.0
  0
VERTEX
  5
1546
100
AcDbEntity
  8
ALPHA
100
AcDbVertex
100
AcDb2dVertex
 10
20.274554
 20
77.399455
 30
0.0
  0
VERTEX
  5
1547
100
AcDbEntity
  8
ALPHA
100
AcDbVertex
100
AcDb2dVertex
 10
20.583711
 20
77.211657
 30
0.0
  0
VERTEX
  5
1548
100
AcDbEntity
  8
ALPHA
100
AcDbVertex
100
AcDb2dVertex
 10
20.91149
 20
77.053781
 30
0.0
  0
VERTEX
  5
1549
100
AcDbEntity
  8
ALPHA
100
AcDbVertex
100
AcDb2dVertex
 10
21.256007
 20
76.92771
 30
0.0
  0
VERTEX
  5
154A
100
AcDbEntity
  8
ALPHA
100
AcDbVertex
100
AcDb2dVertex
 10
21.615379
 20
76.835327
 30
0.0
  0
VERTEX
  5
154B
100
AcDbEntity
  8
ALPHA
100
AcDbVertex
100
AcDb2dVertex
 10
21.987723
 20
76.778516
 30
0.0
  0
VERTEX
  5
154C
100
AcDbEntity
  8
ALPHA
100
AcDbVertex
100
AcDb2dVertex
 10
22.371156
 20
76.759161
 30
0.0
  0
VERTEX
  5
154D
100
AcDbEntity
  8
ALPHA
100
AcDbVertex
100
AcDb2dVertex
 10
22.754595
 20
76.778516
 30
0.0
  0
VERTEX
  5
154E
100
AcDbEntity
  8
ALPHA
100
AcDbVertex
100
AcDb2dVertex
 10
23.126961
 20
76.835327
 30
0.0
  0
VERTEX
  5
154F
100
AcDbEntity
  8
ALPHA
100
AcDbVertex
100
AcDb2dVertex
 10
23.486366
 20
76.92771
 30
0.0
  0
VERTEX
  5
1550
100
AcDbEntity
  8
ALPHA
100
AcDbVertex
100
AcDb2dVertex
 10
23.830926
 20
77.053781
 30
0.0
  0
VERTEX
  5
1551
100
AcDbEntity
  8
ALPHA
100
AcDbVertex
100
AcDb2dVertex
 10
24.158756
 20
77.211657
 30
0.0
  0
VERTEX
  5
1552
100
AcDbEntity
  8
ALPHA
100
AcDbVertex
100
AcDb2dVertex
 10
24.46797
 20
77.399455
 30
0.0
  0
VERTEX
  5
1553
100
AcDbEntity
  8
ALPHA
100
AcDbVertex
100
AcDb2dVertex
 10
24.756682
 20
77.615291
 30
0.0
  0
VERTEX
  5
1554
100
AcDbEntity
  8
ALPHA
100
AcDbVertex
100
AcDb2dVertex
 10
25.023008
 20
77.857283
 30
0.0
  0
VERTEX
  5
1555
100
AcDbEntity
  8
ALPHA
100
AcDbVertex
100
AcDb2dVertex
 10
25.265062
 20
78.123547
 30
0.0
  0
VERTEX
  5
1556
100
AcDbEntity
  8
ALPHA
100
AcDbVertex
100
AcDb2dVertex
 10
25.48096
 20
78.412199
 30
0.0
  0
VERTEX
  5
1557
100
AcDbEntity
  8
ALPHA
100
AcDbVertex
100
AcDb2dVertex
 10
25.668814
 20
78.721356
 30
0.0
  0
VERTEX
  5
1558
100
AcDbEntity
  8
ALPHA
100
AcDbVertex
100
AcDb2dVertex
 10
25.826741
 20
79.049135
 30
0.0
  0
VERTEX
  5
1559
100
AcDbEntity
  8
ALPHA
100
AcDbVertex
100
AcDb2dVertex
 10
25.952855
 20
79.393652
 30
0.0
  0
VERTEX
  5
155A
100
AcDbEntity
  8
ALPHA
100
AcDbVertex
100
AcDb2dVertex
 10
26.045271
 20
79.753024
 30
0.0
  0
VERTEX
  5
155B
100
AcDbEntity
  8
ALPHA
100
AcDbVertex
100
AcDb2dVertex
 10
26.102103
 20
80.125368
 30
0.0
  0
VERTEX
  5
155C
100
AcDbEntity
  8
ALPHA
100
AcDbVertex
100
AcDb2dVertex
 10
26.121466
 20
80.508801
 30
0.0
  0
SEQEND
  5
155D
100
AcDbEntity
  8
ALPHA
  0
POLYLINE
  5
155E
100
AcDbEntity
  8
ALPHA
100
AcDb2dPolyline
 66
     1
 10
0.0
 20
0.0
 30
0.0
  0
VERTEX
  5
155F
100
AcDbEntity
  8
ALPHA
100
AcDbVertex
100
AcDb2dVertex
 10
23.078087
 20
80.508801
 30
0.0
  0
VERTEX
  5
1560
100
AcDbEntity
  8
ALPHA
100
AcDbVertex
100
AcDb2dVertex
 10
25.376646
 20
82.807007
 30
0.0
  0
SEQEND
  5
1561
100
AcDbEntity
  8
ALPHA
  0
POLYLINE
  5
1562
100
AcDbEntity
  8
ALPHA
100
AcDb2dPolyline
 66
     1
 10
0.0
 20
0.0
 30
0.0
  0
VERTEX
  5
1563
100
AcDbEntity
  8
ALPHA
100
AcDbVertex
100
AcDb2dVertex
 10
21.664224
 20
80.508801
 30
0.0
  0
VERTEX
  5
1564
100
AcDbEntity
  8
ALPHA
100
AcDbVertex
100
AcDb2dVertex
 10
20.105652
 20
82.067338
 30
0.0
  0
SEQEND
  5
1565
100
AcDbEntity
  8
ALPHA
  0
POLYLINE
  5
1566
100
AcDbEntity
  8
ALPHA
100
AcDb2dPolyline
 66
     1
 10
0.0
 20
0.0
 30
0.0
  0
VERTEX
  5
1567
100
AcDbEntity
  8
ALPHA
100
AcDbVertex
100
AcDb2dVertex
 10
36.578046
 20
80.508801
 30
0.0
  0
VERTEX
  5
1568
100
AcDbEntity
  8
ALPHA
100
AcDbVertex
100
AcDb2dVertex
 10
38.876605
 20
82.807007
 30
0.0
  0
SEQEND
  5
1569
100
AcDbEntity
  8
ALPHA
  0
POLYLINE
  5
156A
100
AcDbEntity
  8
ALPHA
100
AcDb2dPolyline
 66
     1
 10
0.0
 20
0.0
 30
0.0
  0
VERTEX
  5
156B
100
AcDbEntity
  8
ALPHA
100
AcDbVertex
100
AcDb2dVertex
 10
35.164148
 20
80.508801
 30
0.0
  0
VERTEX
  5
156C
100
AcDbEntity
  8
ALPHA
100
AcDbVertex
100
AcDb2dVertex
 10
33.605611
 20
82.067338
 30
0.0
  0
SEQEND
  5
156D
100
AcDbEntity
  8
ALPHA
  0
POLYLINE
  5
156E
100
AcDbEntity
  8
ALPHA
100
AcDb2dPolyline
 66
     1
 10
0.0
 20
0.0
 30
0.0
  0
VERTEX
  5
156F
100
AcDbEntity
  8
ALPHA
100
AcDbVertex
100
AcDb2dVertex
 10
25.131359
 20
43.50915
 30
0.0
  0
VERTEX
  5
1570
100
AcDbEntity
  8
ALPHA
100
AcDbVertex
100
AcDb2dVertex
 10
25.131359
 20
66.00907
 30
0.0
  0
SEQEND
  5
1571
100
AcDbEntity
  8
ALPHA
  0
POLYLINE
  5
1572
100
AcDbEntity
  8
ALPHA
100
AcDb2dPolyline
 66
     1
 10
0.0
 20
0.0
 30
0.0
  0
VERTEX
  5
1573
100
AcDbEntity
  8
ALPHA
100
AcDbVertex
100
AcDb2dVertex
 10
21.133682
 20
56.50887
 30
0.0
  0
VERTEX
  5
1574
100
AcDbEntity
  8
ALPHA
100
AcDbVertex
100
AcDb2dVertex
 10
21.125935
 20
56.662202
 30
0.0
  0
VERTEX
  5
1575
100
AcDbEntity
  8
ALPHA
100
AcDbVertex
100
AcDb2dVertex
 10
21.103198
 20
56.811112
 30
0.0
  0
VERTEX
  5
1576
100
AcDbEntity
  8
ALPHA
100
AcDbVertex
100
AcDb2dVertex
 10
21.066226
 20
56.954847
 30
0.0
  0
VERTEX
  5
1577
100
AcDbEntity
  8
ALPHA
100
AcDbVertex
100
AcDb2dVertex
 10
21.015773
 20
57.09265
 30
0.0
  0
VERTEX
  5
1578
100
AcDbEntity
  8
ALPHA
100
AcDbVertex
100
AcDb2dVertex
 10
20.952595
 20
57.223768
 30
0.0
  0
VERTEX
  5
1579
100
AcDbEntity
  8
ALPHA
100
AcDbVertex
100
AcDb2dVertex
 10
20.877446
 20
57.347445
 30
0.0
  0
VERTEX
  5
157A
100
AcDbEntity
  8
ALPHA
100
AcDbVertex
100
AcDb2dVertex
 10
20.791082
 20
57.462926
 30
0.0
  0
VERTEX
  5
157B
100
AcDbEntity
  8
ALPHA
100
AcDbVertex
100
AcDb2dVertex
 10
20.694257
 20
57.569457
 30
0.0
  0
VERTEX
  5
157C
100
AcDbEntity
  8
ALPHA
100
AcDbVertex
100
AcDb2dVertex
 10
20.587727
 20
57.666281
 30
0.0
  0
VERTEX
  5
157D
100
AcDbEntity
  8
ALPHA
100
AcDbVertex
100
AcDb2dVertex
 10
20.472246
 20
57.752645
 30
0.0
  0
VERTEX
  5
157E
100
AcDbEntity
  8
ALPHA
100
AcDbVertex
100
AcDb2dVertex
 10
20.348569
 20
57.827794
 30
0.0
  0
VERTEX
  5
157F
100
AcDbEntity
  8
ALPHA
100
AcDbVertex
100
AcDb2dVertex
 10
20.217451
 20
57.890972
 30
0.0
  0
VERTEX
  5
1580
100
AcDbEntity
  8
ALPHA
100
AcDbVertex
100
AcDb2dVertex
 10
20.079647
 20
57.941425
 30
0.0
  0
VERTEX
  5
1581
100
AcDbEntity
  8
ALPHA
100
AcDbVertex
100
AcDb2dVertex
 10
19.935913
 20
57.978397
 30
0.0
  0
VERTEX
  5
1582
100
AcDbEntity
  8
ALPHA
100
AcDbVertex
100
AcDb2dVertex
 10
19.787002
 20
58.001134
 30
0.0
  0
VERTEX
  5
1583
100
AcDbEntity
  8
ALPHA
100
AcDbVertex
100
AcDb2dVertex
 10
19.633671
 20
58.008881
 30
0.0
  0
VERTEX
  5
1584
100
AcDbEntity
  8
ALPHA
100
AcDbVertex
100
AcDb2dVertex
 10
19.480345
 20
58.001134
 30
0.0
  0
VERTEX
  5
1585
100
AcDbEntity
  8
ALPHA
100
AcDbVertex
100
AcDb2dVertex
 10
19.33144
 20
57.978397
 30
0.0
  0
VERTEX
  5
1586
100
AcDbEntity
  8
ALPHA
100
AcDbVertex
100
AcDb2dVertex
 10
19.18771
 20
57.941425
 30
0.0
  0
VERTEX
  5
1587
100
AcDbEntity
  8
ALPHA
100
AcDbVertex
100
AcDb2dVertex
 10
19.04991
 20
57.890972
 30
0.0
  0
VERTEX
  5
1588
100
AcDbEntity
  8
ALPHA
100
AcDbVertex
100
AcDb2dVertex
 10
18.918796
 20
57.827794
 30
0.0
  0
VERTEX
  5
1589
100
AcDbEntity
  8
ALPHA
100
AcDbVertex
100
AcDb2dVertex
 10
18.795122
 20
57.752645
 30
0.0
  0
VERTEX
  5
158A
100
AcDbEntity
  8
ALPHA
100
AcDbVertex
100
AcDb2dVertex
 10
18.679643
 20
57.666281
 30
0.0
  0
VERTEX
  5
158B
100
AcDbEntity
  8
ALPHA
100
AcDbVertex
100
AcDb2dVertex
 10
18.573115
 20
57.569457
 30
0.0
  0
VERTEX
  5
158C
100
AcDbEntity
  8
ALPHA
100
AcDbVertex
100
AcDb2dVertex
 10
18.476291
 20
57.462926
 30
0.0
  0
VERTEX
  5
158D
100
AcDbEntity
  8
ALPHA
100
AcDbVertex
100
AcDb2dVertex
 10
18.389928
 20
57.347445
 30
0.0
  0
VERTEX
  5
158E
100
AcDbEntity
  8
ALPHA
100
AcDbVertex
100
AcDb2dVertex
 10
18.314781
 20
57.223768
 30
0.0
  0
VERTEX
  5
158F
100
AcDbEntity
  8
ALPHA
100
AcDbVertex
100
AcDb2dVertex
 10
18.251603
 20
57.09265
 30
0.0
  0
VERTEX
  5
1590
100
AcDbEntity
  8
ALPHA
100
AcDbVertex
100
AcDb2dVertex
 10
18.201151
 20
56.954847
 30
0.0
  0
VERTEX
  5
1591
100
AcDbEntity
  8
ALPHA
100
AcDbVertex
100
AcDb2dVertex
 10
18.164178
 20
56.811112
 30
0.0
  0
VERTEX
  5
1592
100
AcDbEntity
  8
ALPHA
100
AcDbVertex
100
AcDb2dVertex
 10
18.141441
 20
56.662202
 30
0.0
  0
VERTEX
  5
1593
100
AcDbEntity
  8
ALPHA
100
AcDbVertex
100
AcDb2dVertex
 10
18.133695
 20
56.50887
 30
0.0
  0
VERTEX
  5
1594
100
AcDbEntity
  8
ALPHA
100
AcDbVertex
100
AcDb2dVertex
 10
18.141441
 20
56.355544
 30
0.0
  0
VERTEX
  5
1595
100
AcDbEntity
  8
ALPHA
100
AcDbVertex
100
AcDb2dVertex
 10
18.164178
 20
56.206639
 30
0.0
  0
VERTEX
  5
1596
100
AcDbEntity
  8
ALPHA
100
AcDbVertex
100
AcDb2dVertex
 10
18.201151
 20
56.062909
 30
0.0
  0
VERTEX
  5
1597
100
AcDbEntity
  8
ALPHA
100
AcDbVertex
100
AcDb2dVertex
 10
18.251603
 20
55.92511
 30
0.0
  0
VERTEX
  5
1598
100
AcDbEntity
  8
ALPHA
100
AcDbVertex
100
AcDb2dVertex
 10
18.314781
 20
55.793995
 30
0.0
  0
VERTEX
  5
1599
100
AcDbEntity
  8
ALPHA
100
AcDbVertex
100
AcDb2dVertex
 10
18.389928
 20
55.670321
 30
0.0
  0
VERTEX
  5
159A
100
AcDbEntity
  8
ALPHA
100
AcDbVertex
100
AcDb2dVertex
 10
18.476291
 20
55.554843
 30
0.0
  0
VERTEX
  5
159B
100
AcDbEntity
  8
ALPHA
100
AcDbVertex
100
AcDb2dVertex
 10
18.573115
 20
55.448314
 30
0.0
  0
VERTEX
  5
159C
100
AcDbEntity
  8
ALPHA
100
AcDbVertex
100
AcDb2dVertex
 10
18.679643
 20
55.351491
 30
0.0
  0
VERTEX
  5
159D
100
AcDbEntity
  8
ALPHA
100
AcDbVertex
100
AcDb2dVertex
 10
18.795122
 20
55.265128
 30
0.0
  0
VERTEX
  5
159E
100
AcDbEntity
  8
ALPHA
100
AcDbVertex
100
AcDb2dVertex
 10
18.918796
 20
55.18998
 30
0.0
  0
VERTEX
  5
159F
100
AcDbEntity
  8
ALPHA
100
AcDbVertex
100
AcDb2dVertex
 10
19.04991
 20
55.126802
 30
0.0
  0
VERTEX
  5
15A0
100
AcDbEntity
  8
ALPHA
100
AcDbVertex
100
AcDb2dVertex
 10
19.18771
 20
55.07635
 30
0.0
  0
VERTEX
  5
15A1
100
AcDbEntity
  8
ALPHA
100
AcDbVertex
100
AcDb2dVertex
 10
19.33144
 20
55.039378
 30
0.0
  0
VERTEX
  5
15A2
100
AcDbEntity
  8
ALPHA
100
AcDbVertex
100
AcDb2dVertex
 10
19.480345
 20
55.016641
 30
0.0
  0
VERTEX
  5
15A3
100
AcDbEntity
  8
ALPHA
100
AcDbVertex
100
AcDb2dVertex
 10
19.633671
 20
55.008894
 30
0.0
  0
VERTEX
  5
15A4
100
AcDbEntity
  8
ALPHA
100
AcDbVertex
100
AcDb2dVertex
 10
19.787002
 20
55.016641
 30
0.0
  0
VERTEX
  5
15A5
100
AcDbEntity
  8
ALPHA
100
AcDbVertex
100
AcDb2dVertex
 10
19.935913
 20
55.039378
 30
0.0
  0
VERTEX
  5
15A6
100
AcDbEntity
  8
ALPHA
100
AcDbVertex
100
AcDb2dVertex
 10
20.079647
 20
55.07635
 30
0.0
  0
VERTEX
  5
15A7
100
AcDbEntity
  8
ALPHA
100
AcDbVertex
100
AcDb2dVertex
 10
20.217451
 20
55.126802
 30
0.0
  0
VERTEX
  5
15A8
100
AcDbEntity
  8
ALPHA
100
AcDbVertex
100
AcDb2dVertex
 10
20.348569
 20
55.18998
 30
0.0
  0
VERTEX
  5
15A9
100
AcDbEntity
  8
ALPHA
100
AcDbVertex
100
AcDb2dVertex
 10
20.472246
 20
55.265128
 30
0.0
  0
VERTEX
  5
15AA
100
AcDbEntity
  8
ALPHA
100
AcDbVertex
100
AcDb2dVertex
 10
20.587727
 20
55.351491
 30
0.0
  0
VERTEX
  5
15AB
100
AcDbEntity
  8
ALPHA
100
AcDbVertex
100
AcDb2dVertex
 10
20.694257
 20
55.448314
 30
0.0
  0
VERTEX
  5
15AC
100
AcDbEntity
  8
ALPHA
100
AcDbVertex
100
AcDb2dVertex
 10
20.791082
 20
55.554843
 30
0.0
  0
VERTEX
  5
15AD
100
AcDbEntity
  8
ALPHA
100
AcDbVertex
100
AcDb2dVertex
 10
20.877446
 20
55.670321
 30
0.0
  0
VERTEX
  5
15AE
100
AcDbEntity
  8
ALPHA
100
AcDbVertex
100
AcDb2dVertex
 10
20.952595
 20
55.793995
 30
0.0
  0
VERTEX
  5
15AF
100
AcDbEntity
  8
ALPHA
100
AcDbVertex
100
AcDb2dVertex
 10
21.015773
 20
55.92511
 30
0.0
  0
VERTEX
  5
15B0
100
AcDbEntity
  8
ALPHA
100
AcDbVertex
100
AcDb2dVertex
 10
21.066226
 20
56.062909
 30
0.0
  0
VERTEX
  5
15B1
100
AcDbEntity
  8
ALPHA
100
AcDbVertex
100
AcDb2dVertex
 10
21.103198
 20
56.206639
 30
0.0
  0
VERTEX
  5
15B2
100
AcDbEntity
  8
ALPHA
100
AcDbVertex
100
AcDb2dVertex
 10
21.125935
 20
56.355544
 30
0.0
  0
VERTEX
  5
15B3
100
AcDbEntity
  8
ALPHA
100
AcDbVertex
100
AcDb2dVertex
 10
21.133682
 20
56.50887
 30
0.0
  0
SEQEND
  5
15B4
100
AcDbEntity
  8
ALPHA
  0
POLYLINE
  5
15B5
100
AcDbEntity
  8
ALPHA
100
AcDb2dPolyline
 66
     1
 10
0.0
 20
0.0
 30
0.0
  0
VERTEX
  5
15B6
100
AcDbEntity
  8
ALPHA
100
AcDbVertex
100
AcDb2dVertex
 10
14.636221
 20
43.008911
 30
0.0
  0
VERTEX
  5
15B7
100
AcDbEntity
  8
ALPHA
100
AcDbVertex
100
AcDb2dVertex
 10
24.631121
 20
43.008911
 30
0.0
  0
SEQEND
  5
15B8
100
AcDbEntity
  8
ALPHA
  0
POLYLINE
  5
15B9
100
AcDbEntity
  8
ALPHA
100
AcDb2dPolyline
 66
     1
 10
0.0
 20
0.0
 30
0.0
  0
VERTEX
  5
15BA
100
AcDbEntity
  8
ALPHA
100
AcDbVertex
100
AcDb2dVertex
 10
20.883562
 20
56.50887
 30
0.0
  0
VERTEX
  5
15BB
100
AcDbEntity
  8
ALPHA
100
AcDbVertex
100
AcDb2dVertex
 10
20.87711
 20
56.636679
 30
0.0
  0
VERTEX
  5
15BC
100
AcDbEntity
  8
ALPHA
100
AcDbVertex
100
AcDb2dVertex
 10
20.858173
 20
56.760792
 30
0.0
  0
VERTEX
  5
15BD
100
AcDbEntity
  8
ALPHA
100
AcDbVertex
100
AcDb2dVertex
 10
20.827377
 20
56.880583
 30
0.0
  0
VERTEX
  5
15BE
100
AcDbEntity
  8
ALPHA
100
AcDbVertex
100
AcDb2dVertex
 10
20.785352
 20
56.995422
 30
0.0
  0
VERTEX
  5
15BF
100
AcDbEntity
  8
ALPHA
100
AcDbVertex
100
AcDb2dVertex
 10
20.732725
 20
57.104682
 30
0.0
  0
VERTEX
  5
15C0
100
AcDbEntity
  8
ALPHA
100
AcDbVertex
100
AcDb2dVertex
 10
20.670124
 20
57.207736
 30
0.0
  0
VERTEX
  5
15C1
100
AcDbEntity
  8
ALPHA
100
AcDbVertex
100
AcDb2dVertex
 10
20.598177
 20
57.303954
 30
0.0
  0
VERTEX
  5
15C2
100
AcDbEntity
  8
ALPHA
100
AcDbVertex
100
AcDb2dVertex
 10
20.517511
 20
57.39271
 30
0.0
  0
VERTEX
  5
15C3
100
AcDbEntity
  8
ALPHA
100
AcDbVertex
100
AcDb2dVertex
 10
20.428755
 20
57.473376
 30
0.0
  0
VERTEX
  5
15C4
100
AcDbEntity
  8
ALPHA
100
AcDbVertex
100
AcDb2dVertex
 10
20.332536
 20
57.545323
 30
0.0
  0
VERTEX
  5
15C5
100
AcDbEntity
  8
ALPHA
100
AcDbVertex
100
AcDb2dVertex
 10
20.229483
 20
57.607924
 30
0.0
  0
VERTEX
  5
15C6
100
AcDbEntity
  8
ALPHA
100
AcDbVertex
100
AcDb2dVertex
 10
20.120223
 20
57.660551
 30
0.0
  0
VERTEX
  5
15C7
100
AcDbEntity
  8
ALPHA
100
AcDbVertex
100
AcDb2dVertex
 10
20.005383
 20
57.702577
 30
0.0
  0
VERTEX
  5
15C8
100
AcDbEntity
  8
ALPHA
100
AcDbVertex
100
AcDb2dVertex
 10
19.885593
 20
57.733372
 30
0.0
  0
VERTEX
  5
15C9
100
AcDbEntity
  8
ALPHA
100
AcDbVertex
100
AcDb2dVertex
 10
19.76148
 20
57.752309
 30
0.0
  0
VERTEX
  5
15CA
100
AcDbEntity
  8
ALPHA
100
AcDbVertex
100
AcDb2dVertex
 10
19.633671
 20
57.758762
 30
0.0
  0
VERTEX
  5
15CB
100
AcDbEntity
  8
ALPHA
100
AcDbVertex
100
AcDb2dVertex
 10
19.505862
 20
57.752309
 30
0.0
  0
VERTEX
  5
15CC
100
AcDbEntity
  8
ALPHA
100
AcDbVertex
100
AcDb2dVertex
 10
19.381748
 20
57.733372
 30
0.0
  0
VERTEX
  5
15CD
100
AcDbEntity
  8
ALPHA
100
AcDbVertex
100
AcDb2dVertex
 10
19.261958
 20
57.702577
 30
0.0
  0
VERTEX
  5
15CE
100
AcDbEntity
  8
ALPHA
100
AcDbVertex
100
AcDb2dVertex
 10
19.147118
 20
57.660551
 30
0.0
  0
VERTEX
  5
15CF
100
AcDbEntity
  8
ALPHA
100
AcDbVertex
100
AcDb2dVertex
 10
19.037858
 20
57.607924
 30
0.0
  0
VERTEX
  5
15D0
100
AcDbEntity
  8
ALPHA
100
AcDbVertex
100
AcDb2dVertex
 10
18.934805
 20
57.545323
 30
0.0
  0
VERTEX
  5
15D1
100
AcDbEntity
  8
ALPHA
100
AcDbVertex
100
AcDb2dVertex
 10
18.838586
 20
57.473376
 30
0.0
  0
VERTEX
  5
15D2
100
AcDbEntity
  8
ALPHA
100
AcDbVertex
100
AcDb2dVertex
 10
18.74983
 20
57.39271
 30
0.0
  0
VERTEX
  5
15D3
100
AcDbEntity
  8
ALPHA
100
AcDbVertex
100
AcDb2dVertex
 10
18.669164
 20
57.303954
 30
0.0
  0
VERTEX
  5
15D4
100
AcDbEntity
  8
ALPHA
100
AcDbVertex
100
AcDb2dVertex
 10
18.597217
 20
57.207736
 30
0.0
  0
VERTEX
  5
15D5
100
AcDbEntity
  8
ALPHA
100
AcDbVertex
100
AcDb2dVertex
 10
18.534616
 20
57.104682
 30
0.0
  0
VERTEX
  5
15D6
100
AcDbEntity
  8
ALPHA
100
AcDbVertex
100
AcDb2dVertex
 10
18.481989
 20
56.995422
 30
0.0
  0
VERTEX
  5
15D7
100
AcDbEntity
  8
ALPHA
100
AcDbVertex
100
AcDb2dVertex
 10
18.439964
 20
56.880583
 30
0.0
  0
VERTEX
  5
15D8
100
AcDbEntity
  8
ALPHA
100
AcDbVertex
100
AcDb2dVertex
 10
18.409169
 20
56.760792
 30
0.0
  0
VERTEX
  5
15D9
100
AcDbEntity
  8
ALPHA
100
AcDbVertex
100
AcDb2dVertex
 10
18.390231
 20
56.636679
 30
0.0
  0
VERTEX
  5
15DA
100
AcDbEntity
  8
ALPHA
100
AcDbVertex
100
AcDb2dVertex
 10
18.383779
 20
56.50887
 30
0.0
  0
VERTEX
  5
15DB
100
AcDbEntity
  8
ALPHA
100
AcDbVertex
100
AcDb2dVertex
 10
18.390231
 20
56.381061
 30
0.0
  0
VERTEX
  5
15DC
100
AcDbEntity
  8
ALPHA
100
AcDbVertex
100
AcDb2dVertex
 10
18.409169
 20
56.256947
 30
0.0
  0
VERTEX
  5
15DD
100
AcDbEntity
  8
ALPHA
100
AcDbVertex
100
AcDb2dVertex
 10
18.439964
 20
56.137157
 30
0.0
  0
VERTEX
  5
15DE
100
AcDbEntity
  8
ALPHA
100
AcDbVertex
100
AcDb2dVertex
 10
18.481989
 20
56.022318
 30
0.0
  0
VERTEX
  5
15DF
100
AcDbEntity
  8
ALPHA
100
AcDbVertex
100
AcDb2dVertex
 10
18.534616
 20
55.913057
 30
0.0
  0
VERTEX
  5
15E0
100
AcDbEntity
  8
ALPHA
100
AcDbVertex
100
AcDb2dVertex
 10
18.597217
 20
55.810004
 30
0.0
  0
VERTEX
  5
15E1
100
AcDbEntity
  8
ALPHA
100
AcDbVertex
100
AcDb2dVertex
 10
18.669164
 20
55.713785
 30
0.0
  0
VERTEX
  5
15E2
100
AcDbEntity
  8
ALPHA
100
AcDbVertex
100
AcDb2dVertex
 10
18.74983
 20
55.625029
 30
0.0
  0
VERTEX
  5
15E3
100
AcDbEntity
  8
ALPHA
100
AcDbVertex
100
AcDb2dVertex
 10
18.838586
 20
55.544364
 30
0.0
  0
VERTEX
  5
15E4
100
AcDbEntity
  8
ALPHA
100
AcDbVertex
100
AcDb2dVertex
 10
18.934805
 20
55.472416
 30
0.0
  0
VERTEX
  5
15E5
100
AcDbEntity
  8
ALPHA
100
AcDbVertex
100
AcDb2dVertex
 10
19.037858
 20
55.409815
 30
0.0
  0
VERTEX
  5
15E6
100
AcDbEntity
  8
ALPHA
100
AcDbVertex
100
AcDb2dVertex
 10
19.147118
 20
55.357188
 30
0.0
  0
VERTEX
  5
15E7
100
AcDbEntity
  8
ALPHA
100
AcDbVertex
100
AcDb2dVertex
 10
19.261958
 20
55.315163
 30
0.0
  0
VERTEX
  5
15E8
100
AcDbEntity
  8
ALPHA
100
AcDbVertex
100
AcDb2dVertex
 10
19.381748
 20
55.284368
 30
0.0
  0
VERTEX
  5
15E9
100
AcDbEntity
  8
ALPHA
100
AcDbVertex
100
AcDb2dVertex
 10
19.505862
 20
55.26543
 30
0.0
  0
VERTEX
  5
15EA
100
AcDbEntity
  8
ALPHA
100
AcDbVertex
100
AcDb2dVertex
 10
19.633671
 20
55.258978
 30
0.0
  0
VERTEX
  5
15EB
100
AcDbEntity
  8
ALPHA
100
AcDbVertex
100
AcDb2dVertex
 10
19.76148
 20
55.26543
 30
0.0
  0
VERTEX
  5
15EC
100
AcDbEntity
  8
ALPHA
100
AcDbVertex
100
AcDb2dVertex
 10
19.885593
 20
55.284368
 30
0.0
  0
VERTEX
  5
15ED
100
AcDbEntity
  8
ALPHA
100
AcDbVertex
100
AcDb2dVertex
 10
20.005383
 20
55.315163
 30
0.0
  0
VERTEX
  5
15EE
100
AcDbEntity
  8
ALPHA
100
AcDbVertex
100
AcDb2dVertex
 10
20.120223
 20
55.357188
 30
0.0
  0
VERTEX
  5
15EF
100
AcDbEntity
  8
ALPHA
100
AcDbVertex
100
AcDb2dVertex
 10
20.229483
 20
55.409815
 30
0.0
  0
VERTEX
  5
15F0
100
AcDbEntity
  8
ALPHA
100
AcDbVertex
100
AcDb2dVertex
 10
20.332536
 20
55.472416
 30
0.0
  0
VERTEX
  5
15F1
100
AcDbEntity
  8
ALPHA
100
AcDbVertex
100
AcDb2dVertex
 10
20.428755
 20
55.544364
 30
0.0
  0
VERTEX
  5
15F2
100
AcDbEntity
  8
ALPHA
100
AcDbVertex
100
AcDb2dVertex
 10
20.517511
 20
55.625029
 30
0.0
  0
VERTEX
  5
15F3
100
AcDbEntity
  8
ALPHA
100
AcDbVertex
100
AcDb2dVertex
 10
20.598177
 20
55.713785
 30
0.0
  0
VERTEX
  5
15F4
100
AcDbEntity
  8
ALPHA
100
AcDbVertex
100
AcDb2dVertex
 10
20.670124
 20
55.810004
 30
0.0
  0
VERTEX
  5
15F5
100
AcDbEntity
  8
ALPHA
100
AcDbVertex
100
AcDb2dVertex
 10
20.732725
 20
55.913057
 30
0.0
  0
VERTEX
  5
15F6
100
AcDbEntity
  8
ALPHA
100
AcDbVertex
100
AcDb2dVertex
 10
20.785352
 20
56.022318
 30
0.0
  0
VERTEX
  5
15F7
100
AcDbEntity
  8
ALPHA
100
AcDbVertex
100
AcDb2dVertex
 10
20.827377
 20
56.137157
 30
0.0
  0
VERTEX
  5
15F8
100
AcDbEntity
  8
ALPHA
100
AcDbVertex
100
AcDb2dVertex
 10
20.858173
 20
56.256947
 30
0.0
  0
VERTEX
  5
15F9
100
AcDbEntity
  8
ALPHA
100
AcDbVertex
100
AcDb2dVertex
 10
20.87711
 20
56.381061
 30
0.0
  0
VERTEX
  5
15FA
100
AcDbEntity
  8
ALPHA
100
AcDbVertex
100
AcDb2dVertex
 10
20.883562
 20
56.50887
 30
0.0
  0
SEQEND
  5
15FB
100
AcDbEntity
  8
ALPHA
  0
POLYLINE
  5
15FC
100
AcDbEntity
  8
ALPHA
100
AcDb2dPolyline
 66
     1
 10
0.0
 20
0.0
 30
0.0
  0
VERTEX
  5
15FD
100
AcDbEntity
  8
ALPHA
100
AcDbVertex
100
AcDb2dVertex
 10
24.631121
 20
43.008911
 30
0.0
  0
VERTEX
  5
15FE
100
AcDbEntity
  8
ALPHA
100
AcDbVertex
100
AcDb2dVertex
 10
24.682271
 20
43.011493
 30
0.0
  0
VERTEX
  5
15FF
100
AcDbEntity
  8
ALPHA
100
AcDbVertex
100
AcDb2dVertex
 10
24.731942
 20
43.019073
 30
0.0
  0
VERTEX
  5
1600
100
AcDbEntity
  8
ALPHA
100
AcDbVertex
100
AcDb2dVertex
 10
24.779884
 20
43.031399
 30
0.0
  0
VERTEX
  5
1601
100
AcDbEntity
  8
ALPHA
100
AcDbVertex
100
AcDb2dVertex
 10
24.825845
 20
43.048219
 30
0.0
  0
VERTEX
  5
1602
100
AcDbEntity
  8
ALPHA
100
AcDbVertex
100
AcDb2dVertex
 10
24.869574
 20
43.069283
 30
0.0
  0
VERTEX
  5
1603
100
AcDbEntity
  8
ALPHA
100
AcDbVertex
100
AcDb2dVertex
 10
24.910818
 20
43.094338
 30
0.0
  0
VERTEX
  5
1604
100
AcDbEntity
  8
ALPHA
100
AcDbVertex
100
AcDb2dVertex
 10
24.949328
 20
43.123134
 30
0.0
  0
VERTEX
  5
1605
100
AcDbEntity
  8
ALPHA
100
AcDbVertex
100
AcDb2dVertex
 10
24.984851
 20
43.15542
 30
0.0
  0
VERTEX
  5
1606
100
AcDbEntity
  8
ALPHA
100
AcDbVertex
100
AcDb2dVertex
 10
25.017136
 20
43.190943
 30
0.0
  0
VERTEX
  5
1607
100
AcDbEntity
  8
ALPHA
100
AcDbVertex
100
AcDb2dVertex
 10
25.045932
 20
43.229452
 30
0.0
  0
VERTEX
  5
1608
100
AcDbEntity
  8
ALPHA
100
AcDbVertex
100
AcDb2dVertex
 10
25.070988
 20
43.270697
 30
0.0
  0
VERTEX
  5
1609
100
AcDbEntity
  8
ALPHA
100
AcDbVertex
100
AcDb2dVertex
 10
25.092051
 20
43.314425
 30
0.0
  0
VERTEX
  5
160A
100
AcDbEntity
  8
ALPHA
100
AcDbVertex
100
AcDb2dVertex
 10
25.108871
 20
43.360386
 30
0.0
  0
VERTEX
  5
160B
100
AcDbEntity
  8
ALPHA
100
AcDbVertex
100
AcDb2dVertex
 10
25.121197
 20
43.408328
 30
0.0
  0
VERTEX
  5
160C
100
AcDbEntity
  8
ALPHA
100
AcDbVertex
100
AcDb2dVertex
 10
25.128777
 20
43.458
 30
0.0
  0
VERTEX
  5
160D
100
AcDbEntity
  8
ALPHA
100
AcDbVertex
100
AcDb2dVertex
 10
25.131359
 20
43.50915
 30
0.0
  0
SEQEND
  5
160E
100
AcDbEntity
  8
ALPHA
  0
POLYLINE
  5
160F
100
AcDbEntity
  8
ALPHA
100
AcDb2dPolyline
 66
     1
 10
0.0
 20
0.0
 30
0.0
  0
VERTEX
  5
1610
100
AcDbEntity
  8
ALPHA
100
AcDbVertex
100
AcDb2dVertex
 10
20.073267
 20
77.503628
 30
0.0
  0
VERTEX
  5
1611
100
AcDbEntity
  8
ALPHA
100
AcDbVertex
100
AcDb2dVertex
 10
22.371156
 20
79.801869
 30
0.0
  0
SEQEND
  5
1612
100
AcDbEntity
  8
ALPHA
  0
POLYLINE
  5
1613
100
AcDbEntity
  8
ALPHA
100
AcDb2dPolyline
 66
     1
 10
0.0
 20
0.0
 30
0.0
  0
VERTEX
  5
1614
100
AcDbEntity
  8
ALPHA
100
AcDbVertex
100
AcDb2dVertex
 10
19.36563
 20
78.210912
 30
0.0
  0
VERTEX
  5
1615
100
AcDbEntity
  8
ALPHA
100
AcDbVertex
100
AcDb2dVertex
 10
21.664224
 20
80.508801
 30
0.0
  0
SEQEND
  5
1616
100
AcDbEntity
  8
ALPHA
  0
POLYLINE
  5
1617
100
AcDbEntity
  8
ALPHA
100
AcDb2dPolyline
 66
     1
 10
0.0
 20
0.0
 30
0.0
  0
VERTEX
  5
1618
100
AcDbEntity
  8
ALPHA
100
AcDbVertex
100
AcDb2dVertex
 10
23.929692
 20
78.243297
 30
0.0
  0
VERTEX
  5
1619
100
AcDbEntity
  8
ALPHA
100
AcDbVertex
100
AcDb2dVertex
 10
22.371156
 20
79.801869
 30
0.0
  0
SEQEND
  5
161A
100
AcDbEntity
  8
ALPHA
  0
POLYLINE
  5
161B
100
AcDbEntity
  8
ALPHA
100
AcDb2dPolyline
 66
     1
 10
0.0
 20
0.0
 30
0.0
  0
VERTEX
  5
161C
100
AcDbEntity
  8
ALPHA
100
AcDbVertex
100
AcDb2dVertex
 10
24.636624
 20
78.950228
 30
0.0
  0
VERTEX
  5
161D
100
AcDbEntity
  8
ALPHA
100
AcDbVertex
100
AcDb2dVertex
 10
23.078087
 20
80.508801
 30
0.0
  0
SEQEND
  5
161E
100
AcDbEntity
  8
ALPHA
  0
POLYLINE
  5
161F
100
AcDbEntity
  8
ALPHA
100
AcDb2dPolyline
 66
     1
 10
0.0
 20
0.0
 30
0.0
  0
VERTEX
  5
1620
100
AcDbEntity
  8
ALPHA
100
AcDbVertex
100
AcDb2dVertex
 10
23.929692
 20
78.243297
 30
0.0
  0
VERTEX
  5
1621
100
AcDbEntity
  8
ALPHA
100
AcDbVertex
100
AcDb2dVertex
 10
24.130271
 20
78.39502
 30
0.0
  0
VERTEX
  5
1622
100
AcDbEntity
  8
ALPHA
100
AcDbVertex
100
AcDb2dVertex
 10
24.315728
 20
78.564193
 30
0.0
  0
VERTEX
  5
1623
100
AcDbEntity
  8
ALPHA
100
AcDbVertex
100
AcDb2dVertex
 10
24.484901
 20
78.74965
 30
0.0
  0
VERTEX
  5
1624
100
AcDbEntity
  8
ALPHA
100
AcDbVertex
100
AcDb2dVertex
 10
24.636624
 20
78.950228
 30
0.0
  0
SEQEND
  5
1625
100
AcDbEntity
  8
ALPHA
  0
POLYLINE
  5
1626
100
AcDbEntity
  8
ALPHA
100
AcDb2dPolyline
 66
     1
 10
0.0
 20
0.0
 30
0.0
  0
VERTEX
  5
1627
100
AcDbEntity
  8
ALPHA
100
AcDbVertex
100
AcDb2dVertex
 10
30.136394
 20
49.008885
 30
0.0
  0
VERTEX
  5
1628
100
AcDbEntity
  8
ALPHA
100
AcDbVertex
100
AcDb2dVertex
 10
30.136394
 20
66.00907
 30
0.0
  0
SEQEND
  5
1629
100
AcDbEntity
  8
ALPHA
  0
POLYLINE
  5
162A
100
AcDbEntity
  8
ALPHA
100
AcDb2dPolyline
 66
     1
 10
0.0
 20
0.0
 30
0.0
  0
VERTEX
  5
162B
100
AcDbEntity
  8
ALPHA
100
AcDbVertex
100
AcDb2dVertex
 10
35.895915
 20
59.508857
 30
0.0
  0
VERTEX
  5
162C
100
AcDbEntity
  8
ALPHA
100
AcDbVertex
100
AcDb2dVertex
 10
35.895915
 20
63.508969
 30
0.0
  0
SEQEND
  5
162D
100
AcDbEntity
  8
ALPHA
  0
POLYLINE
  5
162E
100
AcDbEntity
  8
ALPHA
100
AcDb2dPolyline
 66
     1
 10
0.0
 20
0.0
 30
0.0
  0
VERTEX
  5
162F
100
AcDbEntity
  8
ALPHA
100
AcDbVertex
100
AcDb2dVertex
 10
35.396346
 20
59.508857
 30
0.0
  0
VERTEX
  5
1630
100
AcDbEntity
  8
ALPHA
100
AcDbVertex
100
AcDb2dVertex
 10
35.396346
 20
63.508969
 30
0.0
  0
SEQEND
  5
1631
100
AcDbEntity
  8
ALPHA
  0
POLYLINE
  5
1632
100
AcDbEntity
  8
ALPHA
100
AcDb2dPolyline
 66
     1
 10
0.0
 20
0.0
 30
0.0
  0
VERTEX
  5
1633
100
AcDbEntity
  8
ALPHA
100
AcDbVertex
100
AcDb2dVertex
 10
30.136394
 20
49.008885
 30
0.0
  0
VERTEX
  5
1634
100
AcDbEntity
  8
ALPHA
100
AcDbVertex
100
AcDb2dVertex
 10
30.138976
 20
48.957735
 30
0.0
  0
VERTEX
  5
1635
100
AcDbEntity
  8
ALPHA
100
AcDbVertex
100
AcDb2dVertex
 10
30.146555
 20
48.908065
 30
0.0
  0
VERTEX
  5
1636
100
AcDbEntity
  8
ALPHA
100
AcDbVertex
100
AcDb2dVertex
 10
30.158877
 20
48.860124
 30
0.0
  0
VERTEX
  5
1637
100
AcDbEntity
  8
ALPHA
100
AcDbVertex
100
AcDb2dVertex
 10
30.175691
 20
48.814166
 30
0.0
  0
VERTEX
  5
1638
100
AcDbEntity
  8
ALPHA
100
AcDbVertex
100
AcDb2dVertex
 10
30.196744
 20
48.77044
 30
0.0
  0
VERTEX
  5
1639
100
AcDbEntity
  8
ALPHA
100
AcDbVertex
100
AcDb2dVertex
 10
30.221784
 20
48.729198
 30
0.0
  0
VERTEX
  5
163A
100
AcDbEntity
  8
ALPHA
100
AcDbVertex
100
AcDb2dVertex
 10
30.250558
 20
48.690692
 30
0.0
  0
VERTEX
  5
163B
100
AcDbEntity
  8
ALPHA
100
AcDbVertex
100
AcDb2dVertex
 10
30.282815
 20
48.655172
 30
0.0
  0
VERTEX
  5
163C
100
AcDbEntity
  8
ALPHA
100
AcDbVertex
100
AcDb2dVertex
 10
30.3183
 20
48.62289
 30
0.0
  0
VERTEX
  5
163D
100
AcDbEntity
  8
ALPHA
100
AcDbVertex
100
AcDb2dVertex
 10
30.356763
 20
48.594097
 30
0.0
  0
VERTEX
  5
163E
100
AcDbEntity
  8
ALPHA
100
AcDbVertex
100
AcDb2dVertex
 10
30.397951
 20
48.569045
 30
0.0
  0
VERTEX
  5
163F
100
AcDbEntity
  8
ALPHA
100
AcDbVertex
100
AcDb2dVertex
 10
30.441611
 20
48.547984
 30
0.0
  0
VERTEX
  5
1640
100
AcDbEntity
  8
ALPHA
100
AcDbVertex
100
AcDb2dVertex
 10
30.487491
 20
48.531166
 30
0.0
  0
VERTEX
  5
1641
100
AcDbEntity
  8
ALPHA
100
AcDbVertex
100
AcDb2dVertex
 10
30.535339
 20
48.518842
 30
0.0
  0
VERTEX
  5
1642
100
AcDbEntity
  8
ALPHA
100
AcDbVertex
100
AcDb2dVertex
 10
30.584902
 20
48.511263
 30
0.0
  0
VERTEX
  5
1643
100
AcDbEntity
  8
ALPHA
100
AcDbVertex
100
AcDb2dVertex
 10
30.635927
 20
48.508681
 30
0.0
  0
VERTEX
  5
1644
100
AcDbEntity
  8
ALPHA
100
AcDbVertex
100
AcDb2dVertex
 10
30.76134
 20
48.524521
 30
0.0
  0
SEQEND
  5
1645
100
AcDbEntity
  8
ALPHA
  0
POLYLINE
  5
1646
100
AcDbEntity
  8
ALPHA
100
AcDb2dPolyline
 66
     1
 10
0.0
 20
0.0
 30
0.0
  0
VERTEX
  5
1647
100
AcDbEntity
  8
ALPHA
100
AcDbVertex
100
AcDb2dVertex
 10
31.386286
 20
44.008683
 30
0.0
  0
VERTEX
  5
1648
100
AcDbEntity
  8
ALPHA
100
AcDbVertex
100
AcDb2dVertex
 10
31.386286
 20
48.040827
 30
0.0
  0
SEQEND
  5
1649
100
AcDbEntity
  8
ALPHA
  0
POLYLINE
  5
164A
100
AcDbEntity
  8
ALPHA
100
AcDb2dPolyline
 66
     1
 10
0.0
 20
0.0
 30
0.0
  0
VERTEX
  5
164B
100
AcDbEntity
  8
ALPHA
100
AcDbVertex
100
AcDb2dVertex
 10
31.386286
 20
48.040827
 30
0.0
  0
VERTEX
  5
164C
100
AcDbEntity
  8
ALPHA
100
AcDbVertex
100
AcDb2dVertex
 10
31.383703
 20
48.091915
 30
0.0
  0
VERTEX
  5
164D
100
AcDbEntity
  8
ALPHA
100
AcDbVertex
100
AcDb2dVertex
 10
31.376124
 20
48.141533
 30
0.0
  0
VERTEX
  5
164E
100
AcDbEntity
  8
ALPHA
100
AcDbVertex
100
AcDb2dVertex
 10
31.363798
 20
48.189427
 30
0.0
  0
VERTEX
  5
164F
100
AcDbEntity
  8
ALPHA
100
AcDbVertex
100
AcDb2dVertex
 10
31.346978
 20
48.235348
 30
0.0
  0
VERTEX
  5
1650
100
AcDbEntity
  8
ALPHA
100
AcDbVertex
100
AcDb2dVertex
 10
31.325914
 20
48.279042
 30
0.0
  0
VERTEX
  5
1651
100
AcDbEntity
  8
ALPHA
100
AcDbVertex
100
AcDb2dVertex
 10
31.300858
 20
48.320258
 30
0.0
  0
VERTEX
  5
1652
100
AcDbEntity
  8
ALPHA
100
AcDbVertex
100
AcDb2dVertex
 10
31.272062
 20
48.358745
 30
0.0
  0
VERTEX
  5
1653
100
AcDbEntity
  8
ALPHA
100
AcDbVertex
100
AcDb2dVertex
 10
31.239777
 20
48.394249
 30
0.0
  0
VERTEX
  5
1654
100
AcDbEntity
  8
ALPHA
100
AcDbVertex
100
AcDb2dVertex
 10
31.204254
 20
48.42652
 30
0.0
  0
VERTEX
  5
1655
100
AcDbEntity
  8
ALPHA
100
AcDbVertex
100
AcDb2dVertex
 10
31.165745
 20
48.455305
 30
0.0
  0
VERTEX
  5
1656
100
AcDbEntity
  8
ALPHA
100
AcDbVertex
100
AcDb2dVertex
 10
31.1245
 20
48.480352
 30
0.0
  0
VERTEX
  5
1657
100
AcDbEntity
  8
ALPHA
100
AcDbVertex
100
AcDb2dVertex
 10
31.080771
 20
48.501411
 30
0.0
  0
VERTEX
  5
1658
100
AcDbEntity
  8
ALPHA
100
AcDbVertex
100
AcDb2dVertex
 10
31.034811
 20
48.518228
 30
0.0
  0
VERTEX
  5
1659
100
AcDbEntity
  8
ALPHA
100
AcDbVertex
100
AcDb2dVertex
 10
30.986869
 20
48.530552
 30
0.0
  0
VERTEX
  5
165A
100
AcDbEntity
  8
ALPHA
100
AcDbVertex
100
AcDb2dVertex
 10
30.937197
 20
48.538131
 30
0.0
  0
VERTEX
  5
165B
100
AcDbEntity
  8
ALPHA
100
AcDbVertex
100
AcDb2dVertex
 10
30.886047
 20
48.540713
 30
0.0
  0
VERTEX
  5
165C
100
AcDbEntity
  8
ALPHA
100
AcDbVertex
100
AcDb2dVertex
 10
30.76134
 20
48.524521
 30
0.0
  0
SEQEND
  5
165D
100
AcDbEntity
  8
ALPHA
  0
POLYLINE
  5
165E
100
AcDbEntity
  8
ALPHA
100
AcDb2dPolyline
 66
     1
 10
0.0
 20
0.0
 30
0.0
  0
VERTEX
  5
165F
100
AcDbEntity
  8
ALPHA
100
AcDbVertex
100
AcDb2dVertex
 10
35.396346
 20
59.508857
 30
0.0
  0
VERTEX
  5
1660
100
AcDbEntity
  8
ALPHA
100
AcDbVertex
100
AcDb2dVertex
 10
35.895915
 20
59.508857
 30
0.0
  0
SEQEND
  5
1661
100
AcDbEntity
  8
ALPHA
  0
POLYLINE
  5
1662
100
AcDbEntity
  8
ALPHA
100
AcDb2dPolyline
 66
     1
 10
0.0
 20
0.0
 30
0.0
  0
VERTEX
  5
1663
100
AcDbEntity
  8
ALPHA
100
AcDbVertex
100
AcDb2dVertex
 10
32.866294
 20
78.210912
 30
0.0
  0
VERTEX
  5
1664
100
AcDbEntity
  8
ALPHA
100
AcDbVertex
100
AcDb2dVertex
 10
35.164148
 20
80.508801
 30
0.0
  0
SEQEND
  5
1665
100
AcDbEntity
  8
ALPHA
  0
POLYLINE
  5
1666
100
AcDbEntity
  8
ALPHA
100
AcDb2dPolyline
 66
     1
 10
0.0
 20
0.0
 30
0.0
  0
VERTEX
  5
1667
100
AcDbEntity
  8
ALPHA
100
AcDbVertex
100
AcDb2dVertex
 10
35.396346
 20
63.508969
 30
0.0
  0
VERTEX
  5
1668
100
AcDbEntity
  8
ALPHA
100
AcDbVertex
100
AcDb2dVertex
 10
35.895915
 20
63.508969
 30
0.0
  0
SEQEND
  5
1669
100
AcDbEntity
  8
ALPHA
  0
POLYLINE
  5
166A
100
AcDbEntity
  8
ALPHA
100
AcDb2dPolyline
 66
     1
 10
0.0
 20
0.0
 30
0.0
  0
VERTEX
  5
166B
100
AcDbEntity
  8
ALPHA
100
AcDbVertex
100
AcDb2dVertex
 10
37.429651
 20
78.243297
 30
0.0
  0
VERTEX
  5
166C
100
AcDbEntity
  8
ALPHA
100
AcDbVertex
100
AcDb2dVertex
 10
35.871114
 20
79.801869
 30
0.0
  0
SEQEND
  5
166D
100
AcDbEntity
  8
ALPHA
  0
POLYLINE
  5
166E
100
AcDbEntity
  8
ALPHA
100
AcDb2dPolyline
 66
     1
 10
0.0
 20
0.0
 30
0.0
  0
VERTEX
  5
166F
100
AcDbEntity
  8
ALPHA
100
AcDbVertex
100
AcDb2dVertex
 10
33.573226
 20
77.503628
 30
0.0
  0
VERTEX
  5
1670
100
AcDbEntity
  8
ALPHA
100
AcDbVertex
100
AcDb2dVertex
 10
35.871114
 20
79.801869
 30
0.0
  0
SEQEND
  5
1671
100
AcDbEntity
  8
ALPHA
  0
POLYLINE
  5
1672
100
AcDbEntity
  8
ALPHA
100
AcDb2dPolyline
 66
     1
 10
0.0
 20
0.0
 30
0.0
  0
VERTEX
  5
1673
100
AcDbEntity
  8
ALPHA
100
AcDbVertex
100
AcDb2dVertex
 10
38.136583
 20
78.950228
 30
0.0
  0
VERTEX
  5
1674
100
AcDbEntity
  8
ALPHA
100
AcDbVertex
100
AcDb2dVertex
 10
36.578046
 20
80.508801
 30
0.0
  0
SEQEND
  5
1675
100
AcDbEntity
  8
ALPHA
  0
POLYLINE
  5
1676
100
AcDbEntity
  8
ALPHA
100
AcDb2dPolyline
 66
     1
 10
0.0
 20
0.0
 30
0.0
  0
VERTEX
  5
1677
100
AcDbEntity
  8
ALPHA
100
AcDbVertex
100
AcDb2dVertex
 10
37.429651
 20
78.243297
 30
0.0
  0
VERTEX
  5
1678
100
AcDbEntity
  8
ALPHA
100
AcDbVertex
100
AcDb2dVertex
 10
37.63023
 20
78.39502
 30
0.0
  0
VERTEX
  5
1679
100
AcDbEntity
  8
ALPHA
100
AcDbVertex
100
AcDb2dVertex
 10
37.815687
 20
78.564193
 30
0.0
  0
VERTEX
  5
167A
100
AcDbEntity
  8
ALPHA
100
AcDbVertex
100
AcDb2dVertex
 10
37.98486
 20
78.74965
 30
0.0
  0
VERTEX
  5
167B
100
AcDbEntity
  8
ALPHA
100
AcDbVertex
100
AcDb2dVertex
 10
38.136583
 20
78.950228
 30
0.0
  0
SEQEND
  5
167C
100
AcDbEntity
  8
ALPHA
  0
POLYLINE
  5
167D
100
AcDbEntity
  8
ALPHA
100
AcDb2dPolyline
 66
     1
 10
0.0
 20
0.0
 30
0.0
  0
VERTEX
  5
167E
100
AcDbEntity
  8
ALPHA
100
AcDbVertex
100
AcDb2dVertex
 10
20.812583
 20
82.774622
 30
0.0
  0
VERTEX
  5
167F
100
AcDbEntity
  8
ALPHA
100
AcDbVertex
100
AcDb2dVertex
 10
20.61201
 20
82.622695
 30
0.0
  0
VERTEX
  5
1680
100
AcDbEntity
  8
ALPHA
100
AcDbVertex
100
AcDb2dVertex
 10
20.426561
 20
82.453418
 30
0.0
  0
VERTEX
  5
1681
100
AcDbEntity
  8
ALPHA
100
AcDbVertex
100
AcDb2dVertex
 10
20.25739
 20
82.267922
 30
0.0
  0
VERTEX
  5
1682
100
AcDbEntity
  8
ALPHA
100
AcDbVertex
100
AcDb2dVertex
 10
20.105652
 20
82.067338
 30
0.0
  0
SEQEND
  5
1683
100
AcDbEntity
  8
ALPHA
  0
POLYLINE
  5
1684
100
AcDbEntity
  8
ALPHA
100
AcDb2dPolyline
 66
     1
 10
0.0
 20
0.0
 30
0.0
  0
VERTEX
  5
1685
100
AcDbEntity
  8
ALPHA
100
AcDbVertex
100
AcDb2dVertex
 10
22.371156
 20
81.21605
 30
0.0
  0
VERTEX
  5
1686
100
AcDbEntity
  8
ALPHA
100
AcDbVertex
100
AcDb2dVertex
 10
24.669009
 20
83.514291
 30
0.0
  0
SEQEND
  5
1687
100
AcDbEntity
  8
ALPHA
  0
POLYLINE
  5
1688
100
AcDbEntity
  8
ALPHA
100
AcDb2dPolyline
 66
     1
 10
0.0
 20
0.0
 30
0.0
  0
VERTEX
  5
1689
100
AcDbEntity
  8
ALPHA
100
AcDbVertex
100
AcDb2dVertex
 10
22.371156
 20
81.21605
 30
0.0
  0
VERTEX
  5
168A
100
AcDbEntity
  8
ALPHA
100
AcDbVertex
100
AcDb2dVertex
 10
20.812583
 20
82.774622
 30
0.0
  0
SEQEND
  5
168B
100
AcDbEntity
  8
ALPHA
  0
POLYLINE
  5
168C
100
AcDbEntity
  8
ALPHA
100
AcDb2dPolyline
 66
     1
 10
0.0
 20
0.0
 30
0.0
  0
VERTEX
  5
168D
100
AcDbEntity
  8
ALPHA
100
AcDbVertex
100
AcDb2dVertex
 10
35.871114
 20
81.21605
 30
0.0
  0
VERTEX
  5
168E
100
AcDbEntity
  8
ALPHA
100
AcDbVertex
100
AcDb2dVertex
 10
38.168968
 20
83.514291
 30
0.0
  0
SEQEND
  5
168F
100
AcDbEntity
  8
ALPHA
  0
POLYLINE
  5
1690
100
AcDbEntity
  8
ALPHA
100
AcDb2dPolyline
 66
     1
 10
0.0
 20
0.0
 30
0.0
  0
VERTEX
  5
1691
100
AcDbEntity
  8
ALPHA
100
AcDbVertex
100
AcDb2dVertex
 10
35.871114
 20
81.21605
 30
0.0
  0
VERTEX
  5
1692
100
AcDbEntity
  8
ALPHA
100
AcDbVertex
100
AcDb2dVertex
 10
34.312542
 20
82.774622
 30
0.0
  0
SEQEND
  5
1693
100
AcDbEntity
  8
ALPHA
  0
POLYLINE
  5
1694
100
AcDbEntity
  8
ALPHA
100
AcDb2dPolyline
 66
     1
 10
0.0
 20
0.0
 30
0.0
  0
VERTEX
  5
1695
100
AcDbEntity
  8
ALPHA
100
AcDbVertex
100
AcDb2dVertex
 10
34.312542
 20
82.774622
 30
0.0
  0
VERTEX
  5
1696
100
AcDbEntity
  8
ALPHA
100
AcDbVertex
100
AcDb2dVertex
 10
34.111964
 20
82.622695
 30
0.0
  0
VERTEX
  5
1697
100
AcDbEntity
  8
ALPHA
100
AcDbVertex
100
AcDb2dVertex
 10
33.926506
 20
82.453418
 30
0.0
  0
VERTEX
  5
1698
100
AcDbEntity
  8
ALPHA
100
AcDbVertex
100
AcDb2dVertex
 10
33.757334
 20
82.267922
 30
0.0
  0
VERTEX
  5
1699
100
AcDbEntity
  8
ALPHA
100
AcDbVertex
100
AcDb2dVertex
 10
33.605611
 20
82.067338
 30
0.0
  0
SEQEND
  5
169A
100
AcDbEntity
  8
ALPHA
  0
POLYLINE
  5
169B
100
AcDbEntity
  8
ALPHA
100
AcDb2dPolyline
 66
     1
 10
0.0
 20
0.0
 30
0.0
  0
VERTEX
  5
169C
100
AcDbEntity
  8
ALPHA
100
AcDbVertex
100
AcDb2dVertex
 10
41.135899
 20
49.008885
 30
0.0
  0
VERTEX
  5
169D
100
AcDbEntity
  8
ALPHA
100
AcDbVertex
100
AcDb2dVertex
 10
41.135899
 20
66.00907
 30
0.0
  0
SEQEND
  5
169E
100
AcDbEntity
  8
ALPHA
  0
POLYLINE
  5
169F
100
AcDbEntity
  8
ALPHA
100
AcDb2dPolyline
 66
     1
 10
0.0
 20
0.0
 30
0.0
  0
VERTEX
  5
16A0
100
AcDbEntity
  8
ALPHA
100
AcDbVertex
100
AcDb2dVertex
 10
39.886008
 20
44.008683
 30
0.0
  0
VERTEX
  5
16A1
100
AcDbEntity
  8
ALPHA
100
AcDbVertex
100
AcDb2dVertex
 10
39.886008
 20
48.009148
 30
0.0
  0
SEQEND
  5
16A2
100
AcDbEntity
  8
ALPHA
  0
POLYLINE
  5
16A3
100
AcDbEntity
  8
ALPHA
100
AcDb2dPolyline
 66
     1
 10
0.0
 20
0.0
 30
0.0
  0
VERTEX
  5
16A4
100
AcDbEntity
  8
ALPHA
100
AcDbVertex
100
AcDb2dVertex
 10
40.386247
 20
48.508681
 30
0.0
  0
VERTEX
  5
16A5
100
AcDbEntity
  8
ALPHA
100
AcDbVertex
100
AcDb2dVertex
 10
40.636366
 20
48.508681
 30
0.0
  0
SEQEND
  5
16A6
100
AcDbEntity
  8
ALPHA
  0
POLYLINE
  5
16A7
100
AcDbEntity
  8
ALPHA
100
AcDb2dPolyline
 66
     1
 10
0.0
 20
0.0
 30
0.0
  0
VERTEX
  5
16A8
100
AcDbEntity
  8
ALPHA
100
AcDbVertex
100
AcDb2dVertex
 10
40.636366
 20
48.508681
 30
0.0
  0
VERTEX
  5
16A9
100
AcDbEntity
  8
ALPHA
100
AcDbVertex
100
AcDb2dVertex
 10
40.687508
 20
48.511263
 30
0.0
  0
VERTEX
  5
16AA
100
AcDbEntity
  8
ALPHA
100
AcDbVertex
100
AcDb2dVertex
 10
40.737157
 20
48.518842
 30
0.0
  0
VERTEX
  5
16AB
100
AcDbEntity
  8
ALPHA
100
AcDbVertex
100
AcDb2dVertex
 10
40.785065
 20
48.531166
 30
0.0
  0
VERTEX
  5
16AC
100
AcDbEntity
  8
ALPHA
100
AcDbVertex
100
AcDb2dVertex
 10
40.83098
 20
48.547984
 30
0.0
  0
VERTEX
  5
16AD
100
AcDbEntity
  8
ALPHA
100
AcDbVertex
100
AcDb2dVertex
 10
40.874655
 20
48.569045
 30
0.0
  0
VERTEX
  5
16AE
100
AcDbEntity
  8
ALPHA
100
AcDbVertex
100
AcDb2dVertex
 10
40.91584
 20
48.594097
 30
0.0
  0
VERTEX
  5
16AF
100
AcDbEntity
  8
ALPHA
100
AcDbVertex
100
AcDb2dVertex
 10
40.954286
 20
48.62289
 30
0.0
  0
VERTEX
  5
16B0
100
AcDbEntity
  8
ALPHA
100
AcDbVertex
100
AcDb2dVertex
 10
40.989744
 20
48.655172
 30
0.0
  0
VERTEX
  5
16B1
100
AcDbEntity
  8
ALPHA
100
AcDbVertex
100
AcDb2dVertex
 10
41.021963
 20
48.690692
 30
0.0
  0
VERTEX
  5
16B2
100
AcDbEntity
  8
ALPHA
100
AcDbVertex
100
AcDb2dVertex
 10
41.050695
 20
48.729198
 30
0.0
  0
VERTEX
  5
16B3
100
AcDbEntity
  8
ALPHA
100
AcDbVertex
100
AcDb2dVertex
 10
41.075691
 20
48.77044
 30
0.0
  0
VERTEX
  5
16B4
100
AcDbEntity
  8
ALPHA
100
AcDbVertex
100
AcDb2dVertex
 10
41.096701
 20
48.814166
 30
0.0
  0
VERTEX
  5
16B5
100
AcDbEntity
  8
ALPHA
100
AcDbVertex
100
AcDb2dVertex
 10
41.113477
 20
48.860124
 30
0.0
  0
VERTEX
  5
16B6
100
AcDbEntity
  8
ALPHA
100
AcDbVertex
100
AcDb2dVertex
 10
41.125768
 20
48.908065
 30
0.0
  0
VERTEX
  5
16B7
100
AcDbEntity
  8
ALPHA
100
AcDbVertex
100
AcDb2dVertex
 10
41.133325
 20
48.957735
 30
0.0
  0
VERTEX
  5
16B8
100
AcDbEntity
  8
ALPHA
100
AcDbVertex
100
AcDb2dVertex
 10
41.135899
 20
49.008885
 30
0.0
  0
SEQEND
  5
16B9
100
AcDbEntity
  8
ALPHA
  0
POLYLINE
  5
16BA
100
AcDbEntity
  8
ALPHA
100
AcDb2dPolyline
 66
     1
 10
0.0
 20
0.0
 30
0.0
  0
VERTEX
  5
16BB
100
AcDbEntity
  8
ALPHA
100
AcDbVertex
100
AcDb2dVertex
 10
40.386247
 20
48.508681
 30
0.0
  0
VERTEX
  5
16BC
100
AcDbEntity
  8
ALPHA
100
AcDbVertex
100
AcDb2dVertex
 10
40.335097
 20
48.506103
 30
0.0
  0
VERTEX
  5
16BD
100
AcDbEntity
  8
ALPHA
100
AcDbVertex
100
AcDb2dVertex
 10
40.285425
 20
48.498535
 30
0.0
  0
VERTEX
  5
16BE
100
AcDbEntity
  8
ALPHA
100
AcDbVertex
100
AcDb2dVertex
 10
40.237483
 20
48.486228
 30
0.0
  0
VERTEX
  5
16BF
100
AcDbEntity
  8
ALPHA
100
AcDbVertex
100
AcDb2dVertex
 10
40.191522
 20
48.469434
 30
0.0
  0
VERTEX
  5
16C0
100
AcDbEntity
  8
ALPHA
100
AcDbVertex
100
AcDb2dVertex
 10
40.147794
 20
48.448402
 30
0.0
  0
VERTEX
  5
16C1
100
AcDbEntity
  8
ALPHA
100
AcDbVertex
100
AcDb2dVertex
 10
40.106549
 20
48.423384
 30
0.0
  0
VERTEX
  5
16C2
100
AcDbEntity
  8
ALPHA
100
AcDbVertex
100
AcDb2dVertex
 10
40.068039
 20
48.394631
 30
0.0
  0
VERTEX
  5
16C3
100
AcDbEntity
  8
ALPHA
100
AcDbVertex
100
AcDb2dVertex
 10
40.032516
 20
48.362393
 30
0.0
  0
VERTEX
  5
16C4
100
AcDbEntity
  8
ALPHA
100
AcDbVertex
100
AcDb2dVertex
 10
40.000231
 20
48.326922
 30
0.0
  0
VERTEX
  5
16C5
100
AcDbEntity
  8
ALPHA
100
AcDbVertex
100
AcDb2dVertex
 10
39.971435
 20
48.288467
 30
0.0
  0
VERTEX
  5
16C6
100
AcDbEntity
  8
ALPHA
100
AcDbVertex
100
AcDb2dVertex
 10
39.94638
 20
48.247281
 30
0.0
  0
VERTEX
  5
16C7
100
AcDbEntity
  8
ALPHA
100
AcDbVertex
100
AcDb2dVertex
 10
39.925316
 20
48.203613
 30
0.0
  0
VERTEX
  5
16C8
100
AcDbEntity
  8
ALPHA
100
AcDbVertex
100
AcDb2dVertex
 10
39.908496
 20
48.157715
 30
0.0
  0
VERTEX
  5
16C9
100
AcDbEntity
  8
ALPHA
100
AcDbVertex
100
AcDb2dVertex
 10
39.89617
 20
48.109838
 30
0.0
  0
VERTEX
  5
16CA
100
AcDbEntity
  8
ALPHA
100
AcDbVertex
100
AcDb2dVertex
 10
39.88859
 20
48.060232
 30
0.0
  0
VERTEX
  5
16CB
100
AcDbEntity
  8
ALPHA
100
AcDbVertex
100
AcDb2dVertex
 10
39.886008
 20
48.009148
 30
0.0
  0
SEQEND
  5
16CC
100
AcDbEntity
  8
ALPHA
  0
DIMENSION
  5
16DE
100
AcDbEntity
  8
COTATION1
100
AcDbDimension
  2
*D3
 10
14.135982
 20
93.423424
 30
0.0
 11
7.136236
 21
95.673424
 31
0.0
 70
    32
  3
SC_STAND
100
AcDbAlignedDimension
 13
0.136489
 23
85.029384
 33
0.0
 14
14.135982
 24
66.00907
 34
0.0
100
AcDbRotatedDimension
  0
DIMENSION
  5
16EB
100
AcDbEntity
  8
COTATION1
100
AcDbDimension
  2
*D4
 10
25.131359
 20
93.423424
 30
0.0
 11
19.633671
 21
95.673424
 31
0.0
 70
    32
  3
SC_STAND
100
AcDbAlignedDimension
 13
14.135982
 23
88.883816
 33
0.0
 14
25.131359
 24
66.00907
 34
0.0
100
AcDbRotatedDimension
  0
DIMENSION
  5
170E
100
AcDbEntity
  8
COTATION1
100
AcDbDimension
  2
*D5
 10
30.136394
 20
100.418457
 30
0.0
 11
15.136442
 21
102.668457
 31
0.0
 70
    32
  3
SC_STAND
100
AcDbAlignedDimension
 13
0.136489
 23
89.347654
 33
0.0
 14
30.136394
 24
62.645279
 34
0.0
100
AcDbRotatedDimension
  0
DIMENSION
  5
171B
100
AcDbEntity
  8
COTATION1
100
AcDbDimension
  2
*D6
 10
41.135899
 20
100.418457
 30
0.0
 11
35.636147
 21
102.668457
 31
0.0
 70
    32
  3
SC_STAND
100
AcDbAlignedDimension
 13
30.136394
 23
94.356095
 33
0.0
 14
41.135899
 24
63.111614
 34
0.0
100
AcDbRotatedDimension
  0
DIMENSION
  5
1733
100
AcDbEntity
  8
COTATION1
100
AcDbDimension
  2
*D7
 10
-5.680671
 20
-0.116091
 30
0.0
 11
-7.930671
 21
44.383862
 31
0.0
 70
    32
  3
SC_STAND
100
AcDbAlignedDimension
 13
7.155904
 23
88.883816
 33
0.0
 14
7.155904
 24
-0.116091
 34
0.0
 50
90.0
100
AcDbRotatedDimension
  0
DIMENSION
  5
1740
100
AcDbEntity
  8
COTATION1
100
AcDbDimension
  2
*D8
 10
44.631292
 20
-5.206541
 30
0.0
 11
22.383891
 21
-2.956541
 31
0.0
 70
    32
  1
44.5
  3
SC_STAND
100
AcDbAlignedDimension
 13
0.136489
 23
1.133801
 33
0.0
 14
44.631292
 24
1.133801
 34
0.0
100
AcDbRotatedDimension
  0
ENDSEC
  0
SECTION
  2
OBJECTS
  0
DICTIONARY
  5
F8
100
AcDbDictionary
  3
ACAD_GROUP
350
F9
  3
ACAD_MLINESTYLE
350
106
  3
ACDBVARIABLEDICTIONARY
350
143
  0
DICTIONARY
  5
F9
102
{ACAD_REACTORS
330
F8
102
}
100
AcDbDictionary
  0
DICTIONARY
  5
106
102
{ACAD_REACTORS
330
F8
102
}
100
AcDbDictionary
  3
STANDARD
350
107
  0
DICTIONARY
  5
143
102
{ACAD_REACTORS
330
F8
102
}
100
AcDbDictionary
  3
DIMADEC
350
144
  0
MLINESTYLE
  5
107
102
{ACAD_REACTORS
330
106
102
}
100
AcDbMlineStyle
  2
STANDARD
 70
     0
  3

 62
   256
 51
90.0
 52
90.0
 71
     2
 49
0.5
 62
   256
  6
BYLAYER
 49
-0.5
 62
   256
  6
BYLAYER
  0
DICTIONARYVAR
  5
144
102
{ACAD_REACTORS
330
143
102
}
100
DictionaryVariables
280
     0
  1
0
  0
ENDSEC
  0
EOF
