  0
SECTION
  2
HEADER
  9
$ACADVER
  1
AC1009
  9
$INSBASE
 10
402.590624
 20
-1.041018
 30
0.0
  9
$EXTMIN
 10
1103.100991
 20
33.728457
 30
0.0
  9
$EXTMAX
 10
1164.410515
 20
168.228457
 30
0.0
  9
$LIMMIN
 10
-407.970438
 20
-367.832444
  9
$LIMMAX
 10
429.804077
 20
234.370848
  9
$ORTHOMODE
 70
     1
  9
$REGENMODE
 70
     1
  9
$FILLMODE
 70
     1
  9
$QTEXTMODE
 70
     0
  9
$MIRRTEXT
 70
     1
  9
$DRAGMODE
 70
     2
  9
$LTSCALE
 40
10.0
  9
$OSMODE
 70
    35
  9
$ATTMODE
 70
     1
  9
$TEXTSIZE
 40
6.0
  9
$TRACEWID
 40
1.0
  9
$TEXTSTYLE
  7
ROMANS
  9
$CLAYER
  8
COTATION1
  9
$CELTYPE
  6
BYLAYER
  9
$CECOLOR
 62
   256
  9
$DIMSCALE
 40
1.0
  9
$DIMASZ
 40
5.0
  9
$DIMEXO
 40
2.0
  9
$DIMDLI
 40
0.38
  9
$DIMRND
 40
0.0
  9
$DIMDLE
 40
0.0
  9
$DIMEXE
 40
2.5
  9
$DIMTP
 40
0.0
  9
$DIMTM
 40
0.0
  9
$DIMTXT
 40
2.5
  9
$DIMCEN
 40
0.0
  9
$DIMTSZ
 40
0.0
  9
$DIMTOL
 70
     0
  9
$DIMLIM
 70
     0
  9
$DIMTIH
 70
     1
  9
$DIMTOH
 70
     1
  9
$DIMSE1
 70
     0
  9
$DIMSE2
 70
     0
  9
$DIMTAD
 70
     1
  9
$DIMZIN
 70
    12
  9
$DIMBLK
  1
OPEN30
  9
$DIMASO
 70
     1
  9
$DIMSHO
 70
     1
  9
$DIMPOST
  1

  9
$DIMAPOST
  1

  9
$DIMALT
 70
     0
  9
$DIMALTD
 70
     2
  9
$DIMALTF
 40
25.4
  9
$DIMLFAC
 40
1.0
  9
$DIMTOFL
 70
     0
  9
$DIMTVP
 40
0.0
  9
$DIMTIX
 70
     0
  9
$DIMSOXD
 70
     0
  9
$DIMSAH
 70
     0
  9
$DIMBLK1
  1

  9
$DIMBLK2
  1

  9
$DIMSTYLE
  2
SC_DEFAUT
  9
$DIMCLRD
 70
     0
  9
$DIMCLRE
 70
     0
  9
$DIMCLRT
 70
     0
  9
$DIMTFAC
 40
1.0
  9
$DIMGAP
 40
2.0
  9
$LUNITS
 70
     2
  9
$LUPREC
 70
     1
  9
$SKETCHINC
 40
0.1
  9
$FILLETRAD
 40
0.0
  9
$AUNITS
 70
     0
  9
$AUPREC
 70
     0
  9
$MENU
  1
acad
  9
$ELEVATION
 40
0.0
  9
$PELEVATION
 40
0.0
  9
$THICKNESS
 40
0.0
  9
$LIMCHECK
 70
     0
  9
$BLIPMODE
 70
     0
  9
$CHAMFERA
 40
0.0
  9
$CHAMFERB
 40
0.0
  9
$SKPOLY
 70
     0
  9
$TDCREATE
 40
2450373.687919
  9
$TDUPDATE
 40
2453055.417218
  9
$TDINDWG
 40
0.801642
  9
$TDUSRTIMER
 40
0.801642
  9
$USRTIMER
 70
     1
  9
$ANGBASE
 50
0.0
  9
$ANGDIR
 70
     0
  9
$PDMODE
 70
    32
  9
$PDSIZE
 40
0.0
  9
$PLINEWID
 40
0.0
  9
$COORDS
 70
     1
  9
$SPLFRAME
 70
     0
  9
$SPLINETYPE
 70
     6
  9
$SPLINESEGS
 70
     8
  9
$ATTDIA
 70
     0
  9
$ATTREQ
 70
     1
  9
$HANDLING
 70
     1
  9
$HANDSEED
  5
6F69
  9
$SURFTAB1
 70
     6
  9
$SURFTAB2
 70
     6
  9
$SURFTYPE
 70
     6
  9
$SURFU
 70
     6
  9
$SURFV
 70
     6
  9
$UCSNAME
  2

  9
$UCSORG
 10
0.0
 20
0.0
 30
0.0
  9
$UCSXDIR
 10
1.0
 20
0.0
 30
0.0
  9
$UCSYDIR
 10
0.0
 20
1.0
 30
0.0
  9
$PUCSNAME
  2

  9
$PUCSORG
 10
0.0
 20
0.0
 30
0.0
  9
$PUCSXDIR
 10
1.0
 20
0.0
 30
0.0
  9
$PUCSYDIR
 10
0.0
 20
1.0
 30
0.0
  9
$USERI1
 70
     0
  9
$USERI2
 70
     0
  9
$USERI3
 70
     0
  9
$USERI4
 70
     0
  9
$USERI5
 70
     0
  9
$USERR1
 40
0.0
  9
$USERR2
 40
0.0
  9
$USERR3
 40
0.0
  9
$USERR4
 40
0.0
  9
$USERR5
 40
0.0
  9
$WORLDVIEW
 70
     1
  9
$SHADEDGE
 70
     3
  9
$SHADEDIF
 70
    70
  9
$TILEMODE
 70
     1
  9
$MAXACTVP
 70
    16
  9
$PLIMCHECK
 70
     0
  9
$PEXTMIN
 10
1.129417
 20
0.786917
 30
0.0
  9
$PEXTMAX
 10
10.16475
 20
7.08225
 30
0.0
  9
$PLIMMIN
 10
-0.197916
 20
-0.197917
  9
$PLIMMAX
 10
11.495417
 20
8.070417
  9
$UNITMODE
 70
     0
  9
$VISRETAIN
 70
     0
  9
$PLINEGEN
 70
     0
  9
$PSLTSCALE
 70
     0
  0
ENDSEC
  0
SECTION
  2
TABLES
  0
TABLE
  2
VPORT
 70
     2
  0
VPORT
  2
*ACTIVE
 70
     0
 10
0.0
 20
0.0
 11
1.0
 21
1.0
 12
1133.806757
 22
100.966501
 13
0.0
 23
0.0
 14
1.0
 24
1.0
 15
10.0
 25
10.0
 16
0.0
 26
0.0
 36
1.0
 17
0.0
 27
0.0
 37
0.0
 40
135.494363
 41
1.466346
 42
50.0
 43
0.0
 44
0.0
 50
0.0
 51
0.0
 71
     0
 72
   100
 73
     1
 74
     0
 75
     0
 76
     0
 77
     0
 78
     0
  0
ENDTAB
  0
TABLE
  2
LTYPE
 70
     3
  0
LTYPE
  2
CONTINUOUS
 70
     0
  3
Solid line
 72
    65
 73
     0
 40
0.0
  0
LTYPE
  2
AXES2
 70
     0
  3
___ _ ___ _ ___ _ ___ _ ___ _ ___ _ ___ _ ___ _
 72
    65
 73
     4
 40
1.125
 49
0.75
 49
-0.125
 49
0.125
 49
-0.125
  0
LTYPE
  2
CACHE2
 70
     0
  3
Caché (x.5) _ _ _ _ _ _ _ _ _ _ _ _ _ _ _ _ _
 72
    65
 73
     2
 40
0.1875
 49
0.125
 49
-0.0625
  0
ENDTAB
  0
TABLE
  2
LAYER
 70
     6
  0
LAYER
  2
0
 70
     0
 62
   255
  6
CONTINUOUS
  0
LAYER
  2
COTATION1
 70
     0
 62
     2
  6
CONTINUOUS
  0
LAYER
  2
AXE
 70
     0
 62
    80
  6
AXES2
  0
LAYER
  2
DEFPOINTS
 70
     0
 62
     7
  6
CONTINUOUS
  0
LAYER
  2
ALPHA
 70
     0
 62
   254
  6
CONTINUOUS
  0
LAYER
  2
POINTILLE_COURT
 70
     0
 62
    41
  6
CACHE2
  0
ENDTAB
  0
TABLE
  2
STYLE
 70
     2
  0
STYLE
  2
ROMANS
 70
     0
 40
0.0
 41
1.0
 50
0.0
 71
     0
 42
6.0
  3
romans
  4

  0
STYLE
  2
STANDARD
 70
     0
 40
0.2
 41
1.0
 50
0.0
 71
     0
 42
0.2
  3
txt
  4

  0
ENDTAB
  0
TABLE
  2
VIEW
 70
     0
  0
ENDTAB
  0
TABLE
  2
UCS
 70
     0
  0
ENDTAB
  0
TABLE
  2
APPID
 70
     1
  0
APPID
  2
ACAD
 70
     0
  0
ENDTAB
  0
TABLE
  2
DIMSTYLE
 70
     1
  0
DIMSTYLE
  2
SC_DEFAUT
 70
     0
  3

  4

  5
OPEN30
  6

  7

 40
1.0
 41
5.0
 42
2.0
 43
0.38
 44
2.5
 45
0.0
 46
0.0
 47
0.0
 48
0.0
140
2.5
141
0.0
142
0.0
143
25.4
144
1.0
145
0.0
146
1.0
147
2.0
 71
     0
 72
     0
 73
     1
 74
     1
 75
     0
 76
     0
 77
     1
 78
    12
170
     0
171
     2
172
     0
173
     0
174
     0
175
     0
176
     0
177
     0
178
     0
  0
ENDTAB
  0
ENDSEC
  0
SECTION
  2
BLOCKS
  0
BLOCK
  8
0
  2
$MODEL_SPACE
 70
     0
 10
0.0
 20
0.0
 30
0.0
  3
$MODEL_SPACE
  1

  0
ENDBLK
  5
6F0F
  8
0
  0
BLOCK
 67
     1
  8
0
  2
$PAPER_SPACE
 70
     0
 10
0.0
 20
0.0
 30
0.0
  3
$PAPER_SPACE
  1

  0
ENDBLK
  5
6F0D
 67
     1
  8
0
  0
BLOCK
  8
0
  2
COTE
 70
     0
 10
0.0
 20
0.0
 30
0.0
  3
COTE
  1

  0
ENDBLK
  5
F
  8
0
  0
BLOCK
  8
0
  2
FOND
 70
     0
 10
0.0
 20
0.0
 30
0.0
  3
FOND
  1

  0
ENDBLK
  5
75
  8
0
  0
BLOCK
  8
0
  2
_OPEN30
 70
     0
 10
0.0
 20
0.0
 30
0.0
  3
_OPEN30
  1

  0
LINE
  5
4B05
  8
COTATION1
 62
     0
 10
-1.0
 20
0.267949
 30
0.0
 11
0.0
 21
0.0
 31
0.0
1001
ACAD
1000
RTLwPs
1070
   158
  0
LINE
  5
4B06
  8
COTATION1
 62
     0
 10
0.0
 20
0.0
 30
0.0
 11
-1.0
 21
-0.267949
 31
0.0
1001
ACAD
1000
RTLwPs
1070
   158
  0
LINE
  5
4B07
  8
COTATION1
 62
     0
 10
0.0
 20
0.0
 30
0.0
 11
-1.0
 21
0.0
 31
0.0
1001
ACAD
1000
RTLwPs
1070
   158
  0
ENDBLK
  5
4B09
  8
0
  0
BLOCK
  8
0
  2
*D3
 70
     1
 10
0.0
 20
0.0
 30
0.0
  3
*D3
  1

  0
LINE
  5
6C9E
  8
COTATION1
 62
     0
 10
1108.100991
 20
108.204829
 30
0.0
 11
1108.100991
 21
166.228457
 31
0.0
1001
ACAD
1000
RTLwPs
1070
   158
  0
LINE
  5
6C9F
  8
COTATION1
 62
     0
 10
1138.100991
 20
120.728457
 30
0.0
 11
1138.100991
 21
166.228457
 31
0.0
1001
ACAD
1000
RTLwPs
1070
   158
  0
LINE
  5
6CA0
  8
COTATION1
 62
     0
 10
1113.100991
 20
163.728457
 30
0.0
 11
1133.100991
 21
163.728457
 31
0.0
1001
ACAD
1000
RTLwPs
1070
   158
  0
INSERT
  5
6CA1
  8
COTATION1
 62
     0
  2
_OPEN30
 10
1108.100991
 20
163.728457
 30
0.0
 41
5.0
 42
5.0
 43
5.0
 50
180.0
1001
ACAD
1000
RTLwPs
1070
   158
  0
INSERT
  5
6CA2
  8
COTATION1
 62
     0
  2
_OPEN30
 10
1138.100991
 20
163.728457
 30
0.0
 41
5.0
 42
5.0
 43
5.0
1001
ACAD
1000
RTLwPs
1070
   158
  0
TEXT
  5
6CA3
  8
COTATION1
 62
     0
 10
1120.720039
 20
165.728457
 30
0.0
 40
2.5
  1
30
1001
ACAD
1000
MTEXTBEGIN
1070
    73
1070
     1
1070
    44
1040
1.0
1070
    74
1070
     0
1000
MTEXTEND
  0
POINT
  5
6CA4
  8
DEFPOINTS
 62
     0
 10
1108.100991
 20
106.204829
 30
0.0
  0
POINT
  5
6CA5
  8
DEFPOINTS
 62
     0
 10
1138.100991
 20
118.728457
 30
0.0
  0
POINT
  5
6CA6
  8
DEFPOINTS
 62
     0
 10
1138.100991
 20
163.728457
 30
0.0
  0
ENDBLK
  5
6706
  8
0
  0
BLOCK
  8
0
  2
*D4
 70
     1
 10
0.0
 20
0.0
 30
0.0
  3
*D4
  1

  0
LINE
  5
6C92
  8
COTATION1
 62
     0
 10
1125.600991
 20
145.728457
 30
0.0
 11
1125.600991
 21
156.228457
 31
0.0
1001
ACAD
1000
RTLwPs
1070
   158
  0
LINE
  5
6C93
  8
COTATION1
 62
     0
 10
1138.100991
 20
120.728457
 30
0.0
 11
1138.100991
 21
156.228457
 31
0.0
1001
ACAD
1000
RTLwPs
1070
   158
  0
LINE
  5
6C94
  8
COTATION1
 62
     0
 10
1120.600991
 20
153.728457
 30
0.0
 11
1115.600991
 21
153.728457
 31
0.0
1001
ACAD
1000
RTLwPs
1070
   158
  0
LINE
  5
6C95
  8
COTATION1
 62
     0
 10
1143.100991
 20
153.728457
 30
0.0
 11
1148.100991
 21
153.728457
 31
0.0
1001
ACAD
1000
RTLwPs
1070
   158
  0
INSERT
  5
6C96
  8
COTATION1
 62
     0
  2
_OPEN30
 10
1125.600991
 20
153.728457
 30
0.0
 41
5.0
 42
5.0
 43
5.0
1001
ACAD
1000
RTLwPs
1070
   158
  0
INSERT
  5
6C97
  8
COTATION1
 62
     0
  2
_OPEN30
 10
1138.100991
 20
153.728457
 30
0.0
 41
5.0
 42
5.0
 43
5.0
 50
180.0
1001
ACAD
1000
RTLwPs
1070
   158
  0
TEXT
  5
6C98
  8
COTATION1
 62
     0
 10
1127.505753
 20
155.728457
 30
0.0
 40
2.5
  1
12.5
1001
ACAD
1000
MTEXTBEGIN
1070
    73
1070
     1
1070
    44
1040
1.0
1070
    74
1070
     0
1000
MTEXTEND
  0
POINT
  5
6C99
  8
DEFPOINTS
 62
     0
 10
1125.600991
 20
143.728457
 30
0.0
  0
POINT
  5
6C9A
  8
DEFPOINTS
 62
     0
 10
1138.100991
 20
118.728457
 30
0.0
  0
POINT
  5
6C9B
  8
DEFPOINTS
 62
     0
 10
1138.100991
 20
153.728457
 30
0.0
  0
ENDBLK
  5
6C4D
  8
0
  0
BLOCK
  8
0
  2
*D5
 70
     1
 10
0.0
 20
0.0
 30
0.0
  3
*D5
  1

  0
LINE
  5
6DE8
  8
COTATION1
 62
     0
 10
1134.100991
 20
59.728457
 30
0.0
 11
1134.100991
 21
74.087159
 31
0.0
1001
ACAD
1000
RTLwPs
1070
   158
  0
LINE
  5
6DE9
  8
COTATION1
 62
     0
 10
1138.100991
 20
61.728457
 30
0.0
 11
1138.100991
 21
74.087159
 31
0.0
1001
ACAD
1000
RTLwPs
1070
   158
  0
LINE
  5
6DEA
  8
COTATION1
 62
     0
 10
1129.100991
 20
71.587159
 30
0.0
 11
1124.100991
 21
71.587159
 31
0.0
1001
ACAD
1000
RTLwPs
1070
   158
  0
LINE
  5
6DEB
  8
COTATION1
 62
     0
 10
1143.100991
 20
71.587159
 30
0.0
 11
1148.100991
 21
71.587159
 31
0.0
1001
ACAD
1000
RTLwPs
1070
   158
  0
TEXT
  5
6DEC
  8
COTATION1
 62
     0
 10
1145.610505
 20
72.574117
 30
0.0
 40
2.5
  1
4
1001
ACAD
1000
MTEXTBEGIN
1070
    73
1070
     1
1070
    44
1040
1.0
1070
    74
1070
     0
1000
MTEXTEND
  0
INSERT
  5
6DED
  8
COTATION1
 62
     0
  2
_OPEN30
 10
1134.100991
 20
71.587159
 30
0.0
 41
5.0
 42
5.0
 43
5.0
1001
ACAD
1000
RTLwPs
1070
   158
  0
INSERT
  5
6DEE
  8
COTATION1
 62
     0
  2
_OPEN30
 10
1138.100991
 20
71.587159
 30
0.0
 41
5.0
 42
5.0
 43
5.0
 50
180.0
1001
ACAD
1000
RTLwPs
1070
   158
  0
POINT
  5
6DEF
  8
DEFPOINTS
 62
     0
 10
1134.100991
 20
57.728457
 30
0.0
  0
POINT
  5
6DF0
  8
DEFPOINTS
 62
     0
 10
1138.100991
 20
59.728457
 30
0.0
  0
POINT
  5
6DF1
  8
DEFPOINTS
 62
     0
 10
1138.100991
 20
71.587159
 30
0.0
  0
ENDBLK
  5
6DDD
  8
0
  0
BLOCK
  8
0
  2
*D6
 70
     1
 10
0.0
 20
0.0
 30
0.0
  3
*D6
  1

  0
LINE
  5
6E40
  8
COTATION1
 62
     0
 10
1127.600991
 20
138.728457
 30
0.0
 11
1163.100991
 21
138.728457
 31
0.0
1001
ACAD
1000
RTLwPs
1070
   158
  0
LINE
  5
6E41
  8
COTATION1
 62
     0
 10
1138.450991
 20
50.228457
 30
0.0
 11
1163.100991
 21
50.228457
 31
0.0
1001
ACAD
1000
RTLwPs
1070
   158
  0
LINE
  5
6E42
  8
COTATION1
 62
     0
 10
1160.600991
 20
133.728457
 30
0.0
 11
1160.600991
 21
97.728457
 31
0.0
1001
ACAD
1000
RTLwPs
1070
   158
  0
LINE
  5
6E43
  8
COTATION1
 62
     0
 10
1160.600991
 20
55.228457
 30
0.0
 11
1160.600991
 21
91.228457
 31
0.0
1001
ACAD
1000
RTLwPs
1070
   158
  0
INSERT
  5
6E44
  8
COTATION1
 62
     0
  2
_OPEN30
 10
1160.600991
 20
138.728457
 30
0.0
 41
5.0
 42
5.0
 43
5.0
 50
90.0
1001
ACAD
1000
RTLwPs
1070
   158
  0
INSERT
  5
6E45
  8
COTATION1
 62
     0
  2
_OPEN30
 10
1160.600991
 20
50.228457
 30
0.0
 41
5.0
 42
5.0
 43
5.0
 50
270.0
1001
ACAD
1000
RTLwPs
1070
   158
  0
TEXT
  5
6E46
  8
COTATION1
 62
     0
 10
1156.434325
 20
93.228457
 30
0.0
 40
2.5
  1
88.5
1001
ACAD
1000
MTEXTBEGIN
1070
    73
1070
     1
1070
    44
1040
1.0
1070
    74
1070
     0
1000
MTEXTEND
  0
POINT
  5
6E47
  8
DEFPOINTS
 62
     0
 10
1125.600991
 20
138.728457
 30
0.0
  0
POINT
  5
6E48
  8
DEFPOINTS
 62
     0
 10
1136.450991
 20
50.228457
 30
0.0
  0
POINT
  5
6E49
  8
DEFPOINTS
 62
     0
 10
1160.600991
 20
50.228457
 30
0.0
  0
ENDBLK
  5
6E4B
  8
0
  0
ENDSEC
  0
SECTION
  2
ENTITIES
  0
INSERT
  5
A
  8
0
  2
COTE
 10
0.0
 20
0.0
 30
0.0
  0
INSERT
  5
17
  8
0
  2
COTE
 10
284.010391
 20
6.373258
 30
0.0
  0
INSERT
  5
72
  8
0
  2
FOND
 10
0.0
 20
0.0
 30
0.0
  0
POLYLINE
  5
662C
  8
ALPHA
 66
     1
 10
0.0
 20
0.0
 30
0.0
 70
   128
  0
VERTEX
  5
6F15
  8
ALPHA
 10
1126.147734
 20
58.413808
 30
0.0
  0
VERTEX
  5
6F16
  8
ALPHA
 10
1126.425175
 20
58.413808
 30
0.0
  0
VERTEX
  5
6F17
  8
ALPHA
 10
1126.887576
 20
58.413808
 30
0.0
  0
VERTEX
  5
6F18
  8
ALPHA
 10
1127.337529
 20
58.282761
 30
0.0
  0
VERTEX
  5
6F19
  8
ALPHA
 10
1127.501346
 20
58.087451
 30
0.0
  0
VERTEX
  5
6F1A
  8
ALPHA
 10
1127.730024
 20
57.699099
 30
0.0
  0
VERTEX
  5
6F1B
  8
ALPHA
 10
1128.12566
 20
56.893738
 30
0.0
  0
VERTEX
  5
6F1C
  8
ALPHA
 10
1128.279133
 20
56.570941
 30
0.0
  0
VERTEX
  5
6F1D
  8
ALPHA
 10
1128.340684
 20
56.440208
 30
0.0
  0
SEQEND
  5
6F1E
  8
ALPHA
  0
POLYLINE
  5
662D
  8
ALPHA
 66
     1
 10
0.0
 20
0.0
 30
0.0
 70
   128
210
0.0
220
0.0
230
-1.0
  0
VERTEX
  5
6F1F
  8
ALPHA
 10
-1120.923893
 20
54.728457
 30
0.0
  0
VERTEX
  5
6F20
  8
ALPHA
 10
-1119.236833
 20
54.883982
 30
0.0
  0
VERTEX
  5
6F21
  8
ALPHA
 10
-1117.323207
 20
55.250769
 30
0.0
  0
VERTEX
  5
6F22
  8
ALPHA
 10
-1113.340514
 20
56.356367
 30
0.0
  0
VERTEX
  5
6F23
  8
ALPHA
 10
-1111.533574
 20
56.964297
 30
0.0
  0
VERTEX
  5
6F24
  8
ALPHA
 10
-1110.024324
 20
57.521728
 30
0.0
  0
VERTEX
  5
6F25
  8
ALPHA
 10
-1108.943826
 20
57.963219
 30
0.0
  0
VERTEX
  5
6F26
  8
ALPHA
 10
-1108.423144
 20
58.22333
 30
0.0
  0
SEQEND
  5
6F27
  8
ALPHA
  0
POLYLINE
  5
662E
  8
ALPHA
 66
     1
 10
0.0
 20
0.0
 30
0.0
 70
   128
210
0.0
220
0.0
230
-1.0
  0
VERTEX
  5
6F28
  8
ALPHA
 10
-1108.423144
 20
58.22333
 30
0.0
  0
VERTEX
  5
6F29
  8
ALPHA
 10
-1108.262068
 20
58.365784
 30
0.0
  0
VERTEX
  5
6F2A
  8
ALPHA
 10
-1108.100991
 20
58.780776
 30
0.0
  0
SEQEND
  5
6F2B
  8
ALPHA
  0
POLYLINE
  5
662F
  8
ALPHA
 66
     1
 10
0.0
 20
0.0
 30
0.0
 70
   128
  0
VERTEX
  5
6F2C
  8
ALPHA
 10
1122.585142
 20
56.728457
 30
0.0
  0
VERTEX
  5
6F2D
  8
ALPHA
 10
1122.30042
 20
63.035415
 30
0.0
  0
VERTEX
  5
6F2E
  8
ALPHA
 10
1121.779375
 20
69.214045
 30
0.0
  0
VERTEX
  5
6F2F
  8
ALPHA
 10
1121.052439
 20
75.23619
 30
0.0
  0
VERTEX
  5
6F30
  8
ALPHA
 10
1120.150045
 20
81.073691
 30
0.0
  0
VERTEX
  5
6F31
  8
ALPHA
 10
1119.102626
 20
86.698389
 30
0.0
  0
VERTEX
  5
6F32
  8
ALPHA
 10
1117.940614
 20
92.082127
 30
0.0
  0
VERTEX
  5
6F33
  8
ALPHA
 10
1116.694443
 20
97.196747
 30
0.0
  0
VERTEX
  5
6F34
  8
ALPHA
 10
1115.394545
 20
102.014089
 30
0.0
  0
SEQEND
  5
6F35
  8
ALPHA
  0
POLYLINE
  5
6630
  8
ALPHA
 66
     1
 10
0.0
 20
0.0
 30
0.0
 70
   128
210
0.0
220
0.0
230
-1.0
  0
VERTEX
  5
6F36
  8
ALPHA
 10
-1125.490234
 20
57.976207
 30
0.0
  0
VERTEX
  5
6F37
  8
ALPHA
 10
-1125.752808
 20
58.342615
 30
0.0
  0
VERTEX
  5
6F38
  8
ALPHA
 10
-1126.147734
 20
58.413808
 30
0.0
  0
SEQEND
  5
6F39
  8
ALPHA
  0
POLYLINE
  5
6631
  8
ALPHA
 66
     1
 10
0.0
 20
0.0
 30
0.0
 70
   128
210
0.0
220
0.0
230
-1.0
  0
VERTEX
  5
6F3A
  8
ALPHA
 10
-1128.340684
 20
56.440208
 30
0.0
  0
VERTEX
  5
6F3B
  8
ALPHA
 10
-1128.42132
 20
56.312131
 30
0.0
  0
VERTEX
  5
6F3C
  8
ALPHA
 10
-1128.570362
 20
55.94747
 30
0.0
  0
VERTEX
  5
6F3D
  8
ALPHA
 10
-1128.648426
 20
55.37562
 30
0.0
  0
VERTEX
  5
6F3E
  8
ALPHA
 10
-1128.331238
 20
54.728457
 30
0.0
  0
SEQEND
  5
6F3F
  8
ALPHA
  0
DIMENSION
  5
6642
  8
COTATION1
  2
*D3
 10
1138.100991
 20
163.728457
 30
0.0
 11
1123.100991
 21
166.978457
 31
0.0
 13
1108.100991
 23
106.204829
 33
0.0
 14
1138.100991
 24
118.728457
 34
0.0
  0
LINE
  5
6651
  8
AXE
 10
1103.100991
 20
86.228457
 30
0.0
 11
1153.100991
 21
86.228457
 31
0.0
  0
LINE
  5
6653
  8
ALPHA
 10
1113.100991
 20
118.728457
 30
0.0
 11
1117.850991
 21
118.728457
 31
0.0
  0
LINE
  5
6654
  8
ALPHA
 10
1113.100991
 20
116.028457
 30
0.0
 11
1138.100991
 21
116.028457
 31
0.0
  0
LINE
  5
6655
  8
ALPHA
 10
1114.100991
 20
53.728457
 30
0.0
 11
1138.100991
 21
53.728457
 31
0.0
  0
ARC
  5
6656
  8
ALPHA
 10
963.75876
 20
55.387689
 30
0.0
 40
156.451664
 50
0.857269
 51
18.449068
  0
LINE
  5
6657
  8
ALPHA
 10
1108.100991
 20
102.228457
 30
0.0
 11
1108.100991
 21
58.780776
 31
0.0
  0
LINE
  5
6658
  8
ALPHA
 10
1113.450516
 20
56.331078
 30
0.0
 11
1114.100991
 21
53.728457
 31
0.0
  0
ARC
  5
6659
  8
ALPHA
 10
1141.770578
 20
106.515651
 30
0.0
 40
33.671021
 50
166.958519
 51
180.528913
  0
LINE
  5
665A
  8
ALPHA
 10
1113.100991
 20
118.728457
 30
0.0
 11
1113.100991
 21
102.014089
 31
0.0
  0
LINE
  5
665B
  8
ALPHA
 10
1113.100991
 20
104.898623
 30
0.0
 11
1112.169644
 21
104.898623
 31
0.0
  0
LINE
  5
665C
  8
ALPHA
 10
1113.100991
 20
102.014089
 30
0.0
 11
1115.394545
 21
102.014089
 31
0.0
  0
LINE
  5
665D
  8
ALPHA
 10
1108.100991
 20
103.014089
 30
0.0
 11
1112.785097
 21
103.014089
 31
0.0
  0
LINE
  5
665E
  8
ALPHA
 10
1108.100991
 20
102.228457
 30
0.0
 11
1108.100991
 21
106.204829
 31
0.0
  0
ARC
  5
665F
  8
ALPHA
 10
1110.437819
 20
113.814173
 30
0.0
 40
1.5
 50
90.0
 51
168.480193
  0
LINE
  5
6660
  8
ALPHA
 10
1110.437819
 20
115.314173
 30
0.0
 11
1113.100991
 21
115.314173
 31
0.0
  0
DIMENSION
  5
6661
  8
COTATION1
  2
*D6
 10
1160.600991
 20
50.228457
 30
0.0
 11
1160.600991
 21
94.478457
 31
0.0
 13
1125.600991
 23
138.728457
 33
0.0
 14
1136.450991
 24
50.228457
 34
0.0
 50
90.0
  0
LINE
  5
6663
  8
ALPHA
 10
1138.100991
 20
118.728457
 30
0.0
 11
1138.100991
 21
53.728457
 31
0.0
  0
TEXT
  5
6665
  8
AXE
 10
1118.124801
 20
33.728457
 30
0.0
 40
8.0
  1
Y
 72
     2
 11
1124.600991
 21
33.728457
 31
0.0
  0
LINE
  5
6666
  8
ALPHA
 10
1126.074747
 20
59.728457
 30
0.0
 11
1138.100991
 21
59.728457
 31
0.0
  0
LINE
  5
6667
  8
ALPHA
 10
1120.923893
 20
54.728457
 30
0.0
 11
1138.100991
 21
54.728457
 31
0.0
  0
LINE
  5
6668
  8
ALPHA
 10
1122.585142
 20
56.728457
 30
0.0
 11
1125.074011
 21
56.728457
 31
0.0
  0
LINE
  5
6669
  8
ALPHA
 10
1120.192912
 20
57.728457
 30
0.0
 11
1122.55724
 21
57.728457
 31
0.0
  0
LINE
  5
666A
  8
ALPHA
 10
1126.074747
 20
59.728457
 30
0.0
 11
1125.074011
 21
56.728457
 31
0.0
  0
TEXT
  5
667F
  8
AXE
 10
1146.624801
 20
87.228457
 30
0.0
 40
8.0
  1
Z
 72
     2
 11
1153.100991
 21
87.228457
 31
0.0
  0
LINE
  5
6680
  8
ALPHA
 10
1133.350991
 20
118.728457
 30
0.0
 11
1138.100991
 21
118.728457
 31
0.0
  0
LINE
  5
6689
  8
ALPHA
 10
1133.350991
 20
118.17456
 30
0.0
 11
1117.850991
 21
118.17456
 31
0.0
  0
LINE
  5
6BF5
  8
ALPHA
 10
1129.242189
 20
134.99112
 30
0.0
 11
1129.66202
 21
134.768598
 31
0.0
  0
POLYLINE
  5
6BF6
  8
ALPHA
 66
     1
 10
0.0
 20
0.0
 30
0.0
 70
   128
  0
VERTEX
  5
6F40
  8
ALPHA
 10
1132.536022
 20
128.98577
 30
0.0
  0
VERTEX
  5
6F41
  8
ALPHA
 10
1132.495845
 20
128.789948
 30
0.0
  0
VERTEX
  5
6F42
  8
ALPHA
 10
1132.389923
 20
128.27369
 30
0.0
  0
VERTEX
  5
6F43
  8
ALPHA
 10
1132.068507
 20
126.707114
 30
0.0
  0
VERTEX
  5
6F44
  8
ALPHA
 10
1131.74709
 20
125.140537
 30
0.0
  0
VERTEX
  5
6F45
  8
ALPHA
 10
1131.641169
 20
124.624279
 30
0.0
  0
VERTEX
  5
6F46
  8
ALPHA
 10
1131.600991
 20
124.428457
 30
0.0
  0
SEQEND
  5
6F47
  8
ALPHA
  0
POLYLINE
  5
6BF7
  8
ALPHA
 66
     1
 10
0.0
 20
0.0
 30
0.0
 70
   128
210
0.0
220
0.0
230
-1.0
  0
VERTEX
  5
6F48
  8
ALPHA
 10
-1132.303634
 20
130.146611
 30
0.0
  0
VERTEX
  5
6F49
  8
ALPHA
 10
-1132.541914
 20
129.59106
 30
0.0
  0
VERTEX
  5
6F4A
  8
ALPHA
 10
-1132.536022
 20
128.98577
 30
0.0
  0
SEQEND
  5
6F4B
  8
ALPHA
  0
POLYLINE
  5
6BF8
  8
ALPHA
 66
     1
 10
0.0
 20
0.0
 30
0.0
 70
   128
  0
VERTEX
  5
6F4C
  8
ALPHA
 10
1129.66202
 20
134.768598
 30
0.0
  0
VERTEX
  5
6F4D
  8
ALPHA
 10
1129.775527
 20
134.569997
 30
0.0
  0
VERTEX
  5
6F4E
  8
ALPHA
 10
1130.074773
 20
134.046413
 30
0.0
  0
VERTEX
  5
6F4F
  8
ALPHA
 10
1130.982827
 20
132.457605
 30
0.0
  0
VERTEX
  5
6F50
  8
ALPHA
 10
1131.890882
 20
130.868796
 30
0.0
  0
VERTEX
  5
6F51
  8
ALPHA
 10
1132.190127
 20
130.345212
 30
0.0
  0
VERTEX
  5
6F52
  8
ALPHA
 10
1132.303634
 20
130.146611
 30
0.0
  0
SEQEND
  5
6F53
  8
ALPHA
  0
LINE
  5
6BF9
  8
ALPHA
 10
1121.959794
 20
134.99112
 30
0.0
 11
1121.539962
 21
134.768598
 31
0.0
  0
POLYLINE
  5
6BFA
  8
ALPHA
 66
     1
 10
0.0
 20
0.0
 30
0.0
 70
   128
  0
VERTEX
  5
6F54
  8
ALPHA
 10
1118.898348
 20
130.146611
 30
0.0
  0
VERTEX
  5
6F55
  8
ALPHA
 10
1118.660069
 20
129.59106
 30
0.0
  0
VERTEX
  5
6F56
  8
ALPHA
 10
1118.665961
 20
128.98577
 30
0.0
  0
SEQEND
  5
6F57
  8
ALPHA
  0
POLYLINE
  5
6BFB
  8
ALPHA
 66
     1
 10
0.0
 20
0.0
 30
0.0
 70
   128
  0
VERTEX
  5
6F58
  8
ALPHA
 10
1118.665961
 20
128.98577
 30
0.0
  0
VERTEX
  5
6F59
  8
ALPHA
 10
1118.706138
 20
128.789948
 30
0.0
  0
VERTEX
  5
6F5A
  8
ALPHA
 10
1118.812059
 20
128.27369
 30
0.0
  0
VERTEX
  5
6F5B
  8
ALPHA
 10
1119.133476
 20
126.707114
 30
0.0
  0
VERTEX
  5
6F5C
  8
ALPHA
 10
1119.454893
 20
125.140537
 30
0.0
  0
VERTEX
  5
6F5D
  8
ALPHA
 10
1119.560814
 20
124.624279
 30
0.0
  0
VERTEX
  5
6F5E
  8
ALPHA
 10
1119.600991
 20
124.428457
 30
0.0
  0
SEQEND
  5
6F5F
  8
ALPHA
  0
POLYLINE
  5
6BFC
  8
ALPHA
 66
     1
 10
0.0
 20
0.0
 30
0.0
 70
   128
  0
VERTEX
  5
6F60
  8
ALPHA
 10
1121.539962
 20
134.768598
 30
0.0
  0
VERTEX
  5
6F61
  8
ALPHA
 10
1121.426455
 20
134.569997
 30
0.0
  0
VERTEX
  5
6F62
  8
ALPHA
 10
1121.12721
 20
134.046413
 30
0.0
  0
VERTEX
  5
6F63
  8
ALPHA
 10
1120.219155
 20
132.457605
 30
0.0
  0
VERTEX
  5
6F64
  8
ALPHA
 10
1119.3111
 20
130.868796
 30
0.0
  0
VERTEX
  5
6F65
  8
ALPHA
 10
1119.011855
 20
130.345212
 30
0.0
  0
VERTEX
  5
6F66
  8
ALPHA
 10
1118.898348
 20
130.146611
 30
0.0
  0
SEQEND
  5
6F67
  8
ALPHA
  0
ARC
  5
6BFD
  8
ALPHA
 10
1131.800991
 20
121.228457
 30
0.0
 40
0.3
 50
0.0
 51
90.0
  0
ARC
  5
6BFE
  8
ALPHA
 10
1119.400991
 20
121.228457
 30
0.0
 40
0.3
 50
90.0
 51
180.0
  0
LINE
  5
6BFF
  8
AXE
 10
1125.600991
 20
143.728457
 30
0.0
 11
1125.600991
 21
33.728457
 31
0.0
  0
DIMENSION
  5
6C00
  8
COTATION1
  2
*D4
 10
1138.100991
 20
153.728457
 30
0.0
 11
1131.850991
 21
156.978457
 31
0.0
 13
1125.600991
 23
143.728457
 33
0.0
 14
1138.100991
 24
118.728457
 34
0.0
  0
LINE
  5
6C10
  8
ALPHA
 10
1132.350991
 20
120.728457
 30
0.0
 11
1125.600991
 21
120.728457
 31
0.0
  0
LINE
  5
6C12
  8
ALPHA
 10
1133.350991
 20
119.728457
 30
0.0
 11
1125.600991
 21
119.728457
 31
0.0
  0
LINE
  5
6C14
  8
ALPHA
 10
1119.100991
 20
121.228457
 30
0.0
 11
1119.100991
 21
120.728457
 31
0.0
  0
LINE
  5
6C15
  8
ALPHA
 10
1117.850991
 20
119.728457
 30
0.0
 11
1118.850991
 21
120.728457
 31
0.0
  0
LINE
  5
6C16
  8
ALPHA
 10
1118.850991
 20
120.728457
 30
0.0
 11
1125.600991
 21
120.728457
 31
0.0
  0
LINE
  5
6C17
  8
ALPHA
 10
1117.850991
 20
119.728457
 30
0.0
 11
1117.850991
 21
118.17456
 31
0.0
  0
LINE
  5
6C18
  8
ALPHA
 10
1117.850991
 20
119.728457
 30
0.0
 11
1125.600991
 21
119.728457
 31
0.0
  0
LINE
  5
6C1A
  8
ALPHA
 10
1133.350991
 20
119.728457
 30
0.0
 11
1132.350991
 21
120.728457
 31
0.0
  0
LINE
  5
6C1B
  8
ALPHA
 10
1132.100991
 20
121.228457
 30
0.0
 11
1132.100991
 21
120.728457
 31
0.0
  0
LINE
  5
6C1D
  8
ALPHA
 10
1133.350991
 20
119.728457
 30
0.0
 11
1133.350991
 21
118.17456
 31
0.0
  0
LINE
  5
6C1E
  8
ALPHA
 10
1131.800991
 20
121.528457
 30
0.0
 11
1125.600991
 21
121.528457
 31
0.0
  0
LINE
  5
6C1F
  8
ALPHA
 10
1131.350991
 20
122.628457
 30
0.0
 11
1125.750991
 21
122.628457
 31
0.0
  0
LINE
  5
6C20
  8
ALPHA
 10
1131.350991
 20
122.128457
 30
0.0
 11
1125.750991
 21
122.128457
 31
0.0
  0
LINE
  5
6C21
  8
ALPHA
 10
1131.600991
 20
123.228457
 30
0.0
 11
1125.600991
 21
123.228457
 31
0.0
  0
LINE
  5
6C22
  8
ALPHA
 10
1131.600991
 20
124.428457
 30
0.0
 11
1125.600991
 21
124.428457
 31
0.0
  0
LINE
  5
6C23
  8
ALPHA
 10
1125.750991
 20
122.528457
 30
0.0
 11
1125.600991
 21
122.528457
 31
0.0
  0
LINE
  5
6C24
  8
ALPHA
 10
1125.750991
 20
122.528457
 30
0.0
 11
1125.600991
 21
122.528457
 31
0.0
  0
LINE
  5
6C25
  8
ALPHA
 10
1125.750991
 20
122.228457
 30
0.0
 11
1125.600991
 21
122.228457
 31
0.0
  0
LINE
  5
6C26
  8
ALPHA
 10
1125.750991
 20
122.628457
 30
0.0
 11
1125.750991
 21
122.128457
 31
0.0
  0
LINE
  5
6C27
  8
ALPHA
 10
1119.600991
 20
124.428457
 30
0.0
 11
1125.600991
 21
124.428457
 31
0.0
  0
LINE
  5
6C28
  8
ALPHA
 10
1119.600991
 20
124.428457
 30
0.0
 11
1119.600991
 21
123.228457
 31
0.0
  0
LINE
  5
6C29
  8
ALPHA
 10
1119.600991
 20
123.228457
 30
0.0
 11
1125.600991
 21
123.228457
 31
0.0
  0
LINE
  5
6C2A
  8
ALPHA
 10
1119.600991
 20
123.228457
 30
0.0
 11
1120.200991
 21
122.628457
 31
0.0
  0
LINE
  5
6C2B
  8
ALPHA
 10
1125.450991
 20
122.228457
 30
0.0
 11
1125.600991
 21
122.228457
 31
0.0
  0
LINE
  5
6C2C
  8
ALPHA
 10
1125.450991
 20
122.528457
 30
0.0
 11
1125.600991
 21
122.528457
 31
0.0
  0
LINE
  5
6C2D
  8
ALPHA
 10
1125.450991
 20
122.528457
 30
0.0
 11
1125.600991
 21
122.528457
 31
0.0
  0
LINE
  5
6C2E
  8
ALPHA
 10
1125.450991
 20
122.628457
 30
0.0
 11
1125.450991
 21
122.128457
 31
0.0
  0
ARC
  5
6C2F
  8
ALPHA
 10
1119.850991
 20
122.378457
 30
0.0
 40
0.25
 50
90.0
 51
270.0
  0
LINE
  5
6C30
  8
ALPHA
 10
1119.850991
 20
122.628457
 30
0.0
 11
1125.450991
 21
122.628457
 31
0.0
  0
LINE
  5
6C31
  8
ALPHA
 10
1119.850991
 20
122.128457
 30
0.0
 11
1125.450991
 21
122.128457
 31
0.0
  0
LINE
  5
6C32
  8
ALPHA
 10
1119.600991
 20
121.528457
 30
0.0
 11
1120.200991
 21
122.128457
 31
0.0
  0
LINE
  5
6C33
  8
ALPHA
 10
1119.400991
 20
121.528457
 30
0.0
 11
1125.600991
 21
121.528457
 31
0.0
  0
ARC
  5
6C34
  8
ALPHA
 10
1131.350991
 20
122.378457
 30
0.0
 40
0.25
 50
270.0
 51
90.0
  0
LINE
  5
6C35
  8
ALPHA
 10
1131.600991
 20
121.528457
 30
0.0
 11
1131.000991
 21
122.128457
 31
0.0
  0
LINE
  5
6C36
  8
ALPHA
 10
1131.600991
 20
123.228457
 30
0.0
 11
1131.000991
 21
122.628457
 31
0.0
  0
LINE
  5
6C37
  8
ALPHA
 10
1131.600991
 20
124.428457
 30
0.0
 11
1131.600991
 21
123.228457
 31
0.0
  0
ARC
  5
6C38
  8
ALPHA
 10
1125.600991
 20
130.228457
 30
0.0
 40
8.5
 50
61.927513
 51
118.072487
  0
LINE
  5
6C39
  8
ALPHA
 10
1129.600991
 20
137.728457
 30
0.0
 11
1125.600991
 21
137.728457
 31
0.0
  0
LINE
  5
6C3A
  8
ALPHA
 10
1129.600991
 20
137.728457
 30
0.0
 11
1129.600991
 21
134.99112
 31
0.0
  0
LINE
  5
6C3B
  8
ALPHA
 10
1125.600991
 20
134.99112
 30
0.0
 11
1129.600991
 21
134.99112
 31
0.0
  0
LINE
  5
6C3C
  8
ALPHA
 10
1129.662019
 20
134.768599
 30
0.0
 11
1125.600991
 21
134.768599
 31
0.0
  0
LINE
  5
6C3D
  8
ALPHA
 10
1125.600991
 20
134.99112
 30
0.0
 11
1121.600991
 21
134.99112
 31
0.0
  0
LINE
  5
6C3E
  8
ALPHA
 10
1121.600991
 20
137.728457
 30
0.0
 11
1121.600991
 21
134.99112
 31
0.0
  0
LINE
  5
6C3F
  8
ALPHA
 10
1121.600991
 20
137.728457
 30
0.0
 11
1125.600991
 21
137.728457
 31
0.0
  0
LINE
  5
6C40
  8
ALPHA
 10
1121.539963
 20
134.768599
 30
0.0
 11
1125.600991
 21
134.768599
 31
0.0
  0
DIMENSION
  5
6DCC
  8
COTATION1
  2
*D5
 10
1138.100991
 20
71.587159
 30
0.0
 11
1146.860505
 21
73.824117
 31
0.0
 70
   128
 13
1134.100991
 23
57.728457
 33
0.0
 14
1138.100991
 24
59.728457
 34
0.0
  0
LINE
  5
6DCD
  8
POINTILLE_COURT
 10
1138.100991
 20
56.228457
 30
0.0
 11
1135.600991
 21
56.228457
 31
0.0
  0
LINE
  5
6DCE
  8
POINTILLE_COURT
 10
1138.100991
 20
59.228457
 30
0.0
 11
1135.600991
 21
59.228457
 31
0.0
  0
ARC
  5
6DCF
  8
POINTILLE_COURT
 10
1135.600991
 20
57.728457
 30
0.0
 40
1.5
 50
90.0
 51
270.0
  0
LINE
  5
6E3B
  8
ALPHA
 10
1114.750991
 20
50.228457
 30
0.0
 11
1136.450991
 21
50.228457
 31
0.0
  0
LINE
  5
6E3C
  8
ALPHA
 10
1114.750991
 20
50.228457
 30
0.0
 11
1114.750991
 21
53.728457
 31
0.0
  0
LINE
  5
6E3D
  8
ALPHA
 10
1136.450991
 20
53.728457
 30
0.0
 11
1136.450991
 21
50.228457
 31
0.0
  0
VIEWPORT
  5
494D
 67
     1
  8
0
 10
5.64875
 20
3.93625
 30
0.0
 40
13.777002
 41
8.747897
 68
    -1
 69
     1
1001
ACAD
1000
MVIEW
1002
{
1070
    16
1010
0.0
1020
0.0
1030
0.0
1010
0.0
1020
0.0
1030
1.0
1040
0.0
1040
8.747897
1040
5.64875
1040
3.93625
1040
50.0
1040
0.0
1040
0.0
1070
     0
1070
   100
1070
     1
1070
     1
1070
     0
1070
     0
1070
     0
1070
     0
1040
0.0
1040
0.0
1040
0.0
1040
10.0
1040
10.0
1040
10.0
1040
10.0
1070
     0
1002
{
1002
}
1002
}
  0
VIEWPORT
  5
6DF4
 67
     1
  8
COTATION1
 10
5.647083
 20
3.934583
 30
0.0
 40
9.035334
 41
6.295333
 68
     1
 69
     2
1001
ACAD
1000
MVIEW
1002
{
1070
    16
1010
0.0
1020
0.0
1030
0.0
1010
0.0
1020
0.0
1030
1.0
1040
0.0
1040
136.10119
1040
1154.058172
1040
100.978457
1040
50.0
1040
0.0
1040
0.0
1070
     0
1070
   100
1070
     1
1070
     0
1070
     0
1070
     0
1070
     0
1070
     0
1040
0.0
1040
0.0
1040
0.0
1040
1.0
1040
1.0
1040
10.0
1040
10.0
1070
     0
1002
{
1002
}
1002
}
  0
ENDSEC
  0
EOF
