  0
SECTION
  2
HEADER
  9
$ACADVER
  1
AC1012
  9
$DWGCODEPAGE
  3
ANSI_1252
  9
$INSBASE
 10
0.0
 20
0.0
 30
0.0
  9
$EXTMIN
 10
3.182237
 20
2.518958
 30
-0.001526
  9
$EXTMAX
 10
101.388986
 20
126.032236
 30
0.0
  9
$LIMMIN
 10
19.077216
 20
43.616976
  9
$LIMMAX
 10
194.084622
 20
146.65737
  9
$ORTHOMODE
 70
     0
  9
$REGENMODE
 70
     1
  9
$FILLMODE
 70
     1
  9
$QTEXTMODE
 70
     0
  9
$MIRRTEXT
 70
     1
  9
$DRAGMODE
 70
     2
  9
$LTSCALE
 40
10.0
  9
$OSMODE
 70
    37
  9
$ATTMODE
 70
     1
  9
$TEXTSIZE
 40
0.2
  9
$TRACEWID
 40
0.05
  9
$TEXTSTYLE
  7
STANDARD
  9
$CLAYER
  8
ALPHA
  9
$CELTYPE
  6
CONTINUOUS
  9
$CECOLOR
 62
   256
  9
$CELTSCALE
 40
1.0
  9
$DELOBJ
 70
     1
  9
$DISPSILH
 70
     0
  9
$DIMSCALE
 40
1.0
  9
$DIMASZ
 40
0.18
  9
$DIMEXO
 40
0.0625
  9
$DIMDLI
 40
0.38
  9
$DIMRND
 40
0.0
  9
$DIMDLE
 40
0.0
  9
$DIMEXE
 40
0.18
  9
$DIMTP
 40
0.0
  9
$DIMTM
 40
0.0
  9
$DIMTXT
 40
0.18
  9
$DIMCEN
 40
0.09
  9
$DIMTSZ
 40
0.0
  9
$DIMTOL
 70
     0
  9
$DIMLIM
 70
     0
  9
$DIMTIH
 70
     1
  9
$DIMTOH
 70
     1
  9
$DIMSE1
 70
     0
  9
$DIMSE2
 70
     0
  9
$DIMTAD
 70
     0
  9
$DIMZIN
 70
     0
  9
$DIMBLK
  1

  9
$DIMASO
 70
     1
  9
$DIMSHO
 70
     1
  9
$DIMPOST
  1

  9
$DIMAPOST
  1

  9
$DIMALT
 70
     0
  9
$DIMALTD
 70
     2
  9
$DIMALTF
 40
25.4
  9
$DIMLFAC
 40
1.0
  9
$DIMTOFL
 70
     0
  9
$DIMTVP
 40
0.0
  9
$DIMTIX
 70
     0
  9
$DIMSOXD
 70
     0
  9
$DIMSAH
 70
     0
  9
$DIMBLK1
  1

  9
$DIMBLK2
  1

  9
$DIMSTYLE
  2
STANDARD
  9
$DIMCLRD
 70
     0
  9
$DIMCLRE
 70
     0
  9
$DIMCLRT
 70
     0
  9
$DIMTFAC
 40
1.0
  9
$DIMGAP
 40
0.09
  9
$DIMJUST
 70
     0
  9
$DIMSD1
 70
     0
  9
$DIMSD2
 70
     0
  9
$DIMTOLJ
 70
     1
  9
$DIMTZIN
 70
     0
  9
$DIMALTZ
 70
     0
  9
$DIMALTTZ
 70
     0
  9
$DIMFIT
 70
     3
  9
$DIMUPT
 70
     0
  9
$DIMUNIT
 70
     2
  9
$DIMDEC
 70
     4
  9
$DIMTDEC
 70
     4
  9
$DIMALTU
 70
     2
  9
$DIMALTTD
 70
     2
  9
$DIMTXSTY
  7
STANDARD
  9
$DIMAUNIT
 70
     0
  9
$LUNITS
 70
     2
  9
$LUPREC
 70
     4
  9
$SKETCHINC
 40
0.1
  9
$FILLETRAD
 40
0.0
  9
$AUNITS
 70
     0
  9
$AUPREC
 70
     0
  9
$MENU
  1
acad
  9
$ELEVATION
 40
0.0
  9
$PELEVATION
 40
0.0
  9
$THICKNESS
 40
0.0
  9
$LIMCHECK
 70
     0
  9
$BLIPMODE
 70
     0
  9
$CHAMFERA
 40
0.0
  9
$CHAMFERB
 40
0.0
  9
$CHAMFERC
 40
0.0
  9
$CHAMFERD
 40
0.0
  9
$SKPOLY
 70
     0
  9
$TDCREATE
 40
2453634.413430799
  9
$TDUPDATE
 40
2453893.725119375
  9
$TDINDWG
 40
1.8131514699
  9
$TDUSRTIMER
 40
1.8131503819
  9
$USRTIMER
 70
     1
  9
$ANGBASE
 50
0.0
  9
$ANGDIR
 70
     0
  9
$PDMODE
 70
     0
  9
$PDSIZE
 40
0.0
  9
$PLINEWID
 40
0.0
  9
$COORDS
 70
     1
  9
$SPLFRAME
 70
     0
  9
$SPLINETYPE
 70
     6
  9
$SPLINESEGS
 70
     8
  9
$ATTDIA
 70
     0
  9
$ATTREQ
 70
     1
  9
$HANDLING
 70
     1
  9
$HANDSEED
  5
1262B
  9
$SURFTAB1
 70
     6
  9
$SURFTAB2
 70
     6
  9
$SURFTYPE
 70
     6
  9
$SURFU
 70
     6
  9
$SURFV
 70
     6
  9
$UCSNAME
  2

  9
$UCSORG
 10
0.0
 20
0.0
 30
0.0
  9
$UCSXDIR
 10
1.0
 20
0.0
 30
0.0
  9
$UCSYDIR
 10
0.0
 20
1.0
 30
0.0
  9
$PUCSNAME
  2

  9
$PUCSORG
 10
0.0
 20
0.0
 30
0.0
  9
$PUCSXDIR
 10
1.0
 20
0.0
 30
0.0
  9
$PUCSYDIR
 10
0.0
 20
1.0
 30
0.0
  9
$USERI1
 70
     0
  9
$USERI2
 70
     0
  9
$USERI3
 70
     0
  9
$USERI4
 70
     0
  9
$USERI5
 70
     0
  9
$USERR1
 40
0.0
  9
$USERR2
 40
0.0
  9
$USERR3
 40
0.0
  9
$USERR4
 40
0.0
  9
$USERR5
 40
0.0
  9
$WORLDVIEW
 70
     1
  9
$SHADEDGE
 70
     3
  9
$SHADEDIF
 70
    70
  9
$TILEMODE
 70
     1
  9
$MAXACTVP
 70
    16
  9
$PINSBASE
 10
0.0
 20
0.0
 30
0.0
  9
$PLIMCHECK
 70
     0
  9
$PEXTMIN
 10
1.000000E+20
 20
1.000000E+20
 30
1.000000E+20
  9
$PEXTMAX
 10
-1.000000E+20
 20
-1.000000E+20
 30
-1.000000E+20
  9
$PLIMMIN
 10
0.0
 20
0.0
  9
$PLIMMAX
 10
12.0
 20
9.0
  9
$UNITMODE
 70
     0
  9
$VISRETAIN
 70
     0
  9
$PLINEGEN
 70
     1
  9
$PSLTSCALE
 70
     0
  9
$TREEDEPTH
 70
  3020
  9
$PICKSTYLE
 70
     0
  9
$CMLSTYLE
  2
STANDARD
  9
$CMLJUST
 70
     0
  9
$CMLSCALE
 40
1.0
  9
$SAVEIMAGES
 70
     0
  0
ENDSEC
  0
SECTION
  2
CLASSES
  0
CLASS
  1
LWPOLYLINE
  2
AcDbPolyline
  3
"AutoCAD"
 90
    32768
280
     0
281
     1
  0
CLASS
  1
IMAGE
  2
AcDbRasterImage
  3
ISM
 90
    32895
280
     0
281
     1
  0
CLASS
  1
OLE2FRAME
  2
AcDbOle2Frame
  3
""
 90
    32768
280
     0
281
     1
  0
CLASS
  1
HATCH
  2
AcDbHatch
  3
"ACAD_SEDONA"
 90
    32768
280
     0
281
     1
  0
CLASS
  1
DICTIONARYVAR
  2
AcDbDictionaryVar
  3
"AutoCAD"
 90
    32768
280
     0
281
     0
  0
CLASS
  1
RASTERVARIABLES
  2
AcDbRasterVariables
  3
ISM
 90
    32768
280
     0
281
     0
  0
CLASS
  1
IMAGEDEF
  2
AcDbRasterImageDef
  3
ISM
 90
    32768
280
     0
281
     0
  0
CLASS
  1
IMAGEDEF_REACTOR
  2
AcDbRasterImageDefReactor
  3
ISM
 90
    32769
280
     0
281
     0
  0
CLASS
  1
SPATIAL_FILTER
  2
AcDbSpatialFilter
  3
"Acad"
 90
    32768
280
     0
281
     0
  0
CLASS
  1
XRECORD
  2
AcDbXrecord
  3
"<Built In>"
 90
    32768
280
     0
281
     0
  0
CLASS
  1
SORTENTSTABLE
  2
AcDbSortentsTable
  3
"AutoCAD"
 90
    32768
280
     0
281
     0
  0
CLASS
  1
LAYER_INDEX
  2
AcDbLayerIndex
  3
"Acad"
 90
    32768
280
     0
281
     0
  0
CLASS
  1
SPATIAL_INDEX
  2
AcDbSpatialIndex
  3
"Acad"
 90
    32768
280
     0
281
     0
  0
CLASS
  1
OBJECT_PTR
  2
CAseDLPNTableRecord
  3
ASE-LPNTableRecord
 90
    32769
280
     0
281
     0
  0
CLASS
  1
LAYOUT
  2
AcDbLayout
  3
AutoCAD 2000
 90
    32768
280
     0
281
     0
  0
CLASS
  1
PLOTSETTINGS
  2
AcDbPlotSettings
  3
AutoCAD 2000
 90
    32768
280
     0
281
     0
  0
CLASS
  1
ACDBDICTIONARYWDFLT
  2
AcDbDictionaryWithDefault
  3
AutoCAD 2000
 90
    32768
280
     0
281
     0
  0
CLASS
  1
ACDBPLACEHOLDER
  2
AcDbPlaceHolder
  3
AutoCAD 2000
 90
    32768
280
     0
281
     0
  0
CLASS
  1
VBA_PROJECT
  2
AcDbVbaProject
  3
acad
 90
    32768
280
     0
281
     0
  0
CLASS
  1
WIPEOUT
  2
AcDbWipeout
  3
WipeOut|AutoCAD Express Tool|expresstools@autodesk.com
 90
    32895
280
     0
281
     1
  0
CLASS
  1
WIPEOUTVARIABLES
  2
AcDbWipeoutVariables
  3
WipeOut|AutoCAD Express Tool|expresstools@autodesk.com
 90
    32768
280
     0
281
     0
  0
CLASS
  1
RTEXT
  2
RText
  3
RText|AutoCAD Express Tool|expresstools@autodesk.com
 90
    32768
280
     0
281
     1
  0
CLASS
  1
ARCALIGNEDTEXT
  2
AcDbArcAlignedText
  3
ATEXT|AutoCAD Express Tool|expresstools@autodesk.com
 90
    32768
280
     0
281
     1
  0
CLASS
  1
TABLESTYLE
  2
AcDbTableStyle
  3
ObjectDBX Classes
 90
    34815
280
     0
281
     0
  0
CLASS
  1
ACAD_PROXY_OBJECT_WRAPPER
  2
AcDbProxyObjectWrapper
  3
AutoCAD 2000
 90
    32768
280
     0
281
     0
  0
CLASS
  1
LONG_TRANSACTION
  2
AcDbLongTransaction
  3
AutoCAD 2000
 90
    32768
280
     0
281
     0
  0
CLASS
  1
LWPOLYLINE
  2
AcDbPolyline
  3
"AutoCAD"
 90
    32768
280
     0
281
     1
  0
CLASS
  1
HATCH
  2
AcDbHatch
  3
"ACAD_SEDONA"
 90
    32768
280
     0
281
     1
  0
CLASS
  1
XRECORD
  2
AcDbXrecord
  3
"<Built In>"
 90
    32768
280
     0
281
     0
  0
ENDSEC
  0
SECTION
  2
TABLES
  0
TABLE
  2
VPORT
  5
7
100
AcDbSymbolTable
 70
     2
  0
VPORT
  5
1262A
100
AcDbSymbolTableRecord
100
AcDbViewportTableRecord
  2
*ACTIVE
 70
     0
 10
0.0
 20
0.0
 11
1.0
 21
1.0
 12
52.285611
 22
64.275597
 13
0.0
 23
0.0
 14
1.0
 24
1.0
 15
0.0
 25
0.0
 16
0.0
 26
0.0
 36
1.0
 17
0.0
 27
0.0
 37
0.0
 40
124.797646
 41
1.673611
 42
50.0
 43
0.0
 44
0.0
 50
0.0
 51
0.0
 71
     0
 72
   100
 73
     1
 74
     2
 75
     0
 76
     0
 77
     0
 78
     0
  0
ENDTAB
  0
TABLE
  2
LTYPE
  5
4
100
AcDbSymbolTable
 70
     2
  0
LTYPE
  5
11
102
{ACAD_XDICTIONARY
360
125E7
102
}
100
AcDbSymbolTableRecord
100
AcDbLinetypeTableRecord
  2
BYBLOCK
 70
     0
  3

 72
    65
 73
     0
 40
0.0
  0
LTYPE
  5
12
102
{ACAD_XDICTIONARY
360
125E9
102
}
100
AcDbSymbolTableRecord
100
AcDbLinetypeTableRecord
  2
BYLAYER
 70
     0
  3

 72
    65
 73
     0
 40
0.0
  0
LTYPE
  5
13
102
{ACAD_XDICTIONARY
360
125EB
102
}
100
AcDbSymbolTableRecord
100
AcDbLinetypeTableRecord
  2
CONTINUOUS
 70
     0
  3
Solid line
 72
    65
 73
     0
 40
0.0
  0
LTYPE
  5
725
100
AcDbSymbolTableRecord
100
AcDbLinetypeTableRecord
  2
AXES2
 70
     0
  3
___ _ ___ _ ___ _ ___ _ ___ _ ___ _ ___ _ ___ _
 72
    65
 73
     4
 40
1.125
 49
0.75
 74
     0
 49
-0.125
 74
     0
 49
0.125
 74
     0
 49
-0.125
 74
     0
  0
ENDTAB
  0
TABLE
  2
LAYER
  5
2
102
{ACAD_XDICTIONARY
360
26F0
102
}
100
AcDbSymbolTable
 70
     5
  0
LAYER
  5
14
100
AcDbSymbolTableRecord
100
AcDbLayerTableRecord
  2
0
 70
     0
 62
     7
  6
CONTINUOUS
  0
LAYER
  5
6EC
102
{ACAD_XDICTIONARY
360
125E5
102
}
100
AcDbSymbolTableRecord
100
AcDbLayerTableRecord
  2
DEFPOINTS
 70
     0
 62
     7
  6
CONTINUOUS
  0
LAYER
  5
727
100
AcDbSymbolTableRecord
100
AcDbLayerTableRecord
  2
COTATION1
 70
     0
 62
     2
  6
CONTINUOUS
  0
LAYER
  5
728
100
AcDbSymbolTableRecord
100
AcDbLayerTableRecord
  2
AXE
 70
     0
 62
    80
  6
AXES2
  0
LAYER
  5
729
100
AcDbSymbolTableRecord
100
AcDbLayerTableRecord
  2
ALPHA
 70
     0
 62
   254
  6
CONTINUOUS
  0
ENDTAB
  0
TABLE
  2
STYLE
  5
3
100
AcDbSymbolTable
 70
     2
  0
STYLE
  5
17
102
{ACAD_XDICTIONARY
360
125F1
102
}
100
AcDbSymbolTableRecord
100
AcDbTextStyleTableRecord
  2
STANDARD
 70
     0
 40
0.0
 41
1.0
 50
0.0
 71
     0
 42
0.0
  3
txt
  4

  0
STYLE
  5
72B
100
AcDbSymbolTableRecord
100
AcDbTextStyleTableRecord
  2
ROMANS
 70
     0
 40
0.0
 41
1.0
 50
0.0
 71
     0
 42
6.0
  3
romans
  4

  0
ENDTAB
  0
TABLE
  2
VIEW
  5
5
100
AcDbSymbolTable
 70
     0
  0
ENDTAB
  0
TABLE
  2
UCS
  5
6
100
AcDbSymbolTable
 70
     0
  0
ENDTAB
  0
TABLE
  2
APPID
  5
8
100
AcDbSymbolTable
 70
     4
  0
APPID
  5
16
100
AcDbSymbolTableRecord
100
AcDbRegAppTableRecord
  2
ACAD
 70
     0
  0
APPID
  5
26EF
102
{ACAD_XDICTIONARY
360
125ED
102
}
100
AcDbSymbolTableRecord
100
AcDbRegAppTableRecord
  2
ACAECLAYERSTANDARD
 70
     0
  0
APPID
  5
320E
100
AcDbSymbolTableRecord
100
AcDbRegAppTableRecord
  2
DCO15
 70
     0
  0
APPID
  5
3569
102
{ACAD_XDICTIONARY
360
125EF
102
}
100
AcDbSymbolTableRecord
100
AcDbRegAppTableRecord
  2
ACAD_EXEMPT_FROM_CAD_STAND
 70
     0
  0
ENDTAB
  0
TABLE
  2
DIMSTYLE
  5
9
100
AcDbSymbolTable
 70
     2
  0
DIMSTYLE
105
18
102
{ACAD_XDICTIONARY
360
125E3
102
}
100
AcDbSymbolTableRecord
100
AcDbDimStyleTableRecord
  2
STANDARD
 70
     0
  3

  4

  5

  6

  7

 40
1.0
 41
0.18
 42
0.0625
 43
0.38
 44
0.18
 45
0.0
 46
0.0
 47
0.0
 48
0.0
140
0.18
141
0.09
142
0.0
143
25.4
144
1.0
145
0.0
146
1.0
147
0.09
 71
     0
 72
     0
 73
     1
 74
     1
 75
     0
 76
     0
 77
     0
 78
     0
170
     0
171
     2
172
     0
173
     0
174
     0
175
     0
176
     0
177
     0
178
     0
270
     2
271
     4
272
     4
273
     2
274
     2
340
17
275
     0
280
     0
281
     0
282
     0
283
     1
284
     0
285
     0
286
     0
287
     3
288
     0
  0
DIMSTYLE
105
72C
102
{ACAD_XDICTIONARY
360
12621
102
}
102
{ACAD_REACTORS
330
1198C
102
}
100
AcDbSymbolTableRecord
100
AcDbDimStyleTableRecord
  2
SC_DEFAUT
 70
     0
  3

  4

  5
OPEN30
  6

  7

 40
1.0
 41
5.0
 42
2.0
 43
0.38
 44
2.5
 45
0.0
 46
0.0
 47
0.0
 48
0.0
140
2.5
141
0.0
142
0.0
143
25.4
144
1.0
145
0.0
146
1.0
147
2.0
 71
     0
 72
     0
 73
     1
 74
     1
 75
     0
 76
     0
 77
     1
 78
    12
170
     0
171
     2
172
     0
173
     0
174
     0
175
     0
176
     0
177
     0
178
     0
270
     2
271
     1
272
     1
273
     2
274
     2
340
72B
275
     0
280
     0
281
     0
282
     0
283
     1
284
    12
285
    12
286
    12
287
     5
288
     0
  0
ENDTAB
  0
TABLE
  2
BLOCK_RECORD
  5
1
100
AcDbSymbolTable
 70
     2
  0
BLOCK_RECORD
  5
A
102
{ACAD_XDICTIONARY
360
7D7
102
}
100
AcDbSymbolTableRecord
100
AcDbBlockTableRecord
  2
*MODEL_SPACE
  0
BLOCK_RECORD
  5
B
102
{ACAD_XDICTIONARY
360
12617
102
}
100
AcDbSymbolTableRecord
100
AcDbBlockTableRecord
  2
*PAPER_SPACE
  0
BLOCK_RECORD
  5
6FA
100
AcDbSymbolTableRecord
100
AcDbBlockTableRecord
  2
_OPEN30
  0
BLOCK_RECORD
  5
119F5
100
AcDbSymbolTableRecord
100
AcDbBlockTableRecord
  2
*D1
  0
ENDTAB
  0
ENDSEC
  0
SECTION
  2
BLOCKS
  0
BLOCK
  5
D
100
AcDbEntity
  8
0
100
AcDbBlockBegin
  2
*MODEL_SPACE
 70
     0
 10
0.0
 20
0.0
 30
0.0
  3
*MODEL_SPACE
  1

  0
ENDBLK
  5
E
100
AcDbEntity
  8
0
100
AcDbBlockEnd
  0
BLOCK
  5
F
100
AcDbEntity
 67
     1
  8
0
100
AcDbBlockBegin
  2
*PAPER_SPACE
 70
     0
 10
0.0
 20
0.0
 30
0.0
  3
*PAPER_SPACE
  1

  0
ENDBLK
  5
10
100
AcDbEntity
 67
     1
  8
0
100
AcDbBlockEnd
  0
BLOCK
  5
6FB
100
AcDbEntity
  8
0
100
AcDbBlockBegin
  2
_OPEN30
 70
     0
 10
0.0
 20
0.0
 30
0.0
  3
_OPEN30
  1

  0
LINE
  5
6FC
100
AcDbEntity
  8
COTATION1
 62
     0
100
AcDbLine
 10
-1.0
 20
0.267949
 30
0.0
 11
0.0
 21
0.0
 31
0.0
1001
ACAD
1000
RTLwPs
1070
   158
  0
LINE
  5
6FD
100
AcDbEntity
  8
COTATION1
 62
     0
100
AcDbLine
 10
0.0
 20
0.0
 30
0.0
 11
-1.0
 21
-0.267949
 31
0.0
1001
ACAD
1000
RTLwPs
1070
   158
  0
LINE
  5
6FE
100
AcDbEntity
  8
COTATION1
 62
     0
100
AcDbLine
 10
0.0
 20
0.0
 30
0.0
 11
-1.0
 21
0.0
 31
0.0
1001
ACAD
1000
RTLwPs
1070
   158
  0
ENDBLK
  5
6FF
100
AcDbEntity
  8
0
100
AcDbBlockEnd
  0
BLOCK
  5
119FF
100
AcDbEntity
  8
0
100
AcDbBlockBegin
  2
*D1
 70
     1
 10
0.0
 20
0.0
 30
0.0
  3
*D1
  1

1001
ACAD
1000
RTLwPs
1070
   128
  0
LINE
  5
125CF
100
AcDbEntity
  8
COTATION1
 62
     0
100
AcDbLine
 10
34.888062
 20
108.523356
 30
0.0
 11
34.888062
 21
124.023356
 31
0.0
1001
ACAD
1000
RTLwPs
1070
   158
  0
LINE
  5
125D0
100
AcDbEntity
  8
COTATION1
 62
     0
100
AcDbLine
 10
19.888062
 20
96.523356
 30
0.0
 11
19.888062
 21
124.023356
 31
0.0
1001
ACAD
1000
RTLwPs
1070
   158
  0
LINE
  5
125D1
100
AcDbEntity
  8
COTATION1
 62
     0
100
AcDbLine
 10
29.888062
 20
121.523356
 30
0.0
 11
24.888062
 21
121.523356
 31
0.0
1001
ACAD
1000
RTLwPs
1070
   158
  0
INSERT
  5
125D2
100
AcDbEntity
  8
COTATION1
 62
     0
100
AcDbBlockReference
  2
_OPEN30
 10
34.888062
 20
121.523356
 30
0.0
 41
5.0
 42
5.0
 43
5.0
1001
ACAD
1000
RTLwPs
1070
   158
  0
INSERT
  5
125D3
100
AcDbEntity
  8
COTATION1
 62
     0
100
AcDbBlockReference
  2
_OPEN30
 10
19.888062
 20
121.523356
 30
0.0
 41
5.0
 42
5.0
 43
5.0
 50
180.0
1001
ACAD
1000
RTLwPs
1070
   158
  0
MTEXT
  5
125D4
100
AcDbEntity
  8
COTATION1
 62
     0
100
AcDbMText
 10
27.388062
 20
124.773356
 30
0.0
 40
2.5
 41
0.0
 71
     5
 72
     1
  1
\A1;15
  7
ROMANS
1001
ACAD
1000
MTEXTBEGIN
1070
    73
1070
     1
1070
    44
1040
1.0
1070
    74
1070
     0
1000
MTEXTEND
1000
MTEXTBEGIN
1070
    73
1070
     1
1070
    44
1040
1.0
1070
    74
1070
     0
1000
MTEXTEND
  0
POINT
  5
125D5
100
AcDbEntity
  8
DEFPOINTS
 62
     0
100
AcDbPoint
 10
34.888062
 20
106.523356
 30
0.0
1001
ACAD
1000
RTLwPs
1070
   128
  0
POINT
  5
125D6
100
AcDbEntity
  8
DEFPOINTS
 62
     0
100
AcDbPoint
 10
19.888062
 20
94.523356
 30
0.0
1001
ACAD
1000
RTLwPs
1070
   128
  0
POINT
  5
125D7
100
AcDbEntity
  8
DEFPOINTS
 62
     0
100
AcDbPoint
 10
19.888062
 20
121.523356
 30
0.0
1001
ACAD
1000
RTLwPs
1070
   128
  0
ENDBLK
  5
11A00
100
AcDbEntity
  8
0
100
AcDbBlockEnd
1001
ACAD
1000
RTLwPs
1070
   128
  0
ENDSEC
  0
SECTION
  2
ENTITIES
  0
LINE
  5
11961
100
AcDbEntity
  8
AXE
100
AcDbLine
 10
83.388062
 20
106.523356
 30
0.0
 11
34.888062
 21
106.523356
 31
0.0
  0
LINE
  5
11963
100
AcDbEntity
  8
AXE
100
AcDbLine
 10
86.388062
 20
17.523356
 30
0.0
 11
34.888062
 21
17.523356
 31
0.0
  0
LINE
  5
11964
100
AcDbEntity
  8
AXE
100
AcDbLine
 10
19.188062
 20
84.523356
 30
0.0
 11
19.188062
 21
39.523356
 31
0.0
  0
LINE
  5
11965
100
AcDbEntity
  8
AXE
100
AcDbLine
 10
86.388062
 20
95.523356
 30
0.0
 11
86.388062
 21
77.523356
 31
0.0
  0
LINE
  5
11966
100
AcDbEntity
  8
AXE
100
AcDbLine
 10
83.388062
 20
106.523356
 30
0.0
 11
86.388062
 21
95.523356
 31
0.0
  0
LINE
  5
11967
100
AcDbEntity
  8
AXE
100
AcDbLine
 10
81.656011
 20
80.523356
 30
0.0
 11
83.388062
 21
77.523356
 31
0.0
  0
LINE
  5
11968
100
AcDbEntity
  8
AXE
100
AcDbLine
 10
86.388062
 20
43.273356
 30
0.0
 11
86.388062
 21
17.523356
 31
0.0
  0
LINE
  5
11969
100
AcDbEntity
  8
ALPHA
  6
CONTINUOUS
100
AcDbLine
 10
34.888062
 20
94.523356
 30
0.0
 11
34.888062
 21
84.523356
 31
0.0
1001
ACAD
1000
RTLwPs
1070
   128
  0
LINE
  5
1196A
100
AcDbEntity
  8
AXE
100
AcDbLine
 10
50.888062
 20
106.523356
 30
0.0
 11
50.888062
 21
17.523356
 31
0.0
  0
LINE
  5
1196B
100
AcDbEntity
  8
AXE
100
AcDbLine
 10
19.188062
 20
84.523356
 30
0.0
 11
19.888062
 21
84.523356
 31
0.0
  0
LINE
  5
1196C
100
AcDbEntity
  8
AXE
100
AcDbLine
 10
34.888062
 20
39.523356
 30
0.0
 11
19.188062
 21
39.523356
 31
0.0
  0
LINE
  5
1196D
100
AcDbEntity
  8
AXE
100
AcDbLine
 10
34.888062
 20
17.523356
 30
0.0
 11
34.888062
 21
39.523356
 31
0.0
  0
LINE
  5
1196E
100
AcDbEntity
  8
AXE
100
AcDbLine
 10
80.888062
 20
74.523356
 30
0.0
 11
80.888062
 21
80.523356
 31
0.0
  0
LINE
  5
1196F
100
AcDbEntity
  8
AXE
100
AcDbLine
 10
80.888062
 20
74.523356
 30
0.0
 11
86.388062
 21
69.023356
 31
0.0
  0
LINE
  5
11970
100
AcDbEntity
  8
AXE
100
AcDbLine
 10
80.888062
 20
80.523356
 30
0.0
 11
86.388062
 21
80.523356
 31
0.0
  0
LINE
  5
11971
100
AcDbEntity
  8
AXE
100
AcDbLine
 10
83.388062
 20
77.523356
 30
0.0
 11
86.388062
 21
77.523356
 31
0.0
  0
LINE
  5
11972
100
AcDbEntity
  8
AXE
100
AcDbLine
 10
80.888062
 20
49.523356
 30
0.0
 11
80.888062
 21
43.523356
 31
0.0
  0
LINE
  5
11973
100
AcDbEntity
  8
AXE
100
AcDbLine
 10
80.888062
 20
49.523356
 30
0.0
 11
86.388062
 21
55.023356
 31
0.0
  0
LINE
  5
11974
100
AcDbEntity
  8
AXE
100
AcDbLine
 10
80.888062
 20
43.523356
 30
0.0
 11
86.388062
 21
43.523356
 31
0.0
  0
LINE
  5
11975
100
AcDbEntity
  8
AXE
100
AcDbLine
 10
86.388062
 20
69.023356
 30
0.0
 11
86.388062
 21
55.023356
 31
0.0
  0
LINE
  5
11976
100
AcDbEntity
  8
AXE
100
AcDbLine
 10
19.188062
 20
82.523356
 30
0.0
 11
14.625565
 21
82.523356
 31
0.0
  0
ARC
  5
11977
100
AcDbEntity
  8
AXE
100
AcDbCircle
 10
-10.426249
 20
85.600157
 30
0.0
 40
24.805866
100
AcDbArc
 50
319.487102
 51
351.874447
  0
ARC
  5
11978
100
AcDbEntity
  8
AXE
100
AcDbCircle
 10
14.625565
 20
82.023356
 30
0.0
 40
0.5
100
AcDbArc
 50
90.0
 51
171.874447
  0
ARC
  5
11979
100
AcDbEntity
  8
AXE
100
AcDbCircle
 10
9.188062
 20
68.830536
 30
0.0
 40
1.0
100
AcDbArc
 50
139.061146
 51
204.631047
  0
ARC
  5
1197A
100
AcDbEntity
  8
AXE
100
AcDbCircle
 10
19.042775
 20
74.281882
 30
0.0
 40
12.259387
100
AcDbArc
 50
208.598139
 51
270.679032
  0
LINE
  5
1197B
100
AcDbEntity
  8
AXE
100
AcDbLine
 10
101.388062
 20
62.023356
 30
0.0
 11
3.188062
 21
62.023356
 31
0.0
  0
TEXT
  5
1197C
100
AcDbEntity
  8
AXE
100
AcDbText
 10
94.87219
 20
63.027626
 30
0.0
 40
8.0
  1
Z
  7
ROMANS
 72
     2
 11
101.34838
 21
63.027626
 31
0.0
100
AcDbText
  0
LINE
  5
11989
100
AcDbEntity
  8
AXE
100
AcDbLine
 10
60.638062
 20
111.523356
 30
0.0
 11
60.638062
 21
2.523356
 31
0.0
  0
TEXT
  5
1198A
100
AcDbEntity
  8
AXE
100
AcDbText
 10
53.161872
 20
2.523356
 30
0.0
 40
8.0
  1
Y
  7
ROMANS
 72
     2
 11
59.638062
 21
2.523356
 31
0.0
100
AcDbText
  0
DIMENSION
  5
1198C
100
AcDbEntity
  8
COTATION1
100
AcDbDimension
  2
*D1
 10
19.888062
 20
121.523356
 30
0.0
 11
27.388062
 21
124.773356
 31
0.0
 70
    32
  3
SC_DEFAUT
100
AcDbAlignedDimension
 13
34.888062
 23
106.523356
 33
0.0
 14
19.888062
 24
94.523356
 34
0.0
100
AcDbRotatedDimension
  0
LINE
  5
11A84
100
AcDbEntity
  8
ALPHA
  6
CONTINUOUS
100
AcDbLine
 10
19.888062
 20
94.523356
 30
0.0
 11
19.888062
 21
84.523356
 31
0.0
1001
ACAD
1000
RTLwPs
1070
   128
  0
LINE
  5
11A85
100
AcDbEntity
  8
ALPHA
  6
CONTINUOUS
100
AcDbLine
 10
34.888062
 20
94.523356
 30
0.0
 11
19.888062
 21
94.523356
 31
0.0
1001
ACAD
1000
RTLwPs
1070
   128
  0
LINE
  5
125B8
100
AcDbEntity
  8
AXE
100
AcDbLine
 10
34.888062
 20
94.523356
 30
0.0
 11
34.888062
 21
106.523356
 31
0.0
  0
LINE
  5
125B9
100
AcDbEntity
  8
ALPHA
  6
CONTINUOUS
100
AcDbLine
 10
34.888062
 20
84.523356
 30
0.0
 11
19.888062
 21
84.523356
 31
0.0
1001
ACAD
1000
RTLwPs
1070
   128
  0
ENDSEC
  0
SECTION
  2
OBJECTS
  0
DICTIONARY
  5
19
102
{ACAD_XDICTIONARY
360
12619
102
}
100
AcDbDictionary
  3
ACAD_COLOR
350
6DB
  3
ACAD_GROUP
350
1A
  3
ACAD_LAYOUT
350
1E
  3
ACAD_MATERIAL
350
6DA
  3
ACAD_MLINESTYLE
350
1B
  3
ACAD_PLOTSETTINGS
350
22
  3
ACAD_PLOTSTYLENAME
350
1F
  3
ACAD_TABLESTYLE
350
6DC
  3
ACAD_WIPEOUT_VARS
350
23
  3
ACDBHEADERROUNDTRIPXREC
350
125F5
  3
ACDBVARIABLEDICTIONARY
350
7DA
  3
ASE_INDEX_DICTIONARY
350
3571
  0
DICTIONARY
  5
125E7
100
AcDbDictionary
  3
ACAD_XREC_ROUNDTRIP
360
125E8
  0
DICTIONARY
  5
125E9
100
AcDbDictionary
  3
ACAD_XREC_ROUNDTRIP
360
125EA
  0
DICTIONARY
  5
125EB
100
AcDbDictionary
  3
ACAD_XREC_ROUNDTRIP
360
125EC
  0
DICTIONARY
  5
26F0
100
AcDbDictionary
  3
ACAD_LAYERFILTERS
360
26F2
  3
ACAD_LAYERSTATES
360
3474
  3
ACLYDICTIONARY
360
26F1
  0
DICTIONARY
  5
125E5
100
AcDbDictionary
  3
ACAD_XREC_ROUNDTRIP
360
125E6
  0
DICTIONARY
  5
125F1
100
AcDbDictionary
  3
ACAD_XREC_ROUNDTRIP
360
125F2
  0
DICTIONARY
  5
125ED
100
AcDbDictionary
  3
ACAD_XREC_ROUNDTRIP
360
125EE
  0
DICTIONARY
  5
125EF
100
AcDbDictionary
  3
ACAD_XREC_ROUNDTRIP
360
125F0
  0
DICTIONARY
  5
125E3
100
AcDbDictionary
  3
ACAD_XREC_ROUNDTRIP
360
125E4
  0
DICTIONARY
  5
12621
100
AcDbDictionary
  3
ACAD_XREC_ROUNDTRIP
360
12622
  0
DICTIONARY
  5
7D7
100
AcDbDictionary
  3
ACAD_LAYOUTSELFREF
360
12616
  3
ACAD_SORTENTS
360
7D8
  0
DICTIONARY
  5
12617
100
AcDbDictionary
  3
ACAD_LAYOUTSELFREF
360
12618
  0
DICTIONARY
  5
12619
100
AcDbDictionary
  3
ACAD_XREC_ROUNDTRIP
360
1261A
  0
DICTIONARY
  5
6DB
102
{ACAD_REACTORS
330
19
102
}
100
AcDbDictionary
  0
DICTIONARY
  5
1A
102
{ACAD_REACTORS
330
19
102
}
100
AcDbDictionary
  0
DICTIONARY
  5
1E
102
{ACAD_XDICTIONARY
360
1261D
102
}
102
{ACAD_REACTORS
330
19
102
}
100
AcDbDictionary
  3
LAYOUT1
350
21
  3
MODEL
350
20
  0
DICTIONARY
  5
6DA
102
{ACAD_REACTORS
330
19
102
}
100
AcDbDictionary
  0
DICTIONARY
  5
1B
102
{ACAD_XDICTIONARY
360
1261B
102
}
102
{ACAD_REACTORS
330
19
102
}
100
AcDbDictionary
  3
STANDARD
350
1C
  0
DICTIONARY
  5
22
102
{ACAD_REACTORS
330
19
102
}
100
AcDbDictionary
  0
ACAD_ZOMBIE_OBJECT
  5
1F
102
{ACAD_REACTORS
330
19
102
}
100
AcDbZombieObject
 90
      499
 91
      517
 93
       86
310
405010041939BDC9B585B0
350
1D
340
1D
 94
        0
  0
DICTIONARY
  5
6DC
102
{ACAD_XDICTIONARY
360
1261F
102
}
102
{ACAD_REACTORS
330
19
102
}
100
AcDbDictionary
  3
STANDARD
350
6DD
  0
ACAD_ZOMBIE_OBJECT
  5
23
102
{ACAD_REACTORS
330
19
102
}
100
AcDbZombieObject
 90
      499
 91
      521
 93
       10
310
4048
 94
        0
  0
DICTIONARY
  5
125F5
102
{ACAD_REACTORS
330
19
102
}
100
AcDbDictionary
  3
CEPSNTYPE
350
125FF
  3
DIMSTYLEDATA
350
12603
  3
FINGERPRINTGUID
350
12600
  3
HYPERLINKBASE
350
125F8
  3
INSUNITS
350
125FE
  3
LAYOUTDICT
350
125FA
  3
LWETCUNION
350
125FD
  3
PLOTSETDICT
350
125FB
  3
PLOTSTYLNAMDICT
350
125FC
  3
PSVPSCALE
350
12602
  3
PUCSBASE
350
12606
  3
PUCSORGBACK
350
1260C
  3
PUCSORGBOTTOM
350
12608
  3
PUCSORGFRONT
350
1260B
  3
PUCSORGLEFT
350
12609
  3
PUCSORGRIGHT
350
1260A
  3
PUCSORGTOP
350
12607
  3
PUCSORTHOREF
350
12604
  3
PUCSORTHOVIEW
350
12605
  3
STYLESHEET
350
125F9
  3
TSTACKALIGN
350
125F6
  3
TSTACKSIZE
350
125F7
  3
UCSBASE
350
1260F
  3
UCSORGBACK
350
12615
  3
UCSORGBOTTOM
350
12611
  3
UCSORGFRONT
350
12614
  3
UCSORGLEFT
350
12612
  3
UCSORGRIGHT
350
12613
  3
UCSORGTOP
350
12610
  3
UCSORTHOREF
350
1260D
  3
UCSORTHOVIEW
350
1260E
  3
VERSIONGUID
350
12601
  0
DICTIONARY
  5
7DA
102
{ACAD_REACTORS
330
19
102
}
100
AcDbDictionary
  3
CTABLESTYLE
350
7DB
  3
DIMASSOC
350
1A71
  3
PROJECTNAME
350
1A72
  0
DICTIONARY
  5
3571
102
{ACAD_XDICTIONARY
360
12623
102
}
102
{ACAD_REACTORS
330
19
102
}
100
AcDbDictionary
  3
ASEBLOCKHIERARCHYINDEXRECORD
350
3572
1001
DCO15
1040
1558939622.437
  0
XRECORD
  5
125E8
102
{ACAD_REACTORS
330
125E7
102
}
100
AcDbXrecord
102
EXTNAMES
  1
BYBLOCK
  2
ByBlock
  0
XRECORD
  5
125EA
102
{ACAD_REACTORS
330
125E9
102
}
100
AcDbXrecord
102
EXTNAMES
  1
BYLAYER
  2
ByLayer
  0
XRECORD
  5
125EC
102
{ACAD_REACTORS
330
125EB
102
}
100
AcDbXrecord
102
EXTNAMES
  1
CONTINUOUS
  2
Continuous
  0
DICTIONARY
  5
26F2
102
{ACAD_REACTORS
330
26F0
102
}
100
AcDbDictionary
  0
DICTIONARY
  5
3474
102
{ACAD_REACTORS
330
26F0
102
}
100
AcDbDictionary
  0
DICTIONARY
  5
26F1
102
{ACAD_REACTORS
330
26F0
102
}
100
AcDbDictionary
1001
ACAD
1000
<All
  0
XRECORD
  5
125E6
102
{ACAD_REACTORS
330
125E5
102
}
100
AcDbXrecord
102
EXTNAMES
  1
DEFPOINTS
  2
Defpoints
102
PLOTBIT
280
     0
  0
XRECORD
  5
125F2
102
{ACAD_REACTORS
330
125F1
102
}
100
AcDbXrecord
102
EXTNAMES
  1
STANDARD
  2
Standard
  0
XRECORD
  5
125EE
102
{ACAD_REACTORS
330
125ED
102
}
100
AcDbXrecord
102
EXTNAMES
  1
ACAECLAYERSTANDARD
  2
AcAecLayerStandard
  0
XRECORD
  5
125F0
102
{ACAD_REACTORS
330
125EF
102
}
100
AcDbXrecord
102
EXTNAMES
  1
ACAD_EXEMPT_FROM_CAD_STAND
  2
ACAD_EXEMPT_FROM_CAD_STANDARDS
  0
XRECORD
  5
125E4
102
{ACAD_REACTORS
330
125E3
102
}
100
AcDbXrecord
102
EXTNAMES
  1
STANDARD
  2
Standard
  0
XRECORD
  5
12622
102
{ACAD_REACTORS
330
12621
102
}
100
AcDbXrecord
102
ACADR14ROUNDTRIP
1000
DSTYLE
1002
{
1070
   279
 70
     2
1070
   341
340
6FA
1070
   342
340
6FA
1002
}
  0
XRECORD
  5
12616
102
{ACAD_REACTORS
330
7D7
102
}
100
AcDbXrecord
340
A
  0
SORTENTSTABLE
  5
7D8
102
{ACAD_REACTORS
330
7D7
102
}
100
AcDbSortentsTable
330
A
331
11961
  5
11961
331
11963
  5
11963
331
1198A
  5
1198C
331
1198C
  5
11A84
331
11967
  5
11967
331
11966
  5
11966
331
11A85
  5
1196D
331
11965
  5
11965
331
11A84
  5
1196A
331
11964
  5
11964
331
11989
  5
1198B
331
1196C
  5
1196E
331
1196B
  5
1196C
331
1196A
  5
1196B
331
11969
  5
11969
331
11971
  5
11973
331
11970
  5
11972
331
1196F
  5
11971
331
1196E
  5
11970
331
11975
  5
11977
331
11974
  5
11976
331
11973
  5
11975
331
11972
  5
11974
331
1196D
  5
1196F
331
11968
  5
11968
331
1197A
  5
1197C
331
11979
  5
1197B
331
11978
  5
1197A
331
11977
  5
11979
331
1197C
  5
1197E
331
1197B
  5
1197D
331
11976
  5
11978
  0
XRECORD
  5
12618
102
{ACAD_REACTORS
330
12617
102
}
100
AcDbXrecord
340
B
  0
XRECORD
  5
1261A
102
{ACAD_REACTORS
330
12619
102
}
100
AcDbXrecord
102
EXTNAMES
  1
ACDBVARIABLEDICTIONARY
  2
AcDbVariableDictionary
  0
DICTIONARY
  5
1261D
100
AcDbDictionary
  3
ACAD_XREC_ROUNDTRIP
360
1261E
  0
ACAD_ZOMBIE_OBJECT
  5
21
102
{ACAD_XDICTIONARY
360
125DC
102
}
102
{ACAD_REACTORS
330
1E
102
}
100
AcDbZombieObject
 90
      499
 91
      515
 93
      812
310
AAAAAAAAAA5A69074C61796F757431406A800000000000000000000000000000000000000000000A1000000000000008902A6A6A10232D5E076BC5510408CB5781DAF154410232D5E076BC5510408CB5781DAF15C410232D5E076BC5710408CB5781DAF15C4C
330
B
330
0
340
0
340
0
 94
        0
  0
ACAD_ZOMBIE_OBJECT
  5
20
102
{ACAD_XDICTIONARY
360
125DA
102
}
102
{ACAD_REACTORS
330
1E
102
}
100
AcDbZombieObject
 90
      499
 91
      515
 93
      420
310
A00012AAAAAAAA5A69054D6F64656CAA80000000000000000000000000000000000000000000000000000000000000002AAAAAAAA0
330
A
330
0
340
0
340
0
 94
        0
  0
DICTIONARY
  5
1261B
100
AcDbDictionary
  3
ACAD_XREC_ROUNDTRIP
360
1261C
  0
MLINESTYLE
  5
1C
102
{ACAD_REACTORS
330
1B
102
}
100
AcDbMlineStyle
  2
STANDARD
 70
     0
  3

 62
     0
 51
90.0
 52
90.0
 71
     2
 49
0.5
 62
   256
  6
BYLAYER
 49
-0.5
 62
   256
  6
BYLAYER
  0
ACAD_ZOMBIE_OBJECT
  5
1D
102
{ACAD_REACTORS
330
1F
102
}
100
AcDbZombieObject
 90
      499
 91
      518
 93
        0
 94
        0
  0
DICTIONARY
  5
1261F
100
AcDbDictionary
  3
ACAD_XREC_ROUNDTRIP
360
12620
  0
ACAD_ZOMBIE_OBJECT
  5
6DD
102
{ACAD_REACTORS
330
6DC
102
}
100
AcDbZombieObject
 90
      499
 91
      525
 93
     1841
310
4214DD185B99185C9928000000000000F83F0000000000003E0FC00000000000004901028000000C1008070000C3001FDFF8000000C1003FBFF000000182007F7FE00000030400FEFFC00000060801FDFF8000000C1003FBFF000000182000000000000000C2020B0000001820100E000186003FBFF000000182007F7FE000
310
00030400FEFFC00000060801FDFF8000000C1003FBFF000000182007F7FE0000003040000000000000012404160000003040201C00030C007F7FE00000030400FEFFC00000060801FDFF8000000C1003FBFF000000182007F7FE00000030400FEFFC000000608000
340
17
340
17
340
17
 94
        0
1001
ACAD
1000
AcadProxyRoundTripData
1071
      524
1071
   393239
1070
     0
  0
XRECORD
  5
125FF
102
{ACAD_REACTORS
330
125F5
102
}
100
AcDbXrecord
 90
        0
  0
XRECORD
  5
12603
102
{ACAD_REACTORS
330
125F5
102
}
100
AcDbXrecord
1000
DSTYLE
1002
{
1070
   278
 70
     0
1070
   371
 70
     0
1070
   372
 70
     0
1002
}
  0
XRECORD
  5
12600
102
{ACAD_REACTORS
330
125F5
102
}
100
AcDbXrecord
  1

  0
XRECORD
  5
125F8
102
{ACAD_REACTORS
330
125F5
102
}
100
AcDbXrecord
  1

  0
XRECORD
  5
125FE
102
{ACAD_REACTORS
330
125F5
102
}
100
AcDbXrecord
 90
        0
  0
XRECORD
  5
125FA
102
{ACAD_REACTORS
330
125F5
102
}
100
AcDbXrecord
340
1E
  0
XRECORD
  5
125FD
102
{ACAD_REACTORS
330
125F5
102
}
100
AcDbXrecord
 90
    10752
  0
XRECORD
  5
125FB
102
{ACAD_REACTORS
330
125F5
102
}
100
AcDbXrecord
340
22
  0
XRECORD
  5
125FC
102
{ACAD_REACTORS
330
125F5
102
}
100
AcDbXrecord
340
1F
  0
XRECORD
  5
12602
102
{ACAD_REACTORS
330
125F5
102
}
100
AcDbXrecord
 40
0.0
  0
XRECORD
  5
12606
102
{ACAD_REACTORS
330
125F5
102
}
100
AcDbXrecord
340
0
  0
XRECORD
  5
1260C
102
{ACAD_REACTORS
330
125F5
102
}
100
AcDbXrecord
 10
0.0
 20
0.0
 30
0.0
  0
XRECORD
  5
12608
102
{ACAD_REACTORS
330
125F5
102
}
100
AcDbXrecord
 10
0.0
 20
0.0
 30
0.0
  0
XRECORD
  5
1260B
102
{ACAD_REACTORS
330
125F5
102
}
100
AcDbXrecord
 10
0.0
 20
0.0
 30
0.0
  0
XRECORD
  5
12609
102
{ACAD_REACTORS
330
125F5
102
}
100
AcDbXrecord
 10
0.0
 20
0.0
 30
0.0
  0
XRECORD
  5
1260A
102
{ACAD_REACTORS
330
125F5
102
}
100
AcDbXrecord
 10
0.0
 20
0.0
 30
0.0
  0
XRECORD
  5
12607
102
{ACAD_REACTORS
330
125F5
102
}
100
AcDbXrecord
 10
0.0
 20
0.0
 30
0.0
  0
XRECORD
  5
12604
102
{ACAD_REACTORS
330
125F5
102
}
100
AcDbXrecord
340
0
  0
XRECORD
  5
12605
102
{ACAD_REACTORS
330
125F5
102
}
100
AcDbXrecord
 70
     0
  0
XRECORD
  5
125F9
102
{ACAD_REACTORS
330
125F5
102
}
100
AcDbXrecord
  1

  0
XRECORD
  5
125F6
102
{ACAD_REACTORS
330
125F5
102
}
100
AcDbXrecord
 90
        1
  0
XRECORD
  5
125F7
102
{ACAD_REACTORS
330
125F5
102
}
100
AcDbXrecord
 90
       70
  0
XRECORD
  5
1260F
102
{ACAD_REACTORS
330
125F5
102
}
100
AcDbXrecord
340
0
  0
XRECORD
  5
12615
102
{ACAD_REACTORS
330
125F5
102
}
100
AcDbXrecord
 10
0.0
 20
0.0
 30
0.0
  0
XRECORD
  5
12611
102
{ACAD_REACTORS
330
125F5
102
}
100
AcDbXrecord
 10
0.0
 20
0.0
 30
0.0
  0
XRECORD
  5
12614
102
{ACAD_REACTORS
330
125F5
102
}
100
AcDbXrecord
 10
0.0
 20
0.0
 30
0.0
  0
XRECORD
  5
12612
102
{ACAD_REACTORS
330
125F5
102
}
100
AcDbXrecord
 10
0.0
 20
0.0
 30
0.0
  0
XRECORD
  5
12613
102
{ACAD_REACTORS
330
125F5
102
}
100
AcDbXrecord
 10
0.0
 20
0.0
 30
0.0
  0
XRECORD
  5
12610
102
{ACAD_REACTORS
330
125F5
102
}
100
AcDbXrecord
 10
0.0
 20
0.0
 30
0.0
  0
XRECORD
  5
1260D
102
{ACAD_REACTORS
330
125F5
102
}
100
AcDbXrecord
340
0
  0
XRECORD
  5
1260E
102
{ACAD_REACTORS
330
125F5
102
}
100
AcDbXrecord
 70
     0
  0
XRECORD
  5
12601
102
{ACAD_REACTORS
330
125F5
102
}
100
AcDbXrecord
  1
{777597AF-C8E0-4D24-BDB2-9BBFEBA7C937}
  0
DICTIONARYVAR
  5
7DB
102
{ACAD_REACTORS
330
7DA
102
}
100
DictionaryVariables
280
     0
  1
STANDARD
  0
DICTIONARYVAR
  5
1A71
102
{ACAD_REACTORS
330
7DA
102
}
100
DictionaryVariables
280
     0
  1
1
  0
DICTIONARYVAR
  5
1A72
102
{ACAD_REACTORS
330
7DA
102
}
100
DictionaryVariables
280
     0
  1

  0
DICTIONARY
  5
12623
100
AcDbDictionary
  3
ACAD_XREC_ROUNDTRIP
360
12624
  0
XRECORD
  5
3572
102
{ACAD_REACTORS
330
3571
102
}
100
AcDbXrecord
330
0
330
0
330
0
330
0
330
0
330
0
330
0
330
0
330
0
330
0
330
0
330
0
330
0
330
0
330
0
330
0
330
0
330
0
330
0
330
0
330
0
330
0
330
0
330
0
330
0
330
0
330
0
330
0
330
0
330
0
330
0
  0
XRECORD
  5
1261E
102
{ACAD_REACTORS
330
1261D
102
}
100
AcDbXrecord
102
EXTNAMES
  1
LAYOUT1
  2
Layout1
  1
MODEL
  2
Model
  0
DICTIONARY
  5
125DC
100
AcDbDictionary
  3
ACAD_XREC_ROUNDTRIP
360
125DD
  0
DICTIONARY
  5
125DA
100
AcDbDictionary
  3
ACAD_XREC_ROUNDTRIP
360
125DB
  0
XRECORD
  5
1261C
102
{ACAD_REACTORS
330
1261B
102
}
100
AcDbXrecord
102
EXTNAMES
  1
STANDARD
  2
Standard
  0
XRECORD
  5
12620
102
{ACAD_REACTORS
330
1261F
102
}
100
AcDbXrecord
102
EXTNAMES
  1
STANDARD
  2
Standard
  0
XRECORD
  5
12624
102
{ACAD_REACTORS
330
12623
102
}
100
AcDbXrecord
102
EXTNAMES
  1
ASEBLOCKHIERARCHYINDEXRECORD
  2
ASEBlockHierarchyIndexRecord
  0
XRECORD
  5
125DD
102
{ACAD_REACTORS
330
125DC
102
}
100
AcDbXrecord
102
SHADEPLOT
 70
     0
102
SHADEPLOTRESLEVEL
 70
     2
102
SHADEPLOTCUSTOMDPI
 70
   300
  0
XRECORD
  5
125DB
102
{ACAD_REACTORS
330
125DA
102
}
100
AcDbXrecord
102
SHADEPLOT
 70
     0
102
SHADEPLOTRESLEVEL
 70
     2
102
SHADEPLOTCUSTOMDPI
 70
   300
  0
ENDSEC
  0
EOF
