  0
SECTION
  2
HEADER
  9
$ACADVER
  1
AC1014
  9
$ACADMAINTVER
 70
     9
  9
$DWGCODEPAGE
  3
ANSI_1252
  9
$INSBASE
 10
0.0
 20
0.0
 30
0.0
  9
$EXTMIN
 10
0.0
 20
0.0
 30
0.0
  9
$EXTMAX
 10
131.200008
 20
83.19521373291015
 30
0.0
  9
$LIMMIN
 10
0.0
 20
0.0
  9
$LIMMAX
 10
16.40000099999999
 20
10.25
  9
$ORTHOMODE
 70
     0
  9
$REGENMODE
 70
     1
  9
$FILLMODE
 70
     1
  9
$QTEXTMODE
 70
     0
  9
$MIRRTEXT
 70
     1
  9
$DRAGMODE
 70
     2
  9
$LTSCALE
 40
1.0
  9
$OSMODE
 70
   195
  9
$ATTMODE
 70
     1
  9
$TEXTSIZE
 40
0.2
  9
$TRACEWID
 40
0.05
  9
$TEXTSTYLE
  7
ROMANS
  9
$CLAYER
  8
0
  9
$CELTYPE
  6
BYLAYER
  9
$CECOLOR
 62
   256
  9
$CELTSCALE
 40
1.0
  9
$DELOBJ
 70
     1
  9
$DISPSILH
 70
     0
  9
$DIMSCALE
 40
0.0
  9
$DIMASZ
 40
0.07
  9
$DIMEXO
 40
0.0625
  9
$DIMDLI
 40
0.38
  9
$DIMRND
 40
0.001
  9
$DIMDLE
 40
0.0
  9
$DIMEXE
 40
0.0625
  9
$DIMTP
 40
0.0
  9
$DIMTM
 40
0.0
  9
$DIMTXT
 40
0.1
  9
$DIMCEN
 40
0.09
  9
$DIMTSZ
 40
0.0
  9
$DIMTOL
 70
     0
  9
$DIMLIM
 70
     0
  9
$DIMTIH
 70
     1
  9
$DIMTOH
 70
     1
  9
$DIMSE1
 70
     0
  9
$DIMSE2
 70
     0
  9
$DIMTAD
 70
     0
  9
$DIMZIN
 70
     4
  9
$DIMBLK
  1
SEARROW
  9
$DIMASO
 70
     1
  9
$DIMSHO
 70
     1
  9
$DIMPOST
  1
\X
  9
$DIMAPOST
  1

  9
$DIMALT
 70
     1
  9
$DIMALTD
 70
     0
  9
$DIMALTF
 40
25.4
  9
$DIMLFAC
 40
1.0
  9
$DIMTOFL
 70
     0
  9
$DIMTVP
 40
0.0
  9
$DIMTIX
 70
     0
  9
$DIMSOXD
 70
     0
  9
$DIMSAH
 70
     0
  9
$DIMBLK1
  1

  9
$DIMBLK2
  1

  9
$DIMSTYLE
  2
SCHNEIDERELECTRIC
  9
$DIMCLRD
 70
   256
  9
$DIMCLRE
 70
   256
  9
$DIMCLRT
 70
   256
  9
$DIMTFAC
 40
1.0
  9
$DIMGAP
 40
0.04
  9
$DIMJUST
 70
     0
  9
$DIMSD1
 70
     0
  9
$DIMSD2
 70
     0
  9
$DIMTOLJ
 70
     1
  9
$DIMTZIN
 70
     0
  9
$DIMALTZ
 70
     0
  9
$DIMALTTZ
 70
     0
  9
$DIMFIT
 70
     3
  9
$DIMUPT
 70
     0
  9
$DIMUNIT
 70
     2
  9
$DIMDEC
 70
     2
  9
$DIMTDEC
 70
     2
  9
$DIMALTU
 70
     2
  9
$DIMALTTD
 70
     0
  9
$DIMTXSTY
  7
ROMANS
  9
$DIMAUNIT
 70
     0
  9
$LUNITS
 70
     2
  9
$LUPREC
 70
     4
  9
$SKETCHINC
 40
0.1
  9
$FILLETRAD
 40
0.5
  9
$AUNITS
 70
     0
  9
$AUPREC
 70
     0
  9
$MENU
  1
.
  9
$ELEVATION
 40
0.0
  9
$PELEVATION
 40
0.0
  9
$THICKNESS
 40
0.0
  9
$LIMCHECK
 70
     0
  9
$BLIPMODE
 70
     0
  9
$CHAMFERA
 40
0.5
  9
$CHAMFERB
 40
0.5
  9
$CHAMFERC
 40
1.0
  9
$CHAMFERD
 40
0.0
  9
$SKPOLY
 70
     0
  9
$TDCREATE
 40
2451764.535041909
  9
$TDUPDATE
 40
2452598.351639340
  9
$TDINDWG
 40
0.3393911806
  9
$TDUSRTIMER
 40
0.3393909491
  9
$USRTIMER
 70
     1
  9
$ANGBASE
 50
0.0
  9
$ANGDIR
 70
     0
  9
$PDMODE
 70
     0
  9
$PDSIZE
 40
0.0
  9
$PLINEWID
 40
0.0
  9
$COORDS
 70
     2
  9
$SPLFRAME
 70
     0
  9
$SPLINETYPE
 70
     6
  9
$SPLINESEGS
 70
     8
  9
$ATTDIA
 70
     0
  9
$ATTREQ
 70
     1
  9
$HANDLING
 70
 22529
  9
$HANDSEED
  5
3238
  9
$SURFTAB1
 70
     6
  9
$SURFTAB2
 70
     6
  9
$SURFTYPE
 70
     6
  9
$SURFU
 70
     6
  9
$SURFV
 70
     6
  9
$UCSNAME
  2

  9
$UCSORG
 10
0.0
 20
0.0
 30
0.0
  9
$UCSXDIR
 10
1.0
 20
0.0
 30
0.0
  9
$UCSYDIR
 10
0.0
 20
1.0
 30
0.0
  9
$PUCSNAME
  2

  9
$PUCSORG
 10
0.0
 20
0.0
 30
0.0
  9
$PUCSXDIR
 10
1.0
 20
0.0
 30
0.0
  9
$PUCSYDIR
 10
0.0
 20
1.0
 30
0.0
  9
$USERI1
 70
     0
  9
$USERI2
 70
     0
  9
$USERI3
 70
     0
  9
$USERI4
 70
     0
  9
$USERI5
 70
     0
  9
$USERR1
 40
0.0
  9
$USERR2
 40
0.0
  9
$USERR3
 40
0.0
  9
$USERR4
 40
0.0
  9
$USERR5
 40
0.0
  9
$WORLDVIEW
 70
     1
  9
$SHADEDGE
 70
     3
  9
$SHADEDIF
 70
    70
  9
$TILEMODE
 70
     0
  9
$MAXACTVP
 70
    48
  9
$PINSBASE
 10
0.0
 20
0.0
 30
0.0
  9
$PLIMCHECK
 70
     0
  9
$PEXTMIN
 10
-0.0000811659507249
 20
-0.1513243331500043
 30
-0.0000000000000053
  9
$PEXTMAX
 10
16.40066410497592
 20
10.2500424842432
 30
0.0000000000000099
  9
$PLIMMIN
 10
-0.442016661075289
 20
-1.630337633095706
  9
$PLIMMAX
 10
16.84260075055135
 20
11.72595755371036
  9
$UNITMODE
 70
     0
  9
$VISRETAIN
 70
     1
  9
$PLINEGEN
 70
     0
  9
$PSLTSCALE
 70
     1
  9
$TREEDEPTH
 70
  3020
  9
$PICKSTYLE
 70
     1
  9
$CMLSTYLE
  2
STANDARD
  9
$CMLJUST
 70
     0
  9
$CMLSCALE
 40
1.0
  9
$PROXYGRAPHICS
 70
     1
  9
$MEASUREMENT
 70
     0
  0
ENDSEC
  0
SECTION
  2
CLASSES
  0
CLASS
  1
ACDBDICTIONARYWDFLT
  2
AcDbDictionaryWithDefault
  3
AutoCAD 2000
 90
        0
280
     0
281
     0
  0
CLASS
  1
ACDBPLACEHOLDER
  2
AcDbPlaceHolder
  3
AutoCAD 2000
 90
        0
280
     0
281
     0
  0
CLASS
  1
LAYOUT
  2
AcDbLayout
  3
AutoCAD 2000
 90
        0
280
     0
281
     0
  0
CLASS
  1
LONG_TRANSACTION
  2
AcDbLongTransaction
  3
AutoCAD 2000
 90
        0
280
     0
281
     0
  0
CLASS
  1
LWPOLYLINE
  2
AcDbPolyline
  3
AutoCAD 2000
 90
        0
280
     0
281
     1
  0
CLASS
  1
HATCH
  2
AcDbHatch
  3
AutoCAD 2000
 90
        0
280
     0
281
     1
  0
CLASS
  1
XRECORD
  2
AcDbXrecord
  3
AutoCAD 2000
 90
        0
280
     0
281
     0
  0
CLASS
  1
LONG_TRANSACTION
  2
AcDbLongTransaction
  3
AutoCAD 2000
 90
        0
280
     0
281
     0
  0
CLASS
  1
LWPOLYLINE
  2
AcDbPolyline
  3
AutoCAD 2000
 90
        0
280
     0
281
     1
  0
CLASS
  1
HATCH
  2
AcDbHatch
  3
AutoCAD 2000
 90
        0
280
     0
281
     1
  0
CLASS
  1
XRECORD
  2
AcDbXrecord
  3
AutoCAD 2000
 90
        0
280
     0
281
     0
  0
CLASS
  1
LONG_TRANSACTION
  2
AcDbLongTransaction
  3
AutoCAD 2000
 90
        0
280
     0
281
     0
  0
CLASS
  1
LWPOLYLINE
  2
AcDbPolyline
  3
AutoCAD 2000
 90
        0
280
     0
281
     1
  0
CLASS
  1
HATCH
  2
AcDbHatch
  3
AutoCAD 2000
 90
        0
280
     0
281
     1
  0
CLASS
  1
XRECORD
  2
AcDbXrecord
  3
AutoCAD 2000
 90
        0
280
     0
281
     0
  0
CLASS
  1
PLOTSETTINGS
  2
AcDbPlotSettings
  3
AutoCAD 2000
 90
        0
280
     0
281
     0
  0
CLASS
  1
ACME_DOCUMENT
  2
AcMeDbDoc
  3
AcMeServices
 90
        0
280
     0
281
     0
  0
CLASS
  1
AMGSETTINGSOBJ
  2
AmgSettingsObj
  3
"AcadM|Product Description: AutoCAD Mechanical 2000|Company: Autodesk"
 90
        0
280
     0
281
     0
  0
CLASS
  1
ACMESCOPE
  2
AcMeScope
  3
AcMeServices
 90
        0
280
     0
281
     0
  0
CLASS
  1
ACMECOMMANDHISTORY
  2
AcMeCommandHistory
  3
AcMeServices
 90
        0
280
     0
281
     0
  0
CLASS
  1
DICTIONARYVAR
  2
AcDbDictionaryVar
  3
AutoCAD 2000
 90
        0
280
     0
281
     0
  0
CLASS
  1
ACIMSYSVARMAN
  2
AcImSysVarManager
  3
AcMeServices
 90
        0
280
     0
281
     0
  0
CLASS
  1
ACIMREALSYSVAR
  2
AcImRealSysVar
  3
AcMeServices
 90
        0
280
     0
281
     0
  0
CLASS
  1
ACIMINTSYSVAR
  2
AcImIntSysVar
  3
AcMeServices
 90
        0
280
     0
281
     0
  0
CLASS
  1
ACMEDRAWINGMAN
  2
AcMeDrawingMan
  3
AcMeServices
 90
        0
280
     0
281
     0
  0
CLASS
  1
ACMEVIEW
  2
AcMeView
  3
AcMeServices
 90
        0
280
     0
281
     0
  0
CLASS
  1
ACDBENTITYCACHE
  2
AcMeEntityCache
  3
AcMeServices
 90
        0
280
     0
281
     0
  0
CLASS
  1
GSMANAGER
  2
AcMeGSManager
  3
AcMeServices
 90
        0
280
     0
281
     0
  0
CLASS
  1
AmdtInternalReactor
  2
AmdtInternalReactor
  3
AcMeServices
 90
        0
280
     0
281
     0
  0
CLASS
  1
ACMESTATEMGR
  2
AcMeStateMgr
  3
AcMeServices
 90
        0
280
     0
281
     0
  0
CLASS
  1
ACME_DATABASE
  2
AcMeDbDatabase
  3
AcMeServices
 90
        0
280
     0
281
     0
  0
CLASS
  1
ACRFINSADJUSTERMGR
  2
AcRfInsAdjusterMgr
  3
AcMeServices
 90
        0
280
     0
281
     0
  0
CLASS
  1
ACMDATADICTIONARY
  2
AcmDataDictionary
  3
"AcmSymBB|Product Description: AutoCAD Mechanical 2000|Company: Autodesk"
 90
        0
280
     0
281
     0
  0
CLASS
  1
ACMDATAENTRYBLOCK
  2
AcmDataEntryBlock
  3
"AcmSymBB|Product Description: AutoCAD Mechanical 2000|Company: Autodesk"
 90
        0
280
     0
281
     0
  0
CLASS
  1
AMGOBJPROPCFG
  2
AmgObjPropCfg
  3
"AmgLay|Product Description: AutoCAD Mechanical 2000|Company: Autodesk"
 90
        1
280
     0
281
     0
  0
CLASS
  1
ACAMGFILTERDAT
  2
AcAmgFilterDat
  3
"AcadM|Product Description: AutoCAD Mechanical 2000|Company: Autodesk"
 90
        0
280
     0
281
     0
  0
CLASS
  1
LAYER_INDEX
  2
AcDbLayerIndex
  3
AutoCAD 2000
 90
        0
280
     0
281
     0
  0
CLASS
  1
IDBUFFER
  2
AcDbIdBuffer
  3
AutoCAD 2000
 90
        0
280
     0
281
     0
  0
CLASS
  1
LONG_TRANSACTION
  2
AcDbLongTransaction
  3
AutoCAD 2000
 90
        0
280
     0
281
     0
  0
CLASS
  1
LWPOLYLINE
  2
AcDbPolyline
  3
AutoCAD 2000
 90
        0
280
     0
281
     1
  0
CLASS
  1
HATCH
  2
AcDbHatch
  3
AutoCAD 2000
 90
        0
280
     0
281
     1
  0
CLASS
  1
XRECORD
  2
AcDbXrecord
  3
AutoCAD 2000
 90
        0
280
     0
281
     0
  0
CLASS
  1
LONG_TRANSACTION
  2
AcDbLongTransaction
  3
AutoCAD 2000
 90
        0
280
     0
281
     0
  0
CLASS
  1
LWPOLYLINE
  2
AcDbPolyline
  3
AutoCAD 2000
 90
        0
280
     0
281
     1
  0
CLASS
  1
HATCH
  2
AcDbHatch
  3
AutoCAD 2000
 90
        0
280
     0
281
     1
  0
CLASS
  1
XRECORD
  2
AcDbXrecord
  3
AutoCAD 2000
 90
        0
280
     0
281
     0
  0
CLASS
  1
LONG_TRANSACTION
  2
AcDbLongTransaction
  3
AutoCAD 2000
 90
        0
280
     0
281
     0
  0
CLASS
  1
LWPOLYLINE
  2
AcDbPolyline
  3
AutoCAD 2000
 90
        0
280
     0
281
     1
  0
CLASS
  1
HATCH
  2
AcDbHatch
  3
AutoCAD 2000
 90
        0
280
     0
281
     1
  0
CLASS
  1
XRECORD
  2
AcDbXrecord
  3
AutoCAD 2000
 90
        0
280
     0
281
     0
  0
CLASS
  1
LONG_TRANSACTION
  2
AcDbLongTransaction
  3
AutoCAD 2000
 90
        0
280
     0
281
     0
  0
CLASS
  1
LWPOLYLINE
  2
AcDbPolyline
  3
AutoCAD 2000
 90
        0
280
     0
281
     1
  0
CLASS
  1
HATCH
  2
AcDbHatch
  3
AutoCAD 2000
 90
        0
280
     0
281
     1
  0
CLASS
  1
XRECORD
  2
AcDbXrecord
  3
AutoCAD 2000
 90
        0
280
     0
281
     0
  0
CLASS
  1
LONG_TRANSACTION
  2
AcDbLongTransaction
  3
AutoCAD 2000
 90
        0
280
     0
281
     0
  0
CLASS
  1
LWPOLYLINE
  2
AcDbPolyline
  3
AutoCAD 2000
 90
        0
280
     0
281
     1
  0
CLASS
  1
HATCH
  2
AcDbHatch
  3
AutoCAD 2000
 90
        0
280
     0
281
     1
  0
CLASS
  1
XRECORD
  2
AcDbXrecord
  3
AutoCAD 2000
 90
        0
280
     0
281
     0
  0
CLASS
  1
LONG_TRANSACTION
  2
AcDbLongTransaction
  3
AutoCAD 2000
 90
        0
280
     0
281
     0
  0
CLASS
  1
LWPOLYLINE
  2
AcDbPolyline
  3
AutoCAD 2000
 90
        0
280
     0
281
     1
  0
CLASS
  1
HATCH
  2
AcDbHatch
  3
AutoCAD 2000
 90
        0
280
     0
281
     1
  0
CLASS
  1
XRECORD
  2
AcDbXrecord
  3
AutoCAD 2000
 90
        0
280
     0
281
     0
  0
CLASS
  1
LONG_TRANSACTION
  2
AcDbLongTransaction
  3
AutoCAD 2000
 90
        0
280
     0
281
     0
  0
CLASS
  1
LWPOLYLINE
  2
AcDbPolyline
  3
AutoCAD 2000
 90
        0
280
     0
281
     1
  0
CLASS
  1
HATCH
  2
AcDbHatch
  3
AutoCAD 2000
 90
        0
280
     0
281
     1
  0
CLASS
  1
XRECORD
  2
AcDbXrecord
  3
AutoCAD 2000
 90
        0
280
     0
281
     0
  0
CLASS
  1
LONG_TRANSACTION
  2
AcDbLongTransaction
  3
AutoCAD 2000
 90
        0
280
     0
281
     0
  0
CLASS
  1
LWPOLYLINE
  2
AcDbPolyline
  3
AutoCAD 2000
 90
        0
280
     0
281
     1
  0
CLASS
  1
HATCH
  2
AcDbHatch
  3
AutoCAD 2000
 90
        0
280
     0
281
     1
  0
CLASS
  1
XRECORD
  2
AcDbXrecord
  3
AutoCAD 2000
 90
        0
280
     0
281
     0
  0
CLASS
  1
LONG_TRANSACTION
  2
AcDbLongTransaction
  3
AutoCAD 2000
 90
        0
280
     0
281
     0
  0
CLASS
  1
LWPOLYLINE
  2
AcDbPolyline
  3
AutoCAD 2000
 90
        0
280
     0
281
     1
  0
CLASS
  1
HATCH
  2
AcDbHatch
  3
AutoCAD 2000
 90
        0
280
     0
281
     1
  0
CLASS
  1
XRECORD
  2
AcDbXrecord
  3
AutoCAD 2000
 90
        0
280
     0
281
     0
  0
CLASS
  1
LONG_TRANSACTION
  2
AcDbLongTransaction
  3
AutoCAD 2000
 90
        0
280
     0
281
     0
  0
CLASS
  1
LWPOLYLINE
  2
AcDbPolyline
  3
AutoCAD 2000
 90
        0
280
     0
281
     1
  0
CLASS
  1
HATCH
  2
AcDbHatch
  3
AutoCAD 2000
 90
        0
280
     0
281
     1
  0
CLASS
  1
XRECORD
  2
AcDbXrecord
  3
AutoCAD 2000
 90
        0
280
     0
281
     0
  0
CLASS
  1
LONG_TRANSACTION
  2
AcDbLongTransaction
  3
AutoCAD 2000
 90
        0
280
     0
281
     0
  0
CLASS
  1
LWPOLYLINE
  2
AcDbPolyline
  3
AutoCAD 2000
 90
        0
280
     0
281
     1
  0
CLASS
  1
HATCH
  2
AcDbHatch
  3
AutoCAD 2000
 90
        0
280
     0
281
     1
  0
CLASS
  1
XRECORD
  2
AcDbXrecord
  3
AutoCAD 2000
 90
        0
280
     0
281
     0
  0
CLASS
  1
LONG_TRANSACTION
  2
AcDbLongTransaction
  3
AutoCAD 2000
 90
        0
280
     0
281
     0
  0
CLASS
  1
LWPOLYLINE
  2
AcDbPolyline
  3
AutoCAD 2000
 90
        0
280
     0
281
     1
  0
CLASS
  1
HATCH
  2
AcDbHatch
  3
AutoCAD 2000
 90
        0
280
     0
281
     1
  0
CLASS
  1
XRECORD
  2
AcDbXrecord
  3
AutoCAD 2000
 90
        0
280
     0
281
     0
  0
CLASS
  1
LONG_TRANSACTION
  2
AcDbLongTransaction
  3
AutoCAD 2000
 90
        0
280
     0
281
     0
  0
CLASS
  1
LWPOLYLINE
  2
AcDbPolyline
  3
AutoCAD 2000
 90
        0
280
     0
281
     1
  0
CLASS
  1
HATCH
  2
AcDbHatch
  3
AutoCAD 2000
 90
        0
280
     0
281
     1
  0
CLASS
  1
XRECORD
  2
AcDbXrecord
  3
AutoCAD 2000
 90
        0
280
     0
281
     0
  0
CLASS
  1
LONG_TRANSACTION
  2
AcDbLongTransaction
  3
AutoCAD 2000
 90
        0
280
     0
281
     0
  0
CLASS
  1
LWPOLYLINE
  2
AcDbPolyline
  3
AutoCAD 2000
 90
        0
280
     0
281
     1
  0
CLASS
  1
HATCH
  2
AcDbHatch
  3
AutoCAD 2000
 90
        0
280
     0
281
     1
  0
CLASS
  1
XRECORD
  2
AcDbXrecord
  3
AutoCAD 2000
 90
        0
280
     0
281
     0
  0
CLASS
  1
LONG_TRANSACTION
  2
AcDbLongTransaction
  3
AutoCAD 2000
 90
        0
280
     0
281
     0
  0
CLASS
  1
LWPOLYLINE
  2
AcDbPolyline
  3
AutoCAD 2000
 90
        0
280
     0
281
     1
  0
CLASS
  1
HATCH
  2
AcDbHatch
  3
AutoCAD 2000
 90
        0
280
     0
281
     1
  0
CLASS
  1
XRECORD
  2
AcDbXrecord
  3
AutoCAD 2000
 90
        0
280
     0
281
     0
  0
CLASS
  1
LONG_TRANSACTION
  2
AcDbLongTransaction
  3
AutoCAD 2000
 90
        0
280
     0
281
     0
  0
CLASS
  1
LWPOLYLINE
  2
AcDbPolyline
  3
AutoCAD 2000
 90
        0
280
     0
281
     1
  0
CLASS
  1
HATCH
  2
AcDbHatch
  3
AutoCAD 2000
 90
        0
280
     0
281
     1
  0
CLASS
  1
XRECORD
  2
AcDbXrecord
  3
AutoCAD 2000
 90
        0
280
     0
281
     0
  0
CLASS
  1
LONG_TRANSACTION
  2
AcDbLongTransaction
  3
AutoCAD 2000
 90
        0
280
     0
281
     0
  0
CLASS
  1
LWPOLYLINE
  2
AcDbPolyline
  3
AutoCAD 2000
 90
        0
280
     0
281
     1
  0
CLASS
  1
HATCH
  2
AcDbHatch
  3
AutoCAD 2000
 90
        0
280
     0
281
     1
  0
CLASS
  1
XRECORD
  2
AcDbXrecord
  3
AutoCAD 2000
 90
        0
280
     0
281
     0
  0
CLASS
  1
LONG_TRANSACTION
  2
AcDbLongTransaction
  3
AutoCAD 2000
 90
        0
280
     0
281
     0
  0
CLASS
  1
LWPOLYLINE
  2
AcDbPolyline
  3
AutoCAD 2000
 90
        0
280
     0
281
     1
  0
CLASS
  1
HATCH
  2
AcDbHatch
  3
AutoCAD 2000
 90
        0
280
     0
281
     1
  0
CLASS
  1
XRECORD
  2
AcDbXrecord
  3
AutoCAD 2000
 90
        0
280
     0
281
     0
  0
CLASS
  1
LONG_TRANSACTION
  2
AcDbLongTransaction
  3
AutoCAD 2000
 90
        0
280
     0
281
     0
  0
CLASS
  1
LWPOLYLINE
  2
AcDbPolyline
  3
AutoCAD 2000
 90
        0
280
     0
281
     1
  0
CLASS
  1
HATCH
  2
AcDbHatch
  3
AutoCAD 2000
 90
        0
280
     0
281
     1
  0
CLASS
  1
XRECORD
  2
AcDbXrecord
  3
AutoCAD 2000
 90
        0
280
     0
281
     0
  0
CLASS
  1
LONG_TRANSACTION
  2
AcDbLongTransaction
  3
AutoCAD 2000
 90
        0
280
     0
281
     0
  0
CLASS
  1
LWPOLYLINE
  2
AcDbPolyline
  3
AutoCAD 2000
 90
        0
280
     0
281
     1
  0
CLASS
  1
HATCH
  2
AcDbHatch
  3
AutoCAD 2000
 90
        0
280
     0
281
     1
  0
CLASS
  1
XRECORD
  2
AcDbXrecord
  3
AutoCAD 2000
 90
        0
280
     0
281
     0
  0
CLASS
  1
LONG_TRANSACTION
  2
AcDbLongTransaction
  3
AutoCAD 2000
 90
        0
280
     0
281
     0
  0
CLASS
  1
LWPOLYLINE
  2
AcDbPolyline
  3
AutoCAD 2000
 90
        0
280
     0
281
     1
  0
CLASS
  1
HATCH
  2
AcDbHatch
  3
AutoCAD 2000
 90
        0
280
     0
281
     1
  0
CLASS
  1
XRECORD
  2
AcDbXrecord
  3
AutoCAD 2000
 90
        0
280
     0
281
     0
  0
CLASS
  1
LONG_TRANSACTION
  2
AcDbLongTransaction
  3
AutoCAD 2000
 90
        0
280
     0
281
     0
  0
CLASS
  1
LWPOLYLINE
  2
AcDbPolyline
  3
AutoCAD 2000
 90
        0
280
     0
281
     1
  0
CLASS
  1
HATCH
  2
AcDbHatch
  3
AutoCAD 2000
 90
        0
280
     0
281
     1
  0
CLASS
  1
XRECORD
  2
AcDbXrecord
  3
AutoCAD 2000
 90
        0
280
     0
281
     0
  0
CLASS
  1
LONG_TRANSACTION
  2
AcDbLongTransaction
  3
AutoCAD 2000
 90
        0
280
     0
281
     0
  0
CLASS
  1
LWPOLYLINE
  2
AcDbPolyline
  3
AutoCAD 2000
 90
        0
280
     0
281
     1
  0
CLASS
  1
HATCH
  2
AcDbHatch
  3
AutoCAD 2000
 90
        0
280
     0
281
     1
  0
CLASS
  1
XRECORD
  2
AcDbXrecord
  3
AutoCAD 2000
 90
        0
280
     0
281
     0
  0
CLASS
  1
LONG_TRANSACTION
  2
AcDbLongTransaction
  3
AutoCAD 2000
 90
        0
280
     0
281
     0
  0
CLASS
  1
LWPOLYLINE
  2
AcDbPolyline
  3
AutoCAD 2000
 90
        0
280
     0
281
     1
  0
CLASS
  1
HATCH
  2
AcDbHatch
  3
AutoCAD 2000
 90
        0
280
     0
281
     1
  0
CLASS
  1
XRECORD
  2
AcDbXrecord
  3
AutoCAD 2000
 90
        0
280
     0
281
     0
  0
CLASS
  1
LONG_TRANSACTION
  2
AcDbLongTransaction
  3
AutoCAD 2000
 90
        0
280
     0
281
     0
  0
CLASS
  1
LWPOLYLINE
  2
AcDbPolyline
  3
AutoCAD 2000
 90
        0
280
     0
281
     1
  0
CLASS
  1
HATCH
  2
AcDbHatch
  3
AutoCAD 2000
 90
        0
280
     0
281
     1
  0
CLASS
  1
XRECORD
  2
AcDbXrecord
  3
AutoCAD 2000
 90
        0
280
     0
281
     0
  0
CLASS
  1
LONG_TRANSACTION
  2
AcDbLongTransaction
  3
AutoCAD 2000
 90
        0
280
     0
281
     0
  0
CLASS
  1
LWPOLYLINE
  2
AcDbPolyline
  3
AutoCAD 2000
 90
        0
280
     0
281
     1
  0
CLASS
  1
HATCH
  2
AcDbHatch
  3
AutoCAD 2000
 90
        0
280
     0
281
     1
  0
CLASS
  1
XRECORD
  2
AcDbXrecord
  3
AutoCAD 2000
 90
        0
280
     0
281
     0
  0
CLASS
  1
LONG_TRANSACTION
  2
AcDbLongTransaction
  3
AutoCAD 2000
 90
        0
280
     0
281
     0
  0
CLASS
  1
LWPOLYLINE
  2
AcDbPolyline
  3
AutoCAD 2000
 90
        0
280
     0
281
     1
  0
CLASS
  1
HATCH
  2
AcDbHatch
  3
AutoCAD 2000
 90
        0
280
     0
281
     1
  0
CLASS
  1
XRECORD
  2
AcDbXrecord
  3
AutoCAD 2000
 90
        0
280
     0
281
     0
  0
ENDSEC
  0
SECTION
  2
TABLES
  0
TABLE
  2
VPORT
  5
8
330
0
100
AcDbSymbolTable
 70
     1
  0
VPORT
  5
2F35
330
8
100
AcDbSymbolTableRecord
100
AcDbViewportTableRecord
  2
*ACTIVE
 70
     0
 10
0.0
 20
0.0
 11
1.0
 21
1.0
 12
65.60000430547386
 22
41.59760706015899
 13
0.0
 23
0.0
 14
0.5
 24
0.5
 15
0.5
 25
0.5
 16
0.0
 26
0.0
 36
1.0
 17
0.0
 27
0.0
 37
0.0
 40
83.90141761830617
 41
1.763713080168776
 42
50.0
 43
0.0
 44
0.0
 50
0.0
 51
0.0
 71
     0
 72
   100
 73
     1
 74
     2
 75
     0
 76
     0
 77
     0
 78
     0
  0
ENDTAB
  0
TABLE
  2
LTYPE
  5
5
330
0
100
AcDbSymbolTable
 70
     2
  0
LTYPE
  5
14
330
5
100
AcDbSymbolTableRecord
100
AcDbLinetypeTableRecord
  2
BYBLOCK
 70
     0
  3

 72
    65
 73
     0
 40
0.0
  0
LTYPE
  5
15
330
5
100
AcDbSymbolTableRecord
100
AcDbLinetypeTableRecord
  2
BYLAYER
 70
     0
  3

 72
    65
 73
     0
 40
0.0
  0
LTYPE
  5
16
330
5
100
AcDbSymbolTableRecord
100
AcDbLinetypeTableRecord
  2
CONTINUOUS
 70
     0
  3
Solid line
 72
    65
 73
     0
 40
0.0
  0
LTYPE
  5
40
330
5
100
AcDbSymbolTableRecord
100
AcDbLinetypeTableRecord
  2
HIDDEN2
 70
     0
  3
Hidden (.5x) _ _ _ _ _ _ _ _ _ _ _ _ _ _ _ _ _
 72
    65
 73
     2
 40
0.1875
 49
0.125
 74
     0
 49
-0.0625
 74
     0
  0
ENDTAB
  0
TABLE
  2
LAYER
  5
2
330
0
100
AcDbSymbolTable
 70
    10
  0
LAYER
  5
10
330
2
100
AcDbSymbolTableRecord
100
AcDbLayerTableRecord
  2
0
 70
     0
 62
     7
  6
CONTINUOUS
  0
LAYER
  5
47
330
2
100
AcDbSymbolTableRecord
100
AcDbLayerTableRecord
  2
CONTINUOUS1
 70
     0
 62
     7
  6
CONTINUOUS
  0
LAYER
  5
48
330
2
100
AcDbSymbolTableRecord
100
AcDbLayerTableRecord
  2
CONTINUOUS2
 70
     0
 62
   254
  6
CONTINUOUS
  0
LAYER
  5
49
330
2
100
AcDbSymbolTableRecord
100
AcDbLayerTableRecord
  2
CONTINUOUS3
 70
     0
 62
   253
  6
CONTINUOUS
  0
LAYER
  5
4D
330
2
100
AcDbSymbolTableRecord
100
AcDbLayerTableRecord
  2
DIM
 70
     0
 62
     2
  6
CONTINUOUS
  0
LAYER
  5
4E
330
2
100
AcDbSymbolTableRecord
100
AcDbLayerTableRecord
  2
HIDDEN1
 70
     0
 62
     5
  6
HIDDEN2
  0
LAYER
  5
55
330
2
100
AcDbSymbolTableRecord
100
AcDbLayerTableRecord
  2
TEXT1
 70
     0
 62
     3
  6
CONTINUOUS
  0
LAYER
  5
58
330
2
100
AcDbSymbolTableRecord
100
AcDbLayerTableRecord
  2
TITLEBLOCK
 70
     0
 62
     9
  6
CONTINUOUS
  0
LAYER
  5
59
330
2
100
AcDbSymbolTableRecord
100
AcDbLayerTableRecord
  2
VIEWPORT
 70
     0
 62
     9
  6
CONTINUOUS
  0
LAYER
  5
150B
330
2
100
AcDbSymbolTableRecord
100
AcDbLayerTableRecord
  2
DEFPOINTS
 70
     0
 62
     7
  6
CONTINUOUS
  0
ENDTAB
  0
TABLE
  2
STYLE
  5
3
330
0
100
AcDbSymbolTable
 70
     3
  0
STYLE
  5
11
330
3
100
AcDbSymbolTableRecord
100
AcDbTextStyleTableRecord
  2
STANDARD
 70
     0
 40
0.0
 41
1.0
 50
0.0
 71
     0
 42
0.2
  3
txt
  4

  0
STYLE
  5
36
330
3
100
AcDbSymbolTableRecord
100
AcDbTextStyleTableRecord
  2
ROMANS
 70
     0
 40
0.0
 41
1.0
 50
0.0
 71
     0
 42
0.2
  3
romans.shx
  4

  0
STYLE
  5
6CC
330
3
100
AcDbSymbolTableRecord
100
AcDbTextStyleTableRecord
  2
M_STANDARD
 70
     0
 40
0.0
 41
0.8
 50
0.0
 71
     0
 42
0.0
  3
MEDUSA.SHX
  4

  0
ENDTAB
  0
TABLE
  2
VIEW
  5
6
330
0
100
AcDbSymbolTable
 70
     0
  0
ENDTAB
  0
TABLE
  2
UCS
  5
7
330
0
100
AcDbSymbolTable
 70
     0
  0
ENDTAB
  0
TABLE
  2
APPID
  5
9
330
0
100
AcDbSymbolTable
 70
    11
  0
APPID
  5
12
330
9
100
AcDbSymbolTableRecord
100
AcDbRegAppTableRecord
  2
ACAD
 70
     0
  0
APPID
  5
6B
330
9
100
AcDbSymbolTableRecord
100
AcDbRegAppTableRecord
  2
DCO15
 70
     0
  0
APPID
  5
370
330
9
100
AcDbSymbolTableRecord
100
AcDbRegAppTableRecord
  2
MCAD_NO_VIS
 70
     0
  0
APPID
  5
371
330
9
100
AcDbSymbolTableRecord
100
AcDbRegAppTableRecord
  2
ACAD_TEMP_GRAPHIC
 70
     0
  0
APPID
  5
387
330
9
100
AcDbSymbolTableRecord
100
AcDbRegAppTableRecord
  2
GENIUS_GENSCREG_15
 70
     0
  0
APPID
  5
389
330
9
100
AcDbSymbolTableRecord
100
AcDbRegAppTableRecord
  2
GENIUS_GENODEF_13
 70
     0
  0
APPID
  5
38A
330
9
100
AcDbSymbolTableRecord
100
AcDbRegAppTableRecord
  2
GENIUS_GENOBJ-N-SDF_13
 70
     0
  0
APPID
  5
38B
330
9
100
AcDbSymbolTableRecord
100
AcDbRegAppTableRecord
  2
GENIUS_GENOENT_13
 70
     0
  0
APPID
  5
38C
330
9
100
AcDbSymbolTableRecord
100
AcDbRegAppTableRecord
  2
GENIUS_GENOREF_13
 70
     0
  0
APPID
  5
38D
330
9
100
AcDbSymbolTableRecord
100
AcDbRegAppTableRecord
  2
GENIUS_GENOLIS_13
 70
     0
  0
APPID
  5
6CE
330
9
100
AcDbSymbolTableRecord
100
AcDbRegAppTableRecord
  2
MED_PRIMTYPE
 70
     0
  0
ENDTAB
  0
TABLE
  2
DIMSTYLE
  5
A
330
0
100
AcDbSymbolTable
 70
     2
  0
DIMSTYLE
105
EC8
102
{ACAD_REACTORS
330
150A
330
1541
330
158B
330
15A3
330
15D9
330
17ED
330
17EC
330
17EE
102
}
330
A
100
AcDbSymbolTableRecord
100
AcDbDimStyleTableRecord
  2
SCHNEIDERELECTRIC
 70
     0
  3
\X
  4

  5
SEARROW
  6

  7

 40
0.0
 41
0.07
 42
0.0625
 43
0.38
 44
0.0625
 45
0.001
 46
0.0
 47
0.0
 48
0.0
140
0.1
141
0.09
142
0.0
143
25.4
144
1.0
145
0.0
146
1.0
147
0.04
 71
     0
 72
     0
 73
     1
 74
     1
 75
     0
 76
     0
 77
     0
 78
     4
170
     1
171
     0
172
     0
173
     0
174
     0
175
     0
176
   256
177
   256
178
   256
270
     2
271
     2
272
     2
273
     2
274
     0
340
36
275
     0
280
     0
281
     0
282
     0
283
     1
284
     0
285
     0
286
     0
287
     3
288
     0
  0
DIMSTYLE
105
1A72
102
{ACAD_REACTORS
330
1739
330
16F3
330
16B3
330
1691
330
17EF
102
}
330
A
100
AcDbSymbolTableRecord
100
AcDbDimStyleTableRecord
  2
SCHNEIDERELECTRIC_DUAL_BEL
 70
     0
  3
\P
  4

  5
SEARROW
  6

  7

 40
0.0
 41
0.07
 42
0.0625
 43
0.38
 44
0.0625
 45
0.001
 46
0.0
 47
0.0
 48
0.0
140
0.1
141
0.09
142
0.0
143
25.4
144
1.0
145
0.0
146
1.0
147
0.04
 71
     0
 72
     0
 73
     1
 74
     1
 75
     0
 76
     0
 77
     0
 78
     4
170
     1
171
     0
172
     0
173
     0
174
     0
175
     0
176
   256
177
   256
178
   256
270
     2
271
     2
272
     2
273
     2
274
     0
340
36
275
     0
280
     0
281
     0
282
     0
283
     1
284
     0
285
     4
286
     0
287
     3
288
     0
  0
ENDTAB
  0
TABLE
  2
BLOCK_RECORD
  5
1
330
0
100
AcDbSymbolTable
 70
    18
  0
BLOCK_RECORD
  5
1F
102
{ACAD_XDICTIONARY
360
73
102
}
330
1
100
AcDbSymbolTableRecord
100
AcDbBlockTableRecord
  2
*MODEL_SPACE
  0
BLOCK_RECORD
  5
1B
102
{ACAD_XDICTIONARY
360
75
102
}
330
1
100
AcDbSymbolTableRecord
100
AcDbBlockTableRecord
  2
*PAPER_SPACE
  0
BLOCK_RECORD
  5
841
330
1
100
AcDbSymbolTableRecord
100
AcDbBlockTableRecord
  2
LOGO-PAD
1001
ACAD
1000
DesignCenter Data
1002
{
1070
     1
1070
     1
1002
}
  0
BLOCK_RECORD
  5
AE5
330
1
100
AcDbSymbolTableRecord
100
AcDbBlockTableRecord
  2
TITLE-PAD
1001
ACAD
1000
DesignCenter Data
1002
{
1070
     1
1070
     1
1002
}
  0
BLOCK_RECORD
  5
E0D
330
1
100
AcDbSymbolTableRecord
100
AcDbBlockTableRecord
  2
SEARROW
1001
ACAD
1000
DesignCenter Data
1002
{
1070
     1
1070
     1
1002
}
  0
BLOCK_RECORD
  5
F4C
330
1
100
AcDbSymbolTableRecord
100
AcDbBlockTableRecord
  2
M_PFN_2
  0
BLOCK_RECORD
  5
150C
330
1
100
AcDbSymbolTableRecord
100
AcDbBlockTableRecord
  2
*D4
  0
BLOCK_RECORD
  5
1542
330
1
100
AcDbSymbolTableRecord
100
AcDbBlockTableRecord
  2
*D5
  0
BLOCK_RECORD
  5
158C
330
1
100
AcDbSymbolTableRecord
100
AcDbBlockTableRecord
  2
*D6
  0
BLOCK_RECORD
  5
15A4
330
1
100
AcDbSymbolTableRecord
100
AcDbBlockTableRecord
  2
*D7
  0
BLOCK_RECORD
  5
15DA
330
1
100
AcDbSymbolTableRecord
100
AcDbBlockTableRecord
  2
*D8
  0
BLOCK_RECORD
  5
1692
330
1
100
AcDbSymbolTableRecord
100
AcDbBlockTableRecord
  2
*D9
  0
BLOCK_RECORD
  5
16B4
330
1
100
AcDbSymbolTableRecord
100
AcDbBlockTableRecord
  2
*D10
  0
BLOCK_RECORD
  5
16F4
330
1
100
AcDbSymbolTableRecord
100
AcDbBlockTableRecord
  2
*D11
  0
BLOCK_RECORD
  5
173A
330
1
100
AcDbSymbolTableRecord
100
AcDbBlockTableRecord
  2
*D12
  0
BLOCK_RECORD
  5
177B
330
1
100
AcDbSymbolTableRecord
100
AcDbBlockTableRecord
  2
*D13
  0
BLOCK_RECORD
  5
17F0
330
1
100
AcDbSymbolTableRecord
100
AcDbBlockTableRecord
  2
*D14
  0
BLOCK_RECORD
  5
17F9
330
1
100
AcDbSymbolTableRecord
100
AcDbBlockTableRecord
  2
*D15
  0
BLOCK_RECORD
  5
1802
330
1
100
AcDbSymbolTableRecord
100
AcDbBlockTableRecord
  2
*D16
  0
BLOCK_RECORD
  5
1A6D
330
1
100
AcDbSymbolTableRecord
100
AcDbBlockTableRecord
  2
__
1001
ACAD
1000
DesignCenter Data
1002
{
1070
     1
1070
     1
1002
}
  0
ENDTAB
  0
ENDSEC
  0
SECTION
  2
BLOCKS
  0
BLOCK
  5
20
330
1F
100
AcDbEntity
  8
0
100
AcDbBlockBegin
  2
*MODEL_SPACE
 70
     0
 10
0.0
 20
0.0
 30
0.0
  3
*MODEL_SPACE
  1

  0
ENDBLK
  5
21
330
1F
100
AcDbEntity
  8
0
100
AcDbBlockEnd
  0
BLOCK
  5
1C
330
1B
100
AcDbEntity
 67
     1
  8
0
100
AcDbBlockBegin
  2
*PAPER_SPACE
 70
     0
 10
0.0
 20
0.0
 30
0.0
  3
*PAPER_SPACE
  1

  0
ENDBLK
  5
1D
330
1B
100
AcDbEntity
 67
     1
  8
0
100
AcDbBlockEnd
  0
BLOCK
  5
852
330
841
100
AcDbEntity
  8
0
100
AcDbBlockBegin
  2
LOGO-PAD
 70
     0
 10
0.0
 20
0.0
 30
0.0
  3
LOGO-PAD
  1

  0
HATCH
  5
842
330
841
100
AcDbEntity
  8
TITLEBLOCK
 62
     0
100
AcDbHatch
 10
0.0
 20
0.0
 30
0.0
210
0.0
220
0.0
230
1.0
  2
SOLID
 70
     1
 71
     0
 91
        2
 92
        1
 93
       11
 72
     2
 10
1.203771209334867
 20
0.3650136751459491
 40
0.021562648149145
 50
90.00000747299615
 51
179.9997683268519
 73
     1
 72
     1
 10
1.182208561185898
 20
0.3650137623336376
 11
1.182208392435807
 21
0.2795138227272444
 72
     2
 10
1.203771079023129
 20
0.2795136821032751
 40
0.0215626865877801
 50
179.9996263378447
 51
269.9998903896797
 73
     1
 72
     1
 10
1.203771037772394
 20
0.2579509955155343
 11
1.330521045577125
 21
0.2579511736405264
 72
     2
 10
1.330521265257171
 20
0.2795136382789064
 40
0.021562464639499
 50
269.9994162661957
 51
311.7040125634689
 73
     1
 72
     1
 10
1.344866398698837
 20
0.2634152834601535
 11
1.352083334663557
 21
0.2579511736405264
 72
     1
 10
1.352083334663557
 20
0.2579511736405264
 11
1.365099386916806
 21
0.2751416404960081
 72
     1
 10
1.365099386916806
 20
0.2751416404960081
 11
1.352083522163621
 21
0.284997066934386
 72
     1
 10
1.352083522163621
 20
0.284997066934386
 11
1.352083690913712
 21
0.3650136723335662
 72
     2
 10
1.330521042764654
 20
0.3650136751460369
 40
0.0215626481490576
 50
359.9999925267666
 51
449.9999925267678
 73
     1
 72
     1
 10
1.330521045577125
 20
0.3865763232950938
 11
1.203771206522485
 21
0.3865763232950938
 97
        0
 92
       16
 93
       10
 72
     2
 10
1.21455271481628
 20
0.3542325202904111
 40
0.0107811520434708
 50
90.00043844291294
 51
179.9999701074038
 73
     1
 72
     1
 10
1.203771562772811
 20
0.3542325259151993
 11
1.203771562772811
 21
0.2902950591455122
 72
     2
 10
1.214552849813946
 20
0.2902948416431456
 40
0.0107812870433294
 50
179.9988441113203
 51
269.9988441346395
 73
     1
 72
     1
 10
1.214552632315967
 20
0.2795135546020104
 11
1.323606134809704
 21
0.2795135546020104
 72
     1
 10
1.323606134809704
 20
0.2795135546020104
 11
1.280867956889135
 21
0.311873265117333
 72
     1
 10
1.280867956889135
 20
0.311873265117333
 11
1.293884009142384
 21
0.3290635557226322
 72
     1
 10
1.293884009142384
 20
0.3290635557226322
 11
1.330521045577125
 21
0.3013240413506308
 72
     1
 10
1.330521045577125
 20
0.3013240413506308
 11
1.330521045577125
 21
0.3542324377902786
 72
     2
 10
1.319739809158772
 20
0.3542324359152127
 40
0.0107812364183532
 50
0.0000099648460607
 51
90.00000996484372
 73
     1
 72
     1
 10
1.319739807283706
 20
0.3650136723335662
 11
1.214552632315967
 21
0.3650136723335662
 97
        0
 75
     0
 76
     1
 98
        1
 10
-7.279586802153931
 20
-0.4081141432880261
  0
HATCH
  5
843
330
841
100
AcDbEntity
  8
TITLEBLOCK
 62
     0
100
AcDbHatch
 10
0.0
 20
0.0
 30
0.0
210
0.0
220
0.0
230
1.0
  2
SOLID
 70
     1
 71
     0
 91
        1
 92
        1
 93
        4
 72
     1
 10
3.703333445713536
 20
0.1990762889281312
 11
1.018147379006204
 21
0.1990762889281312
 72
     1
 10
1.018147379006204
 20
0.1990762889281312
 11
1.018147379006204
 21
0.220706173683743
 72
     1
 10
1.018147379006204
 20
0.220706173683743
 11
3.703333445713536
 21
0.220706173683743
 72
     1
 10
3.703333445713536
 20
0.220706173683743
 11
3.703333445713536
 21
0.1990762889281312
 97
        0
 75
     0
 76
     1
 98
        1
 10
-7.279586802153931
 20
-0.4081141432880261
  0
HATCH
  5
844
330
841
100
AcDbEntity
  8
TITLEBLOCK
 62
     0
100
AcDbHatch
 10
0.0
 20
0.0
 30
0.0
210
0.0
220
0.0
230
1.0
  2
SOLID
 70
     1
 71
     0
 91
        4
 92
        1
 93
        4
 72
     1
 10
0.8306472632318495
 20
0.4814782717956759
 11
0.4556470182475714
 21
0.4814782717956759
 72
     1
 10
0.4556470182475714
 20
0.4814782717956759
 11
0.4556470182475714
 21
0.1064783844396073
 72
     1
 10
0.4556470182475714
 20
0.1064783844396073
 11
0.8306472632318495
 21
0.1064783844396073
 72
     1
 10
0.8306472632318495
 20
0.1064783844396073
 11
0.8306472632318495
 21
0.4814782717956759
 97
        0
 92
        0
 93
       10
 72
     1
 10
0.7368972019857374
 20
0.4177282462416896
 11
0.5193971779121789
 21
0.4177282462416896
 72
     1
 10
0.5193971779121789
 20
0.4177282462416896
 11
0.5193971779121789
 21
0.37460312508514
 72
     1
 10
0.5193971779121789
 20
0.37460312508514
 11
0.5531473465883146
 21
0.37460312508514
 72
     1
 10
0.5531473465883146
 20
0.37460312508514
 11
0.5531473465883146
 21
0.2133535311501431
 72
     1
 10
0.5531473465883146
 20
0.2133535311501431
 11
0.5193971779121789
 21
0.2133535311501431
 72
     1
 10
0.5193971779121789
 20
0.2133535311501431
 11
0.5193971779121789
 21
0.1702282758831428
 72
     1
 10
0.5193971779121789
 20
0.1702282758831428
 11
0.7368972019857374
 21
0.1702282758831428
 72
     1
 10
0.7368972019857374
 20
0.1702282758831428
 11
0.7668970141602749
 21
0.2002283115750982
 72
     1
 10
0.7668970141602749
 20
0.2002283115750982
 11
0.7668970141602749
 21
0.3877281658462506
 72
     1
 10
0.7668970141602749
 20
0.3877281658462506
 11
0.7368972019857374
 21
0.4177282462416896
 97
        0
 92
       16
 93
        4
 72
     1
 10
0.7987720492890098
 20
0.4496031025563197
 11
0.4875220533764768
 21
0.4496031025563197
 72
     1
 10
0.4875220533764768
 20
0.4496031025563197
 11
0.4875220533764768
 21
0.1383533301613751
 72
     1
 10
0.4875220533764768
 20
0.1383533301613751
 11
0.7987720492890098
 21
0.1383533301613751
 72
     1
 10
0.7987720492890098
 20
0.1383533301613751
 11
0.7987720492890098
 21
0.4496031025563197
 97
        0
 92
        0
 93
        4
 72
     1
 10
0.5962724677448641
 20
0.37460312508514
 11
0.5962724677448641
 21
0.2133535311501431
 72
     1
 10
0.5962724677448641
 20
0.2133535311501431
 11
0.7237719824106926
 21
0.2133535311501431
 72
     1
 10
0.7237719824106926
 20
0.2133535311501431
 11
0.7237719824106926
 21
0.37460312508514
 72
     1
 10
0.7237719824106926
 20
0.37460312508514
 11
0.5962724677448641
 21
0.37460312508514
 97
        0
 75
     0
 76
     1
 98
        1
 10
-7.279586802153931
 20
-0.313212194787444
  0
HATCH
  5
845
330
841
100
AcDbEntity
  8
TITLEBLOCK
 62
     0
100
AcDbHatch
 10
0.0
 20
0.0
 30
0.0
210
0.0
220
0.0
230
1.0
  2
SOLID
 70
     1
 71
     0
 91
        1
 92
        1
 93
       26
 72
     1
 10
1.050490193885575
 20
0.3650136723335662
 11
1.138990457951802
 21
0.3650136723335662
 72
     2
 10
1.138990281703138
 20
0.3542326140418093
 40
0.0107810582931976
 50
270.0009366709926
 51
360.0009366862294
 73
     0
 72
     1
 10
1.149771339994895
 20
0.3542324377902786
 11
1.171333797831589
 21
0.3542324377902786
 72
     1
 10
1.171333797831589
 20
0.3542324377902786
 11
1.171333797831589
 21
0.3650136723335662
 72
     2
 10
1.149771243432702
 20
0.365013768896207
 40
0.0215625543991033
 50
359.9997434148255
 51
449.9997434160159
 73
     1
 72
     1
 10
1.149771339994895
 20
0.3865763232950938
 11
1.039708786842066
 21
0.3865763232950938
 72
     2
 10
1.039709408398413
 20
0.3650142939052909
 40
0.0215620293987615
 50
90.00165163282177
 51
180.0014125206716
 73
     1
 72
     1
 10
1.018147379006204
 20
0.3650137623336376
 11
1.018147379006204
 21
0.3334199129435318
 72
     2
 10
1.039709363397143
 20
0.3334193363730153
 40
0.0215619843986475
 50
179.9984679027414
 51
269.9984679437668
 73
     1
 72
     1
 10
1.039708786842066
 20
0.3118573519820755
 11
1.138990457951802
 21
0.311857620107139
 72
     2
 10
1.138990280765661
 20
0.3010765608779043
 40
0.0107810592306907
 50
270.0009416531222
 51
360.0009416684906
 73
     0
 72
     1
 10
1.149771339994895
 20
0.3010763836888712
 11
1.149771508744986
 21
0.2902949691454408
 72
     2
 10
1.138990231076649
 20
0.2902948322713164
 40
0.0107812776692067
 50
359.9992725992319
 51
449.9997907459082
 73
     0
 72
     1
 10
1.138990270451738
 20
0.279513554602181
 11
1.050490193885575
 21
0.2795135546020104
 72
     2
 10
1.05049014888543
 20
0.2902951041454384
 40
0.0107815495435218
 50
89.99976085826782
 51
179.9997608594354
 73
     0
 72
     1
 10
1.039708599342002
 20
0.2902950591455122
 11
1.018147379006204
 21
0.2902950591455122
 72
     1
 10
1.018147379006204
 20
0.2902950591455122
 11
1.018147379006204
 21
0.2795138227272444
 72
     2
 10
1.039709273392517
 20
0.2795130680345569
 40
0.0215618943995203
 50
179.9979945776083
 51
269.9987071039827
 73
     1
 72
     1
 10
1.039708786842066
 20
0.2579511736405264
 11
1.149771339994895
 21
0.2579511736405264
 72
     2
 10
1.149771378432784
 20
0.2795135930396681
 40
0.0215624193991759
 50
269.9998978626289
 51
359.9996636967671
 73
     1
 72
     1
 10
1.171333797831589
 20
0.2795134664769192
 11
1.171333797831589
 21
0.3114825579869829
 72
     2
 10
1.149771333432362
 20
0.3114825645494808
 40
0.0215624643992288
 50
359.9999825621309
 51
449.9999825620359
 73
     1
 72
     1
 10
1.149771339994895
 20
0.3330450289487088
 11
1.050490193885575
 21
0.3330447608234748
 72
     2
 10
1.050490103885701
 20
0.3438262653667981
 40
0.0107815045436989
 50
89.99952171675776
 51
179.9999900368059
 73
     0
 72
     1
 10
1.039708599342002
 20
0.3438262634919964
 11
1.039708786842066
 21
0.3542325259151993
 72
     2
 10
1.050490107634269
 20
0.3542323515402983
 40
0.0107813207936133
 50
180.0009266903443
 51
270.0004583701697
 73
     0
 97
        0
 75
     0
 76
     1
 98
        1
 10
-7.279586802153931
 20
-0.4081141432880261
  0
HATCH
  5
846
330
841
100
AcDbEntity
  8
TITLEBLOCK
 62
     0
100
AcDbHatch
 10
0.0
 20
0.0
 30
0.0
210
0.0
220
0.0
230
1.0
  2
SOLID
 70
     1
 71
     0
 91
        1
 92
        1
 93
       18
 72
     2
 10
2.471082802883087
 20
0.3650137595211706
 40
0.021562563774099
 50
180.0000074732525
 51
269.9997683261728
 73
     0
 72
     1
 10
2.471082715695484
 20
0.3865763232950938
 11
2.586957622645552
 21
0.3865763232950938
 72
     2
 10
2.586957713583391
 20
0.3650135813961111
 40
0.0215627418991744
 50
269.9997583630888
 51
359.999758364108
 73
     0
 72
     1
 10
2.608520455482373
 20
0.3650136723335662
 11
2.608520455482373
 21
0.3542324377902786
 72
     1
 10
2.608520455482373
 20
0.3542324377902786
 11
2.586957622645552
 21
0.3542324377902786
 72
     2
 10
2.576176208103625
 20
0.3542322577916381
 40
0.0107814145434302
 50
0.0009565685814303
 51
90.00095658455173
 73
     1
 72
     1
 10
2.576176028101979
 20
0.3650136723335662
 11
2.481864141488966
 21
0.3650136723335662
 72
     2
 10
2.481864045863444
 20
0.3542323421656055
 40
0.0107813301683848
 50
89.99949181235312
 51
179.9994918168631
 73
     1
 72
     1
 10
2.471082715695484
 20
0.3542324377902786
 11
2.471082715695484
 21
0.2902950591455122
 72
     2
 10
2.481864090863785
 20
0.2902951097704553
 40
0.0107813751684203
 50
180.0002690376259
 51
270.0002690388874
 73
     1
 72
     1
 10
2.481864141488966
 20
0.2795137346021532
 11
2.576176028101979
 21
0.2795135546020104
 72
     2
 10
2.576176073102679
 20
0.2902951041456356
 40
0.010781549543719
 50
269.9997608553225
 51
359.9992825760937
 73
     1
 72
     1
 10
2.586957622645552
 20
0.2902949691454408
 11
2.608520455482373
 21
0.2902950591455122
 72
     1
 10
2.608520455482373
 20
0.2902950591455122
 11
2.608520099232048
 21
0.2795134664769192
 72
     2
 10
2.586957670458414
 20
0.2795136024145366
 40
0.0215624287740632
 50
0.0003612140281018
 51
90.00012704854281
 73
     0
 72
     1
 10
2.586957622645552
 20
0.2579511736405264
 11
2.471082715695484
 21
0.2579511736405264
 72
     2
 10
2.471082667882924
 20
0.2795136024144634
 40
0.02156242877399
 50
89.99987295225965
 51
179.9998729525419
 73
     0
 72
     1
 10
2.449520239108988
 20
0.2795135546020104
 11
2.449520239108988
 21
0.3650137623336376
 97
        0
 75
     0
 76
     1
 98
        1
 10
-7.279586802153931
 20
-0.4081141432880261
  0
HATCH
  5
847
330
841
100
AcDbEntity
  8
TITLEBLOCK
 62
     0
100
AcDbHatch
 10
0.0
 20
0.0
 30
0.0
210
0.0
220
0.0
230
1.0
  2
SOLID
 70
     1
 71
     0
 91
        1
 92
        1
 93
       12
 72
     1
 10
2.026708344139745
 20
0.3865765014202565
 11
1.890208311215626
 21
0.3865765014202565
 72
     1
 10
1.890208311215626
 20
0.3865765014202565
 11
1.890208311215626
 21
0.2579511736405264
 72
     1
 10
1.890208311215626
 20
0.2579511736405264
 11
2.026708344139745
 21
0.2579511736405264
 72
     1
 10
2.026708344139745
 20
0.2579511736405264
 11
2.026708344139745
 21
0.2795135546020104
 72
     1
 10
2.026708344139745
 20
0.2795135546020104
 11
1.911770600302059
 21
0.2795135546020104
 72
     1
 10
1.911770600302059
 20
0.2795135546020104
 11
1.911770600302059
 21
0.3114825579869829
 72
     1
 10
1.911770600302059
 20
0.3114825579869829
 11
2.026708344139745
 21
0.3114825579869829
 72
     1
 10
2.026708344139745
 20
0.3114825579869829
 11
2.026708344139745
 21
0.333044848948566
 72
     1
 10
2.026708344139745
 20
0.333044848948566
 11
1.911770600302059
 21
0.333044848948566
 72
     1
 10
1.911770600302059
 20
0.333044848948566
 11
1.911770600302059
 21
0.3650136723335662
 72
     1
 10
1.911770600302059
 20
0.3650136723335662
 11
2.026708344139745
 21
0.3650136723335662
 72
     1
 10
2.026708344139745
 20
0.3650136723335662
 11
2.026708344139745
 21
0.3865765014202565
 97
        0
 75
     0
 76
     1
 98
        1
 10
-7.279586802153931
 20
-0.4081141432880261
  0
HATCH
  5
848
330
841
100
AcDbEntity
  8
TITLEBLOCK
 62
     0
100
AcDbHatch
 10
0.0
 20
0.0
 30
0.0
210
0.0
220
0.0
230
1.0
  2
SOLID
 70
     1
 71
     0
 91
        2
 92
        1
 93
        8
 72
     1
 10
1.614830743814064
 20
0.3865765014202565
 11
1.531145595393223
 21
0.2579509955155343
 72
     1
 10
1.531145595393223
 20
0.2579509955155343
 11
1.556870855949323
 21
0.2579511736405264
 72
     1
 10
1.556870855949323
 20
0.2579511736405264
 11
1.570898996363819
 21
0.2795135546020104
 72
     1
 10
1.570898996363819
 20
0.2795135546020104
 11
1.673830432358027
 21
0.2795135546020104
 72
     1
 10
1.673830432358027
 20
0.2795135546020104
 11
1.687858760272586
 21
0.2579514417655899
 72
     1
 10
1.687858760272586
 20
0.2579514417655899
 11
1.713583120827973
 21
0.2579514417655899
 72
     1
 10
1.713583120827973
 20
0.2579514417655899
 11
1.629898141157394
 21
0.3865765014202565
 72
     1
 10
1.629898141157394
 20
0.3865765014202565
 11
1.614830743814064
 21
0.3865765014202565
 97
        0
 92
       16
 93
        3
 72
     1
 10
1.622364536235675
 20
0.3586169575295115
 11
1.659801223192726
 21
0.3010763836888712
 72
     1
 10
1.659801223192726
 20
0.3010763836888712
 11
1.584928205528949
 21
0.3010762055637086
 72
     1
 10
1.584928205528949
 20
0.3010762055637086
 11
1.622364348735612
 21
0.3586165994043766
 97
        0
 75
     0
 76
     1
 98
        1
 10
-7.279586802153931
 20
-0.4081141432880261
  0
HATCH
  5
849
330
841
100
AcDbEntity
  8
TITLEBLOCK
 62
     0
100
AcDbHatch
 10
0.0
 20
0.0
 30
0.0
210
0.0
220
0.0
230
1.0
  2
SOLID
 70
     1
 71
     0
 91
        1
 92
        1
 93
       12
 72
     1
 10
1.392021104504447
 20
0.3865765014202565
 11
1.370458815418015
 21
0.3865765014202565
 72
     1
 10
1.370458815418015
 20
0.3865765014202565
 11
1.370458627917951
 21
0.2795138227272444
 72
     2
 10
1.39202114575308
 20
0.2795135133528436
 40
0.0215625178373483
 50
179.999177932392
 51
269.9998903944058
 73
     1
 72
     1
 10
1.392021104504447
 20
0.2579509955155343
 11
1.509583287556818
 21
0.2579511736405264
 72
     2
 10
1.509583335369764
 20
0.2795136024146219
 40
0.0215624287741484
 50
269.9998729512306
 51
359.9996387857453
 73
     1
 72
     1
 10
1.531145764143484
 20
0.2795134664769192
 11
1.531146120393639
 21
0.3865765014202565
 72
     1
 10
1.531146120393639
 20
0.3865765014202565
 11
1.509583287556818
 21
0.3865765014202565
 72
     1
 10
1.509583287556818
 20
0.3865765014202565
 11
1.509583287556818
 21
0.2902950591455122
 72
     2
 10
1.498801916139266
 20
0.290294926019563
 40
0.0107813714183743
 50
359.9992925246018
 51
449.9992925333428
 73
     0
 72
     1
 10
1.49880204926357
 20
0.2795135546020104
 11
1.402802342797695
 21
0.2795135546020104
 72
     2
 10
1.402802382172719
 20
0.2902950197703451
 40
0.0107814651684066
 50
90.00020925010334
 51
180.0002092508632
 73
     0
 72
     1
 10
1.392020917004384
 20
0.2902950591455122
 11
1.392021104504447
 21
0.3865765014202565
 97
        0
 75
     0
 76
     1
 98
        1
 10
-7.279586802153931
 20
-0.4081141432880261
  0
HATCH
  5
84A
330
841
100
AcDbEntity
  8
TITLEBLOCK
 62
     0
100
AcDbHatch
 10
0.0
 20
0.0
 30
0.0
210
0.0
220
0.0
230
1.0
  2
SOLID
 70
     1
 71
     0
 91
        2
 92
        1
 93
       13
 72
     2
 10
1.851958289039648
 20
0.2899198104641797
 40
0.0215625675244637
 50
0.0002565813902296
 51
90.00070498518821
 73
     1
 72
     2
 10
1.851958289040149
 20
0.3330449455099156
 40
0.0215625675245372
 50
269.9992950134807
 51
359.9995092535441
 73
     1
 72
     1
 10
1.873520856563896
 20
0.3330447608234748
 11
1.873520856563896
 21
0.3650136657708798
 72
     2
 10
1.851957894958188
 20
0.3650135398162329
 40
0.0215629616060761
 50
0.0003346789653151
 51
89.99920945081219
 73
     1
 72
     1
 10
1.851958192477166
 20
0.3865765014202565
 11
1.720333350237904
 21
0.3865765014202565
 72
     1
 10
1.720333350237904
 20
0.3865765014202565
 11
1.720333350237904
 21
0.2579511736405264
 72
     1
 10
1.720333350237904
 20
0.2579511736405264
 11
1.741896183074725
 21
0.2579511736405264
 72
     1
 10
1.741896183074725
 20
0.2579511736405264
 11
1.741896183074725
 21
0.3007013215688856
 72
     1
 10
1.741896183074725
 20
0.3007013215688856
 11
1.841176785433827
 21
0.3007013215688856
 72
     2
 10
1.841176693559081
 20
0.2899201789011263
 40
0.0107811426681508
 50
270.0004882631974
 51
360.0004882673548
 73
     0
 72
     1
 10
1.851957836226841
 20
0.289920087025598
 11
1.851958192477166
 21
0.2579511736405264
 72
     1
 10
1.851958192477166
 20
0.2579511736405264
 11
1.873520856563896
 21
0.2579511736405264
 72
     1
 10
1.873520856563896
 20
0.2579511736405264
 11
1.873520856563896
 21
0.2899199070254552
 97
        0
 92
       16
 93
        6
 72
     2
 10
1.841176693559081
 20
0.3542325296658069
 40
0.0107811426681508
 50
270.0004882631974
 51
360.0004882673548
 73
     0
 72
     1
 10
1.851957836226841
 20
0.3542324377902786
 11
1.851958192477166
 21
0.333044848948566
 72
     2
 10
1.841176871684197
 20
0.333044935198247
 40
0.0107813207933138
 50
0.0004583615308307
 51
90.00045836519477
 73
     0
 72
     1
 10
1.841176785433827
 20
0.3222636144052784
 11
1.741896183074725
 21
0.3222638825303419
 72
     1
 10
1.741896183074725
 20
0.3222638825303419
 11
1.741896183074725
 21
0.3650136723335662
 72
     1
 10
1.741896183074725
 20
0.3650136723335662
 11
1.841176785433827
 21
0.3650136723335662
 97
        0
 75
     0
 76
     1
 98
        1
 10
-7.279586802153931
 20
-0.4081141432880261
  0
HATCH
  5
84B
330
841
100
AcDbEntity
  8
TITLEBLOCK
 62
     0
100
AcDbHatch
 10
0.0
 20
0.0
 30
0.0
210
0.0
220
0.0
230
1.0
  2
SOLID
 70
     1
 71
     0
 91
        2
 92
        1
 93
       10
 72
     1
 10
2.168832611988261
 20
0.3650136723335662
 11
2.168832611988261
 21
0.2795135546021492
 72
     1
 10
2.168832611988261
 20
0.2795135546021492
 11
2.148020079641632
 21
0.2795135546021492
 72
     1
 10
2.148020079641632
 20
0.2795135546021492
 11
2.148020079641632
 21
0.2579511736406499
 72
     1
 10
2.148020079641632
 20
0.2579511736406499
 11
2.314895263659607
 21
0.2579511736406499
 72
     2
 10
2.314895311472477
 20
0.2795136024147182
 40
0.0215624287741214
 50
269.9998729514336
 51
359.9996387859474
 73
     1
 72
     1
 10
2.336457740246171
 20
0.2795134664770916
 11
2.336457740246171
 21
0.3650136723335662
 72
     2
 10
2.314895087410214
 20
0.3650138485844006
 40
0.0215626528366775
 50
359.9995316703829
 51
449.999531674211
 73
     1
 72
     1
 10
2.314895263659607
 20
0.386576501420358
 11
2.148020079641632
 21
0.386576501420358
 72
     1
 10
2.148020079641632
 20
0.386576501420358
 11
2.148020079641632
 21
0.3650136723335662
 72
     1
 10
2.148020079641632
 20
0.3650136723335662
 11
2.168832611988261
 21
0.3650136723335662
 97
        0
 92
       16
 93
        6
 72
     1
 10
2.190395257324933
 20
0.3650136723335662
 11
2.304113856616218
 21
0.3650136723335662
 72
     2
 10
2.304113942866619
 20
0.3542323515405775
 40
0.0107813207933337
 50
269.9995416346447
 51
359.9995416383139
 73
     0
 72
     1
 10
2.314895263659607
 20
0.3542324377902877
 11
2.314895263659607
 21
0.2902949691455452
 72
     2
 10
2.304113807866077
 20
0.2902950103956483
 40
0.0107814557936096
 50
0.0002192149982456
 51
89.99974092762393
 73
     0
 72
     1
 10
2.304113856616218
 20
0.2795135546021492
 11
2.190395257324933
 21
0.2795135546021492
 72
     1
 10
2.190395257324933
 20
0.2795135546021492
 11
2.190395257324933
 21
0.3650136723335662
 97
        0
 75
     0
 76
     1
 98
        1
 10
-7.279586802153931
 20
-0.4081141432880261
  0
HATCH
  5
84C
330
841
100
AcDbEntity
  8
TITLEBLOCK
 62
     0
100
AcDbHatch
 10
0.0
 20
0.0
 30
0.0
210
0.0
220
0.0
230
1.0
  2
SOLID
 70
     1
 71
     0
 91
        2
 92
        1
 93
        8
 72
     1
 10
3.241392303571654
 20
0.3865765014202565
 11
3.157707226761072
 21
0.2579509955155343
 72
     1
 10
3.157707226761072
 20
0.2579509955155343
 11
3.183432299816939
 21
0.2579511736405264
 72
     1
 10
3.183432299816939
 20
0.2579511736405264
 11
3.197460983981823
 21
0.2795133764768478
 72
     1
 10
3.197460983981823
 20
0.2795133764768478
 11
3.30039082622498
 21
0.2795135546020104
 72
     1
 10
3.30039082622498
 20
0.2795135546020104
 11
3.314419679139785
 21
0.2579514417655899
 72
     1
 10
3.314419679139785
 20
0.2579514417655899
 11
3.340144583445731
 21
0.2579511736405264
 72
     1
 10
3.340144583445731
 20
0.2579511736405264
 11
3.256459603774981
 21
0.3865765014202565
 72
     1
 10
3.256459603774981
 20
0.3865765014202565
 11
3.241392303571654
 21
0.3865765014202565
 97
        0
 92
       16
 93
        3
 72
     1
 10
3.248925740352245
 20
0.358616778466603
 11
3.211489480646473
 21
0.3010762055637086
 72
     1
 10
3.211489480646473
 20
0.3010762055637086
 11
3.28636178580994
 21
0.3010763836888712
 72
     1
 10
3.28636178580994
 20
0.3010763836888712
 11
3.248925740352245
 21
0.358616778466603
 97
        0
 75
     0
 76
     1
 98
        1
 10
-7.279586802153931
 20
-0.4081141432880261
  0
HATCH
  5
84D
330
841
100
AcDbEntity
  8
TITLEBLOCK
 62
     0
100
AcDbHatch
 10
0.0
 20
0.0
 30
0.0
210
0.0
220
0.0
230
1.0
  2
SOLID
 70
     1
 71
     0
 91
        1
 92
        1
 93
       13
 72
     1
 10
2.838488736968525
 20
0.3865765014202565
 11
2.806145209588674
 21
0.3865765014202565
 72
     1
 10
2.806145209588674
 20
0.3865765014202565
 11
2.806145209588674
 21
0.2579511736405264
 72
     1
 10
2.806145209588674
 20
0.2579511736405264
 11
2.827707667425368
 21
0.2579511736405264
 72
     1
 10
2.827707667425368
 20
0.2579511736405264
 11
2.827707667425368
 21
0.3640633654626753
 72
     1
 10
2.827707667425368
 20
0.3640633654626753
 11
2.899718420719221
 21
0.2579514417655899
 72
     1
 10
2.899718420719221
 20
0.2579514417655899
 11
2.922570860648686
 21
0.2579511736405264
 72
     1
 10
2.922570860648686
 20
0.2579511736405264
 11
2.994582138942956
 21
0.3640642598382782
 72
     1
 10
2.994582138942956
 20
0.3640642598382782
 11
2.994582138942956
 21
0.2579511736405264
 72
     1
 10
2.994582138942956
 20
0.2579511736405264
 11
3.016144596779479
 21
0.2579511736405264
 72
     1
 10
3.016144596779479
 20
0.2579511736405264
 11
3.016144596779479
 21
0.3865765014202565
 72
     1
 10
3.016144596779479
 20
0.3865765014202565
 11
2.983801425649954
 21
0.3865765014202565
 72
     1
 10
2.983801425649954
 20
0.3865765014202565
 11
2.911144640683954
 21
0.2795135546020104
 72
     1
 10
2.911144640683954
 20
0.2795135546020104
 11
2.838488380718199
 21
0.3865765014202565
 97
        0
 75
     0
 76
     1
 98
        1
 10
-7.279586802153931
 20
-0.4081141432880261
  0
HATCH
  5
84E
330
841
100
AcDbEntity
  8
TITLEBLOCK
 62
     0
100
AcDbHatch
 10
0.0
 20
0.0
 30
0.0
210
0.0
220
0.0
230
1.0
  2
SOLID
 70
     1
 71
     0
 91
        2
 92
        1
 93
        8
 72
     1
 10
2.79358243888161
 20
0.2795134664769192
 11
2.793582795131936
 21
0.3650136723335662
 72
     2
 10
2.772020240733041
 20
0.3650137688961994
 40
0.0215625543991104
 50
359.9997434148459
 51
449.999743415997
 73
     1
 72
     1
 10
2.772020337295241
 20
0.3865763232950938
 11
2.640957676673206
 21
0.3865763232950938
 72
     2
 10
2.640957763860811
 20
0.3650137595211699
 40
0.0215625637741002
 50
90.00023167383188
 51
179.9999925267453
 73
     1
 72
     1
 10
2.61939520008671
 20
0.3650137623336376
 11
2.61939520008671
 21
0.2795135546020104
 72
     2
 10
2.640957628860649
 20
0.2795136024144641
 40
0.0215624287739915
 50
180.0001270474597
 51
270.0001270477355
 73
     1
 72
     1
 10
2.640957676673206
 20
0.2579511736405264
 11
2.772020337295241
 21
0.2579511736405264
 72
     2
 10
2.772020197607671
 20
0.2795134149140743
 40
0.0215622412740004
 50
270.000371181646
 51
360.000137014207
 73
     1
 97
        0
 92
       16
 93
        8
 72
     2
 10
2.651738913091431
 20
0.3542324359149649
 40
0.0107812364186015
 50
89.9999900344766
 51
179.999521702949
 73
     1
 72
     1
 10
2.640957676673206
 20
0.3542325259151993
 11
2.640957676673206
 21
0.2902950591455122
 72
     2
 10
2.651738958091508
 20
0.2902950160204556
 40
0.010781281418388
 50
179.9997708172488
 51
269.9997708181704
 73
     1
 72
     1
 10
2.651738914966625
 20
0.2795137346021532
 11
2.761238742751839
 21
0.2795135546020104
 72
     2
 10
2.761238956501978
 20
0.2902951041442614
 40
0.0107815495443698
 50
269.9988640797126
 51
359.9992825833961
 73
     1
 72
     1
 10
2.772020506045503
 20
0.2902949691454408
 11
2.772020337295241
 21
0.3542324377902786
 72
     2
 10
2.761239007127366
 20
0.3542323421656908
 40
0.0107813301682991
 50
0.0005081826837109
 51
90.00050818719378
 73
     1
 72
     1
 10
2.76123891150193
 20
0.3650136723335662
 11
2.651738914966625
 21
0.3650136723335662
 97
        0
 75
     0
 76
     1
 98
        1
 10
-7.279586802153931
 20
-0.4081141432880261
  0
HATCH
  5
84F
330
841
100
AcDbEntity
  8
TITLEBLOCK
 62
     0
100
AcDbHatch
 10
0.0
 20
0.0
 30
0.0
210
0.0
220
0.0
230
1.0
  2
SOLID
 70
     1
 71
     0
 91
        2
 92
        1
 93
        8
 72
     2
 10
3.162769048174736
 20
0.3650134554401196
 40
0.0215630459811904
 50
270.0005663490367
 51
359.9994236862867
 73
     0
 72
     1
 10
3.184332094154836
 20
0.3650136723335662
 11
3.184332094154836
 21
0.3222638825303419
 72
     2
 10
3.162769397256125
 20
0.3222640184675962
 40
0.0215626968991391
 50
0.0003612085718475
 51
90.00036121084693
 73
     0
 72
     1
 10
3.162769261318015
 20
0.3007013215688856
 11
3.052707420665665
 21
0.3007013215688856
 72
     1
 10
3.052707420665665
 20
0.3007013215688856
 11
3.052707420665665
 21
0.2579511736405264
 72
     1
 10
3.052707420665665
 20
0.2579511736405264
 11
3.031144250328662
 21
0.2579511736405264
 72
     1
 10
3.031144250328662
 20
0.2579511736405264
 11
3.031144250328662
 21
0.3865765014202565
 72
     1
 10
3.031144250328662
 20
0.3865765014202565
 11
3.162769261318015
 21
0.3865765014202565
 97
        0
 92
       16
 93
        6
 72
     2
 10
3.151988118650169
 20
0.3542325296657216
 40
0.0107811426682361
 50
270.0004882627443
 51
360.0004882669015
 73
     0
 72
     1
 10
3.162769261318015
 20
0.3542324377902786
 11
3.162769261318015
 21
0.333044848948566
 72
     2
 10
3.151988118650169
 20
0.333044757073123
 40
0.0107811426682367
 50
359.9995117330984
 51
449.9995117372556
 73
     0
 72
     1
 10
3.15198821052483
 20
0.3222636144052784
 11
3.052707420665665
 21
0.3222638825303419
 72
     1
 10
3.052707420665665
 20
0.3222638825303419
 11
3.052707420665665
 21
0.3650136723335662
 72
     1
 10
3.052707420665665
 20
0.3650136723335662
 11
3.15198821052483
 21
0.3650136723335662
 97
        0
 75
     0
 76
     1
 98
        1
 10
-7.279586802153931
 20
-0.4081141432880261
  0
HATCH
  5
850
330
841
100
AcDbEntity
  8
TITLEBLOCK
 62
     0
100
AcDbHatch
 10
0.0
 20
0.0
 30
0.0
210
0.0
220
0.0
230
1.0
  2
SOLID
 70
     1
 71
     0
 91
        1
 92
        1
 93
        9
 72
     1
 10
3.556847887515953
 20
0.3865763232950938
 11
3.525206566844968
 21
0.3865765014202565
 72
     1
 10
3.525206566844968
 20
0.3865765014202565
 11
3.60348814923547
 21
0.3136817019238036
 72
     1
 10
3.60348814923547
 20
0.3136817019238036
 11
3.603486349234383
 21
0.2579511736405264
 72
     1
 10
3.603486349234383
 20
0.2579511736405264
 11
3.625050607072164
 21
0.2579511736405264
 72
     1
 10
3.625050607072164
 20
0.2579511736405264
 11
3.625050607072164
 21
0.3136813437984982
 72
     1
 10
3.625050607072164
 20
0.3136813437984982
 11
3.703331833212512
 21
0.3865766795454191
 72
     1
 10
3.703331833212512
 20
0.3865766795454191
 11
3.671691225042007
 21
0.3865765014202565
 72
     1
 10
3.671691225042007
 20
0.3865765014202565
 11
3.61426955627898
 21
0.3331056458632473
 72
     1
 10
3.61426955627898
 20
0.3331056458632473
 11
3.556847887515953
 21
0.3865763232950938
 97
        0
 75
     0
 76
     1
 98
        1
 10
-7.279586802153931
 20
-0.4081141432880261
  0
HATCH
  5
851
330
841
100
AcDbEntity
  8
TITLEBLOCK
 62
     0
100
AcDbHatch
 10
0.0
 20
0.0
 30
0.0
210
0.0
220
0.0
230
1.0
  2
SOLID
 70
     1
 71
     0
 91
        1
 92
        1
 93
       10
 72
     1
 10
3.376247484495632
 20
0.3865765014202565
 11
3.345207161752892
 21
0.3865765014202565
 72
     1
 10
3.345207161752892
 20
0.3865765014202565
 11
3.345207161752892
 21
0.2579511736405264
 72
     1
 10
3.345207161752892
 20
0.2579511736405264
 11
3.366769638339558
 21
0.2579511736405264
 72
     1
 10
3.366769638339558
 20
0.2579511736405264
 11
3.366769638339558
 21
0.3659393041881229
 72
     1
 10
3.366769638339558
 20
0.3659393041881229
 11
3.48273627034943
 21
0.2579509955155343
 72
     1
 10
3.48273627034943
 20
0.2579509955155343
 11
3.515082122730785
 21
0.2579511736405264
 72
     1
 10
3.515082122730785
 20
0.2579511736405264
 11
3.515082122730785
 21
0.3865765014202565
 72
     1
 10
3.515082122730785
 20
0.3865765014202565
 11
3.49351767739277
 21
0.3865765014202565
 72
     1
 10
3.49351767739277
 20
0.3865765014202565
 11
3.49351767739277
 21
0.277374671329744
 72
     1
 10
3.49351767739277
 20
0.277374671329744
 11
3.376247484495632
 21
0.3865765014202565
 97
        0
 75
     0
 76
     1
 98
        1
 10
-7.279586802153931
 20
-0.4081141432880261
  0
ENDBLK
  5
853
330
841
100
AcDbEntity
  8
0
100
AcDbBlockEnd
  0
BLOCK
  5
AF5
330
AE5
100
AcDbEntity
  8
0
100
AcDbBlockBegin
  2
TITLE-PAD
 70
     2
 10
0.0
 20
0.0
 30
0.0
  3
TITLE-PAD
  1

  0
LWPOLYLINE
  5
B1D
330
AE5
100
AcDbEntity
  8
CONTINUOUS2
 62
     0
100
AcDbPolyline
 90
        7
 70
     1
 43
0.0
 10
16.40000099999999
 20
0.0
 10
16.40000099999999
 20
0.0
 10
16.40000099999999
 20
0.0
 10
8.002461
 20
0.0
 10
8.002461
 20
0.9120019999999993
 10
16.40000099999999
 20
0.9120019999999993
 10
16.40000099999999
 20
0.0
  0
INSERT
  5
B1E
330
AE5
100
AcDbEntity
  8
TITLEBLOCK
 62
     0
100
AcDbBlockReference
  2
LOGO-PAD
 10
12.245701
 20
0.3040000000000003
 30
0.0
  0
LINE
  5
B1F
330
AE5
100
AcDbEntity
  8
CONTINUOUS2
 62
     0
100
AcDbLine
 10
16.40000099999999
 20
0.3040000000000003
 30
0.0
 11
12.245701
 21
0.3040000000000003
 31
0.0
  0
LINE
  5
B20
330
AE5
100
AcDbEntity
  8
CONTINUOUS2
 62
     0
100
AcDbLine
 10
12.245701
 20
0.9120019999999993
 30
0.0
 11
12.245701
 21
0.0
 31
0.0
  0
TEXT
  5
B21
330
AE5
100
AcDbEntity
  8
TEXT1
  6
CONTINUOUS
 62
     0
100
AcDbText
 10
12.36897712113656
 20
0.0611566731182909
 30
0.0
 40
0.0699999951940822
  1
NO.
  7
ROMANS
 11
12.36897712113656
 21
0.096156670715332
 31
0.0
100
AcDbText
 73
     2
  0
TEXT
  5
B22
330
AE5
100
AcDbEntity
  8
TEXT1
  6
CONTINUOUS
 62
     0
100
AcDbText
 10
12.36897712113656
 20
0.1661566731182908
 30
0.0
 40
0.0699999951940822
  1
DWG#
  7
ROMANS
 11
12.36897712113656
 21
0.2011566707153319
 31
0.0
100
AcDbText
 73
     2
  0
ATTDEF
  5
B23
330
AE5
100
AcDbEntity
  8
TEXT1
 62
     0
100
AcDbText
 10
10.10183834893798
 20
0.7474460884590166
 30
0.0
 40
0.1
  1

  7
ROMANS
 72
     4
 11
10.10183834893798
 21
0.7474460884590166
 31
0.0
100
AcDbAttributeDefinition
  3
DESCRIPTION 1
  2
DESCRIPTION 1
 70
     0
  0
ATTDEF
  5
B24
330
AE5
100
AcDbEntity
  8
TEXT1
 62
     0
100
AcDbText
 10
10.10183834893798
 20
0.6017231711406717
 30
0.0
 40
0.1
  1

  7
ROMANS
 72
     4
 11
10.10183834893798
 21
0.6017231711406717
 31
0.0
100
AcDbAttributeDefinition
  3
DESCRIPTION 2
  2
DESCRIPTION 2
 70
     0
  0
ATTDEF
  5
B25
330
AE5
100
AcDbEntity
  8
TEXT1
 62
     0
100
AcDbText
 10
10.10183834893798
 20
0.4560002538223267
 30
0.0
 40
0.08
  1

  7
ROMANS
 72
     4
 11
10.10183834893798
 21
0.4560002538223267
 31
0.0
100
AcDbAttributeDefinition
  3
DESCRIPTION 3
  2
DESCRIPTION 3
 70
     0
  0
ATTDEF
  5
B26
330
AE5
100
AcDbEntity
  8
TEXT1
 62
     0
100
AcDbText
 10
10.10183834893798
 20
0.3202773365039833
 30
0.0
 40
0.08
  1

  7
ROMANS
 72
     4
 11
10.10183834893798
 21
0.3202773365039833
 31
0.0
100
AcDbAttributeDefinition
  3
DESCRIPTION 4
  2
DESCRIPTION 4
 70
     0
  0
ATTDEF
  5
B27
330
AE5
100
AcDbEntity
  8
TEXT1
 62
     0
100
AcDbText
 10
10.10183834893798
 20
0.1845544191856399
 30
0.0
 40
0.08
  1

  7
ROMANS
 72
     4
 11
10.10183834893798
 21
0.1845544191856399
 31
0.0
100
AcDbAttributeDefinition
  3
DESCRIPTION 5
  2
DESCRIPTION 5
 70
     0
  0
ATTDEF
  5
B28
330
AE5
100
AcDbEntity
  8
TEXT1
 62
     0
100
AcDbText
 10
12.74772367103195
 20
0.096540546036505
 30
0.0
 40
0.12
  1

 41
0.9512024731840066
  7
M_STANDARD
 11
12.74772367103195
 21
0.156540546036505
 31
0.0
100
AcDbAttributeDefinition
  3
DRAWING NUMBER
  2
DWGNO
 70
     0
 74
     2
  0
ATTDEF
  5
B29
330
AE5
100
AcDbEntity
  8
TEXT1
 62
     0
100
AcDbText
 10
16.35506454949325
 20
-0.1507193079929352
 30
0.0
 40
0.08
  1

  7
ROMANS
 72
     2
 11
16.35506454949325
 21
-0.1107193079929352
 31
0.0
100
AcDbAttributeDefinition
  3
REF DWG #
  2
REF
 70
     0
 74
     2
  0
ATTDEF
  5
B2A
330
AE5
100
AcDbEntity
  8
TEXT1
 62
     0
100
AcDbText
 10
0.0266402374038712
 20
-0.1507193079929352
 30
0.0
 40
0.08
  1

  7
ROMANS
 11
0.0266402374038712
 21
-0.1107193079929352
 31
0.0
100
AcDbAttributeDefinition
  3
DATE MODIFIED
  2
DATE
 70
     0
 74
     2
  0
LWPOLYLINE
  5
B2B
330
AE5
100
AcDbEntity
  8
CONTINUOUS3
 62
     0
100
AcDbPolyline
 90
        4
 70
   129
 43
0.0
 10
0.0
 20
0.0
 10
16.40000099999999
 20
0.0
 10
16.40000099999999
 20
10.25
 10
0.0
 20
10.25
  0
ENDBLK
  5
AF6
330
AE5
100
AcDbEntity
  8
0
100
AcDbBlockEnd
  0
BLOCK
  5
E0F
330
E0D
100
AcDbEntity
  8
0
100
AcDbBlockBegin
  2
SEARROW
 70
     0
 10
0.0
 20
0.0
 30
0.0
  3
SEARROW
  1

  0
LWPOLYLINE
  5
E0E
330
E0D
100
AcDbEntity
  8
0
  6
BYBLOCK
100
AcDbPolyline
 90
        2
 70
     0
 10
0.0
 20
0.0
 40
0.0
 41
0.5000000001500001
 10
-1.000000000300019
 20
0.0
 40
0.5000000001500001
 41
0.5000000001500001
  0
ENDBLK
  5
E10
330
E0D
100
AcDbEntity
  8
0
100
AcDbBlockEnd
  0
BLOCK
  5
F4E
330
F4C
100
AcDbEntity
  8
0
100
AcDbBlockBegin
  2
M_PFN_2
 70
     0
 10
0.0
 20
0.0
 30
0.0
  3
M_PFN_2
  1

  0
POINT
  5
F4D
330
F4C
100
AcDbEntity
  8
0
  6
BYBLOCK
 62
     0
100
AcDbPoint
 10
0.0
 20
0.0
 30
0.0
  0
ENDBLK
  5
F4F
330
F4C
100
AcDbEntity
  8
0
100
AcDbBlockEnd
  0
BLOCK
  5
1517
330
150C
100
AcDbEntity
  8
0
100
AcDbBlockBegin
  2
*D4
 70
     1
 10
0.0
 20
0.0
 30
0.0
  3
*D4
  1

  0
LINE
  5
3122
330
150C
100
AcDbEntity
  8
DIM
100
AcDbLine
 10
29.70282014547574
 20
64.53270049215409
 30
0.0
 11
29.70282014547574
 21
76.38157858505798
 31
0.0
  0
LINE
  5
3123
330
150C
100
AcDbEntity
  8
DIM
100
AcDbLine
 10
47.45282014547574
 20
64.53270049215411
 30
0.0
 11
47.45282014547574
 21
76.38157858505798
 31
0.0
  0
LINE
  5
3124
330
150C
100
AcDbEntity
  8
DIM
100
AcDbLine
 10
30.26282014547574
 20
75.88157858505798
 30
0.0
 11
36.69627534397867
 21
75.88157858505798
 31
0.0
  0
LINE
  5
3125
330
150C
100
AcDbEntity
  8
DIM
100
AcDbLine
 10
46.89282014547574
 20
75.88157858505798
 30
0.0
 11
41.14579915350248
 21
75.88157858505798
 31
0.0
  0
INSERT
  5
3126
330
150C
100
AcDbEntity
  8
DIM
100
AcDbBlockReference
  2
SEARROW
 10
29.70282014547574
 20
75.88157858505798
 30
0.0
 41
0.5600000000000001
 42
0.5600000000000001
 43
0.5600000000000001
 50
180.0
  0
INSERT
  5
3127
330
150C
100
AcDbEntity
  8
DIM
100
AcDbBlockReference
  2
SEARROW
 10
47.45282014547574
 20
75.88157858505798
 30
0.0
 41
0.5600000000000001
 42
0.5600000000000001
 43
0.5600000000000001
  0
MTEXT
  5
3128
330
150C
100
AcDbEntity
  8
DIM
100
AcDbMText
 10
38.92103724874058
 20
75.88157858505798
 30
0.0
 40
0.8
 41
0.0
 71
     5
 72
     1
  1
\A1;\P17.75\P [451]
  7
ROMANS
1001
ACAD
1000
MTEXTBEGIN
1070
    73
1070
     1
1070
    44
1040
1.0
1070
    74
1070
     0
1000
MTEXTEND
  0
POINT
  5
3129
330
150C
100
AcDbEntity
  8
DEFPOINTS
 62
     0
100
AcDbPoint
 10
29.70282014547574
 20
64.03270049215409
 30
0.0
  0
POINT
  5
312A
330
150C
100
AcDbEntity
  8
DEFPOINTS
 62
     0
100
AcDbPoint
 10
47.45282014547574
 20
64.03270049215411
 30
0.0
  0
POINT
  5
312B
330
150C
100
AcDbEntity
  8
DEFPOINTS
 62
     0
100
AcDbPoint
 10
47.45282014547574
 20
75.88157858505798
 30
0.0
  0
ENDBLK
  5
1518
330
150C
100
AcDbEntity
  8
0
100
AcDbBlockEnd
  0
BLOCK
  5
154D
330
1542
100
AcDbEntity
  8
0
100
AcDbBlockBegin
  2
*D5
 70
     1
 10
0.0
 20
0.0
 30
0.0
  3
*D5
  1

  0
LINE
  5
312C
330
1542
100
AcDbEntity
  8
DIM
100
AcDbLine
 10
32.20282014547574
 20
64.815231757411
 30
0.0
 11
32.20282014547574
 21
68.76591542142574
 31
0.0
  0
LINE
  5
312D
330
1542
100
AcDbEntity
  8
DIM
100
AcDbLine
 10
35.95282014172573
 20
64.95698175726925
 30
0.0
 11
35.95282014172573
 21
68.76591542142574
 31
0.0
  0
LINE
  5
312E
330
1542
100
AcDbEntity
  8
DIM
100
AcDbLine
 10
31.64282014547574
 20
68.26591542142574
 30
0.0
 11
31.08282014547574
 21
68.26591542142574
 31
0.0
  0
LINE
  5
312F
330
1542
100
AcDbEntity
  8
DIM
100
AcDbLine
 10
36.51282014172574
 20
68.26591542142574
 30
0.0
 11
37.07282014172573
 21
68.26591542142574
 31
0.0
  0
INSERT
  5
3130
330
1542
100
AcDbEntity
  8
DIM
100
AcDbBlockReference
  2
SEARROW
 10
32.20282014547574
 20
68.26591542142574
 30
0.0
 41
0.5600000000000001
 42
0.5600000000000001
 43
0.5600000000000001
  0
INSERT
  5
3131
330
1542
100
AcDbEntity
  8
DIM
100
AcDbBlockReference
  2
SEARROW
 10
35.95282014172573
 20
68.26591542142574
 30
0.0
 41
0.5600000000000001
 42
0.5600000000000001
 43
0.5600000000000001
 50
180.0
  0
MTEXT
  5
3132
330
1542
100
AcDbEntity
  8
DIM
100
AcDbMText
 10
33.68828468975114
 20
68.26591542142574
 30
0.0
 40
0.8
 41
0.0
 71
     5
 72
     1
  1
\A1;\P3.75\P [95]
  7
ROMANS
1001
ACAD
1000
MTEXTBEGIN
1070
    73
1070
     1
1070
    44
1040
1.0
1070
    74
1070
     0
1000
MTEXTEND
  0
POINT
  5
3133
330
1542
100
AcDbEntity
  8
DEFPOINTS
 62
     0
100
AcDbPoint
 10
32.20282014547574
 20
64.315231757411
 30
0.0
  0
POINT
  5
3134
330
1542
100
AcDbEntity
  8
DEFPOINTS
 62
     0
100
AcDbPoint
 10
35.95282014172573
 20
64.45698175726924
 30
0.0
  0
POINT
  5
3135
330
1542
100
AcDbEntity
  8
DEFPOINTS
 62
     0
100
AcDbPoint
 10
35.95282014172573
 20
68.26591542142574
 30
0.0
  0
ENDBLK
  5
154E
330
1542
100
AcDbEntity
  8
0
100
AcDbBlockEnd
  0
BLOCK
  5
1597
330
158C
100
AcDbEntity
  8
0
100
AcDbBlockBegin
  2
*D6
 70
     1
 10
0.0
 20
0.0
 30
0.0
  3
*D6
  1

  0
LINE
  5
3136
330
158C
100
AcDbEntity
  8
DIM
100
AcDbLine
 10
41.20282014922572
 20
64.815231757411
 30
0.0
 11
41.20282014922572
 21
68.46128884623763
 31
0.0
  0
LINE
  5
3137
330
158C
100
AcDbEntity
  8
DIM
100
AcDbLine
 10
44.95282014547572
 20
64.95698175726925
 30
0.0
 11
44.95282014547572
 21
68.46128884623763
 31
0.0
  0
LINE
  5
3138
330
158C
100
AcDbEntity
  8
DIM
100
AcDbLine
 10
40.64282014922572
 20
67.96128884623763
 30
0.0
 11
40.08282014922573
 21
67.96128884623763
 31
0.0
  0
LINE
  5
3139
330
158C
100
AcDbEntity
  8
DIM
100
AcDbLine
 10
45.51282014547573
 20
67.96128884623763
 30
0.0
 11
46.07282014547572
 21
67.96128884623763
 31
0.0
  0
INSERT
  5
313A
330
158C
100
AcDbEntity
  8
DIM
100
AcDbBlockReference
  2
SEARROW
 10
41.20282014922572
 20
67.96128884623763
 30
0.0
 41
0.5600000000000001
 42
0.5600000000000001
 43
0.5600000000000001
  0
INSERT
  5
313B
330
158C
100
AcDbEntity
  8
DIM
100
AcDbBlockReference
  2
SEARROW
 10
44.95282014547572
 20
67.96128884623763
 30
0.0
 41
0.5600000000000001
 42
0.5600000000000001
 43
0.5600000000000001
 50
180.0
  0
MTEXT
  5
313C
330
158C
100
AcDbEntity
  8
DIM
100
AcDbMText
 10
42.68828469350113
 20
67.96128884623763
 30
0.0
 40
0.8
 41
0.0
 71
     5
 72
     1
  1
\A1;\P3.75\P [95]
  7
ROMANS
1001
ACAD
1000
MTEXTBEGIN
1070
    73
1070
     1
1070
    44
1040
1.0
1070
    74
1070
     0
1000
MTEXTEND
  0
POINT
  5
313D
330
158C
100
AcDbEntity
  8
DEFPOINTS
 62
     0
100
AcDbPoint
 10
41.20282014922572
 20
64.315231757411
 30
0.0
  0
POINT
  5
313E
330
158C
100
AcDbEntity
  8
DEFPOINTS
 62
     0
100
AcDbPoint
 10
44.95282014547572
 20
64.45698175726924
 30
0.0
  0
POINT
  5
313F
330
158C
100
AcDbEntity
  8
DEFPOINTS
 62
     0
100
AcDbPoint
 10
44.95282014547572
 20
67.96128884623763
 30
0.0
  0
ENDBLK
  5
1598
330
158C
100
AcDbEntity
  8
0
100
AcDbBlockEnd
  0
BLOCK
  5
15AF
330
15A4
100
AcDbEntity
  8
0
100
AcDbBlockBegin
  2
*D7
 70
     1
 10
0.0
 20
0.0
 30
0.0
  3
*D7
  1

  0
LINE
  5
3140
330
15A4
100
AcDbEntity
  8
DIM
100
AcDbLine
 10
29.70282014547574
 20
64.53270049215409
 30
0.0
 11
29.70282014547574
 21
72.55682325958066
 31
0.0
  0
LINE
  5
3141
330
15A4
100
AcDbEntity
  8
DIM
100
AcDbLine
 10
32.20282014547574
 20
65.31523175741099
 30
0.0
 11
32.20282014547574
 21
72.55682325958066
 31
0.0
  0
LINE
  5
3142
330
15A4
100
AcDbEntity
  8
DIM
100
AcDbLine
 10
30.26282014547574
 20
72.05682325958065
 30
0.0
 11
31.64282014547574
 21
72.05682325958065
 31
0.0
  0
LINE
  5
3143
330
15A4
100
AcDbEntity
  8
DIM
100
AcDbLine
 10
32.20282014547574
 20
72.05682325958065
 30
0.0
 11
32.82100832324549
 21
72.05682325958065
 31
0.0
  0
INSERT
  5
3144
330
15A4
100
AcDbEntity
  8
DIM
100
AcDbBlockReference
  2
SEARROW
 10
29.70282014547574
 20
72.05682325958065
 30
0.0
 41
0.5600000000000001
 42
0.5600000000000001
 43
0.5600000000000001
 50
180.0
  0
INSERT
  5
3145
330
15A4
100
AcDbEntity
  8
DIM
100
AcDbBlockReference
  2
SEARROW
 10
32.20282014547574
 20
72.05682325958065
 30
0.0
 41
0.5600000000000001
 42
0.5600000000000001
 43
0.5600000000000001
  0
MTEXT
  5
3146
330
15A4
100
AcDbEntity
  8
DIM
100
AcDbMText
 10
34.66481784705502
 20
72.05682325958065
 30
0.0
 40
0.8
 41
0.0
 71
     5
 72
     1
  1
\A1;\P2.50\P [64]
  7
ROMANS
1001
ACAD
1000
MTEXTBEGIN
1070
    73
1070
     1
1070
    44
1040
1.0
1070
    74
1070
     0
1000
MTEXTEND
  0
POINT
  5
3147
330
15A4
100
AcDbEntity
  8
DEFPOINTS
 62
     0
100
AcDbPoint
 10
29.70282014547574
 20
64.03270049215409
 30
0.0
  0
POINT
  5
3148
330
15A4
100
AcDbEntity
  8
DEFPOINTS
 62
     0
100
AcDbPoint
 10
32.20282014547574
 20
64.815231757411
 30
0.0
  0
POINT
  5
3149
330
15A4
100
AcDbEntity
  8
DEFPOINTS
 62
     0
100
AcDbPoint
 10
32.20282014547574
 20
72.05682325958065
 30
0.0
  0
ENDBLK
  5
15B0
330
15A4
100
AcDbEntity
  8
0
100
AcDbBlockEnd
  0
BLOCK
  5
15E5
330
15DA
100
AcDbEntity
  8
0
100
AcDbBlockBegin
  2
*D8
 70
     1
 10
0.0
 20
0.0
 30
0.0
  3
*D8
  1

  0
LINE
  5
314A
330
15DA
100
AcDbEntity
  8
DIM
100
AcDbLine
 10
44.95282014547572
 20
64.95698175726925
 30
0.0
 11
44.95282014547572
 21
72.55682325958066
 31
0.0
  0
LINE
  5
314B
330
15DA
100
AcDbEntity
  8
DIM
100
AcDbLine
 10
47.45282014547574
 20
64.53270049215411
 30
0.0
 11
47.45282014547574
 21
72.55682325958066
 31
0.0
  0
LINE
  5
314C
330
15DA
100
AcDbEntity
  8
DIM
100
AcDbLine
 10
46.89282014547574
 20
72.05682325958065
 30
0.0
 11
45.51282014547573
 21
72.05682325958065
 31
0.0
  0
LINE
  5
314D
330
15DA
100
AcDbEntity
  8
DIM
100
AcDbLine
 10
44.95282014547572
 20
72.05682325958065
 30
0.0
 11
43.65051227594786
 21
72.05682325958065
 31
0.0
  0
INSERT
  5
314E
330
15DA
100
AcDbEntity
  8
DIM
100
AcDbBlockReference
  2
SEARROW
 10
47.45282014547574
 20
72.05682325958065
 30
0.0
 41
0.5600000000000001
 42
0.5600000000000001
 43
0.5600000000000001
  0
INSERT
  5
314F
330
15DA
100
AcDbEntity
  8
DIM
100
AcDbBlockReference
  2
SEARROW
 10
44.95282014547572
 20
72.05682325958065
 30
0.0
 41
0.5600000000000001
 42
0.5600000000000001
 43
0.5600000000000001
 50
180.0
  0
MTEXT
  5
3150
330
15DA
100
AcDbEntity
  8
DIM
100
AcDbMText
 10
41.80670275213834
 20
72.05682325958065
 30
0.0
 40
0.8
 41
0.0
 71
     5
 72
     1
  1
\A1;\P2.50\P [64]
  7
ROMANS
1001
ACAD
1000
MTEXTBEGIN
1070
    73
1070
     1
1070
    44
1040
1.0
1070
    74
1070
     0
1000
MTEXTEND
  0
POINT
  5
3151
330
15DA
100
AcDbEntity
  8
DEFPOINTS
 62
     0
100
AcDbPoint
 10
44.95282014547572
 20
64.45698175726924
 30
0.0
  0
POINT
  5
3152
330
15DA
100
AcDbEntity
  8
DEFPOINTS
 62
     0
100
AcDbPoint
 10
47.45282014547574
 20
64.03270049215411
 30
0.0
  0
POINT
  5
3153
330
15DA
100
AcDbEntity
  8
DEFPOINTS
 62
     0
100
AcDbPoint
 10
47.45282014547574
 20
72.05682325958065
 30
0.0
  0
ENDBLK
  5
15E6
330
15DA
100
AcDbEntity
  8
0
100
AcDbBlockEnd
  0
BLOCK
  5
169D
330
1692
100
AcDbEntity
  8
0
100
AcDbBlockBegin
  2
*D9
 70
     1
 10
0.0
 20
0.0
 30
0.0
  3
*D9
  1

  0
LINE
  5
3154
330
1692
100
AcDbEntity
  8
DIM
100
AcDbLine
 10
29.20282014547574
 20
64.03270049215409
 30
0.0
 11
26.1467307937123
 21
64.03270049215409
 31
0.0
  0
LINE
  5
3155
330
1692
100
AcDbEntity
  8
DIM
100
AcDbLine
 10
29.20282014547574
 20
35.03270049215409
 30
0.0
 11
26.14673079371229
 21
35.03270049215409
 31
0.0
  0
LINE
  5
3156
330
1692
100
AcDbEntity
  8
DIM
100
AcDbLine
 10
26.6467307937123
 20
63.47270049215408
 30
0.0
 11
26.6467307937123
 21
50.864668585193
 31
0.0
  0
LINE
  5
3157
330
1692
100
AcDbEntity
  8
DIM
100
AcDbLine
 10
26.64673079371229
 20
35.59270049215409
 30
0.0
 11
26.6467307937123
 21
47.67228763281204
 31
0.0
  0
INSERT
  5
3158
330
1692
100
AcDbEntity
  8
DIM
100
AcDbBlockReference
  2
SEARROW
 10
26.6467307937123
 20
64.03270049215409
 30
0.0
 41
0.5600000000000001
 42
0.5600000000000001
 43
0.5600000000000001
 50
90.0
  0
INSERT
  5
3159
330
1692
100
AcDbEntity
  8
DIM
100
AcDbBlockReference
  2
SEARROW
 10
26.64673079371229
 20
35.03270049215409
 30
0.0
 41
0.5600000000000001
 42
0.5600000000000001
 43
0.5600000000000001
 50
270.0
  0
MTEXT
  5
315A
330
1692
100
AcDbEntity
  8
DIM
100
AcDbMText
 10
26.64673079371229
 20
49.26847810900253
 30
0.0
 40
0.8
 41
0.0
 71
     5
 72
     1
  1
\A1;29.00\P [737]
  7
ROMANS
1001
ACAD
1000
MTEXTBEGIN
1070
    73
1070
     1
1070
    44
1040
1.0
1070
    74
1070
     0
1000
MTEXTEND
  0
POINT
  5
315B
330
1692
100
AcDbEntity
  8
DEFPOINTS
 62
     0
100
AcDbPoint
 10
29.70282014547574
 20
64.03270049215409
 30
0.0
  0
POINT
  5
315C
330
1692
100
AcDbEntity
  8
DEFPOINTS
 62
     0
100
AcDbPoint
 10
29.70282014547574
 20
35.03270049215409
 30
0.0
  0
POINT
  5
315D
330
1692
100
AcDbEntity
  8
DEFPOINTS
 62
     0
100
AcDbPoint
 10
26.64673079371229
 20
35.03270049215409
 30
0.0
  0
ENDBLK
  5
169E
330
1692
100
AcDbEntity
  8
0
100
AcDbBlockEnd
  0
BLOCK
  5
16BF
330
16B4
100
AcDbEntity
  8
0
100
AcDbBlockBegin
  2
*D10
 70
     1
 10
0.0
 20
0.0
 30
0.0
  3
*D10
  1

  0
LINE
  5
315E
330
16B4
100
AcDbEntity
  8
DIM
100
AcDbLine
 10
31.56107014561749
 20
64.31523175741101
 30
0.0
 11
21.13758934526563
 21
64.31523175741101
 31
0.0
  0
LINE
  5
315F
330
16B4
100
AcDbEntity
  8
DIM
100
AcDbLine
 10
31.70282014547577
 20
34.68523170244205
 30
0.0
 11
21.13758934526563
 21
34.68523170244205
 31
0.0
  0
LINE
  5
3160
330
16B4
100
AcDbEntity
  8
DIM
100
AcDbLine
 10
21.63758934526563
 20
63.75523175741101
 30
0.0
 11
21.63758934526563
 21
50.62864160487556
 31
0.0
  0
LINE
  5
3161
330
16B4
100
AcDbEntity
  8
DIM
100
AcDbLine
 10
21.63758934526563
 20
35.24523170244205
 30
0.0
 11
21.63758934526563
 21
47.4362606524946
 31
0.0
  0
INSERT
  5
3162
330
16B4
100
AcDbEntity
  8
DIM
100
AcDbBlockReference
  2
SEARROW
 10
21.63758934526563
 20
64.31523175741101
 30
0.0
 41
0.5600000000000001
 42
0.5600000000000001
 43
0.5600000000000001
 50
90.0
  0
INSERT
  5
3163
330
16B4
100
AcDbEntity
  8
DIM
100
AcDbBlockReference
  2
SEARROW
 10
21.63758934526563
 20
34.68523170244205
 30
0.0
 41
0.5600000000000001
 42
0.5600000000000001
 43
0.5600000000000001
 50
270.0
  0
MTEXT
  5
3164
330
16B4
100
AcDbEntity
  8
DIM
100
AcDbMText
 10
21.63758934526562
 20
49.0324511286851
 30
0.0
 40
0.8
 41
0.0
 71
     5
 72
     1
  1
\A1;29.63\P [753]
  7
ROMANS
1001
ACAD
1000
MTEXTBEGIN
1070
    73
1070
     1
1070
    44
1040
1.0
1070
    74
1070
     0
1000
MTEXTEND
  0
POINT
  5
3165
330
16B4
100
AcDbEntity
  8
DEFPOINTS
 62
     0
100
AcDbPoint
 10
32.06107014561749
 20
64.315231757411
 30
0.0
  0
POINT
  5
3166
330
16B4
100
AcDbEntity
  8
DEFPOINTS
 62
     0
100
AcDbPoint
 10
32.20282014547577
 20
34.68523170244205
 30
0.0
  0
POINT
  5
3167
330
16B4
100
AcDbEntity
  8
DEFPOINTS
 62
     0
100
AcDbPoint
 10
21.63758934526563
 20
34.68523170244205
 30
0.0
  0
ENDBLK
  5
16C0
330
16B4
100
AcDbEntity
  8
0
100
AcDbBlockEnd
  0
BLOCK
  5
16FF
330
16F4
100
AcDbEntity
  8
0
100
AcDbBlockBegin
  2
*D11
 70
     1
 10
0.0
 20
0.0
 30
0.0
  3
*D11
  1

  0
LINE
  5
3168
330
16F4
100
AcDbEntity
  8
DIM
100
AcDbLine
 10
31.7028201454836
 20
33.85270050824408
 30
0.0
 11
26.14673079371228
 21
33.85270050824408
 31
0.0
  0
LINE
  5
3169
330
16F4
100
AcDbEntity
  8
DIM
100
AcDbLine
 10
29.20282014547574
 20
35.03270049215409
 30
0.0
 11
26.14673079371228
 21
35.03270049215409
 31
0.0
  0
LINE
  5
316A
330
16F4
100
AcDbEntity
  8
DIM
100
AcDbLine
 10
26.64673079371228
 20
35.59270049215409
 30
0.0
 11
26.64673079371228
 21
36.15270049215409
 31
0.0
  0
LINE
  5
316B
330
16F4
100
AcDbEntity
  8
DIM
100
AcDbLine
 10
26.64673079371228
 20
33.29270050824407
 30
0.0
 11
26.64673079371228
 21
31.92650217566949
 31
0.0
  0
LINE
  5
316C
330
16F4
100
AcDbEntity
  8
DIM
100
AcDbLine
 10
26.64673079371228
 20
31.92650217566949
 30
0.0
 11
26.08673079371229
 21
31.92650217566949
 31
0.0
  0
INSERT
  5
316D
330
16F4
100
AcDbEntity
  8
DIM
100
AcDbBlockReference
  2
SEARROW
 10
26.64673079371228
 20
35.03270049215409
 30
0.0
 41
0.5600000000000001
 42
0.5600000000000001
 43
0.5600000000000001
 50
270.0
  0
INSERT
  5
316E
330
16F4
100
AcDbEntity
  8
DIM
100
AcDbBlockReference
  2
SEARROW
 10
26.64673079371228
 20
33.85270050824408
 30
0.0
 41
0.5600000000000001
 42
0.5600000000000001
 43
0.5600000000000001
 50
90.0
  0
MTEXT
  5
316F
330
16F4
100
AcDbEntity
  8
DIM
100
AcDbMText
 10
24.24292126990275
 20
31.92650217566949
 30
0.0
 40
0.8
 41
0.0
 71
     5
 72
     1
  1
\A1;\P1.18\P [30]
  7
ROMANS
1001
ACAD
1000
MTEXTBEGIN
1070
    73
1070
     1
1070
    44
1040
1.0
1070
    74
1070
     0
1000
MTEXTEND
  0
POINT
  5
3170
330
16F4
100
AcDbEntity
  8
DEFPOINTS
 62
     0
100
AcDbPoint
 10
32.20282014548359
 20
33.85270050824408
 30
0.0
  0
POINT
  5
3171
330
16F4
100
AcDbEntity
  8
DEFPOINTS
 62
     0
100
AcDbPoint
 10
29.70282014547574
 20
35.03270049215409
 30
0.0
  0
POINT
  5
3172
330
16F4
100
AcDbEntity
  8
DEFPOINTS
 62
     0
100
AcDbPoint
 10
26.64673079371228
 20
35.03270049215409
 30
0.0
  0
ENDBLK
  5
1700
330
16F4
100
AcDbEntity
  8
0
100
AcDbBlockEnd
  0
BLOCK
  5
1745
330
173A
100
AcDbEntity
  8
0
100
AcDbBlockBegin
  2
*D12
 70
     1
 10
0.0
 20
0.0
 30
0.0
  3
*D12
  1

  0
LINE
  5
3173
330
173A
100
AcDbEntity
  8
DIM
100
AcDbLine
 10
29.70282014547574
 20
34.53270049215409
 30
0.0
 11
29.70282014547574
 21
30.41296326859447
 31
0.0
  0
LINE
  5
3174
330
173A
100
AcDbEntity
  8
DIM
100
AcDbLine
 10
48.95282014547575
 20
50.47998993252189
 30
0.0
 11
48.95282014547575
 21
30.41296326859447
 31
0.0
  0
LINE
  5
3175
330
173A
100
AcDbEntity
  8
DIM
100
AcDbLine
 10
30.26282014547574
 20
30.91296326859446
 30
0.0
 11
37.10305824071383
 21
30.91296326859446
 31
0.0
  0
LINE
  5
3176
330
173A
100
AcDbEntity
  8
DIM
100
AcDbLine
 10
48.39282014547574
 20
30.91296326859446
 30
0.0
 11
41.55258205023764
 21
30.91296326859446
 31
0.0
  0
INSERT
  5
3177
330
173A
100
AcDbEntity
  8
DIM
100
AcDbBlockReference
  2
SEARROW
 10
29.70282014547574
 20
30.91296326859446
 30
0.0
 41
0.5600000000000001
 42
0.5600000000000001
 43
0.5600000000000001
 50
180.0
  0
INSERT
  5
3178
330
173A
100
AcDbEntity
  8
DIM
100
AcDbBlockReference
  2
SEARROW
 10
48.95282014547575
 20
30.91296326859446
 30
0.0
 41
0.5600000000000001
 42
0.5600000000000001
 43
0.5600000000000001
  0
MTEXT
  5
3179
330
173A
100
AcDbEntity
  8
DIM
100
AcDbMText
 10
39.32782014547574
 20
30.91296326859446
 30
0.0
 40
0.8
 41
0.0
 71
     5
 72
     1
  1
\A1;\P19.25\P [489]
  7
ROMANS
1001
ACAD
1000
MTEXTBEGIN
1070
    73
1070
     1
1070
    44
1040
1.0
1070
    74
1070
     0
1000
MTEXTEND
  0
POINT
  5
317A
330
173A
100
AcDbEntity
  8
DEFPOINTS
 62
     0
100
AcDbPoint
 10
29.70282014547574
 20
35.03270049215409
 30
0.0
  0
POINT
  5
317B
330
173A
100
AcDbEntity
  8
DEFPOINTS
 62
     0
100
AcDbPoint
 10
48.95282014547575
 20
50.97998993252189
 30
0.0
  0
POINT
  5
317C
330
173A
100
AcDbEntity
  8
DEFPOINTS
 62
     0
100
AcDbPoint
 10
48.95282014547575
 20
30.91296326859446
 30
0.0
  0
ENDBLK
  5
1746
330
173A
100
AcDbEntity
  8
0
100
AcDbBlockEnd
  0
BLOCK
  5
1786
330
177B
100
AcDbEntity
  8
0
100
AcDbBlockBegin
  2
*D13
 70
     1
 10
0.0
 20
0.0
 30
0.0
  3
*D13
  1

  0
LINE
  5
317D
330
177B
100
AcDbEntity
  8
DIM
100
AcDbLine
 10
74.452640774364
 20
34.51270049215411
 30
0.0
 11
74.452640774364
 21
30.41296326859447
 31
0.0
  0
LINE
  5
317E
330
177B
100
AcDbEntity
  8
DIM
100
AcDbLine
 10
83.33264077436396
 20
33.3527004933141
 30
0.0
 11
83.33264077436396
 21
30.41296326859447
 31
0.0
  0
LINE
  5
317F
330
177B
100
AcDbEntity
  8
DIM
100
AcDbLine
 10
75.012640774364
 20
30.91296326859446
 30
0.0
 11
76.32162469371515
 21
30.91296326859446
 31
0.0
  0
LINE
  5
3180
330
177B
100
AcDbEntity
  8
DIM
100
AcDbLine
 10
82.77264077436397
 20
30.91296326859446
 30
0.0
 11
80.77114850323896
 21
30.91296326859446
 31
0.0
  0
INSERT
  5
3181
330
177B
100
AcDbEntity
  8
DIM
100
AcDbBlockReference
  2
SEARROW
 10
74.452640774364
 20
30.91296326859446
 30
0.0
 41
0.5600000000000001
 42
0.5600000000000001
 43
0.5600000000000001
 50
180.0
  0
INSERT
  5
3182
330
177B
100
AcDbEntity
  8
DIM
100
AcDbBlockReference
  2
SEARROW
 10
83.33264077436396
 20
30.91296326859446
 30
0.0
 41
0.5600000000000001
 42
0.5600000000000001
 43
0.5600000000000001
  0
MTEXT
  5
3183
330
177B
100
AcDbEntity
  8
DIM
100
AcDbMText
 10
78.54638659847705
 20
30.91296326859446
 30
0.0
 40
0.8
 41
0.0
 71
     5
 72
     1
  1
\A1;8.88\P [226]
  7
ROMANS
1001
ACAD
1000
MTEXTBEGIN
1070
    73
1070
     1
1070
    44
1040
1.0
1070
    74
1070
     0
1000
MTEXTEND
  0
POINT
  5
3184
330
177B
100
AcDbEntity
  8
DEFPOINTS
 62
     0
100
AcDbPoint
 10
74.452640774364
 20
35.01270049215412
 30
0.0
  0
POINT
  5
3185
330
177B
100
AcDbEntity
  8
DEFPOINTS
 62
     0
100
AcDbPoint
 10
83.33264077436396
 20
33.8527004933141
 30
0.0
  0
POINT
  5
3186
330
177B
100
AcDbEntity
  8
DEFPOINTS
 62
     0
100
AcDbPoint
 10
83.33264077436396
 20
30.91296326859446
 30
0.0
  0
ENDBLK
  5
1787
330
177B
100
AcDbEntity
  8
0
100
AcDbBlockEnd
  0
BLOCK
  5
17F7
330
17F0
100
AcDbEntity
  8
0
100
AcDbBlockBegin
  2
*D14
 70
     1
 10
0.0
 20
0.0
 30
0.0
  3
*D14
  1

  0
LINE
  5
3187
330
17F0
100
AcDbEntity
  8
DIM
100
AcDbLine
 10
61.62266217318599
 20
64.50405013257371
 30
0.0
 11
60.35790026842414
 21
64.5040501325737
 31
0.0
  0
LINE
  5
3188
330
17F0
100
AcDbEntity
  8
DIM
100
AcDbLine
 10
60.35790026842414
 20
64.5040501325737
 30
0.0
 11
58.51456560416239
 21
66.03306631304862
 31
0.0
  0
MTEXT
  5
3189
330
17F0
100
AcDbEntity
  8
DIM
100
AcDbMText
 10
63.1617097922336
 20
64.50405013257371
 30
0.0
 40
0.8
 41
0.0
 71
     5
 72
     1
  1
\A1;R.25\P[6]
  7
ROMANS
1001
ACAD
1000
MTEXTBEGIN
1070
    73
1070
     1
1070
    44
1040
1.0
1070
    74
1070
     0
1000
MTEXTEND
  0
INSERT
  5
318A
330
17F0
100
AcDbEntity
  8
DIM
100
AcDbBlockReference
  2
SEARROW
 10
58.08354678447506
 20
66.39058942709208
 30
0.0
 41
0.5600000000000001
 42
0.5600000000000001
 43
0.5600000000000001
 50
140.3248444632533
  0
LINE
  5
318B
330
17F0
100
AcDbEntity
  8
DIM
100
AcDbLine
 10
56.49812917572895
 20
67.5397708435529
 30
0.0
 11
56.89812917572895
 21
67.5397708435529
 31
0.0
  0
LINE
  5
318C
330
17F0
100
AcDbEntity
  8
DIM
100
AcDbLine
 10
56.69812917572896
 20
67.3397708435529
 30
0.0
 11
56.69812917572896
 21
67.73977084355291
 31
0.0
  0
POINT
  5
318D
330
17F0
100
AcDbEntity
  8
DEFPOINTS
 62
     0
100
AcDbPoint
 10
58.08354678447506
 20
66.39058942709208
 30
0.0
  0
POINT
  5
318E
330
17F0
100
AcDbEntity
  8
DEFPOINTS
 62
     0
100
AcDbPoint
 10
56.69812917572897
 20
67.5397708435529
 30
0.0
  0
ENDBLK
  5
17F8
330
17F0
100
AcDbEntity
  8
0
100
AcDbBlockEnd
  0
BLOCK
  5
1800
330
17F9
100
AcDbEntity
  8
0
100
AcDbBlockBegin
  2
*D15
 70
     1
 10
0.0
 20
0.0
 30
0.0
  3
*D15
  1

  0
LINE
  5
318F
330
17F9
100
AcDbEntity
  8
DIM
100
AcDbLine
 10
61.52113263218916
 20
71.99529948893122
 30
0.0
 11
60.25637072742732
 21
71.99529948893122
 31
0.0
  0
LINE
  5
3190
330
17F9
100
AcDbEntity
  8
DIM
100
AcDbLine
 10
60.25637072742732
 20
71.99529948893122
 30
0.0
 11
57.76948278760828
 21
70.28305570794268
 31
0.0
  0
MTEXT
  5
3191
330
17F9
100
AcDbEntity
  8
DIM
100
AcDbMText
 10
63.06018025123677
 20
71.99529948893122
 30
0.0
 40
0.8
 41
0.0
 71
     5
 72
     1
  1
\A1;R.16\P[4]
  7
ROMANS
1001
ACAD
1000
MTEXTBEGIN
1070
    73
1070
     1
1070
    44
1040
1.0
1070
    74
1070
     0
1000
MTEXTEND
  0
INSERT
  5
3192
330
17F9
100
AcDbEntity
  8
DIM
100
AcDbBlockReference
  2
SEARROW
 10
57.30823660389276
 20
69.96548373498557
 30
0.0
 41
0.5600000000000001
 42
0.5600000000000001
 43
0.5600000000000001
 50
214.5477462639165
  0
LINE
  5
3193
330
17F9
100
AcDbEntity
  8
DIM
100
AcDbLine
 10
56.39659963473167
 20
69.47551554813745
 30
0.0
 11
56.79659963473168
 21
69.47551554813745
 31
0.0
  0
LINE
  5
3194
330
17F9
100
AcDbEntity
  8
DIM
100
AcDbLine
 10
56.59659963473169
 20
69.27551554813746
 30
0.0
 11
56.59659963473169
 21
69.67551554813745
 31
0.0
  0
POINT
  5
3195
330
17F9
100
AcDbEntity
  8
DEFPOINTS
 62
     0
100
AcDbPoint
 10
57.30823660389276
 20
69.96548373498557
 30
0.0
  0
POINT
  5
3196
330
17F9
100
AcDbEntity
  8
DEFPOINTS
 62
     0
100
AcDbPoint
 10
56.59659963473169
 20
69.47551554813745
 30
0.0
  0
ENDBLK
  5
1801
330
17F9
100
AcDbEntity
  8
0
100
AcDbBlockEnd
  0
BLOCK
  5
180E
330
1802
100
AcDbEntity
  8
0
100
AcDbBlockBegin
  2
*D16
 70
     1
 10
0.0
 20
0.0
 30
0.0
  3
*D16
  1

  0
LINE
  5
322D
330
1802
100
AcDbEntity
  8
DIM
100
AcDbLine
 10
56.0965996347317
 20
69.47551554813748
 30
0.0
 11
52.87593906924087
 21
69.47551554813748
 31
0.0
  0
LINE
  5
322E
330
1802
100
AcDbEntity
  8
DIM
100
AcDbLine
 10
56.19812917572896
 20
67.5397708435529
 30
0.0
 11
52.87593906924087
 21
67.5397708435529
 31
0.0
  0
LINE
  5
322F
330
1802
100
AcDbEntity
  8
DIM
100
AcDbLine
 10
53.37593906924087
 20
68.91551554813748
 30
0.0
 11
53.37593906924087
 21
68.0997708435529
 31
0.0
  0
LINE
  5
3230
330
1802
100
AcDbEntity
  8
DIM
100
AcDbLine
 10
52.81593906924086
 20
72.27065646476304
 30
0.0
 11
53.37593906924087
 21
72.27065646476304
 31
0.0
  0
LINE
  5
3231
330
1802
100
AcDbEntity
  8
DIM
100
AcDbLine
 10
53.37593906924087
 20
72.27065646476304
 30
0.0
 11
53.37593906924087
 21
69.47551554813748
 31
0.0
  0
MTEXT
  5
3232
330
1802
100
AcDbEntity
  8
DIM
100
AcDbMText
 10
51.67689145019324
 20
72.27065646476305
 30
0.0
 40
0.8
 41
0.0
 71
     5
 72
     1
  1
\A1;\P.25\P[6]
  7
ROMANS
  0
INSERT
  5
3233
330
1802
100
AcDbEntity
  8
DIM
100
AcDbBlockReference
  2
SEARROW
 10
53.37593906924087
 20
69.47551554813748
 30
0.0
 41
0.5600000000000001
 42
0.5600000000000001
 43
0.5600000000000001
 50
90.0
  0
INSERT
  5
3234
330
1802
100
AcDbEntity
  8
DIM
100
AcDbBlockReference
  2
SEARROW
 10
53.37593906924087
 20
67.5397708435529
 30
0.0
 41
0.5600000000000001
 42
0.5600000000000001
 43
0.5600000000000001
 50
270.0
  0
POINT
  5
3235
330
1802
100
AcDbEntity
  8
DEFPOINTS
 62
     0
100
AcDbPoint
 10
56.59659963473171
 20
69.47551554813748
 30
0.0
  0
POINT
  5
3236
330
1802
100
AcDbEntity
  8
DEFPOINTS
 62
     0
100
AcDbPoint
 10
56.69812917572896
 20
67.5397708435529
 30
0.0
  0
POINT
  5
3237
330
1802
100
AcDbEntity
  8
DEFPOINTS
 62
     0
100
AcDbPoint
 10
53.37593906924087
 20
67.5397708435529
 30
0.0
  0
ENDBLK
  5
180F
330
1802
100
AcDbEntity
  8
0
100
AcDbBlockEnd
  0
BLOCK
  5
1A70
330
1A6D
100
AcDbEntity
  8
0
100
AcDbBlockBegin
  2
__
 70
     0
 10
0.0
 20
0.0
 30
0.0
  3
__
  1

  0
MTEXT
  5
1DCD
330
1A6D
100
AcDbEntity
  8
TEXT1
100
AcDbMText
 10
-0.0005137343426327
 20
0.3673107473590278
 30
0.0
 40
0.6400000000000001
 41
0.5905000000000001
 71
     2
 72
     5
  1
+
  7
ROMANS
1001
ACAD
1000
MTEXTBEGIN
1070
    73
1070
     1
1070
    44
1040
1.0
1070
    74
1070
     0
1000
MTEXTEND
  0
MTEXT
  5
1DCE
330
1A6D
100
AcDbEntity
  8
TEXT1
100
AcDbMText
 10
0.0
 20
0.4121501508935808
 30
0.0
 40
0.6400000000000001
 41
0.5905000000000001
 71
     5
 72
     5
  1
+
  7
ROMANS
1001
ACAD
1000
MTEXTBEGIN
1070
    73
1070
     1
1070
    44
1040
1.0
1070
    74
1070
     0
1000
MTEXTEND
  0
ENDBLK
  5
1A71
330
1A6D
100
AcDbEntity
  8
0
100
AcDbBlockEnd
  0
ENDSEC
  0
SECTION
  2
ENTITIES
  0
TEXT
  5
1409
330
1F
100
AcDbEntity
  8
TEXT1
100
AcDbText
 10
3.085338055681958
 20
14.0
 30
0.0
 40
0.6400000000000001
  1
NOTES:
 41
1.017740901455129
  7
M_STANDARD
 11
3.085338055681958
 21
14.32
 31
0.0
100
AcDbText
 73
     2
  0
TEXT
  5
1426
330
1F
100
AcDbEntity
  8
TEXT1
100
AcDbText
 10
3.085338055681958
 20
12.24
 30
0.0
 40
0.6400000000000001
  1
UL LISTED - E2875
 41
0.8998200897376428
  7
M_STANDARD
 11
3.085338055681958
 21
12.56
 31
0.0
100
AcDbText
 73
     2
  0
TEXT
  5
1427
330
1F
100
AcDbEntity
  8
TEXT1
100
AcDbText
 10
3.066542505696034
 20
5.199999999999999
 30
0.0
 40
0.6400000000000001
  1
LUGS SUITABLE FOR 75°C CONDUCTORS.
 41
0.9113027676363094
  7
M_STANDARD
 11
3.066542505696034
 21
5.519999999999999
 31
0.0
100
AcDbText
 73
     2
  0
TEXT
  5
1428
330
1F
100
AcDbEntity
  8
TEXT1
100
AcDbText
 10
3.088233139542452
 20
6.959999999999999
 30
0.0
 40
0.6400000000000001
  1
   ON 600V SWITCHES, 100,000 AMPERES MAX ON CORNER GROUNDED DELTA WHEN PROTECTED BY
 41
0.8999178702414797
  7
M_STANDARD
 11
3.088233139542452
 21
7.28
 31
0.0
100
AcDbText
 73
     2
  0
TEXT
  5
142B
330
1F
100
AcDbEntity
  8
TEXT1
100
AcDbText
 10
3.088233139542452
 20
9.600000000000001
 30
0.0
 40
0.6400000000000001
  1
SHORT CIRCUIT CURRENT RATINGS:
 41
0.9206288780123115
  7
M_STANDARD
 11
3.088233139542452
 21
9.920000000000001
 31
0.0
100
AcDbText
 73
     2
  0
TEXT
  5
142E
330
1F
100
AcDbEntity
  8
TEXT1
100
AcDbText
 10
3.082442971821464
 20
13.12
 30
0.0
 40
0.6400000000000001
  1
FINISH - TYPE 304 STAINLESS STEEL
 41
0.8999531839427826
  7
M_STANDARD
 11
3.082442971821464
 21
13.44
 31
0.0
100
AcDbText
 73
     2
  0
LINE
  5
1433
330
1F
100
AcDbEntity
  8
CONTINUOUS1
100
AcDbLine
 10
32.20282014547575
 20
65.21270049099411
 30
0.0
 11
35.95282014172575
 21
65.21270049099408
 31
0.0
  0
LINE
  5
1434
330
1F
100
AcDbEntity
  8
CONTINUOUS1
100
AcDbLine
 10
32.20282014547575
 20
33.85270050824408
 30
0.0
 11
35.95282014172576
 21
33.85270050824411
 31
0.0
  0
LINE
  5
1435
330
1F
100
AcDbEntity
  8
CONTINUOUS1
100
AcDbLine
 10
44.95282014547575
 20
65.21270049099411
 30
0.0
 11
41.20282014922573
 21
65.21270049099408
 31
0.0
  0
LINE
  5
1436
330
1F
100
AcDbEntity
  8
CONTINUOUS1
100
AcDbLine
 10
44.95282014547576
 20
33.85270050824409
 30
0.0
 11
41.20282014922576
 21
33.85270050824411
 31
0.0
  0
LWPOLYLINE
  5
1437
330
1F
100
AcDbEntity
  8
CONTINUOUS1
100
AcDbPolyline
 90
        4
 70
   129
 43
0.0
 10
29.70282014547574
 20
64.03270049215409
 10
29.70282014547574
 20
35.03270049215409
 10
47.45123197374542
 20
35.03263733519795
 10
47.45282014547574
 20
64.03270049215411
  0
LWPOLYLINE
  5
1438
330
1F
100
AcDbEntity
  8
CONTINUOUS1
100
AcDbPolyline
 90
        4
 70
   128
 43
0.0
 10
75.16494574520888
 20
51.43523327753927
 10
75.16494574520888
 20
40.0908008075025
 10
75.84254380246213
 20
38.95985554175691
 10
75.84254380246213
 20
38.66454304205224
  0
LINE
  5
1439
330
1F
100
AcDbEntity
  8
CONTINUOUS1
100
AcDbLine
 10
75.68756115391716
 20
39.21852938352555
 30
0.0
 11
75.68693687154229
 21
38.66454304205224
 31
0.0
  0
LINE
  5
143A
330
1F
100
AcDbEntity
  8
CONTINUOUS1
100
AcDbLine
 10
75.68693687154229
 20
36.03567700800768
 30
0.0
 11
75.68693687154229
 21
35.59518409630313
 31
0.0
  0
LWPOLYLINE
  5
143B
330
1F
100
AcDbEntity
  8
CONTINUOUS1
100
AcDbPolyline
 90
        5
 70
   128
 43
0.0
 10
75.16494574520888
 20
63.87770049232909
 10
83.03747120590916
 20
63.87770049232909
 10
83.03747120590916
 20
35.30656503159136
 10
83.03747120590916
 20
35.30656503159136
 10
75.37906126170222
 20
35.30793784308636
  0
LWPOLYLINE
  5
143C
330
1F
100
AcDbEntity
  8
CONTINUOUS1
100
AcDbPolyline
 90
        8
 70
   128
 43
0.0
 10
83.03747120590916
 20
35.8237836063156
 10
83.21465870573197
 20
35.8237836063156
 10
83.21465870573197
 20
35.30481743183456
 10
83.33264077436396
 20
35.04518695084419
 10
83.33264077436396
 20
33.8527004933141
 10
83.1554532745412
 20
33.8527004933141
 10
83.15545327454117
 20
35.00681640713256
 10
83.03747120590916
 20
35.26644688812294
  0
LWPOLYLINE
  5
143D
330
1F
100
AcDbEntity
  8
CONTINUOUS1
100
AcDbPolyline
 90
        8
 70
   128
 43
0.0
 10
83.03747120590916
 20
63.73203431500215
 10
83.15545327454117
 20
63.99166479599251
 10
83.15545327454117
 20
65.21270049099411
 10
83.33264077436396
 20
65.21270049099411
 10
83.33264077436396
 20
63.9532942522809
 10
83.21465870573197
 20
63.69366377129053
 10
83.21465870573197
 20
62.88026009710392
 10
83.03747120590916
 20
62.88026009710392
  0
LWPOLYLINE
  5
143E
330
1F
100
AcDbEntity
  8
CONTINUOUS1
100
AcDbPolyline
 90
        4
 70
   129
 43
0.0
 10
75.3806957497741
 20
59.83342730266085
 10
75.3806957497741
 20
62.4622933367054
 10
79.35301399859898
 20
62.4622933367054
 10
79.35301399859898
 20
59.83342730266085
  0
LWPOLYLINE
  5
143F
330
1F
100
AcDbEntity
  8
CONTINUOUS1
100
AcDbPolyline
 90
        4
 70
   129
 43
0.0
 10
75.3806957497741
 20
36.03567700800768
 10
75.3806957497741
 20
38.66454304205224
 10
79.35301399859898
 20
38.66454304205224
 10
79.35301399859898
 20
36.03567700800768
  0
LWPOLYLINE
  5
1440
330
1F
100
AcDbEntity
  8
CONTINUOUS1
100
AcDbPolyline
 90
        7
 70
   128
 43
0.0
 10
32.49554190761058
 20
64.03270049215409
 42
0.2387852631121808
 10
32.34457014533399
 20
64.25273746372349
 10
32.34457014533399
 20
64.315231757411
 42
0.4142135623731244
 10
32.20282014547574
 20
64.45698175726924
 42
0.4142135623730951
 10
32.06107014561749
 20
64.315231757411
 10
32.06107014561749
 20
64.25273746372349
 42
0.2501399947578873
 10
31.91346780601776
 20
64.03270049215409
  0
LWPOLYLINE
  5
1441
330
1F
100
AcDbEntity
  8
CONTINUOUS1
100
AcDbPolyline
 90
        6
 70
   128
 43
0.0
 10
32.49699480676687
 20
35.03269306127544
 42
-0.297855822442191
 10
32.34457014533401
 20
34.74772605109849
 10
32.34457014533401
 20
34.68523175741099
 42
-1.000000387787947
 10
32.06107014561752
 20
34.68523175741099
 10
32.06107014561752
 20
34.74772605109849
 42
-0.2946466530637923
 10
31.90756676144375
 20
35.03269462881105
  0
LWPOLYLINE
  5
1442
330
1F
100
AcDbEntity
  8
CONTINUOUS1
100
AcDbPolyline
 90
        7
 70
   128
 43
0.0
 10
44.66009838334089
 20
64.03270049215411
 42
-0.2387852631122095
 10
44.81107014561747
 20
64.25273746372349
 10
44.81107014561747
 20
64.315231757411
 42
-0.4142135623730804
 10
44.95282014547572
 20
64.45698175726924
 42
-0.4142135623731098
 10
45.09457014533398
 20
64.315231757411
 10
45.09457014533398
 20
64.25273746372349
 42
-0.2501399947572259
 10
45.24217248493389
 20
64.03270049215411
  0
LWPOLYLINE
  5
1443
330
1F
100
AcDbEntity
  8
CONTINUOUS1
100
AcDbPolyline
 90
        3
 70
   128
 43
0.0
 10
44.65864123596844
 20
35.03264476186429
 42
0.2978111351829113
 10
44.81107014561749
 20
34.74772605109851
 10
44.81107014561749
 20
34.68523175741101
  0
LWPOLYLINE
  5
1444
330
1F
100
AcDbEntity
  8
CONTINUOUS1
100
AcDbPolyline
 90
        7
 70
   128
 43
0.0
 10
35.66009837959089
 20
64.03270049215409
 42
-0.2387852631121555
 10
35.81107014186748
 20
64.25273746372347
 10
35.81107014186748
 20
64.315231757411
 42
-0.4142135623730951
 10
35.95282014172573
 20
64.45698175726924
 42
-0.4142135623730951
 10
36.09457014158398
 20
64.315231757411
 10
36.09457014158398
 20
64.25273746372347
 42
-0.2501399947563607
 10
36.24217248118421
 20
64.03270049215409
  0
LWPOLYLINE
  5
1445
330
1F
100
AcDbEntity
  8
CONTINUOUS1
100
AcDbPolyline
 90
        6
 70
   128
 43
0.0
 10
35.65756675766722
 20
35.0326846559932
 42
0.294639889604675
 10
35.8110701418675
 20
34.74772605109851
 10
35.8110701418675
 20
34.685231757411
 42
0.9999997761105296
 10
36.09457014158401
 20
34.685231757411
 10
36.09457014158401
 20
34.74772605109851
 42
0.2978465953135654
 10
36.24699568083951
 20
35.03268308845525
  0
LWPOLYLINE
  5
1446
330
1F
100
AcDbEntity
  8
CONTINUOUS1
100
AcDbPolyline
 90
        7
 70
   128
 43
0.0
 10
41.49554191136057
 20
64.03270049215411
 42
0.2387852631121543
 10
41.34457014908398
 20
64.25273746372347
 10
41.34457014908398
 20
64.315231757411
 42
0.4142135623730804
 10
41.20282014922573
 20
64.45698175726924
 42
0.4142135623731098
 10
41.06107014936747
 20
64.315231757411
 10
41.06107014936747
 20
64.25273746372347
 42
0.2501399947568877
 10
40.91346780976743
 20
64.03270049215411
  0
LWPOLYLINE
  5
1447
330
1F
100
AcDbEntity
  8
CONTINUOUS1
100
AcDbPolyline
 90
        6
 70
   128
 43
0.0
 10
41.49807363949296
 20
35.03265316713494
 42
-0.2946182143320209
 10
41.344570149084
 20
34.74772605109851
 10
41.344570149084
 20
34.685231757411
 42
-1.000000223889282
 10
41.0610701493675
 20
34.685231757411
 10
41.0610701493675
 20
34.74772605109851
 42
-0.2978203620224456
 10
40.90864211623132
 20
35.03265473467981
  0
CIRCLE
  5
1448
330
1F
100
AcDbEntity
  8
CONTINUOUS1
100
AcDbCircle
 10
45.26673201631596
 20
34.71148174245472
 30
0.0
 40
0.1511678219470625
  0
LWPOLYLINE
  5
1449
330
1F
100
AcDbEntity
  8
CONTINUOUS1
100
AcDbPolyline
 90
        3
 70
   128
 43
0.0
 10
32.20282014547575
 20
65.21270049099411
 42
0.4142135907736273
 10
31.48343889619514
 20
64.49300237366788
 10
31.48343889619514
 20
64.0527004921541
  0
LWPOLYLINE
  5
144A
330
1F
100
AcDbEntity
  8
CONTINUOUS1
100
AcDbPolyline
 90
        3
 70
   128
 43
0.0
 10
32.20282014547575
 20
33.85270050824408
 42
-0.4142135907736474
 10
31.48343889619514
 20
34.5723986255703
 10
31.48343889619514
 20
35.01270050708409
  0
LWPOLYLINE
  5
144B
330
1F
100
AcDbEntity
  8
CONTINUOUS1
100
AcDbPolyline
 90
        3
 70
   128
 43
0.0
 10
44.95282014547575
 20
65.21270049099411
 42
-0.4142135907736388
 10
45.67220139475636
 20
64.49300237366788
 10
45.67220139475636
 20
64.0527004921541
  0
ARC
  5
144C
330
1F
100
AcDbEntity
  8
CONTINUOUS1
100
AcDbCircle
 10
44.95266174634592
 20
34.57224015666993
 30
0.0
 40
0.7195396658607926
100
AcDbArc
 50
270.0126130665746
 51
346.1398138421937
  0
LWPOLYLINE
  5
144D
330
1F
100
AcDbEntity
  8
CONTINUOUS1
100
AcDbPolyline
 90
        9
 70
   128
 43
0.0
 10
36.67220139100638
 20
64.0527004921541
 10
36.67220139100638
 20
64.49300237366788
 42
0.0581815900068717
 10
36.55425222114644
 20
64.78451655796556
 42
0.0330975687293727
 10
36.47471709702165
 20
64.90877055685327
 42
0.0369941447379325
 10
36.38386219676636
 20
65.01467760900414
 42
0.0417552320380815
 10
36.28382122750818
 20
65.09975051085065
 42
0.0470466783857936
 10
36.17694362916246
 20
65.16199134421197
 42
0.0520817834548381
 10
36.06573939835826
 20
65.19993839695806
 42
0.0556406831266778
 10
35.95282014172575
 20
65.21270049099411
  0
LWPOLYLINE
  5
144E
330
1F
100
AcDbEntity
  8
CONTINUOUS1
100
AcDbPolyline
 90
        9
 70
   128
 43
0.0
 10
36.67220139100638
 20
35.01270050708409
 10
36.67220139100638
 20
34.57239862557031
 42
-0.0581815861718156
 10
36.55425222114653
 20
34.28088338803142
 42
-0.0330976678318182
 10
36.47471709702176
 20
34.15662911790843
 42
-0.0369943332235459
 10
36.38386219676647
 20
34.05072197463245
 42
-0.0417555230932074
 10
36.2838212275083
 20
33.96564916391104
 42
-0.0470470666598435
 10
36.17694362916256
 20
33.90340860178502
 42
-0.0520822243304133
 10
36.06573939835831
 20
33.86546199401446
 42
-0.0556410846565707
 10
35.95282014172576
 20
33.85270050824409
  0
LWPOLYLINE
  5
144F
330
1F
100
AcDbEntity
  8
CONTINUOUS1
100
AcDbPolyline
 90
        9
 70
   128
 43
0.0
 10
40.48343889994511
 20
64.0527004921541
 10
40.48343889994511
 20
64.49300237366788
 42
-0.0581819535231551
 10
40.60138729818287
 20
64.78451655796563
 42
-0.0330977633735816
 10
40.68092222359613
 20
64.90877055685337
 42
-0.0369943312611067
 10
40.77177705709164
 20
65.01467760900425
 42
-0.041755383840566
 10
40.87181809310958
 20
65.09975051085075
 42
-0.0470467551850182
 10
40.97869589016684
 20
65.16199134421204
 42
-0.05208174041042
 10
41.08990044696758
 20
65.19993839695811
 42
-0.0556404974880898
 10
41.20282014922573
 20
65.21270049099411
  0
LWPOLYLINE
  5
1450
330
1F
100
AcDbEntity
  8
CONTINUOUS1
100
AcDbPolyline
 90
        9
 70
   128
 43
0.0
 10
40.48343889994513
 20
35.01270050708409
 10
40.48343889994513
 20
34.57239862557031
 42
0.0581819496858141
 10
40.60138729818287
 20
34.28088338803137
 42
0.0330978624756014
 10
40.68092222359615
 20
34.15662911790837
 42
0.0369945197466072
 10
40.77177705709166
 20
34.05072197463239
 42
0.0417556748955496
 10
40.8718180931096
 20
33.96564916391099
 42
0.0470471434581257
 10
40.97869589016684
 20
33.90340860178497
 42
0.0520821812835863
 10
41.08990044696761
 20
33.86546199401443
 42
0.0556408990147027
 10
41.20282014922576
 20
33.85270050824409
  0
TEXT
  5
1451
330
1F
100
AcDbEntity
  8
TEXT1
100
AcDbText
 10
43.93209123233579
 20
62.95221732941386
 30
0.0
 40
0.6400000000000001
  1
ON
 41
1.017740901455129
  7
M_STANDARD
 72
     1
 11
44.4903948125626
 21
63.27221732941386
 31
0.0
100
AcDbText
 73
     2
  0
TEXT
  5
1452
330
1F
100
AcDbEntity
  8
TEXT1
100
AcDbText
 10
43.65287383178269
 20
35.47318365489429
 30
0.0
 40
0.6400000000000001
  1
OFF
 41
1.017740901455129
  7
M_STANDARD
 72
     1
 11
44.47482076933883
 21
35.79318365489429
 31
0.0
100
AcDbText
 73
     2
  0
LWPOLYLINE
  5
1453
330
1F
100
AcDbEntity
  8
CONTINUOUS1
100
AcDbPolyline
 90
        4
 70
   128
 43
0.0
 10
44.81486760147638
 20
35.01270049215408
 10
44.81486760147638
 20
34.39987194693578
 10
45.71859643115555
 20
34.39987194693578
 10
45.71859643115555
 20
35.01270049215408
  0
LWPOLYLINE
  5
1454
330
1F
100
AcDbEntity
  8
CONTINUOUS1
100
AcDbPolyline
 90
        4
 70
   128
 43
0.0
 10
75.84254380246213
 20
59.83342730266085
 10
75.84254380246213
 20
59.53811480295619
 10
75.16494574520888
 20
58.48922612818933
 10
75.16494574520888
 20
52.50291349986563
  0
LINE
  5
1455
330
1F
100
AcDbEntity
  8
CONTINUOUS1
100
AcDbLine
 10
75.68279174712919
 20
59.29082642924289
 30
0.0
 11
75.68693687154229
 21
59.83342730266085
 31
0.0
  0
LINE
  5
1456
330
1F
100
AcDbEntity
  8
CONTINUOUS1
100
AcDbLine
 10
75.68279174712919
 20
62.4622933367054
 30
0.0
 11
75.68279174712919
 21
62.99753641086851
 31
0.0
  0
LWPOLYLINE
  5
1457
330
1F
100
AcDbEntity
  8
CONTINUOUS1
100
AcDbPolyline
 90
       10
 70
   128
 43
0.0
 10
75.83779104260057
 20
62.4622933367054
 10
75.8371244562083
 20
62.76318347910589
 10
75.16494574520888
 20
63.78388124648842
 10
75.16494574520888
 20
64.05270049215409
 10
74.452640774364
 20
64.05270049215409
 10
74.452640774364
 20
35.01270049215412
 10
75.16494574520888
 20
35.01270049215411
 10
75.16494574520883
 20
35.10816924205865
 10
75.84254380246213
 20
35.74036450830298
 10
75.84254380246213
 20
36.03567700800768
  0
LWPOLYLINE
  5
1458
330
1F
100
AcDbEntity
  8
CONTINUOUS1
100
AcDbPolyline
 90
        4
 70
   129
 43
0.0
 10
47.54701015450613
 20
59.83342730266085
 10
48.02512562045134
 20
59.83342730266085
 10
48.02512562045134
 20
62.46229333670541
 10
47.54701015450613
 20
62.46229333670541
  0
LWPOLYLINE
  5
1459
330
1F
100
AcDbEntity
  8
CONTINUOUS1
100
AcDbPolyline
 90
        4
 70
   129
 43
0.0
 10
47.54701015450613
 20
36.03567700800768
 10
48.02512562045134
 20
36.03567700800768
 10
48.02512562045134
 20
38.36923054234755
 10
47.54701015450613
 20
38.36923054234755
  0
LWPOLYLINE
  5
145A
330
1F
100
AcDbEntity
  8
CONTINUOUS1
100
AcDbPolyline
 90
        3
 70
   128
 43
0.0
 10
47.45282014547574
 20
62.83635583633139
 10
47.69863375358575
 20
62.83635583633139
 10
47.69863375358575
 20
62.46229333670541
  0
LWPOLYLINE
  5
145B
330
1F
100
AcDbEntity
  8
CONTINUOUS1
100
AcDbPolyline
 90
        3
 70
   128
 43
0.0
 10
47.45282014547574
 20
38.66454304205223
 10
47.69863375358575
 20
38.66454304205223
 10
47.69863375358575
 20
38.36923054234757
  0
LWPOLYLINE
  5
145C
330
1F
100
AcDbEntity
  8
CONTINUOUS1
100
AcDbPolyline
 90
        3
 70
   128
 43
0.0
 10
47.69863375358575
 20
59.83342730266085
 10
47.69863375358575
 20
59.53811480295619
 10
47.45282014547574
 20
59.53811480295619
  0
LWPOLYLINE
  5
145D
330
1F
100
AcDbEntity
  8
CONTINUOUS1
100
AcDbPolyline
 90
        3
 70
   128
 43
0.0
 10
47.69863375358575
 20
36.03567700800768
 10
47.69863375358575
 20
35.74036450830303
 10
47.45282014547574
 20
35.74036450830303
  0
LWPOLYLINE
  5
145E
330
1F
100
AcDbEntity
  8
CONTINUOUS1
100
AcDbPolyline
 90
        6
 70
   128
 43
0.0
 10
75.86055874194599
 20
35.3080129918588
 10
75.86055874194599
 20
35.18600175979097
 10
75.291469116553
 20
35.18600175979097
 10
75.291469116553
 20
34.39987194693579
 10
75.13971702289788
 20
34.39987194693579
 10
75.13971702289788
 20
35.01270049215411
  0
LWPOLYLINE
  5
1460
330
1F
100
AcDbEntity
  8
CONTINUOUS1
100
AcDbPolyline
 90
        4
 70
   129
 43
0.0
 10
47.88490305740643
 20
51.75035835699888
 10
48.95282014547575
 20
51.75035835699888
 10
48.95282014547575
 20
50.97998993252189
 10
47.88490305740642
 20
50.97998993252189
  0
LWPOLYLINE
  5
1461
330
1F
100
AcDbEntity
  8
CONTINUOUS1
100
AcDbPolyline
 90
        4
 70
   129
 43
0.0
 10
47.88490305740642
 20
51.89112282533766
 10
48.95282014547575
 20
51.89112282533766
 10
48.95282014547575
 20
51.75035835699888
 10
47.88490305740643
 20
51.75035835699888
  0
LINE
  5
1462
330
1F
100
AcDbEntity
  8
CONTINUOUS1
100
AcDbLine
 10
47.99309092686628
 20
53.4051106174084
 30
0.0
 11
47.97152909229873
 21
51.89112282533766
 31
0.0
  0
LINE
  5
1463
330
1F
100
AcDbEntity
  8
CONTINUOUS1
100
AcDbLine
 10
48.85493381544677
 20
51.89112282533766
 30
0.0
 11
48.84463227601591
 21
53.4051106174084
 31
0.0
  0
LWPOLYLINE
  5
1464
330
1F
100
AcDbEntity
  8
CONTINUOUS1
100
AcDbPolyline
 90
        6
 70
   128
 43
0.0
 10
48.85284845383256
 20
52.78937374106179
 10
48.93021934312444
 20
52.78937374106179
 10
48.93021934312444
 20
53.4051106174084
 10
47.90750385975774
 20
53.4051106174084
 10
47.90750385975774
 20
52.78937374106179
 10
47.97589754142253
 20
52.7895545840546
  0
LWPOLYLINE
  5
1465
330
1F
100
AcDbEntity
  8
CONTINUOUS1
100
AcDbPolyline
 90
        4
 70
   129
 43
0.0
 10
47.90750385975774
 20
53.54587508574717
 10
48.93021934312444
 20
53.54587508574717
 10
48.93021934312444
 20
53.4051106174084
 10
47.90750385975774
 20
53.4051106174084
  0
LWPOLYLINE
  5
1466
330
1F
100
AcDbEntity
  8
CONTINUOUS1
100
AcDbPolyline
 90
        6
 70
   128
 43
0.0
 10
48.15766204853225
 20
53.54587508574718
 10
48.15766204853225
 20
55.04018945830377
 10
47.45282014547574
 20
55.80293077668914
 10
47.45282014547574
 20
55.66983742467982
 10
48.0635508367956
 20
55.00120731803109
 10
48.0635508367956
 20
53.54587508574718
  0
LINE
  5
1467
330
1F
100
AcDbEntity
  8
CONTINUOUS1
100
AcDbLine
 10
47.45282014547574
 20
57.95918997540773
 30
0.0
 11
48.34088151216013
 21
57.95918997540773
 31
0.0
  0
LINE
  5
1468
330
1F
100
AcDbEntity
  8
CONTINUOUS1
100
AcDbLine
 10
47.45282014547574
 20
58.64424422601846
 30
0.0
 11
48.34088151216013
 21
58.64424422601846
 31
0.0
  0
LINE
  5
1469
330
1F
100
AcDbEntity
  8
CONTINUOUS1
100
AcDbLine
 10
48.15766204853225
 20
54.4848834248522
 30
0.0
 11
48.34088151216013
 21
54.4848834248522
 31
0.0
  0
LINE
  5
146A
330
1F
100
AcDbEntity
  8
CONTINUOUS1
100
AcDbLine
 10
47.45282014547574
 20
54.4848834248522
 30
0.0
 11
48.0635508367956
 21
54.4848834248522
 31
0.0
  0
LINE
  5
146B
330
1F
100
AcDbEntity
  8
CONTINUOUS1
100
AcDbLine
 10
48.15766204853225
 20
53.79989522306519
 30
0.0
 11
48.34088151216013
 21
53.79989522306519
 31
0.0
  0
LINE
  5
146C
330
1F
100
AcDbEntity
  8
CONTINUOUS1
100
AcDbLine
 10
47.45282014547574
 20
53.79989522306519
 30
0.0
 11
48.0635508367956
 21
53.79989522306519
 31
0.0
  0
LINE
  5
146D
330
1F
100
AcDbEntity
  8
CONTINUOUS1
100
AcDbLine
 10
48.34088151216013
 20
58.64424422601846
 30
0.0
 11
48.34088151216013
 21
53.54587508574718
 31
0.0
  0
LINE
  5
146E
330
1F
100
AcDbEntity
  8
CONTINUOUS1
100
AcDbLine
 10
76.00351370035409
 20
51.1665205577538
 30
0.0
 11
76.7015087319784
 21
52.83236395553991
 31
0.0
  0
LWPOLYLINE
  5
146F
330
1F
100
AcDbEntity
  8
CONTINUOUS1
100
AcDbPolyline
 90
        4
 70
   129
 43
0.0
 10
74.57773618159584
 20
51.75035835699887
 10
74.65327720990851
 20
51.89112282533765
 10
76.09320514278445
 20
51.11838778765921
 10
76.01325412619783
 20
50.97998993252187
  0
LWPOLYLINE
  5
1470
330
1F
100
AcDbEntity
  8
CONTINUOUS1
100
AcDbPolyline
 90
        4
 70
   129
 43
0.0
 10
75.63424262306276
 20
53.40511061740839
 10
75.70978365137538
 20
53.54587508574716
 10
76.85715847498497
 20
52.93013820940057
 10
76.78161744667233
 20
52.78937374106178
  0
LINE
  5
1471
330
1F
100
AcDbEntity
  8
CONTINUOUS1
100
AcDbLine
 10
74.7429686523389
 20
51.84299005524309
 30
0.0
 11
75.71435133775668
 21
53.36212040293024
 31
0.0
  0
LINE
  5
1472
330
1F
100
AcDbEntity
  8
CONTINUOUS1
100
AcDbLine
 10
75.9696339466878
 20
53.43409610303175
 30
0.0
 11
76.39368069107996
 21
54.2486823200094
 31
0.0
  0
LINE
  5
1473
330
1F
100
AcDbEntity
  8
CONTINUOUS1
100
AcDbLine
 10
76.92276941217724
 20
53.80775365232508
 30
0.0
 11
76.55890107323884
 21
53.11958791359486
 31
0.0
  0
LWPOLYLINE
  5
1474
330
1F
100
AcDbEntity
  8
CONTINUOUS1
100
AcDbPolyline
 90
       19
 70
   128
 43
0.0
 10
75.49794106152356
 20
58.1718424232472
 10
75.58158567944923
 20
58.40492783742678
 10
76.23910205321209
 20
58.64424422601842
 10
77.94588286016594
 20
58.20322843707663
 42
-0.0420875105410633
 10
78.35948094661254
 20
57.97299720672778
 42
-0.0467018444087876
 10
78.70749905561075
 20
57.68879071400927
 42
-0.0522951099663176
 10
78.97722078203845
 20
57.36099371996166
 42
-0.0580678929272544
 10
79.15879063086589
 20
57.00158376042677
 10
79.18303031102962
 20
56.93498578652202
 42
-0.058067939030347
 10
79.27496383806496
 20
56.54295139673032
 42
-0.0522950639080209
 10
79.27904879791586
 20
56.11847070293231
 42
-0.0467017392277986
 10
79.19513592822205
 20
55.67705401430235
 42
-0.0420873761465918
 10
79.02629136266566
 20
55.23483047267286
 10
78.00230089468425
 20
53.79989522306518
 10
77.34478452092218
 20
53.56057883447296
 42
-0.093368405178945
 10
76.28334437650433
 20
54.36471595404631
 42
-0.0896891122475988
 10
75.56284654547127
 20
55.51706282721417
 42
-0.0893616885903775
 10
75.28775073138752
 20
56.85054912067379
 42
-0.0925097358193309
 10
75.49794106152356
 20
58.1718424232472
  0
LWPOLYLINE
  5
1475
330
1F
100
AcDbEntity
  8
CONTINUOUS1
100
AcDbPolyline
 90
       14
 70
   129
 43
0.0
 10
76.68584267492244
 20
54.62376889145511
 42
0.0669162195788477
 10
76.66855871009698
 20
54.61914927178746
 42
0.0629552521022339
 10
76.65255559433173
 20
54.60996596905012
 42
0.058768369796695
 10
76.63876210768795
 20
54.59675195873387
 42
0.0553094306451267
 10
76.62797878898302
 20
54.58027414832662
 10
76.61543516507848
 20
54.5500446942573
 42
0.436975970914309
 10
76.654018357066
 20
54.44539009803645
 10
77.20232969806279
 20
54.05166058963742
 42
0.391811790405752
 10
77.29918789364103
 20
54.08744559506923
 10
77.48616579973225
 20
54.57669594217813
 42
0.134792345697973
 10
77.49452505526912
 20
54.61742928718944
 42
0.1355053574588713
 10
77.4809226562795
 20
54.65660368423589
 42
0.1370386311613142
 10
77.4492540151584
 20
54.6830004922573
 42
0.1377614939989182
 10
77.40858829810588
 20
54.68906027609567
  0
LINE
  5
1476
330
1F
100
AcDbEntity
  8
CONTINUOUS1
100
AcDbLine
 10
78.00230089468414
 20
53.79989522306537
 30
0.0
 11
76.23910205321204
 21
58.64424422601864
 31
0.0
  0
LWPOLYLINE
  5
1477
330
1F
100
AcDbEntity
  8
CONTINUOUS1
100
AcDbPolyline
 90
       12
 70
   128
 43
0.0
 10
76.48844140929194
 20
57.95918997540772
 10
77.7764762948577
 20
57.66617596197784
 42
-0.0375994491029534
 10
78.0783193055339
 20
57.48978729311639
 42
-0.0435683989931168
 10
78.32873232549599
 20
57.28300573807138
 42
-0.0510897306114368
 10
78.52003463941009
 20
57.05217373966323
 42
-0.059274367464924
 10
78.64635858665656
 20
56.80437142044301
 10
78.66374298227402
 20
56.7566081860332
 42
-0.0592743921406942
 10
78.72625742330004
 20
56.48558129754654
 42
-0.0510897059682853
 10
78.72808727652111
 20
56.18578702777991
 42
-0.043568347220216
 10
78.66917641633441
 20
55.86642072306617
 42
-0.037599386533764
 10
78.55133176774422
 20
55.537278046882
 10
77.7529855784102
 20
54.48488342485219
  0
LINE
  5
1478
330
1F
100
AcDbEntity
  8
CONTINUOUS1
100
AcDbLine
 10
77.29528983458095
 20
55.7423921460036
 30
0.0
 11
78.4057121366678
 21
55.34531957240787
 31
0.0
  0
CIRCLE
  5
1479
330
1F
100
AcDbEntity
  8
CONTINUOUS1
100
AcDbCircle
 10
77.97754014758172
 20
56.53380125669833
 30
0.0
 40
0.509372890702056
  0
CIRCLE
  5
147A
330
1F
100
AcDbEntity
  8
CONTINUOUS1
100
AcDbCircle
 10
77.97754014758172
 20
56.53380125669833
 30
0.0
 40
0.1426244093965656
  0
LINE
  5
147B
330
1F
100
AcDbEntity
  8
CONTINUOUS1
100
AcDbLine
 10
76.9461981159437
 20
56.70151376027806
 30
0.0
 11
77.54159761951902
 21
57.71945469609704
 31
0.0
  0
LWPOLYLINE
  5
148A
330
1F
100
AcDbEntity
  8
CONTINUOUS1
100
AcDbPolyline
 90
        4
 70
   129
 43
0.0
 10
57.52156998240271
 20
69.06812159094568
 42
-3.910975933074983
 10
55.7935699824027
 20
69.06812159094568
 10
55.7935699824027
 20
69.39703919094561
 42
-1.000000256497566
 10
57.52156998240271
 20
69.39703919094561
  0
INSERT
  5
148C
330
1F
100
AcDbEntity
  8
CONTINUOUS1
100
AcDbBlockReference
  2
M_PFN_2
 10
83.33264077436396
 20
33.8527004933141
 30
0.0
 41
8.0
 42
8.0
 43
8.0
 50
269.9999999999939
  0
INSERT
  5
148E
330
1F
100
AcDbEntity
  8
CONTINUOUS1
100
AcDbBlockReference
  2
M_PFN_2
 10
74.452640774364
 20
35.01270049215412
 30
0.0
 41
8.0
 42
8.0
 43
8.0
 50
269.9999999999939
  0
INSERT
  5
1496
330
1F
100
AcDbEntity
  8
CONTINUOUS1
100
AcDbBlockReference
  2
M_PFN_2
 10
48.95282014547575
 20
50.97998993252189
 30
0.0
 41
8.0
 42
8.0
 43
8.0
 50
269.9999999999939
  0
INSERT
  5
1498
330
1F
100
AcDbEntity
  8
CONTINUOUS1
100
AcDbBlockReference
  2
M_PFN_2
 10
29.70282014547574
 20
35.03270049215409
 30
0.0
 41
8.0
 42
8.0
 43
8.0
 50
269.9999999999939
  0
INSERT
  5
14A0
330
1F
100
AcDbEntity
  8
CONTINUOUS1
100
AcDbBlockReference
  2
M_PFN_2
 10
32.20282014547575
 20
34.68523175741099
 30
0.0
 41
8.0
 42
8.0
 43
8.0
 50
180.0000000000118
  0
INSERT
  5
14A2
330
1F
100
AcDbEntity
  8
CONTINUOUS1
100
AcDbBlockReference
  2
M_PFN_2
 10
32.06107014561129
 20
64.315231757411
 30
0.0
 41
8.0
 42
8.0
 43
8.0
 50
180.0000000000118
  0
INSERT
  5
14AA
330
1F
100
AcDbEntity
  8
CONTINUOUS1
100
AcDbBlockReference
  2
M_PFN_2
 10
29.70282014547574
 20
35.03270049215409
 30
0.0
 41
8.0
 42
8.0
 43
8.0
 50
180.0000000000118
  0
INSERT
  5
14AC
330
1F
100
AcDbEntity
  8
CONTINUOUS1
100
AcDbBlockReference
  2
M_PFN_2
 10
29.70282014547574
 20
64.03270049215409
 30
0.0
 41
8.0
 42
8.0
 43
8.0
 50
180.0000000000118
  0
INSERT
  5
14B4
330
1F
100
AcDbEntity
  8
CONTINUOUS1
100
AcDbBlockReference
  2
M_PFN_2
 10
29.70282014547574
 20
35.03270049215409
 30
0.0
 41
8.0
 42
8.0
 43
8.0
 50
180.0000000000118
  0
INSERT
  5
14B6
330
1F
100
AcDbEntity
  8
CONTINUOUS1
100
AcDbBlockReference
  2
M_PFN_2
 10
32.20282014547575
 20
33.85270050824408
 30
0.0
 41
8.0
 42
8.0
 43
8.0
 50
180.0000000000118
  0
INSERT
  5
14BE
330
1F
100
AcDbEntity
  8
CONTINUOUS1
100
AcDbBlockReference
  2
M_PFN_2
 10
35.95282014172575
 20
64.38016924182718
 30
0.0
 41
8.0
 42
8.0
 43
8.0
 50
90.00000000000595
  0
INSERT
  5
14C0
330
1F
100
AcDbEntity
  8
CONTINUOUS1
100
AcDbBlockReference
  2
M_PFN_2
 10
32.20282014547575
 20
64.38016924182718
 30
0.0
 41
8.0
 42
8.0
 43
8.0
 50
90.00000000000595
  0
INSERT
  5
14C8
330
1F
100
AcDbEntity
  8
CONTINUOUS1
100
AcDbBlockReference
  2
M_PFN_2
 10
29.70282014547574
 20
64.03270049215409
 30
0.0
 41
8.0
 42
8.0
 43
8.0
 50
90.00000000000595
  0
INSERT
  5
14CA
330
1F
100
AcDbEntity
  8
CONTINUOUS1
100
AcDbBlockReference
  2
M_PFN_2
 10
32.20282014547575
 20
64.38016924182718
 30
0.0
 41
8.0
 42
8.0
 43
8.0
 50
90.00000000000595
  0
INSERT
  5
14D2
330
1F
100
AcDbEntity
  8
CONTINUOUS1
100
AcDbBlockReference
  2
M_PFN_2
 10
47.45282014547574
 20
64.03270049215411
 30
0.0
 41
8.0
 42
8.0
 43
8.0
 50
90.00000000000595
  0
INSERT
  5
14D4
330
1F
100
AcDbEntity
  8
CONTINUOUS1
100
AcDbBlockReference
  2
M_PFN_2
 10
29.70282014547574
 20
64.03270049215409
 30
0.0
 41
8.0
 42
8.0
 43
8.0
 50
90.00000000000595
  0
INSERT
  5
14DC
330
1F
100
AcDbEntity
  8
CONTINUOUS1
100
AcDbBlockReference
  2
M_PFN_2
 10
44.95282014547572
 20
64.315231757411
 30
0.0
 41
8.0
 42
8.0
 43
8.0
 50
90.00000000000595
  0
INSERT
  5
14DE
330
1F
100
AcDbEntity
  8
CONTINUOUS1
100
AcDbBlockReference
  2
M_PFN_2
 10
41.20282014922573
 20
64.315231757411
 30
0.0
 41
8.0
 42
8.0
 43
8.0
 50
90.00000000000595
  0
INSERT
  5
14E6
330
1F
100
AcDbEntity
  8
CONTINUOUS1
100
AcDbBlockReference
  2
M_PFN_2
 10
47.45282014547574
 20
64.03270049215411
 30
0.0
 41
8.0
 42
8.0
 43
8.0
 50
90.00000000000595
  0
INSERT
  5
14E8
330
1F
100
AcDbEntity
  8
CONTINUOUS1
100
AcDbBlockReference
  2
M_PFN_2
 10
44.95282014547572
 20
64.315231757411
 30
0.0
 41
8.0
 42
8.0
 43
8.0
 50
90.00000000000595
  0
LWPOLYLINE
  5
14F9
330
1F
100
AcDbEntity
  8
0
 62
     0
100
AcDbPolyline
 90
        6
 70
     1
 43
0.0
 10
131.200008
 20
83.19521373291015
 10
131.1997699628906
 20
7.295999526977539
 10
64.019685734375
 20
7.295999526977539
 10
64.019685734375
 20
0.0
 10
0.0
 20
0.0
 10
0.0
 20
83.19521373291015
  0
VIEWPORT
  5
14FA
330
1F
100
AcDbEntity
  8
0
 62
     0
100
AcDbViewport
 10
65.60000400000001
 20
41.59760686645507
 30
0.0
 40
131.200008
 41
83.19521373291015
 69
     0
1001
ACAD
1000
MVIEW
1002
{
1070
    16
1010
0.0
1020
0.0
1030
0.0
1010
0.0
1020
0.0
1030
1.0
1040
0.0
1040
665.5617098632813
1040
-48.94368702230798
1040
34.83845830495943
1040
50.0
1040
0.0
1040
0.0
1070
     0
1070
   100
1070
     1
1070
     0
1070
     0
1070
     0
1070
     0
1070
     0
1040
0.0
1040
0.0
1040
0.0
1040
0.1968503937007874
1040
0.1968503937007874
1040
0.1968503937007874
1040
0.1968503937007874
1070
     0
1002
{
1002
}
1002
}
  0
TEXT
  5
1505
330
1F
100
AcDbEntity
  8
TEXT1
100
AcDbText
 10
3.066542505696034
 20
8.720000000000002
 30
0.0
 40
0.6400000000000001
  1
   10,000 AMPERES WHEN USED WITH OR PROTECTED BY CLASS H OR K FUSES.
 41
0.8999297314986664
  7
M_STANDARD
 11
3.066542505696034
 21
9.040000000000002
 31
0.0
100
AcDbText
 73
     2
  0
TEXT
  5
1506
330
1F
100
AcDbEntity
  8
TEXT1
100
AcDbText
 10
3.066542505696034
 20
10.48
 30
0.0
 40
0.6400000000000001
  1
SUITABLE FOR USE AS SERVICE EQUIPMENT
 41
0.9199432516896058
  7
M_STANDARD
 11
3.066542505696034
 21
10.8
 31
0.0
100
AcDbText
 73
     2
  0
TEXT
  5
1508
330
1F
100
AcDbEntity
  8
TEXT1
100
AcDbText
 10
3.066542505696034
 20
7.839999999999999
 30
0.0
 40
0.6400000000000001
  1
   200,000 AMPERES WHEN USED WITH OR PROTECTED BY CLASS R OR J FUSES.
 41
0.8999910674653603
  7
M_STANDARD
 11
3.066542505696034
 21
8.16
 31
0.0
100
AcDbText
 73
     2
  0
TEXT
  5
1509
330
1F
100
AcDbEntity
  8
TEXT1
100
AcDbText
 10
3.066542505696034
 20
6.079999999999999
 30
0.0
 40
0.6400000000000001
  1
   BY CLASS J OR R FUSES, 200 AMPERE MAX.
 41
0.8999559256818546
  7
M_STANDARD
 11
3.066542505696034
 21
6.399999999999999
 31
0.0
100
AcDbText
 73
     2
  0
DIMENSION
  5
150A
330
1F
100
AcDbEntity
  8
DIM
100
AcDbDimension
  2
*D4
 10
47.45282014547574
 20
75.88157858505798
 30
0.0
 11
38.92103724874058
 21
75.88157858505798
 31
0.0
 70
   160
  1
\P<>
  3
SCHNEIDERELECTRIC
100
AcDbAlignedDimension
 13
29.70282014547574
 23
64.03270049215409
 33
0.0
 14
47.45282014547574
 24
64.03270049215411
 34
0.0
100
AcDbRotatedDimension
1001
ACAD
1000
DSTYLE
1002
{
1070
    40
1040
8.0
1002
}
  0
DIMENSION
  5
1541
330
1F
100
AcDbEntity
  8
DIM
100
AcDbDimension
  2
*D5
 10
35.95282014172573
 20
68.26591542142574
 30
0.0
 11
33.68828468975114
 21
68.26591542142574
 31
0.0
 70
   160
  1
\P<>
  3
SCHNEIDERELECTRIC
100
AcDbAlignedDimension
 13
32.20282014547574
 23
64.315231757411
 33
0.0
 14
35.95282014172573
 24
64.45698175726924
 34
0.0
100
AcDbRotatedDimension
1001
ACAD
1000
DSTYLE
1002
{
1070
    40
1040
8.0
1002
}
  0
DIMENSION
  5
158B
330
1F
100
AcDbEntity
  8
DIM
100
AcDbDimension
  2
*D6
 10
44.95282014547572
 20
67.96128884623763
 30
0.0
 11
42.68828469350113
 21
67.96128884623763
 31
0.0
 70
   160
  1
\P<>
  3
SCHNEIDERELECTRIC
100
AcDbAlignedDimension
 13
41.20282014922572
 23
64.315231757411
 33
0.0
 14
44.95282014547572
 24
64.45698175726924
 34
0.0
100
AcDbRotatedDimension
1001
ACAD
1000
DSTYLE
1002
{
1070
    40
1040
8.0
1002
}
  0
DIMENSION
  5
15A3
330
1F
100
AcDbEntity
  8
DIM
100
AcDbDimension
  2
*D7
 10
32.20282014547574
 20
72.05682325958065
 30
0.0
 11
34.66481784705502
 21
72.05682325958065
 31
0.0
 70
   160
  1
\P<>
  3
SCHNEIDERELECTRIC
100
AcDbAlignedDimension
 13
29.70282014547574
 23
64.03270049215409
 33
0.0
 14
32.20282014547574
 24
64.815231757411
 34
0.0
100
AcDbRotatedDimension
1001
ACAD
1000
DSTYLE
1002
{
1070
    40
1040
8.0
1002
}
  0
DIMENSION
  5
15D9
330
1F
100
AcDbEntity
  8
DIM
100
AcDbDimension
  2
*D8
 10
47.45282014547574
 20
72.05682325958065
 30
0.0
 11
41.80670275213834
 21
72.05682325958065
 31
0.0
 70
   160
  1
\P<>
  3
SCHNEIDERELECTRIC
100
AcDbAlignedDimension
 13
44.95282014547572
 23
64.45698175726924
 33
0.0
 14
47.45282014547574
 24
64.03270049215411
 34
0.0
100
AcDbRotatedDimension
1001
ACAD
1000
DSTYLE
1002
{
1070
    40
1040
8.0
1002
}
  0
DIMENSION
  5
1691
330
1F
100
AcDbEntity
  8
DIM
100
AcDbDimension
  2
*D9
 10
26.64673079371229
 20
35.03270049215409
 30
0.0
 11
26.64673079371229
 21
49.26847810900253
 31
0.0
 70
   160
  3
SCHNEIDERELECTRIC_DUAL_BEL
100
AcDbAlignedDimension
 13
29.70282014547574
 23
64.03270049215409
 33
0.0
 14
29.70282014547574
 24
35.03270049215409
 34
0.0
 50
90.0
100
AcDbRotatedDimension
1001
ACAD
1000
DSTYLE
1002
{
1070
    40
1040
8.0
1002
}
  0
DIMENSION
  5
16B3
330
1F
100
AcDbEntity
  8
DIM
100
AcDbDimension
  2
*D10
 10
21.63758934526563
 20
34.68523170244205
 30
0.0
 11
21.63758934526562
 21
49.0324511286851
 31
0.0
 70
   160
  3
SCHNEIDERELECTRIC_DUAL_BEL
100
AcDbAlignedDimension
 13
32.06107014561749
 23
64.315231757411
 33
0.0
 14
32.20282014547577
 24
34.68523170244205
 34
0.0
 50
90.0
100
AcDbRotatedDimension
1001
ACAD
1000
DSTYLE
1002
{
1070
    40
1040
8.0
1002
}
  0
DIMENSION
  5
16F3
330
1F
100
AcDbEntity
  8
DIM
100
AcDbDimension
  2
*D11
 10
26.64673079371228
 20
35.03270049215409
 30
0.0
 11
24.24292126990275
 21
31.92650217566949
 31
0.0
 70
   160
  1
\P<>
  3
SCHNEIDERELECTRIC_DUAL_BEL
100
AcDbAlignedDimension
 13
32.20282014548359
 23
33.85270050824408
 33
0.0
 14
29.70282014547574
 24
35.03270049215409
 34
0.0
 50
90.0
100
AcDbRotatedDimension
1001
ACAD
1000
DSTYLE
1002
{
1070
    40
1040
8.0
1002
}
  0
DIMENSION
  5
1739
330
1F
100
AcDbEntity
  8
DIM
100
AcDbDimension
  2
*D12
 10
48.95282014547575
 20
30.91296326859446
 30
0.0
 11
39.32782014547574
 21
30.91296326859446
 31
0.0
 70
   160
  1
\P<>
  3
SCHNEIDERELECTRIC_DUAL_BEL
100
AcDbAlignedDimension
 13
29.70282014547574
 23
35.03270049215409
 33
0.0
 14
48.95282014547575
 24
50.97998993252189
 34
0.0
100
AcDbRotatedDimension
1001
ACAD
1000
DSTYLE
1002
{
1070
    40
1040
8.0
1002
}
  0
DIMENSION
  5
177A
330
1F
100
AcDbEntity
  8
DIM
100
AcDbDimension
  2
*D13
 10
83.33264077436396
 20
30.91296326859446
 30
0.0
 11
78.54638659847705
 21
30.91296326859446
 31
0.0
 70
   160
  3
SCHNEIDERELECTRIC_DUAL_BEL
100
AcDbAlignedDimension
 13
74.452640774364
 23
35.01270049215412
 33
0.0
 14
83.33264077436396
 24
33.8527004933141
 34
0.0
100
AcDbRotatedDimension
1001
ACAD
1000
DSTYLE
1002
{
1070
    40
1040
8.0
1002
}
  0
DIMENSION
  5
17EC
330
1F
100
AcDbEntity
  8
DIM
100
AcDbDimension
  2
*D14
 10
56.69812917572897
 20
67.5397708435529
 30
0.0
 11
63.1617097922336
 21
64.50405013257371
 31
0.0
 70
   164
  1
R.25\P[6]
  3
SCHNEIDERELECTRIC
100
AcDbRadialDimension
 15
58.08354678447506
 25
66.39058942709208
 35
0.0
 40
0.0
1001
ACAD
1000
DSTYLE
1002
{
1070
   141
1040
0.025
1070
    40
1040
8.0
1002
}
  0
DIMENSION
  5
17ED
330
1F
100
AcDbEntity
  8
DIM
100
AcDbDimension
  2
*D15
 10
56.59659963473169
 20
69.47551554813745
 30
0.0
 11
63.06018025123677
 21
71.99529948893122
 31
0.0
 70
   164
  1
R.16\P[4]
  3
SCHNEIDERELECTRIC
100
AcDbRadialDimension
 15
57.30823660389276
 25
69.96548373498557
 35
0.0
 40
0.0
1001
ACAD
1000
DSTYLE
1002
{
1070
   141
1040
0.025
1070
    40
1040
8.0
1002
}
  0
DIMENSION
  5
17EE
330
1F
100
AcDbEntity
  8
DIM
100
AcDbDimension
  2
*D16
 10
53.37593906924087
 20
67.5397708435529
 30
0.0
 11
53.186981240166
 21
72.27065646476305
 31
0.0
 70
   160
  1
\P.25\P[6]
  3
SCHNEIDERELECTRIC
100
AcDbAlignedDimension
 13
56.59659963473171
 23
69.47551554813748
 33
0.0
 14
56.69812917572896
 24
67.5397708435529
 34
0.0
 50
90.0
100
AcDbRotatedDimension
1001
ACAD
1000
DSTYLE
1002
{
1070
   287
1070
     4
1070
   287
1070
     4
1070
   287
1070
     4
1070
   287
1070
     4
1070
   287
1070
     4
1070
   287
1070
     4
1070
   287
1070
     4
1070
   287
1070
     4
1070
   287
1070
     4
1070
   287
1070
     4
1070
   287
1070
     4
1070
   287
1070
     4
1070
   287
1070
     4
1070
   287
1070
     4
1070
    40
1040
8.0
1070
   279
1070
     1
1002
}
  0
LEADER
  5
17EF
330
1F
100
AcDbEntity
  8
DIM
100
AcDbLeader
  3
SCHNEIDERELECTRIC_DUAL_BEL
 76
     3
 10
43.85775053732557
 20
64.33057865920138
 30
0.0
 10
51.32178569388432
 20
68.1973000517397
 30
0.0
 10
52.11319680948212
 20
68.19730005173972
 30
0.0
1001
ACAD
1000
DSTYLE
1002
{
1070
     5
1000
SEARROW
1070
    40
1040
8.0
1070
   342
1005
E0D
1002
}
  0
TEXT
  5
187C
330
1F
100
AcDbEntity
  8
DIM
100
AcDbText
 10
54.06806573163461
 20
61.82305145277944
 30
0.0
 40
0.6400000000000001
  1
(8 HOLES)
 41
1.017740901455129
  7
M_STANDARD
 72
     1
 11
56.54941497708711
 21
62.14305145277944
 31
0.0
100
AcDbText
 73
     2
  0
LWPOLYLINE
  5
1B87
330
1F
100
AcDbEntity
  8
CONTINUOUS1
100
AcDbPolyline
 90
        4
 70
   129
 43
0.0
 10
129.1997699628906
 20
50.99438460043341
 10
104.8983474054585
 20
50.99438460043341
 10
104.8983474054585
 20
45.20438460043339
 10
129.1997699628906
 20
45.20438460043339
  0
LINE
  5
1B8B
330
1F
100
AcDbEntity
  8
CONTINUOUS1
100
AcDbLine
 10
104.8983474054585
 20
46.96438460043339
 30
0.0
 11
129.1997699628906
 21
46.96438460043339
 31
0.0
  0
TEXT
  5
1B8C
330
1F
100
AcDbEntity
  8
TEXT1
100
AcDbText
 10
110.9493754513853
 20
45.76438460043339
 30
0.0
 40
0.6400000000000001
  1
250 KCMIL
  7
ROMANS
 72
     1
 11
113.6008040228138
 21
46.08438460043339
 31
0.0
100
AcDbText
 73
     2
  0
TEXT
  5
1B8D
330
1F
100
AcDbEntity
  8
TEXT1
100
AcDbText
 10
111.1459025187514
 20
47.5243846004334
 30
0.0
 40
0.6400000000000001
  1
MAX WIRE
  7
ROMANS
 72
     1
 11
113.5382834711323
 21
47.8443846004334
 31
0.0
100
AcDbText
 73
     2
  0
LINE
  5
1B8E
330
1F
100
AcDbEntity
  8
CONTINUOUS1
100
AcDbLine
 10
104.8983474054585
 20
48.7443846004334
 30
0.0
 11
129.1997699628906
 21
48.7443846004334
 31
0.0
  0
TEXT
  5
1B92
330
1F
100
AcDbEntity
  8
TEXT1
100
AcDbText
 10
105.4728036839416
 20
47.5243846004334
 30
0.0
 40
0.6400000000000001
  1
AMPERES
  7
ROMANS
 72
     1
 11
107.6061370172749
 21
47.8443846004334
 31
0.0
100
AcDbText
 73
     2
  0
LINE
  5
1B93
330
1F
100
AcDbEntity
  8
CONTINUOUS1
100
AcDbLine
 10
110.3447956987868
 20
48.7443846004334
 30
0.0
 11
110.3447956987868
 21
45.20438460043339
 31
0.0
  0
TEXT
  5
1B94
330
1F
100
AcDbEntity
  8
TEXT1
100
AcDbText
 10
106.7543718546707
 20
45.76438460043339
 30
0.0
 40
0.6400000000000001
  1
200
  7
ROMANS
 72
     1
 11
107.6686575689564
 21
46.08438460043339
 31
0.0
100
AcDbText
 73
     2
  0
TEXT
  5
1BAB
330
1F
100
AcDbEntity
  8
TEXT1
100
AcDbText
 10
125.1454842486049
 20
45.76438460043339
 30
0.0
 40
0.6400000000000001
  1
CU/AL
  7
ROMANS
 72
     1
 11
126.6997699628906
 21
46.08438460043339
 31
0.0
100
AcDbText
 73
     2
  0
TEXT
  5
1BAC
330
1F
100
AcDbEntity
  8
TEXT1
100
AcDbText
 10
118.3240792151654
 20
47.5243846004334
 30
0.0
 40
0.6400000000000001
  1
MIN WIRE
  7
ROMANS
 72
     1
 11
120.5945554056416
 21
47.8443846004334
 31
0.0
100
AcDbText
 73
     2
  0
TEXT
  5
1BAD
330
1F
100
AcDbEntity
  8
TEXT1
100
AcDbText
 10
118.7523140525612
 20
45.76438460043339
 30
0.0
 40
0.6400000000000001
  1
#6 AWG
  7
ROMANS
 72
     1
 11
120.6570759573231
 21
46.08438460043339
 31
0.0
100
AcDbText
 73
     2
  0
TEXT
  5
1BAE
330
1F
100
AcDbEntity
  8
TEXT1
100
AcDbText
 10
112.1728682079841
 20
49.5493846004334
 30
0.0
 40
0.6400000000000001
  1
TERMINAL LUG DATA
  7
ROMANS
 72
     1
 11
117.0490586841745
 21
49.8693846004334
 31
0.0
100
AcDbText
 73
     2
  0
LINE
  5
1BAF
330
1F
100
AcDbEntity
  8
CONTINUOUS1
100
AcDbLine
 10
116.8233474054585
 20
48.7443846004334
 30
0.0
 11
116.8233474054585
 21
45.20438460043339
 31
0.0
  0
LINE
  5
1BB0
330
1F
100
AcDbEntity
  8
CONTINUOUS1
100
AcDbLine
 10
124.1997699628906
 20
48.7443846004334
 30
0.0
 11
124.1997699628906
 21
45.20438460043339
 31
0.0
  0
TEXT
  5
1BB1
330
1F
100
AcDbEntity
  8
TEXT1
100
AcDbText
 10
125.5248684588281
 20
47.5243846004334
 30
0.0
 40
0.6400000000000001
  1
TYPE
  7
ROMANS
 72
     1
 11
126.6372494112091
 21
47.8443846004334
 31
0.0
100
AcDbText
 73
     2
  0
INSERT
  5
1BB2
330
1F
100
AcDbEntity
  8
0
100
AcDbBlockReference
  2
__
 10
122.9062000324132
 20
49.7898270318479
 30
0.0
  0
TEXT
  5
1BFE
330
1F
100
AcDbEntity
  8
TEXT1
100
AcDbText
 10
65.05005797406981
 20
22.08528455466044
 30
0.0
 40
0.6399937636239339
  1
WIRING
  7
ROMANS
 72
     1
 11
66.61956648962375
 21
22.40528143647241
 31
0.0
100
AcDbText
 73
     2
  0
LWPOLYLINE
  5
1BFF
330
1F
100
AcDbEntity
  8
CONTINUOUS1
100
AcDbPolyline
 90
        2
 70
     0
 43
0.0
 10
48.89260648538749
 20
16.33599952697749
 10
129.1997699628906
 20
16.33599952697749
  0
LWPOLYLINE
  5
1C00
330
1F
100
AcDbEntity
  8
CONTINUOUS1
100
AcDbPolyline
 90
        2
 70
     0
 43
0.0
 10
48.89260648538749
 20
14.57599952697749
 10
129.1997699628906
 20
14.57599952697749
  0
LWPOLYLINE
  5
1C01
330
1F
100
AcDbEntity
  8
CONTINUOUS1
100
AcDbPolyline
 90
        2
 70
     0
 43
0.0
 10
48.89260648538749
 20
12.81599952697749
 10
129.1997699628906
 20
12.81599952697749
  0
LWPOLYLINE
  5
1C02
330
1F
100
AcDbEntity
  8
CONTINUOUS1
100
AcDbPolyline
 90
        4
 70
   129
 43
0.0
 10
129.1997699628906
 20
9.29599952697751
 10
48.89260648538749
 20
9.295999526977496
 10
48.89260648538749
 20
25.96264573905575
 10
129.1997699628906
 20
25.96264573905576
  0
LINE
  5
1C03
330
1F
100
AcDbEntity
  8
CONTINUOUS1
100
AcDbLine
 10
48.89260648538747
 20
18.0959995269775
 30
0.0
 11
129.1997699628905
 21
18.0959995269775
 31
0.0
  0
TEXT
  5
1C05
330
1F
100
AcDbEntity
  8
TEXT1
100
AcDbText
 10
50.2031010880216
 20
16.89600264516553
 30
0.0
 40
0.6399937636239339
  1
H224DS
  7
ROMANS
 72
     1
 11
52.0926064853875
 21
17.21599952697749
 31
0.0
100
AcDbText
 73
     2
  0
LINE
  5
1C07
330
1F
100
AcDbEntity
  8
CONTINUOUS1
100
AcDbLine
 10
55.29260648538749
 20
25.96264573905575
 30
0.0
 11
55.29260648538749
 21
9.295999526977546
 31
0.0
  0
LINE
  5
1C08
330
1F
100
AcDbEntity
  8
CONTINUOUS1
100
AcDbLine
 10
64.4926064853875
 20
25.96264573905575
 30
0.0
 11
64.4926064853875
 21
9.295999526977546
 31
0.0
  0
TEXT
  5
1C09
330
1F
100
AcDbEntity
  8
TEXT1
100
AcDbText
 10
56.12883363740865
 20
16.89600264516553
 30
0.0
 40
0.6399937636239339
  1
240VAC;250VDC
  7
ROMANS
 72
     1
 11
59.8926064853875
 21
17.21599952697749
 31
0.0
100
AcDbText
 73
     2
  0
TEXT
  5
1C0A
330
1F
100
AcDbEntity
  8
TEXT1
100
AcDbText
 10
50.2031010880216
 20
15.13600264516552
 30
0.0
 40
0.6399937636239339
  1
H324DS
  7
ROMANS
 72
     1
 11
52.0926064853875
 21
15.45599952697749
 31
0.0
100
AcDbText
 73
     2
  0
TEXT
  5
1C0E
330
1F
100
AcDbEntity
  8
TEXT1
100
AcDbText
 10
49.86786625945669
 20
9.856002645165538
 30
0.0
 40
0.6399937636239339
  1
HU364DS
  7
ROMANS
 72
     1
 11
52.0926064853875
 21
10.1759995269775
 31
0.0
100
AcDbText
 73
     2
  0
TEXT
  5
1C0F
330
1F
100
AcDbEntity
  8
TEXT1
100
AcDbText
 10
50.2031010880216
 20
13.37600264516552
 30
0.0
 40
0.6399937636239339
  1
H364DS
  7
ROMANS
 72
     1
 11
52.0926064853875
 21
13.69599952697749
 31
0.0
100
AcDbText
 73
     2
  0
TEXT
  5
1C11
330
1F
100
AcDbEntity
  8
TEXT1
100
AcDbText
 10
56.1135956906557
 20
13.37600264516551
 30
0.0
 40
0.6399937636239339
  1
600VAC;600VDC
  7
ROMANS
 72
     1
 11
59.8926064853875
 21
13.69599952697748
 31
0.0
100
AcDbText
 73
     2
  0
TEXT
  5
1C12
330
1F
100
AcDbEntity
  8
TEXT1
100
AcDbText
 10
56.12883363740865
 20
15.13600264516552
 30
0.0
 40
0.6399937636239339
  1
240VAC;250VDC
  7
ROMANS
 72
     1
 11
59.8926064853875
 21
15.45599952697748
 31
0.0
100
AcDbText
 73
     2
  0
TEXT
  5
1C15
330
1F
100
AcDbEntity
  8
TEXT1
100
AcDbText
 10
50.06595956724503
 20
22.08528455466044
 30
0.0
 40
0.6399937636239339
  1
CATALOG
  7
ROMANS
 72
     1
 11
52.09260648538748
 21
22.40528143647241
 31
0.0
100
AcDbText
 73
     2
  0
TEXT
  5
1C19
330
1F
100
AcDbEntity
  8
TEXT1
100
AcDbText
 10
55.68693318157308
 20
22.08528455466044
 30
0.0
 40
0.6399937636239339
  1
VOLTAGE RATINGS
  7
ROMANS
 72
     1
 11
59.8926064853875
 21
22.40528143647241
 31
0.0
100
AcDbText
 73
     2
  0
LINE
  5
1C1A
330
1F
100
AcDbEntity
  8
CONTINUOUS1
100
AcDbLine
 10
68.65823727727927
 20
19.8559995269775
 30
0.0
 11
129.1997699628906
 21
19.8559995269775
 31
0.0
  0
LINE
  5
1C1B
330
1F
100
AcDbEntity
  8
CONTINUOUS1
100
AcDbLine
 10
68.65823727727927
 20
21.6159995269775
 30
0.0
 11
129.1997699628906
 21
21.6159995269775
 31
0.0
  0
LINE
  5
1C1C
330
1F
100
AcDbEntity
  8
CONTINUOUS1
100
AcDbLine
 10
68.65823727727927
 20
24.2559995269775
 30
0.0
 11
129.1997699628906
 21
24.2559995269775
 31
0.0
  0
TEXT
  5
1C1D
330
1F
100
AcDbEntity
  8
TEXT1
100
AcDbText
 10
105.3241618674012
 20
16.89600264516552
 30
0.0
 40
0.6399937636239339
  1
-
  7
ROMANS
 72
     1
 11
105.720348482978
 21
17.21599952697749
 31
0.0
100
AcDbText
 73
     2
  0
TEXT
  5
1C1E
330
1F
100
AcDbEntity
  8
TEXT1
100
AcDbText
 10
100.7244741747491
 20
16.89600264516553
 30
0.0
 40
0.6399937636239339
  1
-
  7
ROMANS
 72
     1
 11
101.1206607903258
 21
17.21599952697749
 31
0.0
100
AcDbText
 73
     2
  0
TEXT
  5
1C1F
330
1F
100
AcDbEntity
  8
TEXT1
100
AcDbText
 10
91.92447417474914
 20
16.89600264516552
 30
0.0
 40
0.6399937636239339
  1
-
  7
ROMANS
 72
     1
 11
92.32066079032586
 21
17.21599952697749
 31
0.0
100
AcDbText
 73
     2
  0
TEXT
  5
1C20
330
1F
100
AcDbEntity
  8
TEXT1
100
AcDbText
 10
87.72416186740128
 20
16.89600264516552
 30
0.0
 40
0.6399937636239339
  1
-
  7
ROMANS
 72
     1
 11
88.12034848297802
 21
17.21599952697749
 31
0.0
100
AcDbText
 73
     2
  0
TEXT
  5
1C21
330
1F
100
AcDbEntity
  8
TEXT1
100
AcDbText
 10
82.49971835787816
 20
16.89600264516553
 30
0.0
 40
0.6399937636239339
  1
60&
  7
ROMANS
 72
     1
 11
83.52066079032585
 21
17.21599952697749
 31
0.0
100
AcDbText
 73
     2
  0
TEXT
  5
1C22
330
1F
100
AcDbEntity
  8
TEXT1
100
AcDbText
 10
78.92416186740128
 20
16.89600264516553
 30
0.0
 40
0.6399937636239339
  1
-
  7
ROMANS
 72
     1
 11
79.320348482978
 21
17.21599952697749
 31
0.0
100
AcDbText
 73
     2
  0
TEXT
  5
1C23
330
1F
100
AcDbEntity
  8
TEXT1
100
AcDbText
 10
69.86511677260113
 20
16.89600264516553
 30
0.0
 40
0.6399937636239339
  1
15
  7
ROMANS
 72
     1
 11
70.520348482978
 21
17.21599952697749
 31
0.0
100
AcDbText
 73
     2
  0
TEXT
  5
1C24
330
1F
100
AcDbEntity
  8
TEXT1
100
AcDbText
 10
66.34528344807063
 20
16.89600264516553
 30
0.0
 40
0.6399937636239339
  1
A
  7
ROMANS
 72
     1
 11
66.61956648962375
 21
17.21599952697749
 31
0.0
100
AcDbText
 73
     2
  0
TEXT
  5
1C25
330
1F
100
AcDbEntity
  8
TEXT1
100
AcDbText
 10
73.71495630463113
 20
16.89600264516553
 30
0.0
 40
0.6399937636239339
  1
25&
  7
ROMANS
 72
     1
 11
74.72066079032588
 21
17.21599952697749
 31
0.0
100
AcDbText
 73
     2
  0
LINE
  5
1C26
330
1F
100
AcDbEntity
  8
CONTINUOUS1
100
AcDbLine
 10
68.65823727727927
 20
25.96264573905575
 30
0.0
 11
68.65823727727927
 21
9.295999526977546
 31
0.0
  0
LINE
  5
1C27
330
1F
100
AcDbEntity
  8
CONTINUOUS1
100
AcDbLine
 10
77.45823727727927
 20
21.6159995269775
 30
0.0
 11
77.45823727727927
 21
9.265958008862057
 31
0.0
  0
LINE
  5
1C28
330
1F
100
AcDbEntity
  8
CONTINUOUS1
100
AcDbLine
 10
95.05823727727927
 20
21.6159995269775
 30
0.0
 11
95.05823727727927
 21
9.265958008862057
 31
0.0
  0
LINE
  5
1C29
330
1F
100
AcDbEntity
  8
CONTINUOUS1
100
AcDbLine
 10
103.8582372772792
 20
24.2559995269775
 30
0.0
 11
103.8582372772792
 21
9.295999526977553
 31
0.0
  0
LINE
  5
1C2A
330
1F
100
AcDbEntity
  8
CONTINUOUS1
100
AcDbLine
 10
103.8582372772792
 20
24.2559995269775
 30
0.0
 11
103.8582372772792
 21
9.235916490746561
 31
0.0
  0
LINE
  5
1C2B
330
1F
100
AcDbEntity
  8
CONTINUOUS1
100
AcDbLine
 10
86.25823727727928
 20
24.2559995269775
 30
0.0
 11
86.25823727727928
 21
9.235916490746561
 31
0.0
  0
TEXT
  5
1C2C
330
1F
100
AcDbEntity
  8
TEXT1
100
AcDbText
 10
69.5298819440362
 20
15.13600264516552
 30
0.0
 40
0.6399937636239339
  1
15^ 
  7
ROMANS
 72
     1
 11
70.520348482978
 21
15.45599952697749
 31
0.0
100
AcDbText
 73
     2
  0
TEXT
  5
1C2D
330
1F
100
AcDbEntity
  8
TEXT1
100
AcDbText
 10
69.5298819440362
 20
13.37600264516552
 30
0.0
 40
0.6399937636239339
  1
15^ 
  7
ROMANS
 72
     1
 11
70.520348482978
 21
13.69599952697749
 31
0.0
100
AcDbText
 73
     2
  0
TEXT
  5
1C2E
330
1F
100
AcDbEntity
  8
TEXT1
100
AcDbText
 10
70.12416186740129
 20
9.856002645165521
 30
0.0
 40
0.6399937636239339
  1
-
  7
ROMANS
 72
     1
 11
70.520348482978
 21
10.17599952697748
 31
0.0
100
AcDbText
 73
     2
  0
TEXT
  5
1C2F
330
1F
100
AcDbEntity
  8
TEXT1
100
AcDbText
 10
66.28433166105883
 20
13.37600264516552
 30
0.0
 40
0.6399937636239339
  1
B
  7
ROMANS
 72
     1
 11
66.61956648962375
 21
13.69599952697749
 31
0.0
100
AcDbText
 73
     2
  0
TEXT
  5
1C30
330
1F
100
AcDbEntity
  8
TEXT1
100
AcDbText
 10
66.28433166105883
 20
9.856002645165521
 30
0.0
 40
0.6399937636239339
  1
D
  7
ROMANS
 72
     1
 11
66.61956648962375
 21
10.17599952697748
 31
0.0
100
AcDbText
 73
     2
  0
TEXT
  5
1C31
330
1F
100
AcDbEntity
  8
TEXT1
100
AcDbText
 10
66.28433166105883
 20
15.13600264516552
 30
0.0
 40
0.6399937636239339
  1
B
  7
ROMANS
 72
     1
 11
66.61956648962375
 21
15.45599952697749
 31
0.0
100
AcDbText
 73
     2
  0
TEXT
  5
1C32
330
1F
100
AcDbEntity
  8
TEXT1
100
AcDbText
 10
73.71495630463113
 20
13.37600264516552
 30
0.0
 40
0.6399937636239339
  1
25&
  7
ROMANS
 72
     1
 11
74.72066079032588
 21
13.69599952697749
 31
0.0
100
AcDbText
 73
     2
  0
TEXT
  5
1C33
330
1F
100
AcDbEntity
  8
TEXT1
100
AcDbText
 10
74.32447417474915
 20
9.856002645165521
 30
0.0
 40
0.6399937636239339
  1
-
  7
ROMANS
 72
     1
 11
74.72066079032588
 21
10.17599952697748
 31
0.0
100
AcDbText
 73
     2
  0
TEXT
  5
1C34
330
1F
100
AcDbEntity
  8
TEXT1
100
AcDbText
 10
73.71495630463113
 20
15.13600264516552
 30
0.0
 40
0.6399937636239339
  1
25&
  7
ROMANS
 72
     1
 11
74.72066079032588
 21
15.45599952697749
 31
0.0
100
AcDbText
 73
     2
  0
TEXT
  5
1C35
330
1F
100
AcDbEntity
  8
TEXT1
100
AcDbText
 10
78.92416186740128
 20
13.37600264516552
 30
0.0
 40
0.6399937636239339
  1
-
  7
ROMANS
 72
     1
 11
79.320348482978
 21
13.69599952697749
 31
0.0
100
AcDbText
 73
     2
  0
TEXT
  5
1C36
330
1F
100
AcDbEntity
  8
TEXT1
100
AcDbText
 10
78.3298819440362
 20
9.856002645165521
 30
0.0
 40
0.6399937636239339
  1
15^ 
  7
ROMANS
 72
     1
 11
79.320348482978
 21
10.17599952697748
 31
0.0
100
AcDbText
 73
     2
  0
TEXT
  5
1C37
330
1F
100
AcDbEntity
  8
TEXT1
100
AcDbText
 10
78.92416186740128
 20
15.13600264516552
 30
0.0
 40
0.6399937636239339
  1
-
  7
ROMANS
 72
     1
 11
79.320348482978
 21
15.45599952697749
 31
0.0
100
AcDbText
 73
     2
  0
TEXT
  5
1C38
330
1F
100
AcDbEntity
  8
TEXT1
100
AcDbText
 10
82.49971835787816
 20
13.37600264516552
 30
0.0
 40
0.6399937636239339
  1
60&
  7
ROMANS
 72
     1
 11
83.52066079032585
 21
13.69599952697749
 31
0.0
100
AcDbText
 73
     2
  0
TEXT
  5
1C39
330
1F
100
AcDbEntity
  8
TEXT1
100
AcDbText
 10
82.49971835787816
 20
9.856002645165521
 30
0.0
 40
0.6399937636239339
  1
60&
  7
ROMANS
 72
     1
 11
83.52066079032585
 21
10.17599952697748
 31
0.0
100
AcDbText
 73
     2
  0
TEXT
  5
1C3A
330
1F
100
AcDbEntity
  8
TEXT1
100
AcDbText
 10
82.49971835787816
 20
15.13600264516552
 30
0.0
 40
0.6399937636239339
  1
60&
  7
ROMANS
 72
     1
 11
83.52066079032585
 21
15.45599952697749
 31
0.0
100
AcDbText
 73
     2
  0
TEXT
  5
1C3B
330
1F
100
AcDbEntity
  8
TEXT1
100
AcDbText
 10
87.17559578429506
 20
13.37600264516552
 30
0.0
 40
0.6399937636239339
  1
25^ 
  7
ROMANS
 72
     1
 11
88.12034848297802
 21
13.69599952697749
 31
0.0
100
AcDbText
 73
     2
  0
TEXT
  5
1C3C
330
1F
100
AcDbEntity
  8
TEXT1
100
AcDbText
 10
87.72416186740128
 20
9.856002645165521
 30
0.0
 40
0.6399937636239339
  1
-
  7
ROMANS
 72
     1
 11
88.12034848297802
 21
10.17599952697748
 31
0.0
100
AcDbText
 73
     2
  0
TEXT
  5
1C3D
330
1F
100
AcDbEntity
  8
TEXT1
100
AcDbText
 10
87.72416186740128
 20
15.13600264516552
 30
0.0
 40
0.6399937636239339
  1
-
  7
ROMANS
 72
     1
 11
88.12034848297802
 21
15.45599952697749
 31
0.0
100
AcDbText
 73
     2
  0
TEXT
  5
1C3E
330
1F
100
AcDbEntity
  8
TEXT1
100
AcDbText
 10
91.31495630463112
 20
13.37600264516552
 30
0.0
 40
0.6399937636239339
  1
50&
  7
ROMANS
 72
     1
 11
92.32066079032586
 21
13.69599952697749
 31
0.0
100
AcDbText
 73
     2
  0
TEXT
  5
1C3F
330
1F
100
AcDbEntity
  8
TEXT1
100
AcDbText
 10
91.92447417474914
 20
9.856002645165521
 30
0.0
 40
0.6399937636239339
  1
-
  7
ROMANS
 72
     1
 11
92.32066079032586
 21
10.17599952697748
 31
0.0
100
AcDbText
 73
     2
  0
TEXT
  5
1C40
330
1F
100
AcDbEntity
  8
TEXT1
100
AcDbText
 10
91.92447417474914
 20
15.13600264516552
 30
0.0
 40
0.6399937636239339
  1
-
  7
ROMANS
 72
     1
 11
92.32066079032586
 21
15.45599952697749
 31
0.0
100
AcDbText
 73
     2
  0
TEXT
  5
1C41
330
1F
100
AcDbEntity
  8
TEXT1
100
AcDbText
 10
100.7244741747491
 20
15.13600264516552
 30
0.0
 40
0.6399937636239339
  1
-
  7
ROMANS
 72
     1
 11
101.1206607903258
 21
15.45599952697749
 31
0.0
100
AcDbText
 73
     2
  0
TEXT
  5
1C42
330
1F
100
AcDbEntity
  8
TEXT1
100
AcDbText
 10
99.76448352931324
 20
13.37600264516552
 30
0.0
 40
0.6399937636239339
  1
125&
  7
ROMANS
 72
     1
 11
101.1206607903258
 21
13.69599952697749
 31
0.0
100
AcDbText
 73
     2
  0
TEXT
  5
1C43
330
1F
100
AcDbEntity
  8
TEXT1
100
AcDbText
 10
99.76448352931324
 20
9.856002645165521
 30
0.0
 40
0.6399937636239339
  1
125&
  7
ROMANS
 72
     1
 11
101.1206607903258
 21
10.17599952697748
 31
0.0
100
AcDbText
 73
     2
  0
TEXT
  5
1C44
330
1F
100
AcDbEntity
  8
TEXT1
100
AcDbText
 10
95.9603578375421
 20
9.856002645165521
 30
0.0
 40
0.6399937636239339
  1
60^ 
  7
ROMANS
 72
     1
 11
96.92034848297801
 21
10.17599952697748
 31
0.0
100
AcDbText
 73
     2
  0
TEXT
  5
1C45
330
1F
100
AcDbEntity
  8
TEXT1
100
AcDbText
 10
95.97559578429505
 20
13.37600264516552
 30
0.0
 40
0.6399937636239339
  1
50^ 
  7
ROMANS
 72
     1
 11
96.92034848297801
 21
13.69599952697749
 31
0.0
100
AcDbText
 73
     2
  0
TEXT
  5
1C46
330
1F
100
AcDbEntity
  8
TEXT1
100
AcDbText
 10
96.52416186740127
 20
15.13600264516552
 30
0.0
 40
0.6399937636239339
  1
-
  7
ROMANS
 72
     1
 11
96.92034848297801
 21
15.45599952697749
 31
0.0
100
AcDbText
 73
     2
  0
TEXT
  5
1C47
330
1F
100
AcDbEntity
  8
TEXT1
100
AcDbText
 10
104.775595784295
 20
13.37600264516552
 30
0.0
 40
0.6399937636239339
  1
30^ 
  7
ROMANS
 72
     1
 11
105.720348482978
 21
13.69599952697749
 31
0.0
100
AcDbText
 73
     2
  0
TEXT
  5
1C48
330
1F
100
AcDbEntity
  8
TEXT1
100
AcDbText
 10
105.3241618674012
 20
9.856002645165521
 30
0.0
 40
0.6399937636239339
  1
-
  7
ROMANS
 72
     1
 11
105.720348482978
 21
10.17599952697748
 31
0.0
100
AcDbText
 73
     2
  0
TEXT
  5
1C49
330
1F
100
AcDbEntity
  8
TEXT1
100
AcDbText
 10
105.3241618674012
 20
15.13600264516552
 30
0.0
 40
0.6399937636239339
  1
-
  7
ROMANS
 72
     1
 11
105.720348482978
 21
15.45599952697749
 31
0.0
100
AcDbText
 73
     2
  0
TEXT
  5
1C4A
330
1F
100
AcDbEntity
  8
TEXT1
100
AcDbText
 10
75.67539750718402
 20
22.17600264516554
 30
0.0
 40
0.6399937636239339
  1
240VAC
  7
ROMANS
 72
     1
 11
77.45823727727927
 21
22.4959995269775
 31
0.0
100
AcDbText
 73
     2
  0
TEXT
  5
1C4B
330
1F
100
AcDbEntity
  8
TEXT1
100
AcDbText
 10
70.43765626897213
 20
18.6293232730091
 30
0.0
 40
0.6400000000000001
  1
Ø
  7
ROMANS
 72
     1
 11
70.77289436421023
 21
18.9493232730091
 31
0.0
100
AcDbText
 73
     2
  0
TEXT
  5
1C4C
330
1F
100
AcDbEntity
  8
TEXT1
100
AcDbText
 10
69.70288543180571
 20
18.62932639119714
 30
0.0
 40
0.6399937636239339
  1
1
  7
ROMANS
 72
     1
 11
69.96193052660586
 21
18.9493232730091
 31
0.0
100
AcDbText
 73
     2
  0
TEXT
  5
1C4D
330
1F
100
AcDbEntity
  8
TEXT1
100
AcDbText
 10
65.56814816367015
 20
21.01863083210967
 30
0.0
 40
0.6399937636239339
  1
DIAG
  7
ROMANS
 72
     1
 11
66.61956648962375
 21
21.33862771392164
 31
0.0
100
AcDbText
 73
     2
  0
TEXT
  5
1C4E
330
1F
100
AcDbEntity
  8
TEXT1
100
AcDbText
 10
74.86057593961892
 20
18.59928175489361
 30
0.0
 40
0.6400000000000001
  1
Ø
  7
ROMANS
 72
     1
 11
75.19581403485702
 21
18.91928175489361
 31
0.0
100
AcDbText
 73
     2
  0
TEXT
  5
1C4F
330
1F
100
AcDbEntity
  8
TEXT1
100
AcDbText
 10
74.08009126219363
 20
18.59928487308165
 30
0.0
 40
0.6399937636239339
  1
3
  7
ROMANS
 72
     1
 11
74.38485019725264
 21
18.91928175489361
 31
0.0
100
AcDbText
 73
     2
  0
TEXT
  5
1C50
330
1F
100
AcDbEntity
  8
TEXT1
100
AcDbText
 10
72.18967431236106
 20
20.41600264516553
 30
0.0
 40
0.6399937636239339
  1
STD
  7
ROMANS
 72
     1
 11
73.05823727727926
 21
20.7359995269775
 31
0.0
100
AcDbText
 73
     2
  0
TEXT
  5
1C51
330
1F
100
AcDbEntity
  8
TEXT1
100
AcDbText
 10
78.50288543180574
 20
18.62932639119714
 30
0.0
 40
0.6399937636239339
  1
1
  7
ROMANS
 72
     1
 11
78.76193052660589
 21
18.9493232730091
 31
0.0
100
AcDbText
 73
     2
  0
TEXT
  5
1C52
330
1F
100
AcDbEntity
  8
TEXT1
100
AcDbText
 10
79.23765626897211
 20
18.6293232730091
 30
0.0
 40
0.6400000000000001
  1
Ø
  7
ROMANS
 72
     1
 11
79.57289436421021
 21
18.9493232730091
 31
0.0
100
AcDbText
 73
     2
  0
TEXT
  5
1C53
330
1F
100
AcDbEntity
  8
TEXT1
100
AcDbText
 10
82.88009126219362
 20
18.59928487308165
 30
0.0
 40
0.6399937636239339
  1
3
  7
ROMANS
 72
     1
 11
83.18485019725263
 21
18.91928175489361
 31
0.0
100
AcDbText
 73
     2
  0
TEXT
  5
1C54
330
1F
100
AcDbEntity
  8
TEXT1
100
AcDbText
 10
83.6605759396189
 20
18.59928175489361
 30
0.0
 40
0.6400000000000001
  1
Ø
  7
ROMANS
 72
     1
 11
83.99581403485701
 21
18.91928175489361
 31
0.0
100
AcDbText
 73
     2
  0
TEXT
  5
1C55
330
1F
100
AcDbEntity
  8
TEXT1
100
AcDbText
 10
80.89824663184337
 20
20.38596112705004
 30
0.0
 40
0.6399937636239339
  1
MAX
  7
ROMANS
 72
     1
 11
81.85823727727926
 21
20.70595800886201
 31
0.0
100
AcDbText
 73
     2
  0
TEXT
  5
1C56
330
1F
100
AcDbEntity
  8
TEXT1
100
AcDbText
 10
96.10288543180574
 20
18.62932639119714
 30
0.0
 40
0.6399937636239339
  1
1
  7
ROMANS
 72
     1
 11
96.36193052660591
 21
18.9493232730091
 31
0.0
100
AcDbText
 73
     2
  0
TEXT
  5
1C57
330
1F
100
AcDbEntity
  8
TEXT1
100
AcDbText
 10
93.27539750718401
 20
22.17600264516554
 30
0.0
 40
0.6399937636239339
  1
480VAC
  7
ROMANS
 72
     1
 11
95.05823727727927
 21
22.4959995269775
 31
0.0
100
AcDbText
 73
     2
  0
TEXT
  5
1C58
330
1F
100
AcDbEntity
  8
TEXT1
100
AcDbText
 10
89.58781439296991
 20
24.78932639119716
 30
0.0
 40
0.6399937636239339
  1
HORSEPOWER RATINGS
  7
ROMANS
 72
     1
 11
95.05823727727927
 21
25.10932327300913
 31
0.0
100
AcDbText
 73
     2
  0
TEXT
  5
1C59
330
1F
100
AcDbEntity
  8
TEXT1
100
AcDbText
 10
89.78967431236107
 20
20.41600264516553
 30
0.0
 40
0.6399937636239339
  1
STD
  7
ROMANS
 72
     1
 11
90.65823727727927
 21
20.7359995269775
 31
0.0
100
AcDbText
 73
     2
  0
TEXT
  5
1C5A
330
1F
100
AcDbEntity
  8
TEXT1
100
AcDbText
 10
87.30288543180568
 20
18.62932639119714
 30
0.0
 40
0.6399937636239339
  1
1
  7
ROMANS
 72
     1
 11
87.56193052660584
 21
18.9493232730091
 31
0.0
100
AcDbText
 73
     2
  0
TEXT
  5
1C5B
330
1F
100
AcDbEntity
  8
TEXT1
100
AcDbText
 10
88.03765626897215
 20
18.6293232730091
 30
0.0
 40
0.6400000000000001
  1
Ø
  7
ROMANS
 72
     1
 11
88.37289436421025
 21
18.9493232730091
 31
0.0
100
AcDbText
 73
     2
  0
TEXT
  5
1C5C
330
1F
100
AcDbEntity
  8
TEXT1
100
AcDbText
 10
91.68009126219365
 20
18.59928487308165
 30
0.0
 40
0.6399937636239339
  1
3
  7
ROMANS
 72
     1
 11
91.98485019725266
 21
18.91928175489361
 31
0.0
100
AcDbText
 73
     2
  0
TEXT
  5
1C5D
330
1F
100
AcDbEntity
  8
TEXT1
100
AcDbText
 10
92.46057593961891
 20
18.59928175489361
 30
0.0
 40
0.6400000000000001
  1
Ø
  7
ROMANS
 72
     1
 11
92.79581403485702
 21
18.91928175489361
 31
0.0
100
AcDbText
 73
     2
  0
TEXT
  5
1C5E
330
1F
100
AcDbEntity
  8
TEXT1
100
AcDbText
 10
101.2605759396189
 20
18.59928175489361
 30
0.0
 40
0.6400000000000001
  1
Ø
  7
ROMANS
 72
     1
 11
101.595814034857
 21
18.91928175489361
 31
0.0
100
AcDbText
 73
     2
  0
TEXT
  5
1C5F
330
1F
100
AcDbEntity
  8
TEXT1
100
AcDbText
 10
96.83765626897212
 20
18.6293232730091
 30
0.0
 40
0.6400000000000001
  1
Ø
  7
ROMANS
 72
     1
 11
97.17289436421021
 21
18.9493232730091
 31
0.0
100
AcDbText
 73
     2
  0
TEXT
  5
1C60
330
1F
100
AcDbEntity
  8
TEXT1
100
AcDbText
 10
96.52416186740127
 20
16.89600264516553
 30
0.0
 40
0.6399937636239339
  1
-
  7
ROMANS
 72
     1
 11
96.92034848297801
 21
17.21599952697749
 31
0.0
100
AcDbText
 73
     2
  0
TEXT
  5
1C61
330
1F
100
AcDbEntity
  8
TEXT1
100
AcDbText
 10
100.4800912621936
 20
18.59928487308165
 30
0.0
 40
0.6399937636239339
  1
3
  7
ROMANS
 72
     1
 11
100.7848501972526
 21
18.91928175489361
 31
0.0
100
AcDbText
 73
     2
  0
TEXT
  5
1C62
330
1F
100
AcDbEntity
  8
TEXT1
100
AcDbText
 10
98.49824663184337
 20
20.38596112705003
 30
0.0
 40
0.6399937636239339
  1
MAX
  7
ROMANS
 72
     1
 11
99.45823727727926
 21
20.705958008862
 31
0.0
100
AcDbText
 73
     2
  0
TEXT
  5
1C63
330
1F
100
AcDbEntity
  8
TEXT1
100
AcDbText
 10
105.6376562689721
 20
18.62932327300911
 30
0.0
 40
0.6400000000000001
  1
Ø
  7
ROMANS
 72
     1
 11
105.9728943642102
 21
18.94932327300911
 31
0.0
100
AcDbText
 73
     2
  0
TEXT
  5
1C64
330
1F
100
AcDbEntity
  8
TEXT1
100
AcDbText
 10
104.9028854318057
 20
18.62932639119715
 30
0.0
 40
0.6399937636239339
  1
1
  7
ROMANS
 72
     1
 11
105.1619305266058
 21
18.94932327300911
 31
0.0
100
AcDbText
 73
     2
  0
TEXT
  5
1C65
330
1F
100
AcDbEntity
  8
TEXT1
100
AcDbText
 10
126.6300136078261
 20
16.89600264516553
 30
0.0
 40
0.6399937636239339
  1
-
  7
ROMANS
 72
     1
 11
127.0262002234028
 21
17.21599952697749
 31
0.0
100
AcDbText
 73
     2
  0
TEXT
  5
1C66
330
1F
100
AcDbEntity
  8
TEXT1
100
AcDbText
 10
122.1036628068091
 20
16.89600264516553
 30
0.0
 40
0.6399937636239339
  1
40^ 
  7
ROMANS
 72
     1
 11
123.048415505492
 21
17.21599952697749
 31
0.0
100
AcDbText
 73
     2
  0
TEXT
  5
1C67
330
1F
100
AcDbEntity
  8
TEXT1
100
AcDbText
 10
118.3244741747491
 20
16.89600264516552
 30
0.0
 40
0.6399937636239339
  1
-
  7
ROMANS
 72
     1
 11
118.7206607903258
 21
17.21599952697749
 31
0.0
100
AcDbText
 73
     2
  0
TEXT
  5
1C68
330
1F
100
AcDbEntity
  8
TEXT1
100
AcDbText
 10
109.5244741747491
 20
16.89600264516552
 30
0.0
 40
0.6399937636239339
  1
-
  7
ROMANS
 72
     1
 11
109.9206607903258
 21
17.21599952697749
 31
0.0
100
AcDbText
 73
     2
  0
LINE
  5
1C69
330
1F
100
AcDbEntity
  8
CONTINUOUS1
100
AcDbLine
 10
112.6582372772792
 20
21.6159995269775
 30
0.0
 11
112.6582372772792
 21
9.265958008862057
 31
0.0
  0
LINE
  5
1C6A
330
1F
100
AcDbEntity
  8
CONTINUOUS1
100
AcDbLine
 10
121.4582372772792
 20
24.2559995269775
 30
0.0
 11
121.4582372772792
 21
9.235916490746575
 31
0.0
  0
LINE
  5
1C6B
330
1F
100
AcDbEntity
  8
CONTINUOUS1
100
AcDbLine
 10
125.3476490914122
 20
24.25599952697746
 30
0.0
 11
125.3476490914122
 21
9.29599952697751
 31
0.0
  0
TEXT
  5
1C6C
330
1F
100
AcDbEntity
  8
TEXT1
100
AcDbText
 10
126.621346317894
 20
15.13600264516552
 30
0.0
 40
0.6399937636239339
  1
-
  7
ROMANS
 72
     1
 11
127.0175329334707
 21
15.45599952697749
 31
0.0
100
AcDbText
 73
     2
  0
TEXT
  5
1C6D
330
1F
100
AcDbEntity
  8
TEXT1
100
AcDbText
 10
126.0727802347878
 20
13.37600264516552
 30
0.0
 40
0.6399937636239339
  1
50^ 
  7
ROMANS
 72
     1
 11
127.0175329334707
 21
13.69599952697749
 31
0.0
100
AcDbText
 73
     2
  0
TEXT
  5
1C6E
330
1F
100
AcDbEntity
  8
TEXT1
100
AcDbText
 10
125.7223074594699
 20
9.856002645165519
 30
0.0
 40
0.6399937636239339
  1
50^ <
  7
ROMANS
 72
     1
 11
127.0175329334707
 21
10.17599952697748
 31
0.0
100
AcDbText
 73
     2
  0
TEXT
  5
1C6F
330
1F
100
AcDbEntity
  8
TEXT1
100
AcDbText
 10
109.2959049734548
 20
13.37600264516552
 30
0.0
 40
0.6399937636239339
  1
60
  7
ROMANS
 72
     1
 11
109.9206607903258
 21
13.69599952697749
 31
0.0
100
AcDbText
 73
     2
  0
TEXT
  5
1C70
330
1F
100
AcDbEntity
  8
TEXT1
100
AcDbText
 10
109.5244741747491
 20
9.856002645165521
 30
0.0
 40
0.6399937636239339
  1
-
  7
ROMANS
 72
     1
 11
109.9206607903258
 21
10.17599952697748
 31
0.0
100
AcDbText
 73
     2
  0
TEXT
  5
1C71
330
1F
100
AcDbEntity
  8
TEXT1
100
AcDbText
 10
109.5244741747491
 20
15.13600264516552
 30
0.0
 40
0.6399937636239339
  1
-
  7
ROMANS
 72
     1
 11
109.9206607903258
 21
15.45599952697749
 31
0.0
100
AcDbText
 73
     2
  0
TEXT
  5
1C72
330
1F
100
AcDbEntity
  8
TEXT1
100
AcDbText
 10
113.575595784295
 20
13.37600264516552
 30
0.0
 40
0.6399937636239339
  1
50^ 
  7
ROMANS
 72
     1
 11
114.520348482978
 21
13.69599952697749
 31
0.0
100
AcDbText
 73
     2
  0
TEXT
  5
1C73
330
1F
100
AcDbEntity
  8
TEXT1
100
AcDbText
 10
113.575595784295
 20
9.856002645165521
 30
0.0
 40
0.6399937636239339
  1
50^ 
  7
ROMANS
 72
     1
 11
114.520348482978
 21
10.17599952697748
 31
0.0
100
AcDbText
 73
     2
  0
TEXT
  5
1C74
330
1F
100
AcDbEntity
  8
TEXT1
100
AcDbText
 10
114.1241618674012
 20
15.13600264516552
 30
0.0
 40
0.6399937636239339
  1
-
  7
ROMANS
 72
     1
 11
114.520348482978
 21
15.45599952697749
 31
0.0
100
AcDbText
 73
     2
  0
TEXT
  5
1C75
330
1F
100
AcDbEntity
  8
TEXT1
100
AcDbText
 10
117.7606701448899
 20
13.37600264516552
 30
0.0
 40
0.6399937636239339
  1
150
  7
ROMANS
 72
     1
 11
118.7206607903258
 21
13.69599952697749
 31
0.0
100
AcDbText
 73
     2
  0
TEXT
  5
1C76
330
1F
100
AcDbEntity
  8
TEXT1
100
AcDbText
 10
117.7606701448899
 20
9.856002645165521
 30
0.0
 40
0.6399937636239339
  1
150
  7
ROMANS
 72
     1
 11
118.7206607903258
 21
10.17599952697748
 31
0.0
100
AcDbText
 73
     2
  0
TEXT
  5
1C77
330
1F
100
AcDbEntity
  8
TEXT1
100
AcDbText
 10
118.3244741747491
 20
15.13600264516552
 30
0.0
 40
0.6399937636239339
  1
-
  7
ROMANS
 72
     1
 11
118.7206607903258
 21
15.45599952697749
 31
0.0
100
AcDbText
 73
     2
  0
TEXT
  5
1C79
330
1F
100
AcDbEntity
  8
TEXT1
100
AcDbText
 10
122.1036628068091
 20
13.37600264516552
 30
0.0
 40
0.6399937636239339
  1
40^ 
  7
ROMANS
 72
     1
 11
123.048415505492
 21
13.69599952697749
 31
0.0
100
AcDbText
 73
     2
  0
TEXT
  5
1C7A
330
1F
100
AcDbEntity
  8
TEXT1
100
AcDbText
 10
121.7531900314912
 20
9.856002645165519
 30
0.0
 40
0.6399937636239339
  1
40^ <
  7
ROMANS
 72
     1
 11
123.048415505492
 21
10.17599952697748
 31
0.0
100
AcDbText
 73
     2
  0
TEXT
  5
1C7D
330
1F
100
AcDbEntity
  8
TEXT1
100
AcDbText
 10
122.1036628068091
 20
15.13600264516552
 30
0.0
 40
0.6399937636239339
  1
40^ 
  7
ROMANS
 72
     1
 11
123.048415505492
 21
15.45599952697749
 31
0.0
100
AcDbText
 73
     2
  0
TEXT
  5
1C7E
330
1F
100
AcDbEntity
  8
TEXT1
100
AcDbText
 10
126.0933554973078
 20
23.05600264516554
 30
0.0
 40
0.6399937636239339
  1
600
  7
ROMANS
 72
     1
 11
127.0228702492378
 21
23.3759995269775
 31
0.0
100
AcDbText
 73
     2
  0
TEXT
  5
1C7F
330
1F
100
AcDbEntity
  8
TEXT1
100
AcDbText
 10
126.1390693375666
 20
22.17600264516554
 30
0.0
 40
0.6399937636239339
  1
VDC
  7
ROMANS
 72
     1
 11
127.0228702492378
 21
22.4959995269775
 31
0.0
100
AcDbText
 73
     2
  0
TEXT
  5
1C80
330
1F
100
AcDbEntity
  8
TEXT1
100
AcDbText
 10
126.1576372584847
 20
20.38596112705004
 30
0.0
 40
0.6399937636239339
  1
STD
  7
ROMANS
 72
     1
 11
127.0262002234028
 21
20.70595800886201
 31
0.0
100
AcDbText
 73
     2
  0
TEXT
  5
1C81
330
1F
100
AcDbEntity
  8
TEXT1
100
AcDbText
 10
122.6079781455813
 20
26.97186874521797
 30
0.0
 40
0.6399937636239339
  1
MILLIMETERS
  7
ROMANS
 11
122.6079781455813
 21
27.29186562702994
 31
0.0
100
AcDbText
 73
     2
  0
TEXT
  5
1C82
330
1F
100
AcDbEntity
  8
TEXT1
100
AcDbText
 10
116.0982466318433
 20
20.38596112705004
 30
0.0
 40
0.6399937636239339
  1
MAX
  7
ROMANS
 72
     1
 11
117.0582372772792
 21
20.70595800886201
 31
0.0
100
AcDbText
 73
     2
  0
TEXT
  5
1C83
330
1F
100
AcDbEntity
  8
TEXT1
100
AcDbText
 10
110.860159560431
 20
22.17600264516554
 30
0.0
 40
0.6399937636239339
  1
600VAC
  7
ROMANS
 72
     1
 11
112.6582372772792
 21
22.4959995269775
 31
0.0
100
AcDbText
 73
     2
  0
TEXT
  5
1C84
330
1F
100
AcDbEntity
  8
TEXT1
100
AcDbText
 10
109.2800912621936
 20
18.59928487308165
 30
0.0
 40
0.6399937636239339
  1
3
  7
ROMANS
 72
     1
 11
109.5848501972526
 21
18.91928175489362
 31
0.0
100
AcDbText
 73
     2
  0
TEXT
  5
1C85
330
1F
100
AcDbEntity
  8
TEXT1
100
AcDbText
 10
110.0605759396189
 20
18.59928175489362
 30
0.0
 40
0.6400000000000001
  1
Ø
  7
ROMANS
 72
     1
 11
110.395814034857
 21
18.91928175489362
 31
0.0
100
AcDbText
 73
     2
  0
TEXT
  5
1C86
330
1F
100
AcDbEntity
  8
TEXT1
100
AcDbText
 10
107.389674312361
 20
20.41600264516553
 30
0.0
 40
0.6399937636239339
  1
STD
  7
ROMANS
 72
     1
 11
108.2582372772792
 21
20.7359995269775
 31
0.0
100
AcDbText
 73
     2
  0
TEXT
  5
1C87
330
1F
100
AcDbEntity
  8
TEXT1
100
AcDbText
 10
114.1241618674012
 20
16.89600264516552
 30
0.0
 40
0.6399937636239339
  1
-
  7
ROMANS
 72
     1
 11
114.520348482978
 21
17.21599952697749
 31
0.0
100
AcDbText
 73
     2
  0
TEXT
  5
1C88
330
1F
100
AcDbEntity
  8
TEXT1
100
AcDbText
 10
113.7028854318057
 20
18.62932639119715
 30
0.0
 40
0.6399937636239339
  1
1
  7
ROMANS
 72
     1
 11
113.9619305266059
 21
18.94932327300911
 31
0.0
100
AcDbText
 73
     2
  0
TEXT
  5
1C89
330
1F
100
AcDbEntity
  8
TEXT1
100
AcDbText
 10
114.4376562689721
 20
18.62932327300911
 30
0.0
 40
0.6400000000000001
  1
Ø
  7
ROMANS
 72
     1
 11
114.7728943642102
 21
18.94932327300911
 31
0.0
100
AcDbText
 73
     2
  0
TEXT
  5
1C8A
330
1F
100
AcDbEntity
  8
TEXT1
100
AcDbText
 10
122.1351553551719
 20
23.05600264516554
 30
0.0
 40
0.6399937636239339
  1
250
  7
ROMANS
 72
     1
 11
123.0494321603489
 21
23.3759995269775
 31
0.0
100
AcDbText
 73
     2
  0
TEXT
  5
1C8B
330
1F
100
AcDbEntity
  8
TEXT1
100
AcDbText
 10
118.8605759396189
 20
18.59928175489362
 30
0.0
 40
0.6400000000000001
  1
Ø
  7
ROMANS
 72
     1
 11
119.195814034857
 21
18.91928175489362
 31
0.0
100
AcDbText
 73
     2
  0
TEXT
  5
1C8C
330
1F
100
AcDbEntity
  8
TEXT1
100
AcDbText
 10
118.0800912621936
 20
18.59928487308165
 30
0.0
 40
0.6399937636239339
  1
3
  7
ROMANS
 72
     1
 11
118.3848501972526
 21
18.91928175489362
 31
0.0
100
AcDbText
 73
     2
  0
TEXT
  5
1C8D
330
1F
100
AcDbEntity
  8
TEXT1
100
AcDbText
 10
122.1798525405738
 20
20.38596112705004
 30
0.0
 40
0.6399937636239339
  1
STD
  7
ROMANS
 72
     1
 11
123.048415505492
 21
20.70595800886201
 31
0.0
100
AcDbText
 73
     2
  0
TEXT
  5
1C8E
330
1F
100
AcDbEntity
  8
TEXT1
100
AcDbText
 10
122.1656312486778
 20
22.17600264516554
 30
0.0
 40
0.6399937636239339
  1
VDC
  7
ROMANS
 72
     1
 11
123.0494321603489
 21
22.4959995269775
 31
0.0
100
AcDbText
 73
     2
  0
TEXT
  5
1C8F
330
1F
100
AcDbEntity
  8
TEXT1
100
AcDbText
 10
113.3380291861945
 20
27.6635963613164
 30
0.0
 40
0.6399937636239339
  1
DUAL DIMENSIONS:
  7
ROMANS
 11
113.3380291861945
 21
27.98359324312837
 31
0.0
100
AcDbText
 73
     2
  0
TEXT
  5
1C90
330
1F
100
AcDbEntity
  8
TEXT1
100
AcDbText
 10
122.6606912667895
 20
28.07909807137075
 30
0.0
 40
0.8
  1
INCHES
  7
ROMANS
 11
122.6606912667895
 21
28.47909807137075
 31
0.0
100
AcDbText
 73
     2
  0
TEXT
  5
1CA3
330
1F
100
AcDbEntity
  8
TEXT1
100
AcDbText
 10
50.11167340750388
 20
21.20528455466045
 30
0.0
 40
0.6399937636239339
  1
NUMBER
  7
ROMANS
 72
     1
 11
52.09260648538748
 21
21.52528143647241
 31
0.0
100
AcDbText
 73
     2
  0
TEXT
  5
1CAA
330
1F
100
AcDbEntity
  8
TEXT1
100
AcDbText
 10
56.1135956906557
 20
9.856002645165514
 30
0.0
 40
0.6399937636239339
  1
600VAC;600VDC
  7
ROMANS
 72
     1
 11
59.8926064853875
 21
10.17599952697748
 31
0.0
100
AcDbText
 73
     2
  0
TEXT
  5
1D27
330
1F
100
AcDbEntity
  8
TEXT1
100
AcDbText
 10
3.066542505696034
 20
4.319999999999999
 30
0.0
 40
0.6400000000000001
  1
IF CORNER GROUNDED DELTA, USE OUTER SWITCHING POLES FOR UNGROUNDED CONDUCTORS.
 41
0.9113027676363094
  7
M_STANDARD
 11
3.066542505696034
 21
4.639999999999999
 31
0.0
100
AcDbText
 73
     2
  0
TEXT
  5
1D2D
330
1F
100
AcDbEntity
  8
TEXT1
100
AcDbText
 10
3.066542505696034
 20
1.692621613154285
 30
0.0
 40
0.6400000000000001
  1
MAX RATING
 41
0.9113027676363094
  7
M_STANDARD
 11
3.066542505696034
 21
2.012621613154285
 31
0.0
100
AcDbText
 73
     2
  0
MTEXT
  5
1D2E
330
1F
100
AcDbEntity
  8
TEXT1
100
AcDbMText
 10
2.052870855455523
 20
2.342368367720629
 30
0.0
 40
0.6400000000000001
 41
0.5149
 71
     1
 72
     5
  1
<
  7
M_STANDARD
1001
ACAD
1000
MTEXTBEGIN
1070
    73
1070
     1
1070
    44
1040
1.0
1070
    74
1070
     0
1000
MTEXTEND
  0
INSERT
  5
1DCF
330
1F
100
AcDbEntity
  8
0
100
AcDbBlockReference
  2
__
 10
2.196809361955672
 20
5.315170244108836
 30
0.0
  0
CIRCLE
  5
2404
330
1F
100
AcDbEntity
  8
HIDDEN1
100
AcDbCircle
 10
104.732535141571
 20
64.10136079481503
 30
0.0
 40
0.3054387770830012
  0
CIRCLE
  5
2405
330
1F
100
AcDbEntity
  8
HIDDEN1
100
AcDbCircle
 10
104.732535141571
 20
54.50136079481502
 30
0.0
 40
0.3054387770830012
  0
LINE
  5
2406
330
1F
100
AcDbEntity
  8
0
100
AcDbLine
 10
96.64076994763185
 20
72.83625328710936
 30
0.0
 11
129.1997699628906
 21
72.83625328710936
 31
0.0
  0
LINE
  5
2407
330
1F
100
AcDbEntity
  8
0
100
AcDbLine
 10
96.64076994763185
 20
75.88358223608397
 30
0.0
 11
129.1997699628906
 21
75.88358223608397
 31
0.0
  0
LWPOLYLINE
  5
2408
330
1F
100
AcDbEntity
  8
0
100
AcDbPolyline
 90
        4
 70
   129
 43
0.0
 10
96.64076994763185
 20
79.59998352697752
 10
129.1997699628906
 20
79.59998352697754
 10
129.1997699628906
 20
52.99438460043333
 10
96.64076994763185
 20
52.99438460043332
  0
LWPOLYLINE
  5
2409
330
1F
100
AcDbEntity
  8
CONTINUOUS1
100
AcDbPolyline
 90
        5
 70
   128
 43
0.0
 10
103.0389230238037
 20
65.5295229690399
 10
103.0389230238037
 20
66.37377364805257
 42
-1.002526647105339
 10
103.0413424290391
 20
67.33374374678601
 42
0.9836376677443936
 10
103.0344796644287
 20
68.29375808409299
 10
103.0344796644287
 20
69.1380087631091
  0
LWPOLYLINE
  5
240A
330
1F
100
AcDbEntity
  8
CONTINUOUS1
100
AcDbPolyline
 90
        5
 70
   128
 43
0.0
 10
101.5793710218505
 20
65.5295229690399
 10
101.5793710218505
 20
66.37377364805257
 42
-1.002526647105339
 10
101.5817904270859
 20
67.33374374678601
 42
0.9836376677443936
 10
101.5749276624756
 20
68.29375808409299
 10
101.5749276624756
 20
69.1380087631091
  0
LINE
  5
240B
330
1F
100
AcDbEntity
  8
CONTINUOUS1
100
AcDbLine
 10
100.8546754346923
 20
59.53800876310911
 30
0.0
 11
101.3557679639892
 21
61.11370456389035
 31
0.0
  0
LINE
  5
240C
330
1F
100
AcDbEntity
  8
CONTINUOUS1
100
AcDbLine
 10
102.3142274366455
 20
59.53800876310911
 30
0.0
 11
102.8153199659423
 21
61.11370456389035
 31
0.0
  0
LINE
  5
240D
330
1F
100
AcDbEntity
  8
CONTINUOUS1
100
AcDbLine
 10
103.7737489210205
 20
59.53800876310911
 30
0.0
 11
104.2748414503174
 21
61.11370456389035
 31
0.0
  0
TEXT
  5
240E
330
1F
100
AcDbEntity
  8
TEXT1
100
AcDbText
 10
98.65392806283715
 20
58.14321391752623
 30
0.0
 40
0.8
  1
B
  7
ROMANS
 72
     1
 11
99.07297568188477
 21
58.54321391752623
 31
0.0
100
AcDbText
 73
     2
  0
LWPOLYLINE
  5
240F
330
1F
100
AcDbEntity
  8
CONTINUOUS1
100
AcDbPolyline
 90
        5
 70
   128
 43
0.0
 10
100.8591187940673
 20
55.92952296903991
 10
100.8591187940673
 20
56.77377364805258
 42
-1.00252664711122
 10
100.8615381993027
 20
57.733743746786
 42
0.983637667741746
 10
100.8546754346923
 20
58.69375808409299
 10
100.8546754346923
 20
59.53800876310911
  0
LWPOLYLINE
  5
2410
330
1F
100
AcDbEntity
  8
CONTINUOUS1
100
AcDbPolyline
 90
        5
 70
   128
 43
0.0
 10
102.3186707960205
 20
55.92952296903991
 10
102.3186707960205
 20
56.77377364805258
 42
-1.00252664711122
 10
102.3210902012559
 20
57.733743746786
 42
0.983637667741746
 10
102.3142274366455
 20
58.69375808409299
 10
102.3142274366455
 20
59.53800876310911
  0
LWPOLYLINE
  5
2411
330
1F
100
AcDbEntity
  8
CONTINUOUS1
100
AcDbPolyline
 90
        5
 70
   128
 43
0.0
 10
103.7781922803955
 20
55.92952296903991
 10
103.7781922803955
 20
56.77377364805258
 42
-1.002526647117086
 10
103.7806116856309
 20
57.73374374678602
 42
0.9836376677425457
 10
103.7737489210205
 20
58.69375808409299
 10
103.7737489210205
 20
59.53800876310911
  0
LWPOLYLINE
  5
2412
330
1F
100
AcDbEntity
  8
HIDDEN1
100
AcDbPolyline
 90
        4
 70
   129
 43
0.0
 10
103.3929884039035
 20
54.03037034681698
 10
103.3929884039035
 20
54.97235124275163
 10
101.2443531881374
 20
54.97235124275161
 10
101.2443531881374
 20
54.03037034681696
  0
CIRCLE
  5
2413
330
1F
100
AcDbEntity
  8
CONTINUOUS1
100
AcDbCircle
 10
102.3186707960205
 20
55.62408419196152
 30
0.0
 40
0.3054387770830003
  0
TEXT
  5
2414
330
1F
100
AcDbEntity
  8
TEXT1
100
AcDbText
 10
101.3586707960205
 20
54.1813607947843
 30
0.0
 40
0.6400000000000001
  1
S/N
  7
ROMANS
 72
     1
 11
102.3186707960205
 21
54.5013607947843
 31
0.0
100
AcDbText
 73
     2
  0
LINE
  5
2415
330
1F
100
AcDbEntity
  8
HIDDEN1
100
AcDbLine
 10
100.2096202169494
 20
54.50136079481501
 30
0.0
 11
101.2443531881374
 21
54.50136079481501
 31
0.0
  0
CIRCLE
  5
2416
330
1F
100
AcDbEntity
  8
HIDDEN1
100
AcDbCircle
 10
99.90477593289185
 20
54.52040834120173
 30
0.0
 40
0.3054387770830003
  0
CIRCLE
  5
2417
330
1F
100
AcDbEntity
  8
CONTINUOUS1
100
AcDbCircle
 10
100.8591187940673
 20
55.62408419196152
 30
0.0
 40
0.3054387770830003
  0
LINE
  5
2418
330
1F
100
AcDbEntity
  8
HIDDEN1
100
AcDbLine
 10
104.4270963644923
 20
54.50136079481502
 30
0.0
 11
103.3929884039035
 21
54.50136079481502
 31
0.0
  0
CIRCLE
  5
2419
330
1F
100
AcDbEntity
  8
CONTINUOUS1
100
AcDbCircle
 10
103.7781922803955
 20
55.62408419196152
 30
0.0
 40
0.3054387770829719
  0
CIRCLE
  5
241A
330
1F
100
AcDbEntity
  8
CONTINUOUS1
100
AcDbCircle
 10
102.3377183424072
 20
62.26279952696065
 30
0.0
 40
0.3054387770830003
  0
LINE
  5
241B
330
1F
100
AcDbEntity
  8
HIDDEN1
100
AcDbLine
 10
101.138408
 20
60.43006336584472
 30
0.0
 11
104.057608
 21
60.43006336584472
 31
0.0
  0
LINE
  5
241C
330
1F
100
AcDbEntity
  8
CONTINUOUS1
100
AcDbLine
 10
100.8591187940673
 20
61.95795524290304
 30
0.0
 11
100.8591187940673
 21
61.11370456389035
 31
0.0
  0
CIRCLE
  5
241D
330
1F
100
AcDbEntity
  8
CONTINUOUS1
100
AcDbCircle
 10
100.8781663404541
 20
62.26279952696065
 30
0.0
 40
0.3054387770830003
  0
LINE
  5
241E
330
1F
100
AcDbEntity
  8
CONTINUOUS1
100
AcDbLine
 10
102.3186707960205
 20
61.95795524290304
 30
0.0
 11
102.3186707960205
 21
61.11370456389035
 31
0.0
  0
LINE
  5
241F
330
1F
100
AcDbEntity
  8
CONTINUOUS1
100
AcDbLine
 10
103.7781922803955
 20
61.95795524290304
 30
0.0
 11
103.7781922803955
 21
61.11370456389035
 31
0.0
  0
CIRCLE
  5
2420
330
1F
100
AcDbEntity
  8
CONTINUOUS1
100
AcDbCircle
 10
103.7972398267822
 20
62.26279952696065
 30
0.0
 40
0.3054387770829719
  0
LWPOLYLINE
  5
2421
330
1F
100
AcDbEntity
  8
HIDDEN1
100
AcDbPolyline
 90
        4
 70
   129
 43
0.0
 10
103.3929884039035
 20
63.63037034681699
 10
103.3929884039035
 20
64.57235124275164
 10
101.2443531881374
 20
64.57235124275162
 10
101.2443531881374
 20
63.63037034681697
  0
TEXT
  5
2422
330
1F
100
AcDbEntity
  8
TEXT1
100
AcDbText
 10
101.3586707960205
 20
63.78136079478431
 30
0.0
 40
0.6400000000000001
  1
S/N
  7
ROMANS
 72
     1
 11
102.3186707960205
 21
64.10136079478431
 31
0.0
100
AcDbText
 73
     2
  0
LINE
  5
2423
330
1F
100
AcDbEntity
  8
HIDDEN1
100
AcDbLine
 10
100.2096202169494
 20
64.10136079481502
 30
0.0
 11
101.2443531881374
 21
64.10136079481502
 31
0.0
  0
CIRCLE
  5
2424
330
1F
100
AcDbEntity
  8
HIDDEN1
100
AcDbCircle
 10
99.90477593289185
 20
64.12040834120174
 30
0.0
 40
0.3054387770830003
  0
CIRCLE
  5
2425
330
1F
100
AcDbEntity
  8
CONTINUOUS1
100
AcDbCircle
 10
101.5793710218505
 20
65.22408419196151
 30
0.0
 40
0.3054387770830003
  0
LINE
  5
2426
330
1F
100
AcDbEntity
  8
HIDDEN1
100
AcDbLine
 10
104.4270963644923
 20
64.10136079481503
 30
0.0
 11
103.3929884039035
 21
64.10136079481503
 31
0.0
  0
CIRCLE
  5
2427
330
1F
100
AcDbEntity
  8
CONTINUOUS1
100
AcDbCircle
 10
103.0389230238037
 20
65.22408419196151
 30
0.0
 40
0.3054387770830003
  0
TEXT
  5
2428
330
1F
100
AcDbEntity
  8
TEXT1
100
AcDbText
 10
98.73011853902763
 20
67.74321391752621
 30
0.0
 40
0.8
  1
A
  7
ROMANS
 72
     1
 11
99.07297568188477
 21
68.14321391752622
 31
0.0
100
AcDbText
 73
     2
  0
LINE
  5
2429
330
1F
100
AcDbEntity
  8
CONTINUOUS1
100
AcDbLine
 10
103.0344796644287
 20
69.1380087631091
 30
0.0
 11
103.5355721937255
 21
70.71370456389034
 31
0.0
  0
LINE
  5
242A
330
1F
100
AcDbEntity
  8
CONTINUOUS1
100
AcDbLine
 10
101.5749276624756
 20
69.1380087631091
 30
0.0
 11
102.0760201917724
 21
70.71370456389034
 31
0.0
  0
LINE
  5
242B
330
1F
100
AcDbEntity
  8
HIDDEN1
100
AcDbLine
 10
101.8584079999999
 20
70.03006336584473
 30
0.0
 11
103.318408
 21
70.03006336584473
 31
0.0
  0
LINE
  5
242C
330
1F
100
AcDbEntity
  8
CONTINUOUS1
100
AcDbLine
 10
101.5793710218505
 20
71.55795524290303
 30
0.0
 11
101.5793710218505
 21
70.71370456389034
 31
0.0
  0
CIRCLE
  5
242D
330
1F
100
AcDbEntity
  8
CONTINUOUS1
100
AcDbCircle
 10
101.5984185682373
 20
71.86279952696065
 30
0.0
 40
0.3054387770830003
  0
LINE
  5
242E
330
1F
100
AcDbEntity
  8
CONTINUOUS1
100
AcDbLine
 10
103.0389230238037
 20
71.55795524290303
 30
0.0
 11
103.0389230238037
 21
70.71370456389034
 31
0.0
  0
CIRCLE
  5
242F
330
1F
100
AcDbEntity
  8
CONTINUOUS1
100
AcDbCircle
 10
103.0579705701904
 20
71.86279952696065
 30
0.0
 40
0.3054387770830003
  0
CIRCLE
  5
2430
330
1F
100
AcDbEntity
  8
CONTINUOUS1
100
AcDbCircle
 10
121.907120121582
 20
66.33681006018925
 30
0.0
 40
0.3054387770830012
  0
CIRCLE
  5
2431
330
1F
100
AcDbEntity
  8
CONTINUOUS1
100
AcDbCircle
 10
123.3666782270507
 20
66.33681006018925
 30
0.0
 40
0.305438777082987
  0
CIRCLE
  5
2432
330
1F
100
AcDbEntity
  8
CONTINUOUS1
100
AcDbCircle
 10
124.8261966596679
 20
66.33680548255252
 30
0.0
 40
0.3054387770830003
  0
LWPOLYLINE
  5
2433
330
1F
100
AcDbEntity
  8
CONTINUOUS1
100
AcDbPolyline
 90
        5
 70
   128
 43
0.0
 10
111.9186707960205
 20
65.5295229690399
 10
111.9186707960205
 20
66.37377364805257
 42
-1.002526647105324
 10
111.9210902012559
 20
67.33374374678601
 42
0.9836376677443936
 10
111.9142274366455
 20
68.29375808409299
 10
111.9142274366455
 20
69.1380087631091
  0
LWPOLYLINE
  5
2434
330
1F
100
AcDbEntity
  8
CONTINUOUS1
100
AcDbPolyline
 90
        5
 70
   128
 43
0.0
 10
113.3781922803955
 20
65.5295229690399
 10
113.3781922803955
 20
66.37377364805257
 42
-1.002526647105354
 10
113.3806116856308
 20
67.33374374678601
 42
0.9836376677426285
 10
113.3737489210205
 20
68.29375808409299
 10
113.3737489210205
 20
69.1380087631091
  0
LWPOLYLINE
  5
2435
330
1F
100
AcDbEntity
  8
CONTINUOUS1
100
AcDbPolyline
 90
        5
 70
   128
 43
0.0
 10
110.4591187940674
 20
65.5295229690399
 10
110.4591187940674
 20
66.37377364805257
 42
-1.002526647105339
 10
110.4615381993027
 20
67.33374374678601
 42
0.9836376677443936
 10
110.4546754346923
 20
68.29375808409299
 10
110.4546754346923
 20
69.1380087631091
  0
LINE
  5
2436
330
1F
100
AcDbEntity
  8
0
100
AcDbLine
 10
117.7927917371826
 20
75.88358223608397
 30
0.0
 11
117.7927917371826
 21
52.9943846004334
 31
0.0
  0
LINE
  5
2437
330
1F
100
AcDbEntity
  8
HIDDEN1
100
AcDbLine
 10
125.4751037955226
 20
65.21408666304278
 30
0.0
 11
124.4409958349337
 21
65.21408666304278
 31
0.0
  0
CIRCLE
  5
2438
330
1F
100
AcDbEntity
  8
CONTINUOUS1
100
AcDbCircle
 10
110.4591187940673
 20
65.22408419196151
 30
0.0
 40
0.3054387770830003
  0
CIRCLE
  5
2439
330
1F
100
AcDbEntity
  8
CONTINUOUS1
100
AcDbCircle
 10
111.9186707960205
 20
65.22408419196151
 30
0.0
 40
0.3054387770830003
  0
CIRCLE
  5
243A
330
1F
100
AcDbEntity
  8
CONTINUOUS1
100
AcDbCircle
 10
113.3781922803954
 20
65.22408419196151
 30
0.0
 40
0.3054387770829994
  0
LWPOLYLINE
  5
243B
330
1F
100
AcDbEntity
  8
HIDDEN1
100
AcDbPolyline
 90
        4
 70
   129
 43
0.0
 10
124.4409958349337
 20
64.74309621504473
 10
124.4409958349337
 20
65.68507711097938
 10
122.2923606191677
 20
65.68507711097936
 10
122.2923606191677
 20
64.74309621504471
  0
CIRCLE
  5
243C
330
1F
100
AcDbEntity
  8
HIDDEN1
100
AcDbCircle
 10
120.9527833639221
 20
65.23313420942947
 30
0.0
 40
0.3054387770830003
  0
LINE
  5
243D
330
1F
100
AcDbEntity
  8
HIDDEN1
100
AcDbLine
 10
121.2576276479797
 20
65.21408666304276
 30
0.0
 11
122.2923606191677
 21
65.21408666304276
 31
0.0
  0
TEXT
  5
243E
330
1F
100
AcDbEntity
  8
TEXT1
100
AcDbText
 10
122.4066782270508
 20
64.89408666301206
 30
0.0
 40
0.6400000000000001
  1
S/N
  7
ROMANS
 72
     1
 11
123.3666782270507
 21
65.21408666301205
 31
0.0
100
AcDbText
 73
     2
  0
CIRCLE
  5
243F
330
1F
100
AcDbEntity
  8
HIDDEN1
100
AcDbCircle
 10
125.7805425726012
 20
65.21408666304278
 30
0.0
 40
0.3054387770830012
  0
CIRCLE
  5
2440
330
1F
100
AcDbEntity
  8
CONTINUOUS1
100
AcDbCircle
 10
124.8452411542968
 20
70.17794830015301
 30
0.0
 40
0.3054387770829719
  0
LWPOLYLINE
  5
2441
330
1F
100
AcDbEntity
  8
CONTINUOUS1
100
AcDbPolyline
 90
        3
 70
   128
 43
0.0
 10
124.8261966596679
 20
66.6422442596309
 10
124.8261966596679
 20
67.4864949386444
 10
125.3272891889648
 20
69.06219073942565
  0
LINE
  5
2442
330
1F
100
AcDbEntity
  8
HIDDEN1
100
AcDbLine
 10
122.191208
 20
68.37862336584473
 30
0.0
 11
125.109608
 21
68.37862336584473
 31
0.0
  0
TEXT
  5
2443
330
1F
100
AcDbEntity
  8
TEXT1
100
AcDbText
 10
119.5735230836762
 20
73.96556938818356
 30
0.0
 40
0.8
  1
NOT FUSIBLE
  7
ROMANS
 72
     1
 11
123.535427845581
 21
74.36556938818357
 31
0.0
100
AcDbText
 73
     2
  0
TEXT
  5
2444
330
1F
100
AcDbEntity
  8
TEXT1
100
AcDbText
 10
108.1490025293608
 20
77.07660545996091
 30
0.0
 40
0.8
  1
WIRING DIAGRAMS
  7
ROMANS
 72
     1
 11
113.387097767456
 21
77.47660545996092
 31
0.0
100
AcDbText
 73
     2
  0
TEXT
  5
2445
330
1F
100
AcDbEntity
  8
TEXT1
100
AcDbText
 10
108.2729756818847
 20
67.74321391752621
 30
0.0
 40
0.8
  1
C
  7
ROMANS
 72
     1
 11
108.6729756818847
 21
68.14321391752622
 31
0.0
100
AcDbText
 73
     2
  0
LINE
  5
2446
330
1F
100
AcDbEntity
  8
CONTINUOUS1
100
AcDbLine
 10
111.9142274366455
 20
69.1380087631091
 30
0.0
 11
112.4153199659423
 21
70.71370456389034
 31
0.0
  0
LINE
  5
2447
330
1F
100
AcDbEntity
  8
CONTINUOUS1
100
AcDbLine
 10
113.3737489210205
 20
69.1380087631091
 30
0.0
 11
113.8748414503173
 21
70.71370456389034
 31
0.0
  0
LINE
  5
2448
330
1F
100
AcDbEntity
  8
CONTINUOUS1
100
AcDbLine
 10
110.4546754346923
 20
69.1380087631091
 30
0.0
 11
110.9557679639892
 21
70.71370456389034
 31
0.0
  0
LINE
  5
2449
330
1F
100
AcDbEntity
  8
HIDDEN1
100
AcDbLine
 10
110.7384079999999
 20
70.03006336584473
 30
0.0
 11
113.6576079999999
 21
70.03006336584473
 31
0.0
  0
LINE
  5
244A
330
1F
100
AcDbEntity
  8
CONTINUOUS1
100
AcDbLine
 10
111.9186707960205
 20
71.55795524290303
 30
0.0
 11
111.9186707960205
 21
70.71370456389034
 31
0.0
  0
LINE
  5
244B
330
1F
100
AcDbEntity
  8
CONTINUOUS1
100
AcDbLine
 10
110.4591187940674
 20
71.55795524290303
 30
0.0
 11
110.4591187940674
 21
70.71370456389034
 31
0.0
  0
CIRCLE
  5
244C
330
1F
100
AcDbEntity
  8
CONTINUOUS1
100
AcDbCircle
 10
110.478166340454
 20
71.86279952696065
 30
0.0
 40
0.3054387770830003
  0
CIRCLE
  5
244D
330
1F
100
AcDbEntity
  8
CONTINUOUS1
100
AcDbCircle
 10
111.9377183424072
 20
71.86279952696065
 30
0.0
 40
0.3054387770830003
  0
LINE
  5
244E
330
1F
100
AcDbEntity
  8
CONTINUOUS1
100
AcDbLine
 10
113.3781922803955
 20
71.55795524290303
 30
0.0
 11
113.3781922803955
 21
70.71370456389034
 31
0.0
  0
CIRCLE
  5
244F
330
1F
100
AcDbEntity
  8
CONTINUOUS1
100
AcDbCircle
 10
113.3972398267822
 20
71.86279952696065
 30
0.0
 40
0.3054387770830003
  0
TEXT
  5
2450
330
1F
100
AcDbEntity
  8
TEXT1
100
AcDbText
 10
104.7963802265334
 20
73.96556938818356
 30
0.0
 40
0.8
  1
FUSIBLE
  7
ROMANS
 72
     1
 11
107.215427845581
 21
74.36556938818357
 31
0.0
100
AcDbText
 73
     2
  0
LINE
  5
2451
330
1F
100
AcDbEntity
  8
CONTINUOUS1
100
AcDbLine
 10
123.3666751752929
 20
69.02885791471861
 30
0.0
 11
123.3666751752929
 21
69.87310859373211
 31
0.0
  0
LINE
  5
2452
330
1F
100
AcDbEntity
  8
CONTINUOUS1
100
AcDbLine
 10
124.8261936079101
 20
69.0288533370819
 30
0.0
 11
124.8261936079101
 21
69.8731040160954
 31
0.0
  0
LINE
  5
2453
330
1F
100
AcDbEntity
  8
CONTINUOUS1
100
AcDbLine
 10
121.9071170698242
 20
69.02885791471861
 30
0.0
 11
121.9071170698242
 21
69.87310859373211
 31
0.0
  0
LWPOLYLINE
  5
2454
330
1F
100
AcDbEntity
  8
CONTINUOUS1
100
AcDbPolyline
 90
        3
 70
   128
 43
0.0
 10
121.907120121582
 20
66.64224883726761
 10
121.907120121582
 20
67.48649951628111
 10
122.4082126508789
 20
69.06219531706236
  0
TEXT
  5
2455
330
1F
100
AcDbEntity
  8
TEXT1
100
AcDbText
 10
119.8833140491652
 20
67.75953895262144
 30
0.0
 40
0.8
  1
D
  7
ROMANS
 72
     1
 11
120.3023616682128
 21
68.15953895262144
 31
0.0
100
AcDbText
 73
     2
  0
LWPOLYLINE
  5
2456
330
1F
100
AcDbEntity
  8
CONTINUOUS1
100
AcDbPolyline
 90
        3
 70
   128
 43
0.0
 10
123.3666782270507
 20
66.64224883726761
 10
123.3666782270507
 20
67.48649951628111
 10
123.8677707563476
 20
69.06219531706236
  0
CIRCLE
  5
2457
330
1F
100
AcDbEntity
  8
CONTINUOUS1
100
AcDbCircle
 10
121.9261646162109
 20
70.17795287778973
 30
0.0
 40
0.3054387770830012
  0
CIRCLE
  5
2458
330
1F
100
AcDbEntity
  8
CONTINUOUS1
100
AcDbCircle
 10
123.3857227216797
 20
70.17795287778973
 30
0.0
 40
0.305438777082987
  0
LINE
  5
246E
330
1F
100
AcDbEntity
  8
CONTINUOUS1
100
AcDbLine
 10
114.0270963644923
 20
64.10136079481502
 30
0.0
 11
112.9929884039035
 21
64.10136079481502
 31
0.0
  0
LINE
  5
246F
330
1F
100
AcDbEntity
  8
CONTINUOUS1
100
AcDbLine
 10
109.8096202169494
 20
64.101360794815
 30
0.0
 11
110.8443531881375
 21
64.101360794815
 31
0.0
  0
CIRCLE
  5
2470
330
1F
100
AcDbEntity
  8
CONTINUOUS1
100
AcDbCircle
 10
109.5047759328918
 20
64.12040834120173
 30
0.0
 40
0.3054387770830003
  0
TEXT
  5
2471
330
1F
100
AcDbEntity
  8
TEXT1
100
AcDbText
 10
110.9586707960205
 20
63.7813607947843
 30
0.0
 40
0.6400000000000001
  1
S/N
  7
ROMANS
 72
     1
 11
111.9186707960205
 21
64.1013607947843
 31
0.0
100
AcDbText
 73
     2
  0
LWPOLYLINE
  5
2472
330
1F
100
AcDbEntity
  8
CONTINUOUS1
100
AcDbPolyline
 90
        4
 70
   129
 43
0.0
 10
112.9929884039035
 20
63.63037034681697
 10
112.9929884039035
 20
64.57235124275162
 10
110.8443531881375
 20
64.57235124275161
 10
110.8443531881375
 20
63.63037034681696
  0
CIRCLE
  5
2473
330
1F
100
AcDbEntity
  8
CONTINUOUS1
100
AcDbCircle
 10
114.332535141571
 20
64.10136079481502
 30
0.0
 40
0.3054387770830012
  0
TEXT
  5
2481
330
1F
100
AcDbEntity
  8
TEXT1
100
AcDbText
 10
3.088233139542452
 20
11.36
 30
0.0
 40
0.6400000000000001
  1
NEUTRALS - INSULATED GROUNDABLE
 41
0.9199432516896058
  7
M_STANDARD
 11
3.088233139542452
 21
11.68
 31
0.0
100
AcDbText
 73
     2
  0
TEXT
  5
2500
330
1F
100
AcDbEntity
  8
TEXT1
100
AcDbText
 10
3.066542505696034
 20
3.452621613154286
 30
0.0
 40
0.6400000000000001
  1
IF CORNER GROUNDED DELTA, INSTALL NEUTRAL AND USE OUTER SWITCHING POLES FOR UNGROUNDED CONDUCTORS.
 41
0.9113027676363094
  7
M_STANDARD
 11
3.066542505696034
 21
3.772621613154286
 31
0.0
100
AcDbText
 73
     2
  0
TEXT
  5
2506
330
1F
100
AcDbEntity
  8
TEXT1
100
AcDbText
 10
3.066542505696034
 20
2.572621613154285
 30
0.0
 40
0.6400000000000001
  1
USE ANY TWO SWITCHING POLES.
 41
0.9113027676363094
  7
M_STANDARD
 11
3.066542505696034
 21
2.892621613154285
 31
0.0
100
AcDbText
 73
     2
  0
MTEXT
  5
2507
330
1F
100
AcDbEntity
  8
TEXT1
100
AcDbMText
 10
2.250320116911359
 20
4.652621613154285
 30
0.0
 40
0.6400000000000001
 41
0.6985000000000001
 71
     5
 72
     5
  1
#
  7
M_STANDARD
1001
ACAD
1000
MTEXTBEGIN
1070
    73
1070
     1
1070
    44
1040
1.0
1070
    74
1070
     0
1000
MTEXTEND
  0
MTEXT
  5
2508
330
1F
100
AcDbEntity
  8
TEXT1
100
AcDbMText
 10
2.2831647343383
 20
2.892621613154285
 30
0.0
 40
0.6400000000000001
 41
0.6985000000000001
 71
     5
 72
     5
  1
^ 
  7
M_STANDARD
1001
ACAD
1000
MTEXTBEGIN
1070
    73
1070
     1
1070
    44
1040
1.0
1070
    74
1070
     0
1000
MTEXTEND
  0
MTEXT
  5
2509
330
1F
100
AcDbEntity
  8
TEXT1
100
AcDbMText
 10
2.283164734338299
 20
3.772621613154286
 30
0.0
 40
0.6400000000000001
 41
0.6985000000000001
 71
     5
 72
     5
  1
&
  7
M_STANDARD
1001
ACAD
1000
MTEXTBEGIN
1070
    73
1070
     1
1070
    44
1040
1.0
1070
    74
1070
     0
1000
MTEXTEND
  0
TEXT
  5
2521
330
1F
100
AcDbEntity
  8
TEXT1
100
AcDbText
 10
49.86786625945669
 20
11.61600264516552
 30
0.0
 40
0.6399937636239339
  1
H364NDS
  7
ROMANS
 72
     1
 11
52.0926064853875
 21
11.93599952697749
 31
0.0
100
AcDbText
 73
     2
  0
LWPOLYLINE
  5
2522
330
1F
100
AcDbEntity
  8
CONTINUOUS1
100
AcDbPolyline
 90
        2
 70
     0
 43
0.0
 10
48.89260648538749
 20
11.05599952697749
 10
129.1997699628906
 20
11.05599952697749
  0
TEXT
  5
2523
330
1F
100
AcDbEntity
  8
TEXT1
100
AcDbText
 10
56.1135956906557
 20
11.61600264516551
 30
0.0
 40
0.6399937636239339
  1
600VAC;600VDC
  7
ROMANS
 72
     1
 11
59.8926064853875
 21
11.93599952697748
 31
0.0
100
AcDbText
 73
     2
  0
TEXT
  5
2524
330
1F
100
AcDbEntity
  8
TEXT1
100
AcDbText
 10
69.5298819440362
 20
11.61600264516552
 30
0.0
 40
0.6399937636239339
  1
15^ 
  7
ROMANS
 72
     1
 11
70.520348482978
 21
11.93599952697749
 31
0.0
100
AcDbText
 73
     2
  0
TEXT
  5
2525
330
1F
100
AcDbEntity
  8
TEXT1
100
AcDbText
 10
66.29956960781179
 20
11.61600264516552
 30
0.0
 40
0.6399937636239339
  1
C
  7
ROMANS
 72
     1
 11
66.61956648962375
 21
11.93599952697749
 31
0.0
100
AcDbText
 73
     2
  0
TEXT
  5
2526
330
1F
100
AcDbEntity
  8
TEXT1
100
AcDbText
 10
73.79114603839588
 20
11.61600264516552
 30
0.0
 40
0.6399937636239339
  1
25#
  7
ROMANS
 72
     1
 11
74.72066079032588
 21
11.93599952697749
 31
0.0
100
AcDbText
 73
     2
  0
TEXT
  5
2527
330
1F
100
AcDbEntity
  8
TEXT1
100
AcDbText
 10
78.92416186740128
 20
11.61600264516552
 30
0.0
 40
0.6399937636239339
  1
-
  7
ROMANS
 72
     1
 11
79.320348482978
 21
11.93599952697749
 31
0.0
100
AcDbText
 73
     2
  0
TEXT
  5
2528
330
1F
100
AcDbEntity
  8
TEXT1
100
AcDbText
 10
82.57590809164289
 20
11.61600264516552
 30
0.0
 40
0.6399937636239339
  1
60#
  7
ROMANS
 72
     1
 11
83.52066079032585
 21
11.93599952697749
 31
0.0
100
AcDbText
 73
     2
  0
TEXT
  5
2529
330
1F
100
AcDbEntity
  8
TEXT1
100
AcDbText
 10
87.17559578429506
 20
11.61600264516552
 30
0.0
 40
0.6399937636239339
  1
25^ 
  7
ROMANS
 72
     1
 11
88.12034848297802
 21
11.93599952697748
 31
0.0
100
AcDbText
 73
     2
  0
TEXT
  5
252A
330
1F
100
AcDbEntity
  8
TEXT1
100
AcDbText
 10
91.39114603839585
 20
11.61600264516552
 30
0.0
 40
0.6399937636239339
  1
50#
  7
ROMANS
 72
     1
 11
92.32066079032586
 21
11.93599952697748
 31
0.0
100
AcDbText
 73
     2
  0
TEXT
  5
252B
330
1F
100
AcDbEntity
  8
TEXT1
100
AcDbText
 10
99.84067326307799
 20
11.61600264516552
 30
0.0
 40
0.6399937636239339
  1
125#
  7
ROMANS
 72
     1
 11
101.1206607903258
 21
11.93599952697749
 31
0.0
100
AcDbText
 73
     2
  0
TEXT
  5
252C
330
1F
100
AcDbEntity
  8
TEXT1
100
AcDbText
 10
95.97559578429505
 20
11.61600264516552
 30
0.0
 40
0.6399937636239339
  1
50^ 
  7
ROMANS
 72
     1
 11
96.92034848297801
 21
11.93599952697749
 31
0.0
100
AcDbText
 73
     2
  0
TEXT
  5
252D
330
1F
100
AcDbEntity
  8
TEXT1
100
AcDbText
 10
104.775595784295
 20
11.61600264516552
 30
0.0
 40
0.6399937636239339
  1
30^ 
  7
ROMANS
 72
     1
 11
105.720348482978
 21
11.93599952697748
 31
0.0
100
AcDbText
 73
     2
  0
TEXT
  5
252E
330
1F
100
AcDbEntity
  8
TEXT1
100
AcDbText
 10
126.0727802347877
 20
11.61600264516552
 30
0.0
 40
0.6399937636239339
  1
50^ 
  7
ROMANS
 72
     1
 11
127.0175329334707
 21
11.93599952697749
 31
0.0
100
AcDbText
 73
     2
  0
TEXT
  5
252F
330
1F
100
AcDbEntity
  8
TEXT1
100
AcDbText
 10
109.2959049734548
 20
11.61600264516552
 30
0.0
 40
0.6399937636239339
  1
60
  7
ROMANS
 72
     1
 11
109.9206607903258
 21
11.93599952697748
 31
0.0
100
AcDbText
 73
     2
  0
TEXT
  5
2530
330
1F
100
AcDbEntity
  8
TEXT1
100
AcDbText
 10
113.575595784295
 20
11.61600264516552
 30
0.0
 40
0.6399937636239339
  1
50^ 
  7
ROMANS
 72
     1
 11
114.520348482978
 21
11.93599952697748
 31
0.0
100
AcDbText
 73
     2
  0
TEXT
  5
2531
330
1F
100
AcDbEntity
  8
TEXT1
100
AcDbText
 10
117.7606701448899
 20
11.61600264516552
 30
0.0
 40
0.6399937636239339
  1
150
  7
ROMANS
 72
     1
 11
118.7206607903258
 21
11.93599952697748
 31
0.0
100
AcDbText
 73
     2
  0
TEXT
  5
2532
330
1F
100
AcDbEntity
  8
TEXT1
100
AcDbText
 10
122.1036628068091
 20
11.61600264516552
 30
0.0
 40
0.6399937636239339
  1
40^ 
  7
ROMANS
 72
     1
 11
123.048415505492
 21
11.93599952697749
 31
0.0
100
AcDbText
 73
     2
  0
LINE
  5
2816
330
1F
100
AcDbEntity
  8
CONTINUOUS1
100
AcDbLine
 10
73.05823727727926
 20
19.85599952697749
 30
0.0
 11
73.05823727727926
 21
9.295999526977499
 31
0.0
  0
LINE
  5
2817
330
1F
100
AcDbEntity
  8
CONTINUOUS1
100
AcDbLine
 10
81.85823727727926
 20
19.825958008862
 30
0.0
 11
81.85823727727926
 21
9.265958008862011
 31
0.0
  0
LINE
  5
2818
330
1F
100
AcDbEntity
  8
CONTINUOUS1
100
AcDbLine
 10
90.65823727727927
 20
19.825958008862
 30
0.0
 11
90.65823727727927
 21
9.265958008862011
 31
0.0
  0
LINE
  5
2819
330
1F
100
AcDbEntity
  8
CONTINUOUS1
100
AcDbLine
 10
99.45823727727926
 20
19.82595800886199
 30
0.0
 11
99.45823727727926
 21
9.265958008862
 31
0.0
  0
LINE
  5
281A
330
1F
100
AcDbEntity
  8
CONTINUOUS1
100
AcDbLine
 10
108.2582372772792
 20
19.825958008862
 30
0.0
 11
108.2582372772792
 21
9.265958008862003
 31
0.0
  0
LINE
  5
281B
330
1F
100
AcDbEntity
  8
CONTINUOUS1
100
AcDbLine
 10
117.0582372772792
 20
19.825958008862
 30
0.0
 11
117.0582372772792
 21
9.265958008862011
 31
0.0
  0
VIEWPORT
  5
32
330
1B
100
AcDbEntity
 67
     1
  8
0
100
AcDbViewport
 10
8.200292044738034
 20
5.04780996030733
 30
0.0
 40
22.12795898920373
 41
14.13096030764082
 68
     1
 69
     1
1001
ACAD
1000
MVIEW
1002
{
1070
    16
1010
0.0
1020
0.0
1030
0.0
1010
0.0
1020
0.0
1030
1.0
1040
0.0
1040
14.13096030764082
1040
8.200292044738034
1040
5.04780996030733
1040
50.0
1040
0.0
1040
0.0
1070
     0
1070
   100
1070
     1
1070
     0
1070
     0
1070
     0
1070
     0
1070
     0
1040
0.0
1040
0.0
1040
0.0
1040
0.5
1040
0.5
1040
0.5
1040
0.5
1070
     0
1002
{
1002
}
1002
}
  0
LWPOLYLINE
  5
175
330
1B
100
AcDbEntity
 67
     1
  8
VIEWPORT
100
AcDbPolyline
 90
        6
 70
     1
 43
0.0
 10
16.40000099999999
 20
10.25
 10
16.40000099999999
 20
0.9120019999999993
 10
8.002461
 20
0.9120019999999993
 10
8.002461
 20
0.0
 10
0.0
 20
0.0
 10
0.0
 20
10.25
1001
GENIUS_GENOREF_13
1005
0
1005
0
1005
0
1005
0
1005
0
1005
0
1005
0
1005
0
  0
VIEWPORT
  5
177
330
1B
100
AcDbEntity
 67
     1
  8
VIEWPORT
100
AcDbViewport
 10
8.200000499999999
 20
5.125
 30
0.0
 40
16.40000099999999
 41
10.25
 68
     2
 69
     2
1001
ACAD
1000
MVIEW
1002
{
1070
    16
1010
0.0
1020
0.0
1030
0.0
1010
0.0
1020
0.0
1030
1.0
1040
0.0
1040
82.0
1040
65.60000430547387
1040
41.59760706015899
1040
50.0
1040
0.0
1040
0.0
1070
     0
1070
   100
1070
     1
1070
     2
1070
     0
1070
     0
1070
     0
1070
     0
1040
0.0
1040
0.0
1040
0.0
1040
0.5
1040
0.5
1040
0.5
1040
0.5
1070
     0
1002
{
1002
}
1002
}
1001
GENIUS_GENOREF_13
1005
0
1005
0
1005
0
1005
0
1005
0
1005
0
1005
0
1005
0
1001
GENIUS_GENSCREG_15
1000
PF
1040
0.0
1000
DF
1040
0.0
1000
MIN
1011
0.0
1021
0.0
1031
0.0
1000
MAX
1011
16.40000099999999
1021
10.25
1031
0.0
1000
FLAGS
1070
     2
  0
INSERT
  5
B2C
330
1B
100
AcDbEntity
 67
     1
  8
TITLEBLOCK
100
AcDbBlockReference
 66
     1
  2
TITLE-PAD
 10
0.0
 20
0.0
 30
0.0
  0
ATTRIB
  5
B2D
330
B2C
100
AcDbEntity
 67
     1
  8
TEXT1
 62
     0
100
AcDbText
 10
10.10183834893798
 20
0.7474460884590166
 30
0.0
 40
0.1
  1

  7
ROMANS
 72
     4
 11
10.10183834893798
 21
0.7474460884590166
 31
0.0
100
AcDbAttribute
  2
DESCRIPTION 1
 70
     0
  0
ATTRIB
  5
B2E
330
B2C
100
AcDbEntity
 67
     1
  8
TEXT1
 62
     0
100
AcDbText
 10
8.923266920366559
 20
0.5517231711406715
 30
0.0
 40
0.1
  1
HEAVY DUTY SAFETY SWITCHES
  7
ROMANS
 72
     4
 11
10.10183834893798
 21
0.6017231711406717
 31
0.0
100
AcDbAttribute
  2
DESCRIPTION 2
 70
     0
  0
ATTRIB
  5
B2F
330
B2C
100
AcDbEntity
 67
     1
  8
TEXT1
 62
     0
100
AcDbText
 10
9.488505015604655
 20
0.4160002538223267
 30
0.0
 40
0.08
  1
VISIBLE BLADE TYPE
  7
ROMANS
 72
     4
 11
10.10183834893798
 21
0.4560002538223267
 31
0.0
100
AcDbAttribute
  2
DESCRIPTION 3
 70
     0
  0
ATTRIB
  5
B30
330
B2C
100
AcDbEntity
 67
     1
  8
TEXT1
 62
     0
100
AcDbText
 10
9.269457396557037
 20
0.2802773365039832
 30
0.0
 40
0.08
  1
200 AMPERE - SERIES F6
  7
ROMANS
 72
     4
 11
10.10183834893798
 21
0.3202773365039833
 31
0.0
100
AcDbAttribute
  2
DESCRIPTION 4
 70
     0
  0
ATTRIB
  5
B31
330
B2C
100
AcDbEntity
 67
     1
  8
TEXT1
 62
     0
100
AcDbText
 10
8.454219301318941
 20
0.1521734668046874
 30
0.0
 40
0.08
  1
ENCLOSURE - NEMA 4, 4X AND 5 STAINLESS STEEL
  7
ROMANS
 72
     4
 11
10.10183834893798
 21
0.1845544191856399
 31
0.0
100
AcDbAttribute
  2
DESCRIPTION 5
 70
     0
  0
ATTRIB
  5
B32
330
B2C
100
AcDbEntity
 67
     1
  8
TEXT1
 62
     0
100
AcDbText
 10
12.74772367103195
 20
0.096540546036505
 30
0.0
 40
0.12
  1
3232
 41
0.9512024731840066
  7
M_STANDARD
 11
12.74772367103195
 21
0.156540546036505
 31
0.0
100
AcDbAttribute
  2
DWGNO
 70
     0
 74
     2
  0
ATTRIB
  5
B33
330
B2C
100
AcDbEntity
 67
     1
  8
TEXT1
 62
     0
100
AcDbText
 10
16.06173121615992
 20
-0.1507193079929352
 30
0.0
 40
0.08
  1
3232
  7
ROMANS
 72
     2
 11
16.35506454949325
 21
-0.1107193079929352
 31
0.0
100
AcDbAttribute
  2
REF
 70
     0
 74
     2
  0
ATTRIB
  5
B34
330
B2C
100
AcDbEntity
 67
     1
  8
TEXT1
 62
     0
100
AcDbText
 10
0.0266402374038712
 20
-0.1507193079929352
 30
0.0
 40
0.08
  1
NOVEMBER 2002
  7
ROMANS
 11
0.0266402374038712
 21
-0.1107193079929352
 31
0.0
100
AcDbAttribute
  2
DATE
 70
     0
 74
     2
  0
SEQEND
  5
B35
330
B2C
100
AcDbEntity
 67
     1
  8
0
  0
MTEXT
  5
2EC8
330
1B
100
AcDbEntity
 67
     1
  8
0
100
AcDbMText
 10
0.0145371378127921
 20
10.2109777343609
 30
0.0
 40
0.2
 41
0.0
 71
     1
 72
     1
  1

  7
ROMANS
1001
ACAD
1000
MTEXTBEGIN
1070
    73
1070
     1
1070
    44
1040
1.0
1070
    74
1070
     0
1000
MTEXTEND
  0
ENDSEC
  0
SECTION
  2
OBJECTS
  0
DICTIONARY
  5
C
330
0
100
AcDbDictionary
  3
ACAD_GROUP
350
D
  3
ACAD_LAYOUT
350
1A
  3
ACAD_MLINESTYLE
350
17
  3
ACAD_PLOTSETTINGS
350
19
  3
ACAD_PLOTSTYLENAME
350
E
  3
ACDBHEADERROUNDTRIPXREC
350
320A
  3
ACDBVARIABLEDICTIONARY
350
374
  3
ACMDICTIONARY
350
383
  3
AMG
350
36B
  3
AMGSNAPSETTINGS
350
399
  3
ASE_INDEX_DICTIONARY
350
6A
  3
DWGPROPS
350
D65
  0
DICTIONARY
  5
73
330
1F
100
AcDbDictionary
280
     1
  3
ACAD_INDEX
360
2533
  3
ACAD_LAYOUTSELFREF
360
322C
  0
DICTIONARY
  5
75
330
1B
100
AcDbDictionary
280
     1
  3
ACAD_LAYOUTSELFREF
360
322B
  0
DICTIONARY
  5
D
102
{ACAD_REACTORS
330
C
102
}
330
C
100
AcDbDictionary
  0
DICTIONARY
  5
1A
102
{ACAD_REACTORS
330
C
102
}
330
C
100
AcDbDictionary
  0
DICTIONARY
  5
17
102
{ACAD_REACTORS
330
C
102
}
330
C
100
AcDbDictionary
  3
STANDARD
350
18
  0
DICTIONARY
  5
19
102
{ACAD_REACTORS
330
C
102
}
330
C
100
AcDbDictionary
  3
A_SIZE_PAPER
350
2FF
  3
B_SIZE_PAPER
350
2FD
  3
D_SIZE_PAPER
350
2FE
  0
ACDBDICTIONARYWDFLT
  5
E
102
{ACAD_REACTORS
330
C
102
}
330
C
100
AcDbDictionary
281
     1
  3
Normal
350
F
100
AcDbDictionaryWithDefault
340
F
  0
DICTIONARY
  5
320A
102
{ACAD_REACTORS
330
C
102
}
330
C
100
AcDbDictionary
  3
CEPSNTYPE
350
3214
  3
DIMSTYLEDATA
350
3218
  3
FINGERPRINTGUID
350
3215
  3
HYPERLINKBASE
350
320D
  3
INSUNITS
350
3213
  3
LAYOUTDICT
350
320F
  3
LWETCUNION
350
3212
  3
PLOTSETDICT
350
3210
  3
PLOTSTYLNAMDICT
350
3211
  3
PSVPSCALE
350
3217
  3
PUCSBASE
350
321B
  3
PUCSORGBACK
350
3221
  3
PUCSORGBOTTOM
350
321D
  3
PUCSORGFRONT
350
3220
  3
PUCSORGLEFT
350
321E
  3
PUCSORGRIGHT
350
321F
  3
PUCSORGTOP
350
321C
  3
PUCSORTHOREF
350
3219
  3
PUCSORTHOVIEW
350
321A
  3
STYLESHEET
350
320E
  3
TSTACKALIGN
350
320B
  3
TSTACKSIZE
350
320C
  3
UCSBASE
350
3224
  3
UCSORGBACK
350
322A
  3
UCSORGBOTTOM
350
3226
  3
UCSORGFRONT
350
3229
  3
UCSORGLEFT
350
3227
  3
UCSORGRIGHT
350
3228
  3
UCSORGTOP
350
3225
  3
UCSORTHOREF
350
3222
  3
UCSORTHOVIEW
350
3223
  3
VERSIONGUID
350
3216
  0
DICTIONARY
  5
374
102
{ACAD_REACTORS
330
C
102
}
330
C
100
AcDbDictionary
  3
DIMASSOC
350
2A57
  3
INDEXCTL
350
375
  3
SORTENTS
350
1CCD
  0
DICTIONARY
  5
383
102
{ACAD_REACTORS
330
C
102
}
330
C
100
AcDbDictionary
  0
DICTIONARY
  5
36B
102
{ACAD_REACTORS
330
C
102
}
330
C
100
AcDbDictionary
  3
ACMGSETTINGS
350
36C
  0
DICTIONARY
  5
399
102
{ACAD_REACTORS
330
C
102
}
330
C
100
AcDbDictionary
  0
DICTIONARY
  5
6A
102
{ACAD_REACTORS
330
C
102
}
330
C
100
AcDbDictionary
  3
ASEBLOCKHIERARCHYINDEXRECORD
350
6C
1001
DCO15
1040
1379130883.246999
  0
XRECORD
  5
D65
102
{ACAD_REACTORS
330
C
102
}
330
C
100
AcDbXrecord
  1
DWGPROPS COOKIE
  2

  3

  4

  6

  7

  8
mgp706
  9

300
AmdtFileType=84
301
=
302
=
303
=
304
=
305
=
306
=
307
=
308
=
309
=
 40
0.2110278935185185
 41
2451764.535041909
 42
2451851.599312743
  1

 90
        1
  0
DICTIONARY
  5
2533
102
{ACAD_REACTORS
330
73
102
}
330
73
100
AcDbDictionary
  3
*A1
350
2534
  0
XRECORD
  5
322C
102
{ACAD_REACTORS
330
73
102
}
330
73
100
AcDbXrecord
340
1F
  0
XRECORD
  5
322B
102
{ACAD_REACTORS
330
75
102
}
330
75
100
AcDbXrecord
340
1B
  0
MLINESTYLE
  5
18
102
{ACAD_REACTORS
330
17
102
}
330
17
100
AcDbMlineStyle
  2
STANDARD
 70
     0
  3

 62
   256
 51
90.0
 52
90.0
 71
     2
 49
0.5
 62
   256
  6
BYLAYER
 49
-0.5
 62
   256
  6
BYLAYER
  0
PLOTSETTINGS
  5
2FF
102
{ACAD_REACTORS
330
19
102
}
330
19
100
AcDbPlotSettings
  1
A Size Paper
  2
none_device
  4
ANSI_A_(8.50_x_11.00_Inches)
  6

 40
6.349999904632568
 41
19.04999923706054
 42
6.350006103515625
 43
19.04998779296875
 44
215.8999938964843
 45
279.3999938964843
 46
19.04999999999999
 47
-9.651999999999999
 48
0.0
 49
0.0
140
0.0
141
0.0
142
1.0
143
1.6
 70
   740
 72
     0
 73
     1
 74
     1
  7
monochrome.ctb
 75
     0
147
0.625
148
0.0034886547032954
149
0.0199946439100934
  0
PLOTSETTINGS
  5
2FD
102
{ACAD_REACTORS
330
19
102
}
330
19
100
AcDbPlotSettings
  1
B Size Paper
  2
none_device
  4
ANSI_B_(11.00_x_17.00_Inches)
  6

 40
6.349999904632568
 41
19.04999923706054
 42
6.350006103515625
 43
19.04998779296875
 44
279.3999938964843
 45
431.7999877929687
 46
1.27
 47
-11.43
 48
0.0
 49
0.0
140
0.0
141
0.0
142
1.0
143
1.0
 70
   756
 72
     0
 73
     1
 74
     1
  7
monochrome.ctb
 75
    16
147
1.0
148
0.0034886547032954
149
0.0199946439100934
  0
PLOTSETTINGS
  5
2FE
102
{ACAD_REACTORS
330
19
102
}
330
19
100
AcDbPlotSettings
  1
D Size Paper
  2
none_device
  4
ANSI_D_(22.00_x_34.00_Inches)
  6

 40
6.349999904632568
 41
19.04999923706054
 42
6.3499755859375
 43
19.04998779296875
 44
558.7999877929687
 45
863.5999755859375
 46
8.889999999999998
 47
-3.809999999999999
 48
0.0
 49
0.0
140
0.0
141
0.0
142
1.0
143
0.5
 70
   740
 72
     0
 73
     1
 74
     1
  7
monochrome.ctb
 75
     0
147
2.0
148
0.0034886547032954
149
0.0199946439100934
  0
ACDBPLACEHOLDER
  5
F
102
{ACAD_REACTORS
330
E
102
}
330
E
100
AcDbPlaceHolder
280
     0
  0
XRECORD
  5
3214
102
{ACAD_REACTORS
330
320A
102
}
330
320A
100
AcDbXrecord
 90
        0
  0
XRECORD
  5
3218
102
{ACAD_REACTORS
330
320A
102
}
330
320A
100
AcDbXrecord
1000
DSTYLE
1002
{
1070
    79
 70
     1
1070
   148
 40
0.1
1070
   341
340
E0D
1070
   342
340
E0D
1070
   371
 70
    -1
1070
   372
 70
    -1
1002
}
  0
XRECORD
  5
3215
102
{ACAD_REACTORS
330
320A
102
}
330
320A
100
AcDbXrecord
  1
{4E694E3A-6C64-11D4-81E3-0004AC4461C9}
  0
XRECORD
  5
320D
102
{ACAD_REACTORS
330
320A
102
}
330
320A
100
AcDbXrecord
  1

  0
XRECORD
  5
3213
102
{ACAD_REACTORS
330
320A
102
}
330
320A
100
AcDbXrecord
 90
        1
  0
XRECORD
  5
320F
102
{ACAD_REACTORS
330
320A
102
}
330
320A
100
AcDbXrecord
340
1A
  0
XRECORD
  5
3212
102
{ACAD_REACTORS
330
320A
102
}
330
320A
100
AcDbXrecord
 90
    10269
  0
XRECORD
  5
3210
102
{ACAD_REACTORS
330
320A
102
}
330
320A
100
AcDbXrecord
340
19
  0
XRECORD
  5
3211
102
{ACAD_REACTORS
330
320A
102
}
330
320A
100
AcDbXrecord
340
E
  0
XRECORD
  5
3217
102
{ACAD_REACTORS
330
320A
102
}
330
320A
100
AcDbXrecord
 40
1.0
  0
XRECORD
  5
321B
102
{ACAD_REACTORS
330
320A
102
}
330
320A
100
AcDbXrecord
340
0
  0
XRECORD
  5
3221
102
{ACAD_REACTORS
330
320A
102
}
330
320A
100
AcDbXrecord
 10
0.0
 20
0.0
 30
0.0
  0
XRECORD
  5
321D
102
{ACAD_REACTORS
330
320A
102
}
330
320A
100
AcDbXrecord
 10
0.0
 20
0.0
 30
0.0
  0
XRECORD
  5
3220
102
{ACAD_REACTORS
330
320A
102
}
330
320A
100
AcDbXrecord
 10
0.0
 20
0.0
 30
0.0
  0
XRECORD
  5
321E
102
{ACAD_REACTORS
330
320A
102
}
330
320A
100
AcDbXrecord
 10
0.0
 20
0.0
 30
0.0
  0
XRECORD
  5
321F
102
{ACAD_REACTORS
330
320A
102
}
330
320A
100
AcDbXrecord
 10
0.0
 20
0.0
 30
0.0
  0
XRECORD
  5
321C
102
{ACAD_REACTORS
330
320A
102
}
330
320A
100
AcDbXrecord
 10
0.0
 20
0.0
 30
0.0
  0
XRECORD
  5
3219
102
{ACAD_REACTORS
330
320A
102
}
330
320A
100
AcDbXrecord
340
0
  0
XRECORD
  5
321A
102
{ACAD_REACTORS
330
320A
102
}
330
320A
100
AcDbXrecord
 70
     0
  0
XRECORD
  5
320E
102
{ACAD_REACTORS
330
320A
102
}
330
320A
100
AcDbXrecord
  1

  0
XRECORD
  5
320B
102
{ACAD_REACTORS
330
320A
102
}
330
320A
100
AcDbXrecord
 90
        1
  0
XRECORD
  5
320C
102
{ACAD_REACTORS
330
320A
102
}
330
320A
100
AcDbXrecord
 90
       70
  0
XRECORD
  5
3224
102
{ACAD_REACTORS
330
320A
102
}
330
320A
100
AcDbXrecord
340
0
  0
XRECORD
  5
322A
102
{ACAD_REACTORS
330
320A
102
}
330
320A
100
AcDbXrecord
 10
0.0
 20
0.0
 30
0.0
  0
XRECORD
  5
3226
102
{ACAD_REACTORS
330
320A
102
}
330
320A
100
AcDbXrecord
 10
0.0
 20
0.0
 30
0.0
  0
XRECORD
  5
3229
102
{ACAD_REACTORS
330
320A
102
}
330
320A
100
AcDbXrecord
 10
0.0
 20
0.0
 30
0.0
  0
XRECORD
  5
3227
102
{ACAD_REACTORS
330
320A
102
}
330
320A
100
AcDbXrecord
 10
0.0
 20
0.0
 30
0.0
  0
XRECORD
  5
3228
102
{ACAD_REACTORS
330
320A
102
}
330
320A
100
AcDbXrecord
 10
0.0
 20
0.0
 30
0.0
  0
XRECORD
  5
3225
102
{ACAD_REACTORS
330
320A
102
}
330
320A
100
AcDbXrecord
 10
0.0
 20
0.0
 30
0.0
  0
XRECORD
  5
3222
102
{ACAD_REACTORS
330
320A
102
}
330
320A
100
AcDbXrecord
340
0
  0
XRECORD
  5
3223
102
{ACAD_REACTORS
330
320A
102
}
330
320A
100
AcDbXrecord
 70
     0
  0
XRECORD
  5
3216
102
{ACAD_REACTORS
330
320A
102
}
330
320A
100
AcDbXrecord
  1
{5E4A6726-FBC2-11D6-B162-000347E5A8BF}
  0
DICTIONARYVAR
  5
2A57
102
{ACAD_REACTORS
330
374
102
}
330
374
100
DictionaryVariables
280
     0
  1
1
  0
DICTIONARYVAR
  5
375
102
{ACAD_REACTORS
330
374
102
}
330
374
100
DictionaryVariables
280
     0
  1
1
  0
DICTIONARYVAR
  5
1CCD
102
{ACAD_REACTORS
330
374
102
}
330
374
100
DictionaryVariables
280
     0
  1
96
  0
DICTIONARY
  5
36C
102
{ACAD_REACTORS
330
36B
102
}
330
36B
100
AcDbDictionary
  3
DWGSETTINGS
350
D51
  0
XRECORD
  5
6C
102
{ACAD_REACTORS
330
6A
102
}
330
6A
100
AcDbXrecord
  0
LAYER_INDEX
  5
2534
102
{ACAD_REACTORS
330
2533
102
}
330
2533
100
AcDbIndex
 40
2452598.35163934
100
AcDbLayerIndex
  8
0
360
2535
 90
        8
  8
CONTINUOUS1
360
2536
 90
      180
  8
CONTINUOUS2
360
2537
 90
        0
  8
CONTINUOUS3
360
2538
 90
        0
  8
DIM
360
2539
 90
       15
  8
HIDDEN1
360
253A
 90
       19
  8
TEXT1
360
253B
 90
      174
  8
TITLEBLOCK
360
253C
 90
        0
  8
VIEWPORT
360
253D
 90
        0
  8
Defpoints
360
253E
 90
        0
  0
XRECORD
  5
D51
102
{ACAD_REACTORS
330
36C
102
}
330
36C
100
AcDbXrecord
  1
VERSION
140
15.0
  1
PRODUCT
  2
AutoCAD Mechanical 2000
  0
IDBUFFER
  5
2535
330
0
100
AcDbIdBuffer
330
14F9
330
14FA
330
1BB2
330
1DCF
330
2406
330
2407
330
2408
330
2436
  0
IDBUFFER
  5
2536
330
0
100
AcDbIdBuffer
330
1433
330
1434
330
1435
330
1436
330
1437
330
1438
330
1439
330
143A
330
143B
330
143C
330
143D
330
143E
330
143F
330
1440
330
1441
330
1442
330
1443
330
1444
330
1445
330
1446
330
1447
330
1448
330
1449
330
144A
330
144B
330
144C
330
144D
330
144E
330
144F
330
1450
330
1453
330
1454
330
1455
330
1456
330
1457
330
1458
330
1459
330
145A
330
145B
330
145C
330
145D
330
145E
330
1460
330
1461
330
1462
330
1463
330
1464
330
1465
330
1466
330
1467
330
1468
330
1469
330
146A
330
146B
330
146C
330
146D
330
146E
330
146F
330
1470
330
1471
330
1472
330
1473
330
1474
330
1475
330
1476
330
1477
330
1478
330
1479
330
147A
330
147B
330
148A
330
148C
330
148E
330
1496
330
1498
330
14A0
330
14A2
330
14AA
330
14AC
330
14B4
330
14B6
330
14BE
330
14C0
330
14C8
330
14CA
330
14D2
330
14D4
330
14DC
330
14DE
330
14E6
330
14E8
330
1B87
330
1B8B
330
1B8E
330
1B93
330
1BAF
330
1BB0
330
1BFF
330
1C00
330
1C01
330
1C02
330
1C03
330
1C07
330
1C08
330
1C1A
330
1C1B
330
1C1C
330
1C26
330
1C27
330
1C28
330
1C29
330
1C2A
330
1C2B
330
1C69
330
1C6A
330
1C6B
330
2409
330
240A
330
240B
330
240C
330
240D
330
240F
330
2410
330
2411
330
2413
330
2417
330
2419
330
241A
330
241C
330
241D
330
241E
330
241F
330
2420
330
2425
330
2427
330
2429
330
242A
330
242C
330
242D
330
242E
330
242F
330
2430
330
2431
330
2432
330
2433
330
2434
330
2435
330
2438
330
2439
330
243A
330
2440
330
2441
330
2446
330
2447
330
2448
330
244A
330
244B
330
244C
330
244D
330
244E
330
244F
330
2451
330
2452
330
2453
330
2454
330
2456
330
2457
330
2458
330
246E
330
246F
330
2470
330
2472
330
2473
330
2522
330
2816
330
2817
330
2818
330
2819
330
281A
330
281B
  0
IDBUFFER
  5
2537
330
0
100
AcDbIdBuffer
  0
IDBUFFER
  5
2538
330
0
100
AcDbIdBuffer
  0
IDBUFFER
  5
2539
330
0
100
AcDbIdBuffer
330
150A
330
1541
330
158B
330
15A3
330
15D9
330
1691
330
16B3
330
16F3
330
1739
330
177A
330
17EC
330
17ED
330
17EE
330
17EF
330
187C
  0
IDBUFFER
  5
253A
330
0
100
AcDbIdBuffer
330
2404
330
2405
330
2412
330
2415
330
2416
330
2418
330
241B
330
2421
330
2423
330
2424
330
2426
330
242B
330
2437
330
243B
330
243C
330
243D
330
243F
330
2442
330
2449
  0
IDBUFFER
  5
253B
330
0
100
AcDbIdBuffer
330
1409
330
1426
330
1427
330
1428
330
142B
330
142E
330
1451
330
1452
330
1505
330
1506
330
1508
330
1509
330
1B8C
330
1B8D
330
1B92
330
1B94
330
1BAB
330
1BAC
330
1BAD
330
1BAE
330
1BB1
330
1BFE
330
1C05
330
1C09
330
1C0A
330
1C0E
330
1C0F
330
1C11
330
1C12
330
1C15
330
1C19
330
1C1D
330
1C1E
330
1C1F
330
1C20
330
1C21
330
1C22
330
1C23
330
1C24
330
1C25
330
1C2C
330
1C2D
330
1C2E
330
1C2F
330
1C30
330
1C31
330
1C32
330
1C33
330
1C34
330
1C35
330
1C36
330
1C37
330
1C38
330
1C39
330
1C3A
330
1C3B
330
1C3C
330
1C3D
330
1C3E
330
1C3F
330
1C40
330
1C41
330
1C42
330
1C43
330
1C44
330
1C45
330
1C46
330
1C47
330
1C48
330
1C49
330
1C4A
330
1C4B
330
1C4C
330
1C4D
330
1C4E
330
1C4F
330
1C50
330
1C51
330
1C52
330
1C53
330
1C54
330
1C55
330
1C56
330
1C57
330
1C58
330
1C59
330
1C5A
330
1C5B
330
1C5C
330
1C5D
330
1C5E
330
1C5F
330
1C60
330
1C61
330
1C62
330
1C63
330
1C64
330
1C65
330
1C66
330
1C67
330
1C68
330
1C6C
330
1C6D
330
1C6E
330
1C6F
330
1C70
330
1C71
330
1C72
330
1C73
330
1C74
330
1C75
330
1C76
330
1C77
330
1C79
330
1C7A
330
1C7D
330
1C7E
330
1C7F
330
1C80
330
1C81
330
1C82
330
1C83
330
1C84
330
1C85
330
1C86
330
1C87
330
1C88
330
1C89
330
1C8A
330
1C8B
330
1C8C
330
1C8D
330
1C8E
330
1C8F
330
1C90
330
1CA3
330
1CAA
330
1D27
330
1D2D
330
1D2E
330
240E
330
2414
330
2422
330
2428
330
243E
330
2443
330
2444
330
2445
330
2450
330
2455
330
2471
330
2481
330
2500
330
2506
330
2507
330
2508
330
2509
330
2521
330
2523
330
2524
330
2525
330
2526
330
2527
330
2528
330
2529
330
252A
330
252B
330
252C
330
252D
330
252E
330
252F
330
2530
330
2531
330
2532
  0
IDBUFFER
  5
253C
330
0
100
AcDbIdBuffer
  0
IDBUFFER
  5
253D
330
0
100
AcDbIdBuffer
  0
IDBUFFER
  5
253E
330
0
100
AcDbIdBuffer
  0
ENDSEC
  0
EOF
