  0
SECTION
  2
HEADER
  9
$ACADVER
  1
AC1009
  9
$INSBASE
 10
0.0
 20
0.0
 30
0.0
  9
$EXTMIN
 10
82.561377
 20
85.455968
 30
-0.001526
  9
$EXTMAX
 10
150.191416
 20
224.401521
 30
0.0
  9
$LIMMIN
 10
0.0
 20
0.0
  9
$LIMMAX
 10
150.0
 20
150.0
  9
$ORTHOMODE
 70
     1
  9
$REGENMODE
 70
     1
  9
$FILLMODE
 70
     1
  9
$QTEXTMODE
 70
     0
  9
$MIRRTEXT
 70
     1
  9
$DRAGMODE
 70
     2
  9
$LTSCALE
 40
9.777778
  9
$OSMODE
 70
   167
  9
$ATTMODE
 70
     1
  9
$TEXTSIZE
 40
0.2
  9
$TRACEWID
 40
0.05
  9
$TEXTSTYLE
  7
STANDARD
  9
$CLAYER
  8
0
  9
$CELTYPE
  6
BYLAYER
  9
$CECOLOR
 62
   256
  9
$DIMSCALE
 40
1.0
  9
$DIMASZ
 40
2.5
  9
$DIMEXO
 40
1.111111
  9
$DIMDLI
 40
2.0
  9
$DIMRND
 40
0.0
  9
$DIMDLE
 40
0.0
  9
$DIMEXE
 40
3.2
  9
$DIMTP
 40
0.0
  9
$DIMTM
 40
0.0
  9
$DIMTXT
 40
2.008929
  9
$DIMCEN
 40
1.6
  9
$DIMTSZ
 40
0.0
  9
$DIMTOL
 70
     0
  9
$DIMLIM
 70
     0
  9
$DIMTIH
 70
     0
  9
$DIMTOH
 70
     0
  9
$DIMSE1
 70
     0
  9
$DIMSE2
 70
     0
  9
$DIMTAD
 70
     1
  9
$DIMZIN
 70
     8
  9
$DIMBLK
  1

  9
$DIMASO
 70
     1
  9
$DIMSHO
 70
     1
  9
$DIMPOST
  1

  9
$DIMAPOST
  1

  9
$DIMALT
 70
     0
  9
$DIMALTD
 70
     2
  9
$DIMALTF
 40
25.4
  9
$DIMLFAC
 40
1.0
  9
$DIMTOFL
 70
     0
  9
$DIMTVP
 40
0.0
  9
$DIMTIX
 70
     0
  9
$DIMSOXD
 70
     0
  9
$DIMSAH
 70
     0
  9
$DIMBLK1
  1

  9
$DIMBLK2
  1

  9
$DIMSTYLE
  2
STANDARD
  9
$DIMCLRD
 70
     0
  9
$DIMCLRE
 70
     0
  9
$DIMCLRT
 70
     0
  9
$DIMTFAC
 40
1.0
  9
$DIMGAP
 40
1.0
  9
$LUNITS
 70
     2
  9
$LUPREC
 70
     4
  9
$SKETCHINC
 40
0.1
  9
$FILLETRAD
 40
0.0
  9
$AUNITS
 70
     0
  9
$AUPREC
 70
     0
  9
$MENU
  1
.
  9
$ELEVATION
 40
0.0
  9
$PELEVATION
 40
0.0
  9
$THICKNESS
 40
0.0
  9
$LIMCHECK
 70
     0
  9
$BLIPMODE
 70
     0
  9
$CHAMFERA
 40
0.0
  9
$CHAMFERB
 40
0.0
  9
$SKPOLY
 70
     0
  9
$TDCREATE
 40
2452282.428316
  9
$TDUPDATE
 40
2452292.362008
  9
$TDINDWG
 40
0.010135
  9
$TDUSRTIMER
 40
0.010135
  9
$USRTIMER
 70
     1
  9
$ANGBASE
 50
0.0
  9
$ANGDIR
 70
     0
  9
$PDMODE
 70
     0
  9
$PDSIZE
 40
0.0
  9
$PLINEWID
 40
0.0
  9
$COORDS
 70
     2
  9
$SPLFRAME
 70
     0
  9
$SPLINETYPE
 70
     6
  9
$SPLINESEGS
 70
     8
  9
$ATTDIA
 70
     0
  9
$ATTREQ
 70
     1
  9
$HANDLING
 70
     1
  9
$HANDSEED
  5
2A46
  9
$SURFTAB1
 70
     6
  9
$SURFTAB2
 70
     6
  9
$SURFTYPE
 70
     6
  9
$SURFU
 70
     6
  9
$SURFV
 70
     6
  9
$UCSNAME
  2

  9
$UCSORG
 10
0.0
 20
0.0
 30
0.0
  9
$UCSXDIR
 10
1.0
 20
0.0
 30
0.0
  9
$UCSYDIR
 10
0.0
 20
1.0
 30
0.0
  9
$PUCSNAME
  2

  9
$PUCSORG
 10
0.0
 20
0.0
 30
0.0
  9
$PUCSXDIR
 10
1.0
 20
0.0
 30
0.0
  9
$PUCSYDIR
 10
0.0
 20
1.0
 30
0.0
  9
$USERI1
 70
     0
  9
$USERI2
 70
     0
  9
$USERI3
 70
     0
  9
$USERI4
 70
     0
  9
$USERI5
 70
     0
  9
$USERR1
 40
0.0
  9
$USERR2
 40
0.0
  9
$USERR3
 40
0.0
  9
$USERR4
 40
0.0
  9
$USERR5
 40
0.0
  9
$WORLDVIEW
 70
     1
  9
$SHADEDGE
 70
     3
  9
$SHADEDIF
 70
    70
  9
$TILEMODE
 70
     1
  9
$MAXACTVP
 70
    48
  9
$PLIMCHECK
 70
     0
  9
$PEXTMIN
 10
1.000000E+020
 20
1.000000E+020
 30
1.000000E+020
  9
$PEXTMAX
 10
-1.000000E+020
 20
-1.000000E+020
 30
-1.000000E+020
  9
$PLIMMIN
 10
0.0
 20
0.0
  9
$PLIMMAX
 10
12.0
 20
9.0
  9
$UNITMODE
 70
     0
  9
$VISRETAIN
 70
     1
  9
$PLINEGEN
 70
     0
  9
$PSLTSCALE
 70
     1
  0
ENDSEC
  0
SECTION
  2
TABLES
  0
TABLE
  2
VPORT
 70
     2
  0
VPORT
  2
*ACTIVE
 70
     0
 10
0.0
 20
0.0
 11
1.0
 21
1.0
 12
116.376396
 22
154.928744
 13
0.0
 23
0.0
 14
1.0
 24
1.0
 15
0.0
 25
0.0
 16
0.0
 26
0.0
 36
1.0
 17
0.0
 27
0.0
 37
0.0
 40
140.47523
 41
1.700368
 42
50.0
 43
0.0
 44
0.0
 50
0.0
 51
0.0
 71
     0
 72
   100
 73
     1
 74
     1
 75
     0
 76
     0
 77
     0
 78
     0
  0
ENDTAB
  0
TABLE
  2
LTYPE
 70
     6
  0
LTYPE
  2
CONTINUOUS
 70
     0
  3
Solid line
 72
    65
 73
     0
 40
0.0
  0
LTYPE
  2
CENTER
 70
     0
  3
____ _ ____ _ ____ _ ____ _ ____ _ ____ _ ____
 72
    65
 73
     4
 40
0.6
 49
0.375
 49
-0.075
 49
0.075
 49
-0.075
  0
LTYPE
  2
HIDDEN
 70
     0
  3
- - - - - - - - - - - - - - - - - - - -
 72
    65
 73
     2
 40
0.2
 49
0.1
 49
-0.1
  0
LTYPE
  2
PHANTOM
 70
     0
  3
_____ _ _ _____ _ _ _____ _ _ _____
 72
    65
 73
     6
 40
0.8
 49
0.45
 49
-0.05
 49
0.1
 49
-0.05
 49
0.1
 49
-0.05
  0
ENDTAB
  0
TABLE
  2
LAYER
 70
     5
  0
LAYER
  2
0
 70
     0
 62
     7
  6
CONTINUOUS
  0
LAYER
  2
DEFPOINTS
 70
     0
 62
     7
  6
CONTINUOUS
  0
ENDTAB
  0
TABLE
  2
STYLE
 70
     1
  0
STYLE
  2
STANDARD
 70
     0
 40
0.0
 41
1.0
 50
0.0
 71
     0
 42
0.2
  3
txt
  4

  0
ENDTAB
  0
TABLE
  2
VIEW
 70
     0
  0
ENDTAB
  0
TABLE
  2
UCS
 70
     0
  0
ENDTAB
  0
TABLE
  2
APPID
 70
     1
  0
APPID
  2
ACAD
 70
     0
  0
ENDTAB
  0
TABLE
  2
DIMSTYLE
 70
     1
  0
DIMSTYLE
  2
STANDARD
 70
     0
  3

  4

  5

  6

  7

 40
1.0
 41
0.18
 42
0.0625
 43
0.02
 44
0.1
 45
0.0
 46
0.0
 47
0.0
 48
0.0
140
0.18
141
0.0
142
0.0
143
25.4
144
1.0
145
0.0
146
1.0
147
1.0
 71
     0
 72
     0
 73
     0
 74
     0
 75
     0
 76
     0
 77
     1
 78
     8
170
     0
171
     2
172
     0
173
     0
174
     0
175
     0
176
     0
177
     0
178
     0
  0
ENDTAB
  0
ENDSEC
  0
SECTION
  2
BLOCKS
  0
BLOCK
  8
0
  2
$MODEL_SPACE
 70
     0
 10
0.0
 20
0.0
 30
0.0
  3
$MODEL_SPACE
  1

  0
ENDBLK
  5
20
  8
0
  0
BLOCK
 67
     1
  8
0
  2
$PAPER_SPACE
 70
     0
 10
0.0
 20
0.0
 30
0.0
  3
$PAPER_SPACE
  1

  0
ENDBLK
  5
1C
 67
     1
  8
0
  0
BLOCK
  8
0
  2
*D0
 70
     1
 10
0.0
 20
0.0
 30
0.0
  3
*D0
  1

  0
LINE
  5
26D0
  8
0
 62
     0
 10
96.035406
 20
112.294673
 30
0.0
 11
96.035406
 21
85.468705
 31
0.0
1001
ACAD
1000
RTLwPs
1070
   158
  0
LINE
  5
26D1
  8
0
 62
     0
 10
149.935406
 20
109.094673
 30
0.0
 11
149.935406
 21
85.468705
 31
0.0
1001
ACAD
1000
RTLwPs
1070
   158
  0
LINE
  5
26D2
  8
0
 62
     0
 10
98.535406
 20
86.468705
 30
0.0
 11
147.435406
 21
86.468705
 31
0.0
1001
ACAD
1000
RTLwPs
1070
   158
  0
SOLID
  5
26D3
  8
0
 62
     0
 10
98.535406
 20
86.885371
 30
0.0
 11
98.535406
 21
86.052038
 31
0.0
 12
96.035406
 22
86.468705
 32
0.0
 13
96.035406
 23
86.468705
 33
0.0
  0
SOLID
  5
26D4
  8
0
 62
     0
 10
147.435406
 20
86.885371
 30
0.0
 11
147.435406
 21
86.052038
 31
0.0
 12
149.935406
 22
86.468705
 32
0.0
 13
149.935406
 23
86.468705
 33
0.0
  0
TEXT
  8
0
  40
2.5
  5
2A44
  62
0
  72
0
  71
0
 10
117.985
 20
84.2937
 30
0.000000
  1
53.9
  0
POINT
  5
26D6
  8
DEFPOINTS
 62
     0
 10
96.035406
 20
113.294673
 30
0.0
  0
POINT
  5
26D7
  8
DEFPOINTS
 62
     0
 10
149.935406
 20
110.094673
 30
0.0
  0
POINT
  5
26D8
  8
DEFPOINTS
 62
     0
 10
149.935406
 20
86.468705
 30
0.0
  0
ENDBLK
  5
2612
  8
0
  0
BLOCK
  8
0
  2
*D1
 70
     1
 10
0.0
 20
0.0
 30
0.0
  3
*D1
  1

  0
LINE
  5
26D9
  8
0
 62
     0
 10
103.435406
 20
221.494673
 30
0.0
 11
85.072238
 21
221.494673
 31
0.0
1001
ACAD
1000
RTLwPs
1070
   158
  0
LINE
  5
26DA
  8
0
 62
     0
 10
115.261758
 20
94.794673
 30
0.0
 11
85.072238
 21
94.794673
 31
0.0
1001
ACAD
1000
RTLwPs
1070
   158
  0
LINE
  5
26DB
  8
0
 62
     0
 10
86.072238
 20
218.994673
 30
0.0
 11
86.072238
 21
97.294673
 31
0.0
1001
ACAD
1000
RTLwPs
1070
   158
  0
SOLID
  5
26DC
  8
0
 62
     0
 10
85.655571
 20
218.994673
 30
0.0
 11
86.488904
 21
218.994673
 31
0.0
 12
86.072238
 22
221.494673
 32
0.0
 13
86.072238
 23
221.494673
 33
0.0
  0
SOLID
  5
26DD
  8
0
 62
     0
 10
85.655571
 20
97.294673
 30
0.0
 11
86.488904
 21
97.294673
 31
0.0
 12
86.072238
 22
94.794673
 32
0.0
 13
86.072238
 23
94.794673
 33
0.0
  0
TEXT
  8
0
  40
2.5
  5
2A45
  62
0
  72
0
  71
0
 10
78.8222
 20
153.720
 30
0.000000
  1
126.7
  0
POINT
  5
26DF
  8
DEFPOINTS
 62
     0
 10
104.435406
 20
221.494673
 30
0.0
  0
POINT
  5
26E0
  8
DEFPOINTS
 62
     0
 10
116.261758
 20
94.794673
 30
0.0
  0
POINT
  5
26E1
  8
DEFPOINTS
 62
     0
 10
86.072238
 20
94.794673
 30
0.0
  0
ENDBLK
  5
261E
  8
0
  0
ENDSEC
  0
SECTION
  2
ENTITIES
  0
ARC
  5
23B2
  8
0
 62
     0
 10
127.535406
 20
240.294673
 30
0.0
 40
129.5
 50
260.450974
 51
271.725771
  0
ARC
  5
23B3
  8
0
 62
     0
 10
127.535406
 20
240.294673
 30
0.0
 40
130.0
 50
260.450974
 51
271.719131
  0
ARC
  5
23B4
  8
0
 62
     0
 10
127.535406
 20
252.753587
 30
0.0
 40
100.0
 50
257.701782
 51
282.298218
  0
ARC
  5
23B5
  8
0
 62
     0
 10
127.535406
 20
301.394673
 30
0.0
 40
127.5
 50
267.75253
 51
272.24747
  0
LINE
  5
23B6
  8
0
 62
     0
 10
138.785406
 20
221.494673
 30
0.0
 11
105.435406
 21
221.494673
 31
0.0
  0
LINE
  5
23B7
  8
0
 62
     0
 10
138.685406
 20
221.194673
 30
0.0
 11
105.135406
 21
221.194673
 31
0.0
  0
LINE
  5
23B8
  8
0
 62
     0
 10
132.285406
 20
218.463419
 30
0.0
 11
122.785406
 21
218.463419
 31
0.0
  0
POLYLINE
  5
23B9
  8
0
 62
     0
 66
     1
 10
0.0
 20
0.0
 30
0.0
  0
VERTEX
  5
2754
  8
0
 62
     0
 10
132.285406
 20
217.494673
 30
0.0
  0
VERTEX
  5
2755
  8
0
 62
     0
 10
129.143377
 20
217.342337
 30
0.0
  0
VERTEX
  5
2756
  8
0
 62
     0
 10
125.927436
 20
217.342337
 30
0.0
  0
VERTEX
  5
2757
  8
0
 62
     0
 10
122.785406
 20
217.494673
 30
0.0
  0
SEQEND
  5
2758
  8
0
 62
     0
  0
LINE
  5
23BA
  8
0
 62
     0
 10
132.285406
 20
213.494673
 30
0.0
 11
122.785406
 21
213.494673
 31
0.0
  0
LINE
  5
23BB
  8
0
 62
     0
 10
122.785406
 20
211.994673
 30
0.0
 11
132.285406
 21
211.994673
 31
0.0
  0
LINE
  5
23BC
  8
0
 62
     0
 10
132.285406
 20
210.494673
 30
0.0
 11
122.785406
 21
210.494673
 31
0.0
  0
LINE
  5
23BD
  8
0
 62
     0
 10
122.785406
 20
208.994673
 30
0.0
 11
132.285406
 21
208.994673
 31
0.0
  0
LINE
  5
23BE
  8
0
 62
     0
 10
132.285406
 20
207.494673
 30
0.0
 11
122.785406
 21
207.494673
 31
0.0
  0
LINE
  5
23BF
  8
0
 62
     0
 10
122.785406
 20
205.994673
 30
0.0
 11
132.285406
 21
205.994673
 31
0.0
  0
LINE
  5
23C0
  8
0
 62
     0
 10
132.285406
 20
204.494673
 30
0.0
 11
122.785406
 21
204.494673
 31
0.0
  0
LINE
  5
23C1
  8
0
 62
     0
 10
122.785406
 20
202.994673
 30
0.0
 11
132.285406
 21
202.994673
 31
0.0
  0
LINE
  5
23C2
  8
0
 62
     0
 10
106.112357
 20
197.158754
 30
0.0
 11
126.837416
 21
197.882489
 31
0.0
  0
LINE
  5
23C3
  8
0
 62
     0
 10
125.535406
 20
195.894673
 30
0.0
 11
122.421957
 21
195.894673
 31
0.0
  0
LINE
  5
23C4
  8
0
 62
     0
 10
132.535406
 20
195.667757
 30
0.0
 11
122.535406
 21
195.667757
 31
0.0
  0
LINE
  5
23C5
  8
0
 62
     0
 10
132.535406
 20
192.294673
 30
0.0
 11
122.535406
 21
192.294673
 31
0.0
  0
LINE
  5
23C6
  8
0
 62
     0
 10
123.785406
 20
190.894673
 30
0.0
 11
122.535406
 21
190.894673
 31
0.0
  0
LINE
  5
23C7
  8
0
 62
     0
 10
122.535406
 20
190.694673
 30
0.0
 11
132.535406
 21
190.694673
 31
0.0
  0
LINE
  5
23C8
  8
0
 62
     0
 10
122.535406
 20
187.594673
 30
0.0
 11
132.535406
 21
187.594673
 31
0.0
  0
LINE
  5
23C9
  8
0
 62
     0
 10
106.923188
 20
109.494673
 30
0.0
 11
124.382212
 21
109.494673
 31
0.0
  0
LINE
  5
23CA
  8
0
 62
     0
 10
110.099382
 20
109.361965
 30
0.0
 11
123.822059
 21
109.361965
 31
0.0
  0
POLYLINE
  5
23CB
  8
0
 62
     0
 66
     1
 10
0.0
 20
0.0
 30
0.0
  0
VERTEX
  5
2759
  8
0
 62
     0
 10
123.900687
 20
109.171427
 30
0.0
  0
VERTEX
  5
275A
  8
0
 62
     0
 10
123.538567
 20
109.090146
 30
0.0
  0
VERTEX
  5
275B
  8
0
 62
     0
 10
123.145872
 20
109.01017
 30
0.0
  0
VERTEX
  5
275C
  8
0
 62
     0
 10
122.710434
 20
108.931147
 30
0.0
  0
VERTEX
  5
275D
  8
0
 62
     0
 10
122.220745
 20
108.854008
 30
0.0
  0
VERTEX
  5
275E
  8
0
 62
     0
 10
121.664968
 20
108.780876
 30
0.0
  0
VERTEX
  5
275F
  8
0
 62
     0
 10
121.0303
 20
108.715058
 30
0.0
  0
VERTEX
  5
2760
  8
0
 62
     0
 10
120.321957
 20
108.662061
 30
0.0
  0
VERTEX
  5
2761
  8
0
 62
     0
 10
119.601301
 20
108.627534
 30
0.0
  0
VERTEX
  5
2762
  8
0
 62
     0
 10
118.928089
 20
108.609586
 30
0.0
  0
VERTEX
  5
2763
  8
0
 62
     0
 10
118.299563
 20
108.601774
 30
0.0
  0
VERTEX
  5
2764
  8
0
 62
     0
 10
117.723905
 20
108.599159
 30
0.0
  0
VERTEX
  5
2765
  8
0
 62
     0
 10
117.216503
 20
108.598549
 30
0.0
  0
VERTEX
  5
2766
  8
0
 62
     0
 10
116.770108
 20
108.598567
 30
0.0
  0
VERTEX
  5
2767
  8
0
 62
     0
 10
116.369578
 20
108.599018
 30
0.0
  0
VERTEX
  5
2768
  8
0
 62
     0
 10
116.018465
 20
108.600074
 30
0.0
  0
VERTEX
  5
2769
  8
0
 62
     0
 10
115.705411
 20
108.601923
 30
0.0
  0
VERTEX
  5
276A
  8
0
 62
     0
 10
115.414269
 20
108.604774
 30
0.0
  0
VERTEX
  5
276B
  8
0
 62
     0
 10
115.129126
 20
108.608962
 30
0.0
  0
VERTEX
  5
276C
  8
0
 62
     0
 10
114.834646
 20
108.615085
 30
0.0
  0
VERTEX
  5
276D
  8
0
 62
     0
 10
114.515987
 20
108.624157
 30
0.0
  0
VERTEX
  5
276E
  8
0
 62
     0
 10
114.159082
 20
108.637815
 30
0.0
  0
VERTEX
  5
276F
  8
0
 62
     0
 10
113.75919
 20
108.658098
 30
0.0
  0
VERTEX
  5
2770
  8
0
 62
     0
 10
113.317373
 20
108.68732
 30
0.0
  0
VERTEX
  5
2771
  8
0
 62
     0
 10
112.823562
 20
108.729244
 30
0.0
  0
VERTEX
  5
2772
  8
0
 62
     0
 10
112.280269
 20
108.787548
 30
0.0
  0
VERTEX
  5
2773
  8
0
 62
     0
 10
111.76351
 20
108.855587
 30
0.0
  0
VERTEX
  5
2774
  8
0
 62
     0
 10
111.286711
 20
108.929776
 30
0.0
  0
VERTEX
  5
2775
  8
0
 62
     0
 10
110.847533
 20
109.00817
 30
0.0
  0
VERTEX
  5
2776
  8
0
 62
     0
 10
110.443136
 20
109.08915
 30
0.0
  0
VERTEX
  5
2777
  8
0
 62
     0
 10
110.070513
 20
109.171427
 30
0.0
  0
SEQEND
  5
2778
  8
0
 62
     0
  0
POLYLINE
  5
23CC
  8
0
 62
     0
 66
     1
 10
0.0
 20
0.0
 30
0.0
  0
VERTEX
  5
2779
  8
0
 62
     0
 10
123.822059
 20
109.361965
 30
0.0
  0
VERTEX
  5
277A
  8
0
 62
     0
 10
123.463843
 20
109.281517
 30
0.0
  0
VERTEX
  5
277B
  8
0
 62
     0
 10
123.075385
 20
109.202374
 30
0.0
  0
VERTEX
  5
277C
  8
0
 62
     0
 10
122.64456
 20
109.124172
 30
0.0
  0
VERTEX
  5
277D
  8
0
 62
     0
 10
122.15993
 20
109.047835
 30
0.0
  0
VERTEX
  5
277E
  8
0
 62
     0
 10
121.609671
 20
108.975461
 30
0.0
  0
VERTEX
  5
277F
  8
0
 62
     0
 10
120.980931
 20
108.910325
 30
0.0
  0
VERTEX
  5
2780
  8
0
 62
     0
 10
120.278801
 20
108.857892
 30
0.0
  0
VERTEX
  5
2781
  8
0
 62
     0
 10
119.563795
 20
108.823739
 30
0.0
  0
VERTEX
  5
2782
  8
0
 62
     0
 10
118.894714
 20
108.80598
 30
0.0
  0
VERTEX
  5
2783
  8
0
 62
     0
 10
118.269005
 20
108.798248
 30
0.0
  0
VERTEX
  5
2784
  8
0
 62
     0
 10
117.695003
 20
108.795659
 30
0.0
  0
VERTEX
  5
2785
  8
0
 62
     0
 10
117.188528
 20
108.795054
 30
0.0
  0
VERTEX
  5
2786
  8
0
 62
     0
 10
116.742914
 20
108.795072
 30
0.0
  0
VERTEX
  5
2787
  8
0
 62
     0
 10
116.343303
 20
108.795518
 30
0.0
  0
VERTEX
  5
2788
  8
0
 62
     0
 10
115.993297
 20
108.796563
 30
0.0
  0
VERTEX
  5
2789
  8
0
 62
     0
 10
115.681512
 20
108.798393
 30
0.0
  0
VERTEX
  5
278A
  8
0
 62
     0
 10
115.391798
 20
108.801214
 30
0.0
  0
VERTEX
  5
278B
  8
0
 62
     0
 10
115.108282
 20
108.805359
 30
0.0
  0
VERTEX
  5
278C
  8
0
 62
     0
 10
114.815709
 20
108.811418
 30
0.0
  0
VERTEX
  5
278D
  8
0
 62
     0
 10
114.499355
 20
108.820396
 30
0.0
  0
VERTEX
  5
278E
  8
0
 62
     0
 10
114.145308
 20
108.833912
 30
0.0
  0
VERTEX
  5
278F
  8
0
 62
     0
 10
113.74891
 20
108.853984
 30
0.0
  0
VERTEX
  5
2790
  8
0
 62
     0
 10
113.311222
 20
108.882901
 30
0.0
  0
VERTEX
  5
2791
  8
0
 62
     0
 10
112.822335
 20
108.924385
 30
0.0
  0
VERTEX
  5
2792
  8
0
 62
     0
 10
112.284791
 20
108.982067
 30
0.0
  0
VERTEX
  5
2793
  8
0
 62
     0
 10
111.773534
 20
109.049399
 30
0.0
  0
VERTEX
  5
2794
  8
0
 62
     0
 10
111.301953
 20
109.122816
 30
0.0
  0
VERTEX
  5
2795
  8
0
 62
     0
 10
110.867668
 20
109.200394
 30
0.0
  0
VERTEX
  5
2796
  8
0
 62
     0
 10
110.467831
 20
109.28053
 30
0.0
  0
VERTEX
  5
2797
  8
0
 62
     0
 10
110.099382
 20
109.361965
 30
0.0
  0
SEQEND
  5
2798
  8
0
 62
     0
  0
POLYLINE
  5
23CD
  8
0
 62
     0
 66
     1
 10
0.0
 20
0.0
 30
0.0
  0
VERTEX
  5
2799
  8
0
 62
     0
 10
116.985732
 20
94.794673
 30
0.0
  0
VERTEX
  5
279A
  8
0
 62
     0
 10
119.420912
 20
94.836771
 30
0.0
  0
VERTEX
  5
279B
  8
0
 62
     0
 10
123.362837
 20
95.085467
 30
0.0
  0
VERTEX
  5
279C
  8
0
 62
     0
 10
127.270248
 20
95.557689
 30
0.0
  0
VERTEX
  5
279D
  8
0
 62
     0
 10
131.134973
 20
96.253986
 30
0.0
  0
SEQEND
  5
279E
  8
0
 62
     0
  0
POLYLINE
  5
23CE
  8
0
 62
     0
 66
     1
 10
0.0
 20
0.0
 30
0.0
  0
VERTEX
  5
279F
  8
0
 62
     0
 10
117.989291
 20
94.79798
 30
0.0
  0
VERTEX
  5
27A0
  8
0
 62
     0
 10
122.268565
 20
94.933236
 30
0.0
  0
VERTEX
  5
27A1
  8
0
 62
     0
 10
126.886484
 20
95.376977
 30
0.0
  0
VERTEX
  5
27A2
  8
0
 62
     0
 10
131.508342
 20
96.126868
 30
0.0
  0
VERTEX
  5
27A3
  8
0
 62
     0
 10
132.195369
 20
96.284181
 30
0.0
  0
SEQEND
  5
27A4
  8
0
 62
     0
  0
LINE
  5
23CF
  8
0
 62
     0
 10
124.240555
 20
95.085467
 30
0.0
 11
120.298672
 21
94.836771
 31
0.0
  0
POLYLINE
  5
23D0
  8
0
 62
     0
 66
     1
 10
0.0
 20
0.0
 30
0.0
  0
VERTEX
  5
27A5
  8
0
 62
     0
 10
107.477219
 20
95.624992
 30
0.0
  0
VERTEX
  5
27A6
  8
0
 62
     0
 10
111.459247
 20
95.204936
 30
0.0
  0
VERTEX
  5
27A7
  8
0
 62
     0
 10
115.430669
 20
95.007741
 30
0.0
  0
VERTEX
  5
27A8
  8
0
 62
     0
 10
119.382601
 20
95.033161
 30
0.0
  0
VERTEX
  5
27A9
  8
0
 62
     0
 10
123.307652
 20
95.281169
 30
0.0
  0
VERTEX
  5
27AA
  8
0
 62
     0
 10
127.198274
 20
95.752096
 30
0.0
  0
VERTEX
  5
27AB
  8
0
 62
     0
 10
131.046331
 20
96.446486
 30
0.0
  0
VERTEX
  5
27AC
  8
0
 62
     0
 10
134.843844
 20
97.365178
 30
0.0
  0
SEQEND
  5
27AD
  8
0
 62
     0
  0
DIMENSION
  5
23D1
  8
0
 62
     0
  2
*D0
 10
149.935406
 20
86.468705
 30
0.0
 11
122.985406
 21
88.718705
 31
0.0
 70
     0
 13
96.035406
 23
113.294673
 33
0.0
 14
149.935406
 24
110.094673
 34
0.0
1001
ACAD
1000
DSTYLE
1002
{
1070
    41
1040
2.5
1070
    42
1040
1.0
1070
    43
1040
11.259259
1070
    44
1040
1.0
1070
   140
1040
2.5
1070
   141
1040
2.666667
1070
   271
1070
     2
1002
}
  0
POLYLINE
  5
23D2
  8
0
 62
     0
 66
     1
 10
0.0
 20
0.0
 30
0.0
  0
VERTEX
  5
27AE
  8
0
 62
     0
 10
121.445006
 20
157.894673
 30
0.0
  0
VERTEX
  5
27AF
  8
0
 62
     0
 10
121.472344
 20
158.100005
 30
0.0
  0
VERTEX
  5
27B0
  8
0
 62
     0
 10
121.499215
 20
158.712484
 30
0.0
  0
VERTEX
  5
27B1
  8
0
 62
     0
 10
121.525158
 20
159.721626
 30
0.0
  0
VERTEX
  5
27B2
  8
0
 62
     0
 10
121.549729
 20
161.110125
 30
0.0
  0
VERTEX
  5
27B3
  8
0
 62
     0
 10
121.572509
 20
162.854335
 30
0.0
  0
VERTEX
  5
27B4
  8
0
 62
     0
 10
121.593107
 20
164.9243
 30
0.0
  0
VERTEX
  5
27B5
  8
0
 62
     0
 10
121.611171
 20
167.284627
 30
0.0
  0
VERTEX
  5
27B6
  8
0
 62
     0
 10
121.626392
 20
169.894968
 30
0.0
  0
VERTEX
  5
27B7
  8
0
 62
     0
 10
121.638508
 20
172.710475
 30
0.0
  0
VERTEX
  5
27B8
  8
0
 62
     0
 10
121.647314
 20
175.683158
 30
0.0
  0
SEQEND
  5
27B9
  8
0
 62
     0
  0
LINE
  5
23D3
  8
0
 62
     0
 10
122.535406
 20
195.667757
 30
0.0
 11
122.535406
 21
157.894673
 31
0.0
  0
LINE
  5
23D4
  8
0
 62
     0
 10
121.435406
 20
157.894673
 30
0.0
 11
121.435406
 21
174.040678
 31
0.0
  0
LINE
  5
23D5
  8
0
 62
     0
 10
119.835406
 20
157.894673
 30
0.0
 11
119.835406
 21
174.127395
 31
0.0
  0
POLYLINE
  5
23D6
  8
0
 62
     0
 66
     1
 10
0.0
 20
0.0
 30
0.0
  0
VERTEX
  5
27BA
  8
0
 62
     0
 10
122.421957
 20
181.894673
 30
0.0
  0
VERTEX
  5
27BB
  8
0
 62
     0
 10
122.423915
 20
178.620929
 30
0.0
  0
VERTEX
  5
27BC
  8
0
 62
     0
 10
122.429751
 20
175.408385
 30
0.0
  0
VERTEX
  5
27BD
  8
0
 62
     0
 10
122.439357
 20
172.317066
 30
0.0
  0
VERTEX
  5
27BE
  8
0
 62
     0
 10
122.452554
 20
169.404787
 30
0.0
  0
VERTEX
  5
27BF
  8
0
 62
     0
 10
122.469093
 20
166.725986
 30
0.0
  0
VERTEX
  5
27C0
  8
0
 62
     0
 10
122.488668
 20
164.330738
 30
0.0
  0
VERTEX
  5
27C1
  8
0
 62
     0
 10
122.510911
 20
162.26385
 30
0.0
  0
VERTEX
  5
27C2
  8
0
 62
     0
 10
122.535406
 20
160.563944
 30
0.0
  0
SEQEND
  5
27C3
  8
0
 62
     0
  0
POLYLINE
  5
23D7
  8
0
 62
     0
 66
     1
 10
0.0
 20
0.0
 30
0.0
  0
VERTEX
  5
27C4
  8
0
 62
     0
 10
119.616362
 20
181.894673
 30
0.0
  0
VERTEX
  5
27C5
  8
0
 62
     0
 10
119.618154
 20
178.762118
 30
0.0
  0
VERTEX
  5
27C6
  8
0
 62
     0
 10
119.623498
 20
175.683158
 30
0.0
  0
VERTEX
  5
27C7
  8
0
 62
     0
 10
119.632304
 20
172.710475
 30
0.0
  0
VERTEX
  5
27C8
  8
0
 62
     0
 10
119.644421
 20
169.894968
 30
0.0
  0
VERTEX
  5
27C9
  8
0
 62
     0
 10
119.659641
 20
167.284627
 30
0.0
  0
VERTEX
  5
27CA
  8
0
 62
     0
 10
119.677705
 20
164.9243
 30
0.0
  0
VERTEX
  5
27CB
  8
0
 62
     0
 10
119.698303
 20
162.854335
 30
0.0
  0
VERTEX
  5
27CC
  8
0
 62
     0
 10
119.721083
 20
161.110125
 30
0.0
  0
VERTEX
  5
27CD
  8
0
 62
     0
 10
119.745654
 20
159.721626
 30
0.0
  0
VERTEX
  5
27CE
  8
0
 62
     0
 10
119.771597
 20
158.712484
 30
0.0
  0
VERTEX
  5
27CF
  8
0
 62
     0
 10
119.798468
 20
158.100005
 30
0.0
  0
VERTEX
  5
27D0
  8
0
 62
     0
 10
119.825807
 20
157.894673
 30
0.0
  0
SEQEND
  5
27D1
  8
0
 62
     0
  0
POLYLINE
  5
23D8
  8
0
 62
     0
 66
     1
 10
0.0
 20
0.0
 30
0.0
  0
VERTEX
  5
27D2
  8
0
 62
     0
 10
118.735406
 20
160.563944
 30
0.0
  0
VERTEX
  5
27D3
  8
0
 62
     0
 10
118.759902
 20
162.26385
 30
0.0
  0
VERTEX
  5
27D4
  8
0
 62
     0
 10
118.782144
 20
164.330738
 30
0.0
  0
VERTEX
  5
27D5
  8
0
 62
     0
 10
118.801719
 20
166.725986
 30
0.0
  0
VERTEX
  5
27D6
  8
0
 62
     0
 10
118.818259
 20
169.404787
 30
0.0
  0
VERTEX
  5
27D7
  8
0
 62
     0
 10
118.831455
 20
172.317066
 30
0.0
  0
VERTEX
  5
27D8
  8
0
 62
     0
 10
118.841061
 20
175.408385
 30
0.0
  0
VERTEX
  5
27D9
  8
0
 62
     0
 10
118.846898
 20
178.620929
 30
0.0
  0
VERTEX
  5
27DA
  8
0
 62
     0
 10
118.848855
 20
181.894673
 30
0.0
  0
SEQEND
  5
27DB
  8
0
 62
     0
  0
LINE
  5
23D9
  8
0
 62
     0
 10
118.735406
 20
157.894673
 30
0.0
 11
118.735406
 21
195.667757
 31
0.0
  0
POLYLINE
  5
23DA
  8
0
 62
     0
 66
     1
 10
0.0
 20
0.0
 30
0.0
  0
VERTEX
  5
27DC
  8
0
 62
     0
 10
107.845006
 20
157.894673
 30
0.0
  0
VERTEX
  5
27DD
  8
0
 62
     0
 10
107.872344
 20
158.100005
 30
0.0
  0
VERTEX
  5
27DE
  8
0
 62
     0
 10
107.899215
 20
158.712484
 30
0.0
  0
VERTEX
  5
27DF
  8
0
 62
     0
 10
107.925158
 20
159.721626
 30
0.0
  0
VERTEX
  5
27E0
  8
0
 62
     0
 10
107.949729
 20
161.110125
 30
0.0
  0
VERTEX
  5
27E1
  8
0
 62
     0
 10
107.972509
 20
162.854335
 30
0.0
  0
VERTEX
  5
27E2
  8
0
 62
     0
 10
107.993107
 20
164.9243
 30
0.0
  0
VERTEX
  5
27E3
  8
0
 62
     0
 10
108.011171
 20
167.284627
 30
0.0
  0
VERTEX
  5
27E4
  8
0
 62
     0
 10
108.026392
 20
169.894968
 30
0.0
  0
VERTEX
  5
27E5
  8
0
 62
     0
 10
108.038508
 20
172.710475
 30
0.0
  0
VERTEX
  5
27E6
  8
0
 62
     0
 10
108.047314
 20
175.683158
 30
0.0
  0
VERTEX
  5
27E7
  8
0
 62
     0
 10
108.052659
 20
178.762118
 30
0.0
  0
SEQEND
  5
27E8
  8
0
 62
     0
  0
LINE
  5
23DB
  8
0
 62
     0
 10
108.935406
 20
195.667757
 30
0.0
 11
108.935406
 21
157.894673
 31
0.0
  0
LINE
  5
23DC
  8
0
 62
     0
 10
107.835406
 20
175.425788
 30
0.0
 11
107.835406
 21
157.894673
 31
0.0
  0
LINE
  5
23DD
  8
0
 62
     0
 10
106.235406
 20
175.430168
 30
0.0
 11
106.235406
 21
155.048367
 31
0.0
  0
LINE
  5
23DE
  8
0
 62
     0
 10
105.135406
 20
154.794673
 30
0.0
 11
105.135406
 21
221.194673
 31
0.0
  0
POLYLINE
  5
23DF
  8
0
 62
     0
 66
     1
 10
0.0
 20
0.0
 30
0.0
  0
VERTEX
  5
27E9
  8
0
 62
     0
 10
108.821957
 20
181.894673
 30
0.0
  0
VERTEX
  5
27EA
  8
0
 62
     0
 10
108.823915
 20
178.620929
 30
0.0
  0
VERTEX
  5
27EB
  8
0
 62
     0
 10
108.829751
 20
175.408385
 30
0.0
  0
VERTEX
  5
27EC
  8
0
 62
     0
 10
108.839357
 20
172.317066
 30
0.0
  0
VERTEX
  5
27ED
  8
0
 62
     0
 10
108.852554
 20
169.404787
 30
0.0
  0
VERTEX
  5
27EE
  8
0
 62
     0
 10
108.869093
 20
166.725986
 30
0.0
  0
VERTEX
  5
27EF
  8
0
 62
     0
 10
108.888668
 20
164.330738
 30
0.0
  0
VERTEX
  5
27F0
  8
0
 62
     0
 10
108.910911
 20
162.26385
 30
0.0
  0
VERTEX
  5
27F1
  8
0
 62
     0
 10
108.935406
 20
160.563944
 30
0.0
  0
SEQEND
  5
27F2
  8
0
 62
     0
  0
POLYLINE
  5
23E0
  8
0
 62
     0
 66
     1
 10
0.0
 20
0.0
 30
0.0
  0
VERTEX
  5
27F3
  8
0
 62
     0
 10
106.016362
 20
179.05027
 30
0.0
  0
VERTEX
  5
27F4
  8
0
 62
     0
 10
106.018139
 20
175.930182
 30
0.0
  0
VERTEX
  5
27F5
  8
0
 62
     0
 10
106.023441
 20
172.863047
 30
0.0
  0
VERTEX
  5
27F6
  8
0
 62
     0
 10
106.032178
 20
169.900919
 30
0.0
  0
VERTEX
  5
27F7
  8
0
 62
     0
 10
106.044202
 20
167.094073
 30
0.0
  0
VERTEX
  5
27F8
  8
0
 62
     0
 10
106.059308
 20
164.49015
 30
0.0
  0
VERTEX
  5
27F9
  8
0
 62
     0
 10
106.07724
 20
162.13335
 30
0.0
  0
VERTEX
  5
27FA
  8
0
 62
     0
 10
106.097694
 20
160.063679
 30
0.0
  0
VERTEX
  5
27FB
  8
0
 62
     0
 10
106.120323
 20
158.316275
 30
0.0
  0
VERTEX
  5
27FC
  8
0
 62
     0
 10
106.144742
 20
156.920804
 30
0.0
  0
VERTEX
  5
27FD
  8
0
 62
     0
 10
106.170538
 20
155.900959
 30
0.0
  0
VERTEX
  5
27FE
  8
0
 62
     0
 10
106.197271
 20
155.274058
 30
0.0
  0
VERTEX
  5
27FF
  8
0
 62
     0
 10
106.224482
 20
155.05075
 30
0.0
  0
SEQEND
  5
2800
  8
0
 62
     0
  0
LINE
  5
23E1
  8
0
 62
     0
 10
105.035406
 20
112.882522
 30
0.0
 11
105.035406
 21
213.294673
 31
0.0
  0
LINE
  5
23E2
  8
0
 62
     0
 10
97.035406
 20
137.294673
 30
0.0
 11
97.035406
 21
213.294673
 31
0.0
  0
DIMENSION
  5
23E3
  8
0
 62
     0
  2
*D1
 10
86.072238
 20
94.794673
 30
0.0
 11
86.072238
 21
158.144673
 31
0.0
 70
   128
 13
104.435406
 23
221.494673
 33
0.0
 14
116.261758
 24
94.794673
 34
0.0
 50
270.0
1001
ACAD
1000
DSTYLE
1002
{
1070
    41
1040
2.5
1070
    42
1040
1.0
1070
    43
1040
11.259259
1070
    44
1040
1.0
1070
   140
1040
2.5
1070
   141
1040
2.666667
1070
   271
1070
     2
1002
}
  0
ARC
  5
23E4
  8
0
 62
     0
 10
127.535406
 20
262.420602
 30
0.0
 40
130.0
 50
255.977218
 51
259.809411
  0
ARC
  5
23E5
  8
0
 62
     0
 10
127.535406
 20
240.420602
 30
0.0
 40
130.0
 50
255.977218
 51
259.809411
  0
LINE
  5
23E6
  8
0
 62
     0
 10
97.035406
 20
149.294673
 30
0.0
 11
104.035406
 21
149.294673
 31
0.0
  0
LINE
  5
23E7
  8
0
 62
     0
 10
104.035406
 20
146.294673
 30
0.0
 11
97.035406
 21
146.294673
 31
0.0
  0
LINE
  5
23E8
  8
0
 62
     0
 10
97.035406
 20
143.794673
 30
0.0
 11
104.035406
 21
143.794673
 31
0.0
  0
LINE
  5
23E9
  8
0
 62
     0
 10
96.035406
 20
131.052673
 30
0.0
 11
104.035406
 21
131.052673
 31
0.0
  0
LINE
  5
23EA
  8
0
 62
     0
 10
104.035406
 20
128.052673
 30
0.0
 11
97.035406
 21
128.052673
 31
0.0
  0
LINE
  5
23EB
  8
0
 62
     0
 10
96.035406
 20
125.552673
 30
0.0
 11
104.035406
 21
125.552673
 31
0.0
  0
LINE
  5
23EC
  8
0
 62
     0
 10
97.035406
 20
125.552673
 30
0.0
 11
97.035406
 21
131.052673
 31
0.0
  0
LINE
  5
23ED
  8
0
 62
     0
 10
96.035406
 20
114.294673
 30
0.0
 11
96.035406
 21
137.294673
 31
0.0
  0
LINE
  5
23EE
  8
0
 62
     0
 10
96.035406
 20
137.294673
 30
0.0
 11
97.035406
 21
137.294673
 31
0.0
  0
LINE
  5
23EF
  8
0
 62
     0
 10
105.135406
 20
135.794673
 30
0.0
 11
105.135406
 21
110.783085
 31
0.0
  0
LINE
  5
23F0
  8
0
 62
     0
 10
104.035406
 20
131.052673
 30
0.0
 11
104.035406
 21
125.552673
 31
0.0
  0
LINE
  5
23F1
  8
0
 62
     0
 10
105.035406
 20
137.794673
 30
0.0
 11
105.635406
 21
125.794673
 31
0.0
  0
LINE
  5
23F2
  8
0
 62
     0
 10
109.185422
 20
111.194673
 30
0.0
 11
112.658583
 21
111.194673
 31
0.0
  0
POLYLINE
  5
23F3
  8
0
 62
     0
 66
     1
 10
0.0
 20
0.0
 30
0.0
  0
VERTEX
  5
2801
  8
0
 62
     0
 10
107.464033
 20
95.430222
 30
0.0
  0
VERTEX
  5
2802
  8
0
 62
     0
 10
112.10641
 20
94.962091
 30
0.0
  0
VERTEX
  5
2803
  8
0
 62
     0
 10
116.985765
 20
94.794678
 30
0.0
  0
SEQEND
  5
2804
  8
0
 62
     0
  0
POLYLINE
  5
23F4
  8
0
 62
     0
 66
     1
 10
0.0
 20
0.0
 30
0.0
  0
VERTEX
  5
2805
  8
0
 62
     0
 10
107.292953
 20
95.625099
 30
0.0
  0
VERTEX
  5
2806
  8
0
 62
     0
 10
107.224316
 20
100.213281
 30
0.0
  0
VERTEX
  5
2807
  8
0
 62
     0
 10
107.155578
 20
104.836425
 30
0.0
  0
VERTEX
  5
2808
  8
0
 62
     0
 10
107.086738
 20
109.494673
 30
0.0
  0
SEQEND
  5
2809
  8
0
 62
     0
  0
POLYLINE
  5
23F5
  8
0
 62
     0
 66
     1
 10
0.0
 20
0.0
 30
0.0
  0
VERTEX
  5
280A
  8
0
 62
     0
 10
107.477219
 20
95.624992
 30
0.0
  0
VERTEX
  5
280B
  8
0
 62
     0
 10
107.408476
 20
100.213282
 30
0.0
  0
VERTEX
  5
280C
  8
0
 62
     0
 10
107.339626
 20
104.836426
 30
0.0
  0
VERTEX
  5
280D
  8
0
 62
     0
 10
107.27067
 20
109.494673
 30
0.0
  0
SEQEND
  5
280E
  8
0
 62
     0
  0
LINE
  5
23F6
  8
0
 62
     0
 10
106.923188
 20
109.494673
 30
0.0
 11
107.164339
 21
95.679091
 31
0.0
  0
POLYLINE
  5
23F7
  8
0
 62
     0
 66
     1
 10
0.0
 20
0.0
 30
0.0
  0
VERTEX
  5
280F
  8
0
 62
     0
 10
110.099382
 20
109.361964
 30
0.0
  0
VERTEX
  5
2810
  8
0
 62
     0
 10
110.100682
 20
109.342663
 30
0.0
  0
VERTEX
  5
2811
  8
0
 62
     0
 10
110.095749
 20
109.300385
 30
0.0
  0
VERTEX
  5
2812
  8
0
 62
     0
 10
110.085232
 20
109.24069
 30
0.0
  0
VERTEX
  5
2813
  8
0
 62
     0
 10
110.070513
 20
109.171427
 30
0.0
  0
SEQEND
  5
2814
  8
0
 62
     0
  0
POLYLINE
  5
23F8
  8
0
 62
     0
 66
     1
 10
0.0
 20
0.0
 30
0.0
  0
VERTEX
  5
2815
  8
0
 62
     0
 10
110.070513
 20
109.171427
 30
0.0
  0
VERTEX
  5
2816
  8
0
 62
     0
 10
109.377881
 20
109.332513
 30
0.0
  0
VERTEX
  5
2817
  8
0
 62
     0
 10
108.689431
 20
109.494673
 30
0.0
  0
SEQEND
  5
2818
  8
0
 62
     0
  0
POLYLINE
  5
23F9
  8
0
 62
     0
 66
     1
 10
0.0
 20
0.0
 30
0.0
  0
VERTEX
  5
2819
  8
0
 62
     0
 10
107.292955
 20
95.62498
 30
0.0
  0
VERTEX
  5
281A
  8
0
 62
     0
 10
107.305748
 20
95.556364
 30
0.0
  0
VERTEX
  5
281B
  8
0
 62
     0
 10
107.341675
 20
95.496009
 30
0.0
  0
VERTEX
  5
281C
  8
0
 62
     0
 10
107.397324
 20
95.451606
 30
0.0
  0
VERTEX
  5
281D
  8
0
 62
     0
 10
107.436972
 20
95.43575
 30
0.0
  0
SEQEND
  5
281E
  8
0
 62
     0
  0
POLYLINE
  5
23FA
  8
0
 62
     0
 66
     1
 10
0.0
 20
0.0
 30
0.0
  0
VERTEX
  5
281F
  8
0
 62
     0
 10
107.242262
 20
95.52025
 30
0.0
  0
VERTEX
  5
2820
  8
0
 62
     0
 10
107.278093
 20
95.495322
 30
0.0
  0
VERTEX
  5
2821
  8
0
 62
     0
 10
107.30859
 20
95.47963
 30
0.0
  0
VERTEX
  5
2822
  8
0
 62
     0
 10
107.33827
 20
95.467257
 30
0.0
  0
VERTEX
  5
2823
  8
0
 62
     0
 10
107.369819
 20
95.456016
 30
0.0
  0
VERTEX
  5
2824
  8
0
 62
     0
 10
107.404626
 20
95.445047
 30
0.0
  0
VERTEX
  5
2825
  8
0
 62
     0
 10
107.437073
 20
95.435721
 30
0.0
  0
SEQEND
  5
2826
  8
0
 62
     0
  0
POLYLINE
  5
23FB
  8
0
 62
     0
 66
     1
 10
0.0
 20
0.0
 30
0.0
  0
VERTEX
  5
2827
  8
0
 62
     0
 10
107.292955
 20
95.62498
 30
0.0
  0
VERTEX
  5
2828
  8
0
 62
     0
 10
107.314439
 20
95.624256
 30
0.0
  0
VERTEX
  5
2829
  8
0
 62
     0
 10
107.355681
 20
95.624005
 30
0.0
  0
VERTEX
  5
282A
  8
0
 62
     0
 10
107.41205
 20
95.624256
 30
0.0
  0
VERTEX
  5
282B
  8
0
 62
     0
 10
107.477219
 20
95.62498
 30
0.0
  0
SEQEND
  5
282C
  8
0
 62
     0
  0
LINE
  5
23FC
  8
0
 62
     0
 10
107.164332
 20
95.679556
 30
0.0
 11
107.166133
 21
95.655683
 31
0.0
  0
POLYLINE
  5
23FD
  8
0
 62
     0
 66
     1
 10
0.0
 20
0.0
 30
0.0
  0
VERTEX
  5
282D
  8
0
 62
     0
 10
107.166133
 20
95.655683
 30
0.0
  0
VERTEX
  5
282E
  8
0
 62
     0
 10
107.198658
 20
95.568859
 30
0.0
  0
VERTEX
  5
282F
  8
0
 62
     0
 10
107.242262
 20
95.52025
 30
0.0
  0
SEQEND
  5
2830
  8
0
 62
     0
  0
POLYLINE
  5
23FE
  8
0
 62
     0
 66
     1
 10
0.0
 20
0.0
 30
0.0
  0
VERTEX
  5
2831
  8
0
 62
     0
 10
107.164334
 20
95.67944
 30
0.0
  0
VERTEX
  5
2832
  8
0
 62
     0
 10
107.177589
 20
95.665514
 30
0.0
  0
VERTEX
  5
2833
  8
0
 62
     0
 10
107.224388
 20
95.645637
 30
0.0
  0
VERTEX
  5
2834
  8
0
 62
     0
 10
107.292953
 20
95.625099
 30
0.0
  0
SEQEND
  5
2835
  8
0
 62
     0
  0
POLYLINE
  5
23FF
  8
0
 62
     0
 66
     1
 10
0.0
 20
0.0
 30
0.0
  0
VERTEX
  5
2836
  8
0
 62
     0
 10
107.477219
 20
95.62498
 30
0.0
  0
VERTEX
  5
2837
  8
0
 62
     0
 10
107.468361
 20
95.550103
 30
0.0
  0
VERTEX
  5
2838
  8
0
 62
     0
 10
107.462738
 20
95.486337
 30
0.0
  0
SEQEND
  5
2839
  8
0
 62
     0
  0
LINE
  5
2400
  8
0
 62
     0
 10
107.462738
 20
95.486337
 30
0.0
 11
107.461321
 21
95.44424
 31
0.0
  0
LINE
  5
2401
  8
0
 62
     0
 10
107.461321
 20
95.44424
 30
0.0
 11
107.464187
 21
95.430201
 31
0.0
  0
LINE
  5
2402
  8
0
 62
     0
 10
107.436972
 20
95.43575
 30
0.0
 11
107.4371
 21
95.435715
 31
0.0
  0
LINE
  5
2403
  8
0
 62
     0
 10
107.436972
 20
95.43575
 30
0.0
 11
107.464191
 21
95.4302
 31
0.0
  0
ARC
  5
2404
  8
0
 62
     0
 10
106.135406
 20
113.082095
 30
0.0
 40
0.499999
 50
180.0
 51
260.450974
  0
ARC
  5
2405
  8
0
 62
     0
 10
106.135406
 20
113.082095
 30
0.0
 40
1.0
 50
180.0
 51
260.450974
  0
LINE
  5
2406
  8
0
 62
     0
 10
106.053977
 20
112.047964
 30
0.0
 11
105.766813
 21
112.10197
 31
0.0
  0
LINE
  5
2407
  8
0
 62
     0
 10
109.242009
 20
111.194673
 30
0.0
 11
105.477607
 21
111.804543
 31
0.0
  0
LINE
  5
2408
  8
0
 62
     0
 10
109.185406
 20
110.344117
 30
0.0
 11
105.381176
 21
110.957079
 31
0.0
  0
LINE
  5
2409
  8
0
 62
     0
 10
105.378594
 20
110.488393
 30
0.0
 11
109.185406
 21
109.876749
 31
0.0
  0
LINE
  5
240A
  8
0
 62
     0
 10
105.635406
 20
125.794673
 30
0.0
 11
105.635406
 21
113.082095
 31
0.0
  0
ARC
  5
240B
  8
0
 62
     0
 10
105.885406
 20
113.3641
 30
0.0
 40
1.0
 50
209.010563
 51
220.782421
  0
ARC
  5
240C
  8
0
 62
     0
 10
105.435406
 20
110.782966
 30
0.0
 40
0.3
 50
180.0
 51
259.083755
  0
LINE
  5
240D
  8
0
 62
     0
 10
105.477607
 20
111.804543
 30
0.0
 11
105.457119
 21
111.62594
 31
0.0
  0
POLYLINE
  5
240E
  8
0
 62
     0
 66
     1
 10
0.0
 20
0.0
 30
0.0
  0
VERTEX
  5
283A
  8
0
 62
     0
 10
105.457119
 20
111.62594
 30
0.0
  0
VERTEX
  5
283B
  8
0
 62
     0
 10
105.443147
 20
111.503665
 30
0.0
  0
VERTEX
  5
283C
  8
0
 62
     0
 10
105.428277
 20
111.373199
 30
0.0
  0
VERTEX
  5
283D
  8
0
 62
     0
 10
105.414065
 20
111.2482
 30
0.0
  0
VERTEX
  5
283E
  8
0
 62
     0
 10
105.392002
 20
111.053393
 30
0.0
  0
SEQEND
  5
283F
  8
0
 62
     0
  0
LINE
  5
240F
  8
0
 62
     0
 10
105.392002
 20
111.053393
 30
0.0
 11
105.381177
 21
110.95708
 31
0.0
  0
LINE
  5
2410
  8
0
 62
     0
 10
105.479789
 20
112.15667
 30
0.0
 11
105.477606
 21
111.80454
 31
0.0
  0
LINE
  5
2411
  8
0
 62
     0
 10
105.381177
 20
110.957079
 30
0.0
 11
105.378595
 21
110.488394
 31
0.0
  0
LINE
  5
2412
  8
0
 62
     0
 10
105.435406
 20
112.370218
 30
0.0
 11
105.435406
 21
112.160891
 31
0.0
  0
LINE
  5
2413
  8
0
 62
     0
 10
104.535406
 20
112.471393
 30
0.0
 11
104.535406
 21
112.882522
 31
0.0
  0
POLYLINE
  5
2414
  8
0
 62
     0
 66
     1
 10
0.0
 20
0.0
 30
0.0
  0
VERTEX
  5
2840
  8
0
 62
     0
 10
105.435406
 20
112.160891
 30
0.0
  0
VERTEX
  5
2841
  8
0
 62
     0
 10
105.314229
 20
112.14863
 30
0.0
  0
VERTEX
  5
2842
  8
0
 62
     0
 10
105.217072
 20
112.115571
 30
0.0
  0
VERTEX
  5
2843
  8
0
 62
     0
 10
105.155866
 20
112.068696
 30
0.0
  0
VERTEX
  5
2844
  8
0
 62
     0
 10
105.135406
 20
112.015611
 30
0.0
  0
SEQEND
  5
2845
  8
0
 62
     0
  0
LINE
  5
2415
  8
0
 62
     0
 10
105.766813
 20
112.10197
 30
0.0
 11
105.479793
 21
112.156692
 31
0.0
  0
POLYLINE
  5
2416
  8
0
 62
     0
 66
     1
 10
0.0
 20
0.0
 30
0.0
  0
VERTEX
  5
2846
  8
0
 62
     0
 10
105.435406
 20
112.160891
 30
0.0
  0
VERTEX
  5
2847
  8
0
 62
     0
 10
105.450212
 20
112.160422
 30
0.0
  0
VERTEX
  5
2848
  8
0
 62
     0
 10
105.465009
 20
112.159013
 30
0.0
  0
VERTEX
  5
2849
  8
0
 62
     0
 10
105.479793
 20
112.156692
 30
0.0
  0
SEQEND
  5
284A
  8
0
 62
     0
  0
LINE
  5
2417
  8
0
 62
     0
 10
105.635406
 20
113.082095
 30
0.0
 11
105.135406
 21
113.082095
 31
0.0
  0
LINE
  5
2418
  8
0
 62
     0
 10
105.035406
 20
112.882522
 30
0.0
 11
104.535406
 21
112.882522
 31
0.0
  0
POLYLINE
  5
2419
  8
0
 62
     0
 66
     1
 10
0.0
 20
0.0
 30
0.0
  0
VERTEX
  5
284B
  8
0
 62
     0
 10
105.477607
 20
111.804543
 30
0.0
  0
VERTEX
  5
284C
  8
0
 62
     0
 10
105.350528
 20
111.797679
 30
0.0
  0
VERTEX
  5
284D
  8
0
 62
     0
 10
105.23876
 20
111.752397
 30
0.0
  0
VERTEX
  5
284E
  8
0
 62
     0
 10
105.162465
 20
111.676867
 30
0.0
  0
VERTEX
  5
284F
  8
0
 62
     0
 10
105.135406
 20
111.584714
 30
0.0
  0
SEQEND
  5
2850
  8
0
 62
     0
  0
POLYLINE
  5
241A
  8
0
 62
     0
 66
     1
 10
0.0
 20
0.0
 30
0.0
  0
VERTEX
  5
2851
  8
0
 62
     0
 10
105.381177
 20
110.957079
 30
0.0
  0
VERTEX
  5
2852
  8
0
 62
     0
 10
105.255101
 20
111.009772
 30
0.0
  0
VERTEX
  5
2853
  8
0
 62
     0
 10
105.166993
 20
111.110587
 30
0.0
  0
VERTEX
  5
2854
  8
0
 62
     0
 10
105.135406
 20
111.238293
 30
0.0
  0
SEQEND
  5
2855
  8
0
 62
     0
  0
LINE
  5
241B
  8
0
 62
     0
 10
105.135406
 20
115.14259
 30
0.0
 11
105.035406
 21
115.14259
 31
0.0
  0
LINE
  5
241C
  8
0
 62
     0
 10
105.135406
 20
121.188055
 30
0.0
 11
105.035406
 21
121.188055
 31
0.0
  0
LINE
  5
241D
  8
0
 62
     0
 10
106.05246
 20
112.589023
 30
0.0
 11
105.969515
 21
112.095951
 31
0.0
  0
LINE
  5
241E
  8
0
 62
     0
 10
106.341285
 20
111.994673
 30
0.0
 11
106.053977
 21
112.047964
 31
0.0
  0
LINE
  5
241F
  8
0
 62
     0
 10
106.721176
 20
111.994673
 30
0.0
 11
106.341285
 21
111.994673
 31
0.0
  0
LINE
  5
2420
  8
0
 62
     0
 10
109.185406
 20
109.494673
 30
0.0
 11
109.185406
 21
111.194673
 31
0.0
  0
LINE
  5
2421
  8
0
 62
     0
 10
109.683676
 20
111.494673
 30
0.0
 11
109.935406
 21
111.194673
 31
0.0
  0
LINE
  5
2422
  8
0
 62
     0
 10
109.683807
 20
111.494673
 30
0.0
 11
109.912694
 21
111.494673
 31
0.0
  0
POLYLINE
  5
2423
  8
0
 62
     0
 66
     1
 10
0.0
 20
0.0
 30
0.0
  0
VERTEX
  5
2856
  8
0
 62
     0
 10
110.099382
 20
109.361965
 30
0.0
  0
VERTEX
  5
2857
  8
0
 62
     0
 10
109.814058
 20
109.42819
 30
0.0
  0
VERTEX
  5
2858
  8
0
 62
     0
 10
109.529333
 20
109.494673
 30
0.0
  0
SEQEND
  5
2859
  8
0
 62
     0
  0
LINE
  5
2424
  8
0
 62
     0
 10
117.519042
 20
94.795126
 30
0.0
 11
117.770262
 21
94.79636
 31
0.0
  0
LINE
  5
2425
  8
0
 62
     0
 10
116.983046
 20
94.794673
 30
0.0
 11
117.261758
 21
94.794673
 31
0.0
  0
LINE
  5
2426
  8
0
 62
     0
 10
117.261758
 20
94.794673
 30
0.0
 11
117.519042
 21
94.795126
 31
0.0
  0
LINE
  5
2427
  8
0
 62
     0
 10
120.298672
 20
94.836771
 30
0.0
 11
118.162004
 21
94.799501
 31
0.0
  0
POLYLINE
  5
2428
  8
0
 62
     0
 66
     1
 10
0.0
 20
0.0
 30
0.0
  0
VERTEX
  5
285A
  8
0
 62
     0
 10
117.770262
 20
94.79636
 30
0.0
  0
VERTEX
  5
285B
  8
0
 62
     0
 10
118.000332
 20
94.798062
 30
0.0
  0
VERTEX
  5
285C
  8
0
 62
     0
 10
118.191258
 20
94.799761
 30
0.0
  0
VERTEX
  5
285D
  8
0
 62
     0
 10
118.33158
 20
94.801016
 30
0.0
  0
VERTEX
  5
285E
  8
0
 62
     0
 10
118.409999
 20
94.801474
 30
0.0
  0
VERTEX
  5
285F
  8
0
 62
     0
 10
118.425188
 20
94.801271
 30
0.0
  0
SEQEND
  5
2860
  8
0
 62
     0
  0
LINE
  5
2429
  8
0
 62
     0
 10
110.035406
 20
150.494673
 30
0.0
 11
110.035406
 21
139.994673
 31
0.0
  0
LINE
  5
242A
  8
0
 62
     0
 10
109.535406
 20
149.994673
 30
0.0
 11
109.535406
 21
140.494673
 31
0.0
  0
LINE
  5
242B
  8
0
 62
     0
 10
106.735406
 20
149.994673
 30
0.0
 11
106.735406
 21
141.294673
 31
0.0
  0
LINE
  5
242C
  8
0
 62
     0
 10
106.685406
 20
149.994673
 30
0.0
 11
106.685406
 21
141.294673
 31
0.0
  0
LINE
  5
242D
  8
0
 62
     0
 10
106.535406
 20
140.494673
 30
0.0
 11
106.535406
 21
149.994673
 31
0.0
  0
LINE
  5
242E
  8
0
 62
     0
 10
106.035406
 20
139.994673
 30
0.0
 11
106.035406
 21
150.494673
 31
0.0
  0
LINE
  5
242F
  8
0
 62
     0
 10
104.035406
 20
149.294673
 30
0.0
 11
104.035406
 21
143.794673
 31
0.0
  0
LINE
  5
2430
  8
0
 62
     0
 10
105.135406
 20
144.794673
 30
0.0
 11
105.035406
 21
149.294673
 31
0.0
  0
LINE
  5
2431
  8
0
 62
     0
 10
105.135406
 20
137.794673
 30
0.0
 11
105.035406
 21
140.794673
 31
0.0
  0
ARC
  5
2432
  8
0
 62
     0
 10
105.835406
 20
135.094673
 30
0.0
 40
0.8
 50
180.0
 51
207.517548
  0
LINE
  5
2433
  8
0
 62
     0
 10
105.035406
 20
137.794673
 30
0.0
 11
105.135406
 21
137.794673
 31
0.0
  0
LINE
  5
2434
  8
0
 62
     0
 10
104.535406
 20
134.471393
 30
0.0
 11
104.535406
 21
134.882522
 31
0.0
  0
LINE
  5
2435
  8
0
 62
     0
 10
105.035406
 20
135.794673
 30
0.0
 11
105.135406
 21
135.794673
 31
0.0
  0
LINE
  5
2436
  8
0
 62
     0
 10
105.035406
 20
134.882522
 30
0.0
 11
104.535406
 21
134.882522
 31
0.0
  0
LINE
  5
2437
  8
0
 62
     0
 10
105.135406
 20
140.794673
 30
0.0
 11
105.035406
 21
144.794673
 31
0.0
  0
LINE
  5
2438
  8
0
 62
     0
 10
105.035406
 20
140.794673
 30
0.0
 11
105.135406
 21
140.794673
 31
0.0
  0
LINE
  5
2439
  8
0
 62
     0
 10
105.035406
 20
144.794673
 30
0.0
 11
105.135406
 21
144.794673
 31
0.0
  0
LINE
  5
243A
  8
0
 62
     0
 10
109.535406
 20
140.494673
 30
0.0
 11
106.535406
 21
140.494673
 31
0.0
  0
LINE
  5
243B
  8
0
 62
     0
 10
110.035406
 20
139.994673
 30
0.0
 11
106.035406
 21
139.994673
 31
0.0
  0
LINE
  5
243C
  8
0
 62
     0
 10
106.035406
 20
139.994673
 30
0.0
 11
106.535406
 21
140.494673
 31
0.0
  0
LINE
  5
243D
  8
0
 62
     0
 10
106.735406
 20
141.294673
 30
0.0
 11
106.535406
 21
141.294673
 31
0.0
  0
LINE
  5
243E
  8
0
 62
     0
 10
106.685406
 20
144.674673
 30
0.0
 11
106.535406
 21
144.674673
 31
0.0
  0
LINE
  5
243F
  8
0
 62
     0
 10
106.685406
 20
144.294673
 30
0.0
 11
106.535406
 21
144.294673
 31
0.0
  0
LINE
  5
2440
  8
0
 62
     0
 10
110.035406
 20
139.994673
 30
0.0
 11
109.535406
 21
140.494673
 31
0.0
  0
ARC
  5
2441
  8
0
 62
     0
 10
127.535406
 20
252.753587
 30
0.0
 40
100.0
 50
257.055918
 51
257.695376
  0
LINE
  5
2442
  8
0
 62
     0
 10
105.135406
 20
149.294673
 30
0.0
 11
105.035406
 21
154.794673
 31
0.0
  0
LINE
  5
2443
  8
0
 62
     0
 10
105.035406
 20
149.294673
 30
0.0
 11
105.135406
 21
149.294673
 31
0.0
  0
LINE
  5
2444
  8
0
 62
     0
 10
105.035406
 20
155.294673
 30
0.0
 11
105.135406
 21
155.294673
 31
0.0
  0
LINE
  5
2445
  8
0
 62
     0
 10
105.035406
 20
154.794673
 30
0.0
 11
105.135406
 21
154.794673
 31
0.0
  0
LINE
  5
2446
  8
0
 62
     0
 10
107.845006
 20
157.894673
 30
0.0
 11
108.935406
 21
157.894673
 31
0.0
  0
LINE
  5
2447
  8
0
 62
     0
 10
106.035406
 20
150.494673
 30
0.0
 11
110.035406
 21
150.494673
 31
0.0
  0
LINE
  5
2448
  8
0
 62
     0
 10
106.535406
 20
149.994673
 30
0.0
 11
109.535406
 21
149.994673
 31
0.0
  0
LINE
  5
2449
  8
0
 62
     0
 10
106.035406
 20
150.494673
 30
0.0
 11
106.535406
 21
149.994673
 31
0.0
  0
LINE
  5
244A
  8
0
 62
     0
 10
106.224482
 20
155.05075
 30
0.0
 11
106.235406
 21
155.048367
 31
0.0
  0
LINE
  5
244B
  8
0
 62
     0
 10
110.035406
 20
150.494673
 30
0.0
 11
109.535406
 21
149.994673
 31
0.0
  0
LINE
  5
244C
  8
0
 62
     0
 10
118.735406
 20
157.894673
 30
0.0
 11
119.825807
 21
157.894673
 31
0.0
  0
LINE
  5
244D
  8
0
 62
     0
 10
121.445006
 20
157.894673
 30
0.0
 11
122.535406
 21
157.894673
 31
0.0
  0
LINE
  5
244E
  8
0
 62
     0
 10
105.035406
 20
213.294673
 30
0.0
 11
97.035406
 21
213.294673
 31
0.0
  0
LINE
  5
244F
  8
0
 62
     0
 10
122.785406
 20
197.74099
 30
0.0
 11
122.785406
 21
218.463419
 31
0.0
  0
LINE
  5
2450
  8
0
 62
     0
 10
121.535406
 20
217.894673
 30
0.0
 11
121.535406
 21
197.698144
 31
0.0
  0
LINE
  5
2451
  8
0
 62
     0
 10
120.035406
 20
197.644958
 30
0.0
 11
120.035406
 21
217.894673
 31
0.0
  0
LINE
  5
2452
  8
0
 62
     0
 10
118.785406
 20
218.463419
 30
0.0
 11
118.785406
 21
197.601307
 31
0.0
  0
LINE
  5
2453
  8
0
 62
     0
 10
117.735406
 20
205.994673
 30
0.0
 11
117.735406
 21
207.494673
 31
0.0
  0
LINE
  5
2454
  8
0
 62
     0
 10
117.535406
 20
205.994673
 30
0.0
 11
117.535406
 21
207.494673
 31
0.0
  0
LINE
  5
2455
  8
0
 62
     0
 10
110.535406
 20
207.494673
 30
0.0
 11
110.535406
 21
205.994673
 31
0.0
  0
LINE
  5
2456
  8
0
 62
     0
 10
109.285406
 20
197.494673
 30
0.0
 11
109.285406
 21
218.463419
 31
0.0
  0
LINE
  5
2457
  8
0
 62
     0
 10
105.435406
 20
200.194673
 30
0.0
 11
105.435406
 21
221.494673
 31
0.0
  0
ARC
  5
2458
  8
0
 62
     0
 10
127.535406
 20
301.394673
 30
0.0
 40
127.5
 50
261.611622
 51
266.042321
  0
LINE
  5
2459
  8
0
 62
     0
 10
109.285406
 20
205.994673
 30
0.0
 11
118.785406
 21
205.994673
 31
0.0
  0
LINE
  5
245A
  8
0
 62
     0
 10
118.785406
 20
204.494673
 30
0.0
 11
109.285406
 21
204.494673
 31
0.0
  0
LINE
  5
245B
  8
0
 62
     0
 10
109.285406
 20
202.994673
 30
0.0
 11
118.785406
 21
202.994673
 31
0.0
  0
LINE
  5
245C
  8
0
 62
     0
 10
115.731804
 20
197.494673
 30
0.0
 11
109.285406
 21
197.494673
 31
0.0
  0
LINE
  5
245D
  8
0
 62
     0
 10
112.035406
 20
195.894673
 30
0.0
 11
108.821957
 21
195.894673
 31
0.0
  0
LINE
  5
245E
  8
0
 62
     0
 10
118.735406
 20
195.667757
 30
0.0
 11
108.935406
 21
195.667757
 31
0.0
  0
LINE
  5
245F
  8
0
 62
     0
 10
118.735406
 20
192.294673
 30
0.0
 11
108.935406
 21
192.294673
 31
0.0
  0
LINE
  5
2460
  8
0
 62
     0
 10
111.035406
 20
191.994673
 30
0.0
 11
117.035406
 21
191.994673
 31
0.0
  0
LINE
  5
2461
  8
0
 62
     0
 10
108.935406
 20
190.694673
 30
0.0
 11
118.735406
 21
190.694673
 31
0.0
  0
LINE
  5
2462
  8
0
 62
     0
 10
108.935406
 20
187.594673
 30
0.0
 11
118.735406
 21
187.594673
 31
0.0
  0
LINE
  5
2463
  8
0
 62
     0
 10
108.821957
 20
195.894673
 30
0.0
 11
108.821957
 21
181.894673
 31
0.0
  0
LINE
  5
2464
  8
0
 62
     0
 10
108.054451
 20
197.226574
 30
0.0
 11
108.054451
 21
181.894673
 31
0.0
  0
LINE
  5
2465
  8
0
 62
     0
 10
107.941001
 20
195.667757
 30
0.0
 11
107.941001
 21
175.409319
 31
0.0
  0
LINE
  5
2466
  8
0
 62
     0
 10
106.129811
 20
175.430168
 30
0.0
 11
106.129811
 21
195.667757
 31
0.0
  0
LINE
  5
2467
  8
0
 62
     0
 10
106.016362
 20
179.05027
 30
0.0
 11
106.016362
 21
197.218881
 31
0.0
  0
LINE
  5
2468
  8
0
 62
     0
 10
105.135406
 20
179.05027
 30
0.0
 11
106.016362
 21
179.05027
 31
0.0
  0
LINE
  5
2469
  8
0
 62
     0
 10
105.035406
 20
179.194673
 30
0.0
 11
105.135406
 21
179.194673
 31
0.0
  0
LINE
  5
246A
  8
0
 62
     0
 10
106.129811
 20
175.430168
 30
0.0
 11
107.807419
 21
175.430168
 31
0.0
  0
ARC
  5
246B
  8
0
 62
     0
 10
127.535406
 20
301.394673
 30
0.0
 40
127.5
 50
261.098902
 51
261.159658
  0
LINE
  5
246C
  8
0
 62
     0
 10
108.054451
 20
181.894673
 30
0.0
 11
108.821957
 21
181.894673
 31
0.0
  0
LINE
  5
246D
  8
0
 62
     0
 10
108.052659
 20
178.762118
 30
0.0
 11
108.054451
 21
181.894673
 31
0.0
  0
LINE
  5
246E
  8
0
 62
     0
 10
105.135406
 20
200.194673
 30
0.0
 11
106.138538
 21
200.194673
 31
0.0
  0
LINE
  5
246F
  8
0
 62
     0
 10
105.135406
 20
197.218881
 30
0.0
 11
106.016362
 21
197.218881
 31
0.0
  0
LINE
  5
2470
  8
0
 62
     0
 10
105.135406
 20
201.831317
 30
0.0
 11
105.035406
 21
201.831317
 31
0.0
  0
LINE
  5
2471
  8
0
 62
     0
 10
105.135406
 20
200.844103
 30
0.0
 11
105.035406
 21
200.844103
 31
0.0
  0
LINE
  5
2472
  8
0
 62
     0
 10
105.035406
 20
206.945588
 30
0.0
 11
105.135406
 21
206.945588
 31
0.0
  0
LINE
  5
2473
  8
0
 62
     0
 10
107.958455
 20
197.223222
 30
0.0
 11
107.958455
 21
195.702667
 31
0.0
  0
LINE
  5
2474
  8
0
 62
     0
 10
106.885406
 20
197.18575
 30
0.0
 11
106.885406
 21
200.294673
 31
0.0
  0
LINE
  5
2475
  8
0
 62
     0
 10
106.138538
 20
197.159669
 30
0.0
 11
106.138538
 21
200.194673
 31
0.0
  0
LINE
  5
2476
  8
0
 62
     0
 10
108.821957
 20
195.894673
 30
0.0
 11
108.935406
 21
195.667757
 31
0.0
  0
LINE
  5
2477
  8
0
 62
     0
 10
106.112357
 20
195.702667
 30
0.0
 11
107.958455
 21
195.702667
 31
0.0
  0
LINE
  5
2478
  8
0
 62
     0
 10
107.941001
 20
195.667757
 30
0.0
 11
106.129811
 21
195.667757
 31
0.0
  0
LINE
  5
2479
  8
0
 62
     0
 10
106.112357
 20
195.702667
 30
0.0
 11
106.129811
 21
195.667757
 31
0.0
  0
LINE
  5
247A
  8
0
 62
     0
 10
106.112357
 20
197.158754
 30
0.0
 11
106.112357
 21
195.702667
 31
0.0
  0
LINE
  5
247B
  8
0
 62
     0
 10
107.958455
 20
195.702667
 30
0.0
 11
107.941001
 21
195.667757
 31
0.0
  0
LINE
  5
247C
  8
0
 62
     0
 10
108.935406
 20
190.894673
 30
0.0
 11
110.285406
 21
190.894673
 31
0.0
  0
LINE
  5
247D
  8
0
 62
     0
 10
110.285406
 20
190.894673
 30
0.0
 11
110.285406
 21
192.294673
 31
0.0
  0
LINE
  5
247E
  8
0
 62
     0
 10
109.135406
 20
190.694673
 30
0.0
 11
109.135406
 21
190.894673
 31
0.0
  0
LINE
  5
247F
  8
0
 62
     0
 10
111.035406
 20
190.694673
 30
0.0
 11
111.035406
 21
191.994673
 31
0.0
  0
LINE
  5
2480
  8
0
 62
     0
 10
108.085406
 20
202.094673
 30
0.0
 11
108.085406
 21
197.226574
 31
0.0
  0
LINE
  5
2481
  8
0
 62
     0
 10
106.085406
 20
200.194673
 30
0.0
 11
106.085406
 21
202.094673
 31
0.0
  0
LINE
  5
2482
  8
0
 62
     0
 10
108.085406
 20
200.294673
 30
0.0
 11
106.085406
 21
200.294673
 31
0.0
  0
LINE
  5
2483
  8
0
 62
     0
 10
106.138538
 20
200.194673
 30
0.0
 11
106.016362
 21
197.218881
 31
0.0
  0
LINE
  5
2484
  8
0
 62
     0
 10
108.085406
 20
202.094673
 30
0.0
 11
106.085406
 21
202.094673
 31
0.0
  0
LINE
  5
2485
  8
0
 62
     0
 10
110.535406
 20
204.494673
 30
0.0
 11
110.535406
 21
202.994673
 31
0.0
  0
LINE
  5
2486
  8
0
 62
     0
 10
122.421957
 20
195.894673
 30
0.0
 11
122.421957
 21
181.894673
 31
0.0
  0
LINE
  5
2487
  8
0
 62
     0
 10
121.654451
 20
197.701496
 30
0.0
 11
121.654451
 21
181.894673
 31
0.0
  0
LINE
  5
2488
  8
0
 62
     0
 10
121.541001
 20
174.035664
 30
0.0
 11
121.541001
 21
195.667757
 31
0.0
  0
LINE
  5
2489
  8
0
 62
     0
 10
119.729811
 20
174.133828
 30
0.0
 11
119.729811
 21
195.667757
 31
0.0
  0
LINE
  5
248A
  8
0
 62
     0
 10
119.616362
 20
181.894673
 30
0.0
 11
119.616362
 21
197.630325
 31
0.0
  0
LINE
  5
248B
  8
0
 62
     0
 10
118.848855
 20
181.894673
 30
0.0
 11
118.848855
 21
195.894673
 31
0.0
  0
POLYLINE
  5
248C
  8
0
 62
     0
 66
     1
 10
0.0
 20
0.0
 30
0.0
  0
VERTEX
  5
2861
  8
0
 62
     0
 10
121.647314
 20
175.683158
 30
0.0
  0
VERTEX
  5
2862
  8
0
 62
     0
 10
121.652659
 20
178.762118
 30
0.0
  0
VERTEX
  5
2863
  8
0
 62
     0
 10
121.654451
 20
181.894673
 30
0.0
  0
SEQEND
  5
2864
  8
0
 62
     0
  0
ARC
  5
248D
  8
0
 62
     0
 10
127.535406
 20
301.394673
 30
0.0
 40
127.5
 50
266.490137
 51
267.305249
  0
LINE
  5
248E
  8
0
 62
     0
 10
118.848855
 20
181.894673
 30
0.0
 11
119.616362
 21
181.894673
 31
0.0
  0
LINE
  5
248F
  8
0
 62
     0
 10
121.654451
 20
181.894673
 30
0.0
 11
122.421957
 21
181.894673
 31
0.0
  0
LINE
  5
2490
  8
0
 62
     0
 10
118.848855
 20
195.894673
 30
0.0
 11
116.035406
 21
195.894673
 31
0.0
  0
LINE
  5
2491
  8
0
 62
     0
 10
116.035406
 20
195.894673
 30
0.0
 11
116.035406
 21
197.505275
 31
0.0
  0
LINE
  5
2492
  8
0
 62
     0
 10
112.035406
 20
195.894673
 30
0.0
 11
112.035406
 21
197.365592
 31
0.0
  0
POLYLINE
  5
2493
  8
0
 62
     0
 66
     1
 10
0.0
 20
0.0
 30
0.0
  0
VERTEX
  5
2865
  8
0
 62
     0
 10
116.035406
 20
195.894673
 30
0.0
  0
VERTEX
  5
2866
  8
0
 62
     0
 10
115.414207
 20
195.888944
 30
0.0
  0
VERTEX
  5
2867
  8
0
 62
     0
 10
114.734713
 20
195.885386
 30
0.0
  0
VERTEX
  5
2868
  8
0
 62
     0
 10
114.035406
 20
195.8842
 30
0.0
  0
VERTEX
  5
2869
  8
0
 62
     0
 10
113.3361
 20
195.885386
 30
0.0
  0
VERTEX
  5
286A
  8
0
 62
     0
 10
112.656605
 20
195.888944
 30
0.0
  0
VERTEX
  5
286B
  8
0
 62
     0
 10
112.035406
 20
195.894673
 30
0.0
  0
SEQEND
  5
286C
  8
0
 62
     0
  0
LINE
  5
2494
  8
0
 62
     0
 10
112.035406
 20
191.994673
 30
0.0
 11
112.035406
 21
192.294673
 31
0.0
  0
LINE
  5
2495
  8
0
 62
     0
 10
116.035406
 20
191.994673
 30
0.0
 11
116.035406
 21
192.294673
 31
0.0
  0
LINE
  5
2496
  8
0
 62
     0
 10
117.035406
 20
190.694673
 30
0.0
 11
117.035406
 21
191.994673
 31
0.0
  0
LINE
  5
2497
  8
0
 62
     0
 10
117.535406
 20
202.994673
 30
0.0
 11
117.535406
 21
204.494673
 31
0.0
  0
LINE
  5
2498
  8
0
 62
     0
 10
121.558455
 20
197.698144
 30
0.0
 11
121.558455
 21
195.702667
 31
0.0
  0
LINE
  5
2499
  8
0
 62
     0
 10
119.712357
 20
197.633677
 30
0.0
 11
119.712357
 21
195.702667
 31
0.0
  0
LINE
  5
249A
  8
0
 62
     0
 10
121.558455
 20
195.702667
 30
0.0
 11
119.712357
 21
195.702667
 31
0.0
  0
LINE
  5
249B
  8
0
 62
     0
 10
121.541001
 20
195.667757
 30
0.0
 11
119.729811
 21
195.667757
 31
0.0
  0
LINE
  5
249C
  8
0
 62
     0
 10
117.785406
 20
190.894673
 30
0.0
 11
118.735406
 21
190.894673
 31
0.0
  0
LINE
  5
249D
  8
0
 62
     0
 10
117.785406
 20
190.894673
 30
0.0
 11
117.785406
 21
192.294673
 31
0.0
  0
LINE
  5
249E
  8
0
 62
     0
 10
118.848855
 20
195.894673
 30
0.0
 11
118.735406
 21
195.667757
 31
0.0
  0
LINE
  5
249F
  8
0
 62
     0
 10
119.712357
 20
195.702667
 30
0.0
 11
119.729811
 21
195.667757
 31
0.0
  0
LINE
  5
24A0
  8
0
 62
     0
 10
122.685406
 20
190.694673
 30
0.0
 11
122.685406
 21
190.894673
 31
0.0
  0
LINE
  5
24A1
  8
0
 62
     0
 10
121.558455
 20
195.702667
 30
0.0
 11
121.541001
 21
195.667757
 31
0.0
  0
LINE
  5
24A2
  8
0
 62
     0
 10
122.421957
 20
195.894673
 30
0.0
 11
122.535406
 21
195.667757
 31
0.0
  0
LINE
  5
24A3
  8
0
 62
     0
 10
117.735406
 20
202.994673
 30
0.0
 11
117.735406
 21
204.494673
 31
0.0
  0
LINE
  5
24A4
  8
0
 62
     0
 10
108.785406
 20
221.594673
 30
0.0
 11
116.285406
 21
221.594673
 31
0.0
  0
LINE
  5
24A5
  8
0
 62
     0
 10
118.785406
 20
218.463419
 30
0.0
 11
109.285406
 21
218.463419
 31
0.0
  0
POLYLINE
  5
24A6
  8
0
 62
     0
 66
     1
 10
0.0
 20
0.0
 30
0.0
  0
VERTEX
  5
286D
  8
0
 62
     0
 10
118.785406
 20
217.494673
 30
0.0
  0
VERTEX
  5
286E
  8
0
 62
     0
 10
115.643377
 20
217.342337
 30
0.0
  0
VERTEX
  5
286F
  8
0
 62
     0
 10
112.427436
 20
217.342337
 30
0.0
  0
VERTEX
  5
2870
  8
0
 62
     0
 10
109.285406
 20
217.494673
 30
0.0
  0
SEQEND
  5
2871
  8
0
 62
     0
  0
LINE
  5
24A7
  8
0
 62
     0
 10
118.785406
 20
213.494673
 30
0.0
 11
109.285406
 21
213.494673
 31
0.0
  0
LINE
  5
24A8
  8
0
 62
     0
 10
109.285406
 20
211.994673
 30
0.0
 11
118.785406
 21
211.994673
 31
0.0
  0
LINE
  5
24A9
  8
0
 62
     0
 10
118.785406
 20
210.494673
 30
0.0
 11
109.285406
 21
210.494673
 31
0.0
  0
LINE
  5
24AA
  8
0
 62
     0
 10
109.285406
 20
208.994673
 30
0.0
 11
118.785406
 21
208.994673
 31
0.0
  0
LINE
  5
24AB
  8
0
 62
     0
 10
118.785406
 20
207.494673
 30
0.0
 11
109.285406
 21
207.494673
 31
0.0
  0
ARC
  5
24AC
  8
0
 62
     0
 10
107.135406
 20
217.894673
 30
0.0
 40
3.9
 50
67.380135
 51
112.619865
  0
ARC
  5
24AD
  8
0
 62
     0
 10
105.435406
 20
221.194673
 30
0.0
 40
0.3
 50
90.0
 51
180.0
  0
LINE
  5
24AE
  8
0
 62
     0
 10
110.535406
 20
210.494673
 30
0.0
 11
110.535406
 21
208.994673
 31
0.0
  0
LINE
  5
24AF
  8
0
 62
     0
 10
110.535406
 20
213.494673
 30
0.0
 11
110.535406
 21
211.994673
 31
0.0
  0
LINE
  5
24B0
  8
0
 62
     0
 10
108.785406
 20
221.594673
 30
0.0
 11
108.785406
 21
221.494673
 31
0.0
  0
ARC
  5
24B1
  8
0
 62
     0
 10
118.385406
 20
217.894673
 30
0.0
 40
3.9
 50
67.380135
 51
112.619865
  0
LINE
  5
24B2
  8
0
 62
     0
 10
117.535406
 20
208.994673
 30
0.0
 11
117.535406
 21
210.494673
 31
0.0
  0
LINE
  5
24B3
  8
0
 62
     0
 10
117.535406
 20
211.994673
 30
0.0
 11
117.535406
 21
213.494673
 31
0.0
  0
LINE
  5
24B4
  8
0
 62
     0
 10
116.285406
 20
221.594673
 30
0.0
 11
116.285406
 21
221.494673
 31
0.0
  0
LINE
  5
24B5
  8
0
 62
     0
 10
117.735406
 20
208.994673
 30
0.0
 11
117.735406
 21
210.494673
 31
0.0
  0
LINE
  5
24B6
  8
0
 62
     0
 10
117.735406
 20
211.994673
 30
0.0
 11
117.735406
 21
213.494673
 31
0.0
  0
LINE
  5
24B7
  8
0
 62
     0
 10
120.035406
 20
217.894673
 30
0.0
 11
121.535406
 21
217.894673
 31
0.0
  0
POLYLINE
  5
24B8
  8
0
 62
     0
 66
     1
 10
0.0
 20
0.0
 30
0.0
  0
VERTEX
  5
2872
  8
0
 62
     0
 10
149.054451
 20
179.05027
 30
0.0
  0
VERTEX
  5
2873
  8
0
 62
     0
 10
149.052673
 20
175.930182
 30
0.0
  0
VERTEX
  5
2874
  8
0
 62
     0
 10
149.047371
 20
172.863047
 30
0.0
  0
VERTEX
  5
2875
  8
0
 62
     0
 10
149.038634
 20
169.900919
 30
0.0
  0
VERTEX
  5
2876
  8
0
 62
     0
 10
149.02661
 20
167.094073
 30
0.0
  0
VERTEX
  5
2877
  8
0
 62
     0
 10
149.011504
 20
164.49015
 30
0.0
  0
VERTEX
  5
2878
  8
0
 62
     0
 10
148.993572
 20
162.13335
 30
0.0
  0
VERTEX
  5
2879
  8
0
 62
     0
 10
148.973118
 20
160.063679
 30
0.0
  0
VERTEX
  5
287A
  8
0
 62
     0
 10
148.95049
 20
158.316275
 30
0.0
  0
VERTEX
  5
287B
  8
0
 62
     0
 10
148.92607
 20
156.920804
 30
0.0
  0
VERTEX
  5
287C
  8
0
 62
     0
 10
148.900275
 20
155.900959
 30
0.0
  0
VERTEX
  5
287D
  8
0
 62
     0
 10
148.873541
 20
155.274058
 30
0.0
  0
VERTEX
  5
287E
  8
0
 62
     0
 10
148.84633
 20
155.05075
 30
0.0
  0
SEQEND
  5
287F
  8
0
 62
     0
  0
LINE
  5
24B9
  8
0
 62
     0
 10
150.035406
 20
155.294673
 30
0.0
 11
150.035406
 21
206.945547
 31
0.0
  0
LINE
  5
24BA
  8
0
 62
     0
 10
149.935406
 20
154.794673
 30
0.0
 11
149.935406
 21
221.194673
 31
0.0
  0
LINE
  5
24BB
  8
0
 62
     0
 10
148.835406
 20
155.048367
 30
0.0
 11
148.835406
 21
175.430168
 31
0.0
  0
LINE
  5
24BC
  8
0
 62
     0
 10
147.235406
 20
175.425788
 30
0.0
 11
147.235406
 21
157.894673
 31
0.0
  0
POLYLINE
  5
24BD
  8
0
 62
     0
 66
     1
 10
0.0
 20
0.0
 30
0.0
  0
VERTEX
  5
2880
  8
0
 62
     0
 10
146.135406
 20
160.563944
 30
0.0
  0
VERTEX
  5
2881
  8
0
 62
     0
 10
146.159902
 20
162.26385
 30
0.0
  0
VERTEX
  5
2882
  8
0
 62
     0
 10
146.182144
 20
164.330738
 30
0.0
  0
VERTEX
  5
2883
  8
0
 62
     0
 10
146.201719
 20
166.725986
 30
0.0
  0
VERTEX
  5
2884
  8
0
 62
     0
 10
146.218259
 20
169.404787
 30
0.0
  0
VERTEX
  5
2885
  8
0
 62
     0
 10
146.231455
 20
172.317066
 30
0.0
  0
VERTEX
  5
2886
  8
0
 62
     0
 10
146.241061
 20
175.408385
 30
0.0
  0
VERTEX
  5
2887
  8
0
 62
     0
 10
146.246898
 20
178.620929
 30
0.0
  0
VERTEX
  5
2888
  8
0
 62
     0
 10
146.248855
 20
181.894673
 30
0.0
  0
SEQEND
  5
2889
  8
0
 62
     0
  0
LINE
  5
24BE
  8
0
 62
     0
 10
146.135406
 20
157.894673
 30
0.0
 11
146.135406
 21
195.667757
 31
0.0
  0
POLYLINE
  5
24BF
  8
0
 62
     0
 66
     1
 10
0.0
 20
0.0
 30
0.0
  0
VERTEX
  5
288A
  8
0
 62
     0
 10
147.016362
 20
181.894673
 30
0.0
  0
VERTEX
  5
288B
  8
0
 62
     0
 10
147.018154
 20
178.762118
 30
0.0
  0
VERTEX
  5
288C
  8
0
 62
     0
 10
147.023498
 20
175.683158
 30
0.0
  0
VERTEX
  5
288D
  8
0
 62
     0
 10
147.032304
 20
172.710475
 30
0.0
  0
VERTEX
  5
288E
  8
0
 62
     0
 10
147.044421
 20
169.894968
 30
0.0
  0
VERTEX
  5
288F
  8
0
 62
     0
 10
147.059641
 20
167.284627
 30
0.0
  0
VERTEX
  5
2890
  8
0
 62
     0
 10
147.077705
 20
164.9243
 30
0.0
  0
VERTEX
  5
2891
  8
0
 62
     0
 10
147.098303
 20
162.854335
 30
0.0
  0
VERTEX
  5
2892
  8
0
 62
     0
 10
147.121083
 20
161.110125
 30
0.0
  0
VERTEX
  5
2893
  8
0
 62
     0
 10
147.145654
 20
159.721626
 30
0.0
  0
VERTEX
  5
2894
  8
0
 62
     0
 10
147.171597
 20
158.712484
 30
0.0
  0
VERTEX
  5
2895
  8
0
 62
     0
 10
147.198468
 20
158.100005
 30
0.0
  0
VERTEX
  5
2896
  8
0
 62
     0
 10
147.225807
 20
157.894673
 30
0.0
  0
SEQEND
  5
2897
  8
0
 62
     0
  0
POLYLINE
  5
24C0
  8
0
 62
     0
 66
     1
 10
0.0
 20
0.0
 30
0.0
  0
VERTEX
  5
2898
  8
0
 62
     0
 10
135.245006
 20
157.894673
 30
0.0
  0
VERTEX
  5
2899
  8
0
 62
     0
 10
135.272344
 20
158.100005
 30
0.0
  0
VERTEX
  5
289A
  8
0
 62
     0
 10
135.299215
 20
158.712484
 30
0.0
  0
VERTEX
  5
289B
  8
0
 62
     0
 10
135.325158
 20
159.721626
 30
0.0
  0
VERTEX
  5
289C
  8
0
 62
     0
 10
135.349729
 20
161.110125
 30
0.0
  0
VERTEX
  5
289D
  8
0
 62
     0
 10
135.372509
 20
162.854335
 30
0.0
  0
VERTEX
  5
289E
  8
0
 62
     0
 10
135.393107
 20
164.9243
 30
0.0
  0
VERTEX
  5
289F
  8
0
 62
     0
 10
135.411171
 20
167.284627
 30
0.0
  0
VERTEX
  5
28A0
  8
0
 62
     0
 10
135.426392
 20
169.894968
 30
0.0
  0
VERTEX
  5
28A1
  8
0
 62
     0
 10
135.438508
 20
172.710475
 30
0.0
  0
VERTEX
  5
28A2
  8
0
 62
     0
 10
135.447314
 20
175.683158
 30
0.0
  0
VERTEX
  5
28A3
  8
0
 62
     0
 10
135.452659
 20
178.762118
 30
0.0
  0
VERTEX
  5
28A4
  8
0
 62
     0
 10
135.454451
 20
181.894673
 30
0.0
  0
SEQEND
  5
28A5
  8
0
 62
     0
  0
LINE
  5
24C1
  8
0
 62
     0
 10
136.335406
 20
195.667757
 30
0.0
 11
136.335406
 21
157.894673
 31
0.0
  0
LINE
  5
24C2
  8
0
 62
     0
 10
135.235406
 20
157.894673
 30
0.0
 11
135.235406
 21
174.127395
 31
0.0
  0
LINE
  5
24C3
  8
0
 62
     0
 10
133.635406
 20
157.894673
 30
0.0
 11
133.635406
 21
174.040678
 31
0.0
  0
POLYLINE
  5
24C4
  8
0
 62
     0
 66
     1
 10
0.0
 20
0.0
 30
0.0
  0
VERTEX
  5
28A6
  8
0
 62
     0
 10
136.221957
 20
181.894673
 30
0.0
  0
VERTEX
  5
28A7
  8
0
 62
     0
 10
136.223915
 20
178.620929
 30
0.0
  0
VERTEX
  5
28A8
  8
0
 62
     0
 10
136.229751
 20
175.408385
 30
0.0
  0
VERTEX
  5
28A9
  8
0
 62
     0
 10
136.239357
 20
172.317066
 30
0.0
  0
VERTEX
  5
28AA
  8
0
 62
     0
 10
136.252554
 20
169.404787
 30
0.0
  0
VERTEX
  5
28AB
  8
0
 62
     0
 10
136.269093
 20
166.725986
 30
0.0
  0
VERTEX
  5
28AC
  8
0
 62
     0
 10
136.288668
 20
164.330738
 30
0.0
  0
VERTEX
  5
28AD
  8
0
 62
     0
 10
136.310911
 20
162.26385
 30
0.0
  0
VERTEX
  5
28AE
  8
0
 62
     0
 10
136.335406
 20
160.563944
 30
0.0
  0
SEQEND
  5
28AF
  8
0
 62
     0
  0
POLYLINE
  5
24C5
  8
0
 62
     0
 66
     1
 10
0.0
 20
0.0
 30
0.0
  0
VERTEX
  5
28B0
  8
0
 62
     0
 10
133.418154
 20
178.762118
 30
0.0
  0
VERTEX
  5
28B1
  8
0
 62
     0
 10
133.423498
 20
175.683158
 30
0.0
  0
VERTEX
  5
28B2
  8
0
 62
     0
 10
133.432304
 20
172.710475
 30
0.0
  0
VERTEX
  5
28B3
  8
0
 62
     0
 10
133.444421
 20
169.894968
 30
0.0
  0
VERTEX
  5
28B4
  8
0
 62
     0
 10
133.459641
 20
167.284627
 30
0.0
  0
VERTEX
  5
28B5
  8
0
 62
     0
 10
133.477705
 20
164.9243
 30
0.0
  0
VERTEX
  5
28B6
  8
0
 62
     0
 10
133.498303
 20
162.854335
 30
0.0
  0
VERTEX
  5
28B7
  8
0
 62
     0
 10
133.521083
 20
161.110125
 30
0.0
  0
VERTEX
  5
28B8
  8
0
 62
     0
 10
133.545654
 20
159.721626
 30
0.0
  0
VERTEX
  5
28B9
  8
0
 62
     0
 10
133.571597
 20
158.712484
 30
0.0
  0
VERTEX
  5
28BA
  8
0
 62
     0
 10
133.598468
 20
158.100005
 30
0.0
  0
VERTEX
  5
28BB
  8
0
 62
     0
 10
133.625807
 20
157.894673
 30
0.0
  0
SEQEND
  5
28BC
  8
0
 62
     0
  0
POLYLINE
  5
24C6
  8
0
 62
     0
 66
     1
 10
0.0
 20
0.0
 30
0.0
  0
VERTEX
  5
28BD
  8
0
 62
     0
 10
132.535406
 20
160.563944
 30
0.0
  0
VERTEX
  5
28BE
  8
0
 62
     0
 10
132.559902
 20
162.26385
 30
0.0
  0
VERTEX
  5
28BF
  8
0
 62
     0
 10
132.582144
 20
164.330738
 30
0.0
  0
VERTEX
  5
28C0
  8
0
 62
     0
 10
132.601719
 20
166.725986
 30
0.0
  0
VERTEX
  5
28C1
  8
0
 62
     0
 10
132.618259
 20
169.404787
 30
0.0
  0
VERTEX
  5
28C2
  8
0
 62
     0
 10
132.631455
 20
172.317066
 30
0.0
  0
VERTEX
  5
28C3
  8
0
 62
     0
 10
132.641061
 20
175.408385
 30
0.0
  0
VERTEX
  5
28C4
  8
0
 62
     0
 10
132.646898
 20
178.620929
 30
0.0
  0
VERTEX
  5
28C5
  8
0
 62
     0
 10
132.648855
 20
181.894673
 30
0.0
  0
SEQEND
  5
28C6
  8
0
 62
     0
  0
LINE
  5
24C7
  8
0
 62
     0
 10
132.535406
 20
157.894673
 30
0.0
 11
132.535406
 21
195.667757
 31
0.0
  0
LINE
  5
24C8
  8
0
 62
     0
 10
146.135406
 20
157.894673
 30
0.0
 11
147.225807
 21
157.894673
 31
0.0
  0
LINE
  5
24C9
  8
0
 62
     0
 10
148.748933
 20
114.594673
 30
0.0
 11
131.435406
 21
114.594673
 31
0.0
  0
LINE
  5
24CA
  8
0
 62
     0
 10
147.260406
 20
114.094673
 30
0.0
 11
145.360406
 21
114.094673
 31
0.0
  0
LINE
  5
24CB
  8
0
 62
     0
 10
145.360406
 20
113.556058
 30
0.0
 11
147.260406
 21
113.556058
 31
0.0
  0
LINE
  5
24CC
  8
0
 62
     0
 10
149.935406
 20
111.094673
 30
0.0
 11
131.435406
 21
111.094673
 31
0.0
  0
LINE
  5
24CD
  8
0
 62
     0
 10
149.385406
 20
110.344673
 30
0.0
 11
131.435406
 21
110.344673
 31
0.0
  0
POLYLINE
  5
24CE
  8
0
 62
     0
 66
     1
 10
0.0
 20
0.0
 30
0.0
  0
VERTEX
  5
28C7
  8
0
 62
     0
 10
133.736605
 20
108.569087
 30
0.0
  0
VERTEX
  5
28C8
  8
0
 62
     0
 10
134.991391
 20
108.609085
 30
0.0
  0
VERTEX
  5
28C9
  8
0
 62
     0
 10
142.421614
 20
109.32214
 30
0.0
  0
VERTEX
  5
28CA
  8
0
 62
     0
 10
148.796242
 20
110.344673
 30
0.0
  0
SEQEND
  5
28CB
  8
0
 62
     0
  0
LINE
  5
24CF
  8
0
 62
     0
 10
135.212313
 20
96.428004
 30
0.0
 11
135.055297
 21
96.231022
 31
0.0
  0
POLYLINE
  5
24D0
  8
0
 62
     0
 66
     1
 10
0.0
 20
0.0
 30
0.0
  0
VERTEX
  5
28CC
  8
0
 62
     0
 10
135.340752
 20
97.397067
 30
0.0
  0
VERTEX
  5
28CD
  8
0
 62
     0
 10
135.310909
 20
97.3303
 30
0.0
  0
VERTEX
  5
28CE
  8
0
 62
     0
 10
135.266406
 20
97.272516
 30
0.0
  0
VERTEX
  5
28CF
  8
0
 62
     0
 10
135.20946
 20
97.226801
 30
0.0
  0
VERTEX
  5
28D0
  8
0
 62
     0
 10
135.151466
 20
97.201326
 30
0.0
  0
SEQEND
  5
28D1
  8
0
 62
     0
  0
POLYLINE
  5
24D1
  8
0
 62
     0
 66
     1
 10
0.0
 20
0.0
 30
0.0
  0
VERTEX
  5
28D2
  8
0
 62
     0
 10
135.086823
 20
97.365144
 30
0.0
  0
VERTEX
  5
28D3
  8
0
 62
     0
 10
135.126523
 20
101.072548
 30
0.0
  0
VERTEX
  5
28D4
  8
0
 62
     0
 10
135.165958
 20
104.773631
 30
0.0
  0
VERTEX
  5
28D5
  8
0
 62
     0
 10
135.205133
 20
108.468389
 30
0.0
  0
SEQEND
  5
28D6
  8
0
 62
     0
  0
POLYLINE
  5
24D2
  8
0
 62
     0
 66
     1
 10
0.0
 20
0.0
 30
0.0
  0
VERTEX
  5
28D7
  8
0
 62
     0
 10
134.873923
 20
96.703829
 30
0.0
  0
VERTEX
  5
28D8
  8
0
 62
     0
 10
135.054617
 20
96.556439
 30
0.0
  0
VERTEX
  5
28D9
  8
0
 62
     0
 10
135.237019
 20
96.408311
 30
0.0
  0
SEQEND
  5
28DA
  8
0
 62
     0
  0
LINE
  5
24D3
  8
0
 62
     0
 10
135.460406
 20
114.094673
 30
0.0
 11
133.560406
 21
114.094673
 31
0.0
  0
LINE
  5
24D4
  8
0
 62
     0
 10
133.560406
 20
113.556058
 30
0.0
 11
135.460406
 21
113.556058
 31
0.0
  0
POLYLINE
  5
24D5
  8
0
 62
     0
 66
     1
 10
0.0
 20
0.0
 30
0.0
  0
VERTEX
  5
28DB
  8
0
 62
     0
 10
133.405156
 20
108.544345
 30
0.0
  0
VERTEX
  5
28DC
  8
0
 62
     0
 10
134.383403
 20
108.503747
 30
0.0
  0
VERTEX
  5
28DD
  8
0
 62
     0
 10
135.376463
 20
108.477522
 30
0.0
  0
SEQEND
  5
28DE
  8
0
 62
     0
  0
LINE
  5
24D6
  8
0
 62
     0
 10
132.8007
 20
108.606075
 30
0.0
 11
135.745348
 21
108.489698
 31
0.0
  0
POLYLINE
  5
24D7
  8
0
 62
     0
 66
     1
 10
0.0
 20
0.0
 30
0.0
  0
VERTEX
  5
28DF
  8
0
 62
     0
 10
139.25225
 20
110.344673
 30
0.0
  0
VERTEX
  5
28E0
  8
0
 62
     0
 10
135.083311
 20
109.936496
 30
0.0
  0
VERTEX
  5
28E1
  8
0
 62
     0
 10
127.535203
 20
109.691011
 30
0.0
  0
VERTEX
  5
28E2
  8
0
 62
     0
 10
125.685406
 20
109.751178
 30
0.0
  0
SEQEND
  5
28E3
  8
0
 62
     0
  0
POLYLINE
  5
24D8
  8
0
 62
     0
 66
     1
 10
0.0
 20
0.0
 30
0.0
  0
VERTEX
  5
28E4
  8
0
 62
     0
 10
134.962576
 20
108.47007
 30
0.0
  0
VERTEX
  5
28E5
  8
0
 62
     0
 10
135.036342
 20
108.469408
 30
0.0
  0
VERTEX
  5
28E6
  8
0
 62
     0
 10
135.1076
 20
108.468891
 30
0.0
  0
VERTEX
  5
28E7
  8
0
 62
     0
 10
135.166563
 20
108.468552
 30
0.0
  0
VERTEX
  5
28E8
  8
0
 62
     0
 10
135.205133
 20
108.468389
 30
0.0
  0
SEQEND
  5
28E9
  8
0
 62
     0
  0
POLYLINE
  5
24D9
  8
0
 62
     0
 66
     1
 10
0.0
 20
0.0
 30
0.0
  0
VERTEX
  5
28EA
  8
0
 62
     0
 10
145.888803
 20
110.344673
 30
0.0
  0
VERTEX
  5
28EB
  8
0
 62
     0
 10
142.67468
 20
109.8268
 30
0.0
  0
VERTEX
  5
28EC
  8
0
 62
     0
 10
135.113089
 20
109.090589
 30
0.0
  0
VERTEX
  5
28ED
  8
0
 62
     0
 10
129.707334
 20
108.915767
 30
0.0
  0
SEQEND
  5
28EE
  8
0
 62
     0
  0
POLYLINE
  5
24DA
  8
0
 62
     0
 66
     1
 10
0.0
 20
0.0
 30
0.0
  0
VERTEX
  5
28EF
  8
0
 62
     0
 10
135.340762
 20
97.397067
 30
0.0
  0
VERTEX
  5
28F0
  8
0
 62
     0
 10
135.217646
 20
97.382127
 30
0.0
  0
VERTEX
  5
28F1
  8
0
 62
     0
 10
135.086823
 20
97.365144
 30
0.0
  0
SEQEND
  5
28F2
  8
0
 62
     0
  0
POLYLINE
  5
24DB
  8
0
 62
     0
 66
     1
 10
0.0
 20
0.0
 30
0.0
  0
VERTEX
  5
28F3
  8
0
 62
     0
 10
123.822059
 20
109.361965
 30
0.0
  0
VERTEX
  5
28F4
  8
0
 62
     0
 10
123.840125
 20
109.342664
 30
0.0
  0
VERTEX
  5
28F5
  8
0
 62
     0
 10
123.861094
 20
109.300386
 30
0.0
  0
VERTEX
  5
28F6
  8
0
 62
     0
 10
123.882206
 20
109.24069
 30
0.0
  0
VERTEX
  5
28F7
  8
0
 62
     0
 10
123.900687
 20
109.171427
 30
0.0
  0
SEQEND
  5
28F8
  8
0
 62
     0
  0
LINE
  5
24DC
  8
0
 62
     0
 10
127.042062
 20
109.205267
 30
0.0
 11
125.304129
 21
109.529284
 31
0.0
  0
POLYLINE
  5
24DD
  8
0
 62
     0
 66
     1
 10
0.0
 20
0.0
 30
0.0
  0
VERTEX
  5
28F9
  8
0
 62
     0
 10
126.013759
 20
109.494673
 30
0.0
  0
VERTEX
  5
28FA
  8
0
 62
     0
 10
129.388528
 20
108.947684
 30
0.0
  0
VERTEX
  5
28FB
  8
0
 62
     0
 10
132.8007
 20
108.606075
 30
0.0
  0
SEQEND
  5
28FC
  8
0
 62
     0
  0
POLYLINE
  5
24DE
  8
0
 62
     0
 66
     1
 10
0.0
 20
0.0
 30
0.0
  0
VERTEX
  5
28FD
  8
0
 62
     0
 10
133.405156
 20
108.544345
 30
0.0
  0
VERTEX
  5
28FE
  8
0
 62
     0
 10
130.816093
 20
108.740997
 30
0.0
  0
VERTEX
  5
28FF
  8
0
 62
     0
 10
128.238879
 20
109.057912
 30
0.0
  0
VERTEX
  5
2900
  8
0
 62
     0
 10
125.677473
 20
109.494673
 30
0.0
  0
SEQEND
  5
2901
  8
0
 62
     0
  0
POLYLINE
  5
24DF
  8
0
 62
     0
 66
     1
 10
0.0
 20
0.0
 30
0.0
  0
VERTEX
  5
2902
  8
0
 62
     0
 10
133.031812
 20
108.544345
 30
0.0
  0
VERTEX
  5
2903
  8
0
 62
     0
 10
130.442749
 20
108.740997
 30
0.0
  0
VERTEX
  5
2904
  8
0
 62
     0
 10
127.865536
 20
109.057912
 30
0.0
  0
VERTEX
  5
2905
  8
0
 62
     0
 10
125.304129
 20
109.494673
 30
0.0
  0
SEQEND
  5
2906
  8
0
 62
     0
  0
POLYLINE
  5
24E0
  8
0
 62
     0
 66
     1
 10
0.0
 20
0.0
 30
0.0
  0
VERTEX
  5
2907
  8
0
 62
     0
 10
134.962576
 20
108.47007
 30
0.0
  0
VERTEX
  5
2908
  8
0
 62
     0
 10
131.632332
 20
108.606075
 30
0.0
  0
VERTEX
  5
2909
  8
0
 62
     0
 10
128.297843
 20
108.947684
 30
0.0
  0
VERTEX
  5
290A
  8
0
 62
     0
 10
124.967843
 20
109.494673
 30
0.0
  0
SEQEND
  5
290B
  8
0
 62
     0
  0
POLYLINE
  5
24E1
  8
0
 62
     0
 66
     1
 10
0.0
 20
0.0
 30
0.0
  0
VERTEX
  5
290C
  8
0
 62
     0
 10
124.485309
 20
109.309572
 30
0.0
  0
VERTEX
  5
290D
  8
0
 62
     0
 10
124.189466
 20
109.23942
 30
0.0
  0
VERTEX
  5
290E
  8
0
 62
     0
 10
123.900687
 20
109.171427
 30
0.0
  0
SEQEND
  5
290F
  8
0
 62
     0
  0
POLYLINE
  5
24E2
  8
0
 62
     0
 66
     1
 10
0.0
 20
0.0
 30
0.0
  0
VERTEX
  5
2910
  8
0
 62
     0
 10
126.865467
 20
104.066514
 30
0.0
  0
VERTEX
  5
2911
  8
0
 62
     0
 10
127.055372
 20
104.713354
 30
0.0
  0
VERTEX
  5
2912
  8
0
 62
     0
 10
127.364018
 20
105.31115
 30
0.0
  0
VERTEX
  5
2913
  8
0
 62
     0
 10
127.779925
 20
105.837666
 30
0.0
  0
VERTEX
  5
2914
  8
0
 62
     0
 10
128.28762
 20
106.273324
 30
0.0
  0
VERTEX
  5
2915
  8
0
 62
     0
 10
128.868223
 20
106.601925
 30
0.0
  0
VERTEX
  5
2916
  8
0
 62
     0
 10
129.500139
 20
106.811252
 30
0.0
  0
SEQEND
  5
2917
  8
0
 62
     0
  0
POLYLINE
  5
24E3
  8
0
 62
     0
 66
     1
 10
0.0
 20
0.0
 30
0.0
  0
VERTEX
  5
2918
  8
0
 62
     0
 10
133.463292
 20
103.391182
 30
0.0
  0
VERTEX
  5
2919
  8
0
 62
     0
 10
133.399815
 20
104.073736
 30
0.0
  0
VERTEX
  5
291A
  8
0
 62
     0
 10
133.216226
 20
104.731416
 30
0.0
  0
VERTEX
  5
291B
  8
0
 62
     0
 10
132.919865
 20
105.341399
 30
0.0
  0
VERTEX
  5
291C
  8
0
 62
     0
 10
132.52097
 20
105.884351
 30
0.0
  0
VERTEX
  5
291D
  8
0
 62
     0
 10
132.032363
 20
106.343036
 30
0.0
  0
VERTEX
  5
291E
  8
0
 62
     0
 10
131.469752
 20
106.702171
 30
0.0
  0
VERTEX
  5
291F
  8
0
 62
     0
 10
130.852081
 20
106.9491
 30
0.0
  0
VERTEX
  5
2920
  8
0
 62
     0
 10
130.200281
 20
107.075104
 30
0.0
  0
VERTEX
  5
2921
  8
0
 62
     0
 10
129.536945
 20
107.075711
 30
0.0
  0
VERTEX
  5
2922
  8
0
 62
     0
 10
128.884671
 20
106.950956
 30
0.0
  0
VERTEX
  5
2923
  8
0
 62
     0
 10
128.265986
 20
106.705294
 30
0.0
  0
VERTEX
  5
2924
  8
0
 62
     0
 10
127.701898
 20
106.347268
 30
0.0
  0
VERTEX
  5
2925
  8
0
 62
     0
 10
127.211604
 20
105.889222
 30
0.0
  0
VERTEX
  5
2926
  8
0
 62
     0
 10
126.811322
 20
105.346154
 30
0.0
  0
VERTEX
  5
2927
  8
0
 62
     0
 10
126.514542
 20
104.735205
 30
0.0
  0
VERTEX
  5
2928
  8
0
 62
     0
 10
126.332117
 20
104.075816
 30
0.0
  0
VERTEX
  5
2929
  8
0
 62
     0
 10
126.271791
 20
103.391182
 30
0.0
  0
SEQEND
  5
292A
  8
0
 62
     0
  0
POLYLINE
  5
24E4
  8
0
 62
     0
 66
     1
 10
0.0
 20
0.0
 30
0.0
  0
VERTEX
  5
292B
  8
0
 62
     0
 10
126.271791
 20
103.391182
 30
0.0
  0
VERTEX
  5
292C
  8
0
 62
     0
 10
126.336256
 20
102.706631
 30
0.0
  0
VERTEX
  5
292D
  8
0
 62
     0
 10
126.522564
 20
102.047508
 30
0.0
  0
VERTEX
  5
292E
  8
0
 62
     0
 10
126.822761
 20
101.436911
 30
0.0
  0
VERTEX
  5
292F
  8
0
 62
     0
 10
127.225802
 20
100.894223
 30
0.0
  0
VERTEX
  5
2930
  8
0
 62
     0
 10
127.718057
 20
100.436478
 30
0.0
  0
VERTEX
  5
2931
  8
0
 62
     0
 10
128.283281
 20
100.078514
 30
0.0
  0
VERTEX
  5
2932
  8
0
 62
     0
 10
128.902345
 20
99.832561
 30
0.0
  0
VERTEX
  5
2933
  8
0
 62
     0
 10
129.554435
 20
99.70712
 30
0.0
  0
VERTEX
  5
2934
  8
0
 62
     0
 10
130.217253
 20
99.706742
 30
0.0
  0
VERTEX
  5
2935
  8
0
 62
     0
 10
130.868378
 20
99.831697
 30
0.0
  0
VERTEX
  5
2936
  8
0
 62
     0
 10
131.485277
 20
100.077816
 30
0.0
  0
VERTEX
  5
2937
  8
0
 62
     0
 10
132.046891
 20
100.436641
 30
0.0
  0
VERTEX
  5
2938
  8
0
 62
     0
 10
132.534024
 20
100.895597
 30
0.0
  0
VERTEX
  5
2939
  8
0
 62
     0
 10
132.930732
 20
101.439271
 30
0.0
  0
VERTEX
  5
293A
  8
0
 62
     0
 10
133.22409
 20
102.050141
 30
0.0
  0
VERTEX
  5
293B
  8
0
 62
     0
 10
133.403956
 20
102.708525
 30
0.0
  0
VERTEX
  5
293C
  8
0
 62
     0
 10
133.463292
 20
103.391182
 30
0.0
  0
SEQEND
  5
293D
  8
0
 62
     0
  0
POLYLINE
  5
24E5
  8
0
 62
     0
 66
     1
 10
0.0
 20
0.0
 30
0.0
  0
VERTEX
  5
293E
  8
0
 62
     0
 10
126.51086
 20
103.394673
 30
0.0
  0
VERTEX
  5
293F
  8
0
 62
     0
 10
126.572173
 20
102.746326
 30
0.0
  0
VERTEX
  5
2940
  8
0
 62
     0
 10
126.748814
 20
102.122974
 30
0.0
  0
VERTEX
  5
2941
  8
0
 62
     0
 10
127.033257
 20
101.545534
 30
0.0
  0
VERTEX
  5
2942
  8
0
 62
     0
 10
127.415027
 20
101.032327
 30
0.0
  0
VERTEX
  5
2943
  8
0
 62
     0
 10
127.88121
 20
100.599458
 30
0.0
  0
VERTEX
  5
2944
  8
0
 62
     0
 10
128.416417
 20
100.260953
 30
0.0
  0
VERTEX
  5
2945
  8
0
 62
     0
 10
129.00253
 20
100.028371
 30
0.0
  0
VERTEX
  5
2946
  8
0
 62
     0
 10
129.619843
 20
99.909747
 30
0.0
  0
VERTEX
  5
2947
  8
0
 62
     0
 10
129.935536
 20
99.894673
 30
0.0
  0
SEQEND
  5
2948
  8
0
 62
     0
  0
LINE
  5
24E6
  8
0
 62
     0
 10
130.856643
 20
108.70956
 30
0.0
 11
129.143144
 21
108.895721
 31
0.0
  0
POLYLINE
  5
24E7
  8
0
 62
     0
 66
     1
 10
0.0
 20
0.0
 30
0.0
  0
VERTEX
  5
2949
  8
0
 62
     0
 10
129.9131
 20
106.894673
 30
0.0
  0
VERTEX
  5
294A
  8
0
 62
     0
 10
129.602183
 20
106.880047
 30
0.0
  0
VERTEX
  5
294B
  8
0
 62
     0
 10
128.98473
 20
106.762086
 30
0.0
  0
VERTEX
  5
294C
  8
0
 62
     0
 10
128.399047
 20
106.529792
 30
0.0
  0
VERTEX
  5
294D
  8
0
 62
     0
 10
127.865021
 20
106.191238
 30
0.0
  0
VERTEX
  5
294E
  8
0
 62
     0
 10
127.40083
 20
105.758093
 30
0.0
  0
VERTEX
  5
294F
  8
0
 62
     0
 10
127.021833
 20
105.244533
 30
0.0
  0
VERTEX
  5
2950
  8
0
 62
     0
 10
126.740807
 20
104.666766
 30
0.0
  0
VERTEX
  5
2951
  8
0
 62
     0
 10
126.56804
 20
104.043163
 30
0.0
  0
VERTEX
  5
2952
  8
0
 62
     0
 10
126.51086
 20
103.394673
 30
0.0
  0
SEQEND
  5
2953
  8
0
 62
     0
  0
POLYLINE
  5
24E8
  8
0
 62
     0
 66
     1
 10
0.0
 20
0.0
 30
0.0
  0
VERTEX
  5
2954
  8
0
 62
     0
 10
130.064289
 20
99.907742
 30
0.0
  0
VERTEX
  5
2955
  8
0
 62
     0
 10
129.500139
 20
99.978094
 30
0.0
  0
VERTEX
  5
2956
  8
0
 62
     0
 10
128.868223
 20
100.187421
 30
0.0
  0
VERTEX
  5
2957
  8
0
 62
     0
 10
128.28762
 20
100.516022
 30
0.0
  0
VERTEX
  5
2958
  8
0
 62
     0
 10
127.779925
 20
100.95168
 30
0.0
  0
VERTEX
  5
2959
  8
0
 62
     0
 10
127.364018
 20
101.478196
 30
0.0
  0
VERTEX
  5
295A
  8
0
 62
     0
 10
127.055372
 20
102.075991
 30
0.0
  0
SEQEND
  5
295B
  8
0
 62
     0
  0
LINE
  5
24E9
  8
0
 62
     0
 10
132.142835
 20
96.253988
 30
0.0
 11
128.191497
 21
95.55769
 31
0.0
  0
LINE
  5
24EA
  8
0
 62
     0
 10
128.191497
 20
95.55769
 30
0.0
 11
124.240555
 21
95.085467
 31
0.0
  0
POLYLINE
  5
24EB
  8
0
 62
     0
 66
     1
 10
0.0
 20
0.0
 30
0.0
  0
VERTEX
  5
295C
  8
0
 62
     0
 10
127.306797
 20
103.394673
 30
0.0
  0
VERTEX
  5
295D
  8
0
 62
     0
 10
127.252663
 20
104.012544
 30
0.0
  0
VERTEX
  5
295E
  8
0
 62
     0
 10
127.091975
 20
104.610967
 30
0.0
  0
VERTEX
  5
295F
  8
0
 62
     0
 10
127.05101
 20
104.698496
 30
0.0
  0
SEQEND
  5
2960
  8
0
 62
     0
  0
POLYLINE
  5
24EC
  8
0
 62
     0
 66
     1
 10
0.0
 20
0.0
 30
0.0
  0
VERTEX
  5
2961
  8
0
 62
     0
 10
127.05101
 20
102.09085
 30
0.0
  0
VERTEX
  5
2962
  8
0
 62
     0
 10
127.091975
 20
102.178379
 30
0.0
  0
VERTEX
  5
2963
  8
0
 62
     0
 10
127.252663
 20
102.776802
 30
0.0
  0
VERTEX
  5
2964
  8
0
 62
     0
 10
127.306797
 20
103.394673
 30
0.0
  0
SEQEND
  5
2965
  8
0
 62
     0
  0
LINE
  5
24ED
  8
0
 62
     0
 10
127.174713
 20
103.394673
 30
0.0
 11
127.238643
 21
104.064755
 31
0.0
  0
LINE
  5
24EE
  8
0
 62
     0
 10
126.80137
 20
103.394673
 30
0.0
 11
126.865467
 21
104.066514
 31
0.0
  0
LINE
  5
24EF
  8
0
 62
     0
 10
127.238643
 20
102.724591
 30
0.0
 11
127.174713
 21
103.394673
 31
0.0
  0
POLYLINE
  5
24F0
  8
0
 62
     0
 66
     1
 10
0.0
 20
0.0
 30
0.0
  0
VERTEX
  5
2966
  8
0
 62
     0
 10
127.055372
 20
102.075991
 30
0.0
  0
VERTEX
  5
2967
  8
0
 62
     0
 10
126.865467
 20
102.722832
 30
0.0
  0
VERTEX
  5
2968
  8
0
 62
     0
 10
126.80137
 20
103.394673
 30
0.0
  0
SEQEND
  5
2969
  8
0
 62
     0
  0
LINE
  5
24F1
  8
0
 62
     0
 10
129.143144
 20
108.895721
 30
0.0
 11
127.042062
 21
109.205267
 31
0.0
  0
POLYLINE
  5
24F2
  8
0
 62
     0
 66
     1
 10
0.0
 20
0.0
 30
0.0
  0
VERTEX
  5
296A
  8
0
 62
     0
 10
134.843844
 20
97.365178
 30
0.0
  0
VERTEX
  5
296B
  8
0
 62
     0
 10
134.883684
 20
101.073113
 30
0.0
  0
VERTEX
  5
296C
  8
0
 62
     0
 10
134.92326
 20
104.774755
 30
0.0
  0
VERTEX
  5
296D
  8
0
 62
     0
 10
134.962576
 20
108.47007
 30
0.0
  0
SEQEND
  5
296E
  8
0
 62
     0
  0
POLYLINE
  5
24F3
  8
0
 62
     0
 66
     1
 10
0.0
 20
0.0
 30
0.0
  0
VERTEX
  5
296F
  8
0
 62
     0
 10
132.461976
 20
95.699155
 30
0.0
  0
VERTEX
  5
2970
  8
0
 62
     0
 10
132.33131
 20
95.820057
 30
0.0
  0
VERTEX
  5
2971
  8
0
 62
     0
 10
132.246202
 20
95.907993
 30
0.0
  0
VERTEX
  5
2972
  8
0
 62
     0
 10
132.203102
 20
95.964172
 30
0.0
  0
VERTEX
  5
2973
  8
0
 62
     0
 10
132.195354
 20
95.98526
 30
0.0
  0
SEQEND
  5
2974
  8
0
 62
     0
  0
LINE
  5
24F4
  8
0
 62
     0
 10
131.134973
 20
96.253986
 30
0.0
 11
134.949309
 21
97.175246
 31
0.0
  0
POLYLINE
  5
24F5
  8
0
 62
     0
 66
     1
 10
0.0
 20
0.0
 30
0.0
  0
VERTEX
  5
2975
  8
0
 62
     0
 10
132.096369
 20
96.412828
 30
0.0
  0
VERTEX
  5
2976
  8
0
 62
     0
 10
133.044383
 20
96.646848
 30
0.0
  0
VERTEX
  5
2977
  8
0
 62
     0
 10
134.066023
 20
96.909719
 30
0.0
  0
SEQEND
  5
2978
  8
0
 62
     0
  0
POLYLINE
  5
24F6
  8
0
 62
     0
 66
     1
 10
0.0
 20
0.0
 30
0.0
  0
VERTEX
  5
2979
  8
0
 62
     0
 10
131.311729
 20
96.200266
 30
0.0
  0
VERTEX
  5
297A
  8
0
 62
     0
 10
131.323131
 20
96.207751
 30
0.0
  0
VERTEX
  5
297B
  8
0
 62
     0
 10
131.346827
 20
96.217645
 30
0.0
  0
VERTEX
  5
297C
  8
0
 62
     0
 10
131.382903
 20
96.229987
 30
0.0
  0
VERTEX
  5
297D
  8
0
 62
     0
 10
131.431088
 20
96.244695
 30
0.0
  0
VERTEX
  5
297E
  8
0
 62
     0
 10
131.492054
 20
96.261974
 30
0.0
  0
VERTEX
  5
297F
  8
0
 62
     0
 10
131.565472
 20
96.281731
 30
0.0
  0
VERTEX
  5
2980
  8
0
 62
     0
 10
131.649105
 20
96.303409
 30
0.0
  0
VERTEX
  5
2981
  8
0
 62
     0
 10
131.743324
 20
96.327162
 30
0.0
  0
VERTEX
  5
2982
  8
0
 62
     0
 10
131.848802
 20
96.353189
 30
0.0
  0
VERTEX
  5
2983
  8
0
 62
     0
 10
131.966215
 20
96.381676
 30
0.0
  0
VERTEX
  5
2984
  8
0
 62
     0
 10
132.096369
 20
96.412828
 30
0.0
  0
SEQEND
  5
2985
  8
0
 62
     0
  0
LINE
  5
24F7
  8
0
 62
     0
 10
132.195369
 20
95.982152
 30
0.0
 11
132.195369
 21
96.437267
 31
0.0
  0
POLYLINE
  5
24F8
  8
0
 62
     0
 66
     1
 10
0.0
 20
0.0
 30
0.0
  0
VERTEX
  5
2986
  8
0
 62
     0
 10
132.195369
 20
96.320734
 30
0.0
  0
VERTEX
  5
2987
  8
0
 62
     0
 10
132.103122
 20
96.303843
 30
0.0
  0
VERTEX
  5
2988
  8
0
 62
     0
 10
131.980501
 20
96.282114
 30
0.0
  0
VERTEX
  5
2989
  8
0
 62
     0
 10
131.864232
 20
96.26225
 30
0.0
  0
VERTEX
  5
298A
  8
0
 62
     0
 10
131.75818
 20
96.244875
 30
0.0
  0
VERTEX
  5
298B
  8
0
 62
     0
 10
131.663562
 20
96.230116
 30
0.0
  0
VERTEX
  5
298C
  8
0
 62
     0
 10
131.579263
 20
96.217738
 30
0.0
  0
VERTEX
  5
298D
  8
0
 62
     0
 10
131.506132
 20
96.207823
 30
0.0
  0
VERTEX
  5
298E
  8
0
 62
     0
 10
131.443733
 20
96.200285
 30
0.0
  0
VERTEX
  5
298F
  8
0
 62
     0
 10
131.392817
 20
96.195207
 30
0.0
  0
VERTEX
  5
2990
  8
0
 62
     0
 10
131.353676
 20
96.192623
 30
0.0
  0
VERTEX
  5
2991
  8
0
 62
     0
 10
131.326679
 20
96.192607
 30
0.0
  0
VERTEX
  5
2992
  8
0
 62
     0
 10
131.312822
 20
96.195164
 30
0.0
  0
VERTEX
  5
2993
  8
0
 62
     0
 10
131.311729
 20
96.200266
 30
0.0
  0
SEQEND
  5
2994
  8
0
 62
     0
  0
LINE
  5
24F9
  8
0
 62
     0
 10
132.195369
 20
96.266262
 30
0.0
 11
132.142835
 21
96.253988
 31
0.0
  0
POLYLINE
  5
24FA
  8
0
 62
     0
 66
     1
 10
0.0
 20
0.0
 30
0.0
  0
VERTEX
  5
2995
  8
0
 62
     0
 10
133.471267
 20
96.349251
 30
0.0
  0
VERTEX
  5
2996
  8
0
 62
     0
 10
133.644535
 20
96.202415
 30
0.0
  0
VERTEX
  5
2997
  8
0
 62
     0
 10
133.820907
 20
96.053733
 30
0.0
  0
SEQEND
  5
2998
  8
0
 62
     0
  0
LINE
  5
24FB
  8
0
 62
     0
 10
132.732216
 20
95.739361
 30
0.0
 11
132.698067
 21
95.699155
 31
0.0
  0
POLYLINE
  5
24FC
  8
0
 62
     0
 66
     1
 10
0.0
 20
0.0
 30
0.0
  0
VERTEX
  5
2999
  8
0
 62
     0
 10
132.967852
 20
96.019155
 30
0.0
  0
VERTEX
  5
299A
  8
0
 62
     0
 10
132.913116
 20
95.953916
 30
0.0
  0
VERTEX
  5
299B
  8
0
 62
     0
 10
132.732216
 20
95.739361
 30
0.0
  0
SEQEND
  5
299C
  8
0
 62
     0
  0
POLYLINE
  5
24FD
  8
0
 62
     0
 66
     1
 10
0.0
 20
0.0
 30
0.0
  0
VERTEX
  5
299D
  8
0
 62
     0
 10
133.717539
 20
96.140873
 30
0.0
  0
VERTEX
  5
299E
  8
0
 62
     0
 10
133.693211
 20
96.111291
 30
0.0
  0
VERTEX
  5
299F
  8
0
 62
     0
 10
133.499145
 20
95.876444
 30
0.0
  0
SEQEND
  5
29A0
  8
0
 62
     0
  0
POLYLINE
  5
24FE
  8
0
 62
     0
 66
     1
 10
0.0
 20
0.0
 30
0.0
  0
VERTEX
  5
29A1
  8
0
 62
     0
 10
133.133465
 20
95.876444
 30
0.0
  0
VERTEX
  5
29A2
  8
0
 62
     0
 10
133.300789
 20
96.111291
 30
0.0
  0
VERTEX
  5
29A3
  8
0
 62
     0
 10
133.471267
 20
96.349251
 30
0.0
  0
SEQEND
  5
29A4
  8
0
 62
     0
  0
POLYLINE
  5
24FF
  8
0
 62
     0
 66
     1
 10
0.0
 20
0.0
 30
0.0
  0
VERTEX
  5
29A5
  8
0
 62
     0
 10
132.489696
 20
95.739361
 30
0.0
  0
VERTEX
  5
29A6
  8
0
 62
     0
 10
132.63896
 20
95.953916
 30
0.0
  0
VERTEX
  5
29A7
  8
0
 62
     0
 10
132.791556
 20
96.171962
 30
0.0
  0
SEQEND
  5
29A8
  8
0
 62
     0
  0
POLYLINE
  5
2500
  8
0
 62
     0
 66
     1
 10
0.0
 20
0.0
 30
0.0
  0
VERTEX
  5
29A9
  8
0
 62
     0
 10
132.461976
 20
95.699155
 30
0.0
  0
VERTEX
  5
29AA
  8
0
 62
     0
 10
132.471073
 20
95.712403
 30
0.0
  0
VERTEX
  5
29AB
  8
0
 62
     0
 10
132.480313
 20
95.725805
 30
0.0
  0
VERTEX
  5
29AC
  8
0
 62
     0
 10
132.489696
 20
95.739361
 30
0.0
  0
SEQEND
  5
29AD
  8
0
 62
     0
  0
LINE
  5
2501
  8
0
 62
     0
 10
132.489696
 20
95.739361
 30
0.0
 11
132.489696
 21
96.509922
 31
0.0
  0
POLYLINE
  5
2502
  8
0
 62
     0
 66
     1
 10
0.0
 20
0.0
 30
0.0
  0
VERTEX
  5
29AE
  8
0
 62
     0
 10
132.791556
 20
96.171962
 30
0.0
  0
VERTEX
  5
29AF
  8
0
 62
     0
 10
132.960538
 20
96.025457
 30
0.0
  0
VERTEX
  5
29B0
  8
0
 62
     0
 10
133.133465
 20
95.876444
 30
0.0
  0
SEQEND
  5
29B1
  8
0
 62
     0
  0
LINE
  5
2503
  8
0
 62
     0
 10
133.499145
 20
95.876444
 30
0.0
 11
133.133465
 21
95.876444
 31
0.0
  0
LINE
  5
2504
  8
0
 62
     0
 10
132.698067
 20
95.699155
 30
0.0
 11
132.461976
 21
95.699155
 31
0.0
  0
POLYLINE
  5
2505
  8
0
 62
     0
 66
     1
 10
0.0
 20
0.0
 30
0.0
  0
VERTEX
  5
29B2
  8
0
 62
     0
 10
134.949305
 20
97.175247
 30
0.0
  0
VERTEX
  5
29B3
  8
0
 62
     0
 10
135.004661
 20
97.201525
 30
0.0
  0
VERTEX
  5
29B4
  8
0
 62
     0
 10
135.049238
 20
97.246027
 30
0.0
  0
VERTEX
  5
29B5
  8
0
 62
     0
 10
135.077306
 20
97.302535
 30
0.0
  0
VERTEX
  5
29B6
  8
0
 62
     0
 10
135.086823
 20
97.365144
 30
0.0
  0
SEQEND
  5
29B7
  8
0
 62
     0
  0
LINE
  5
2506
  8
0
 62
     0
 10
134.465515
 20
96.277198
 30
0.0
 11
134.28427
 21
96.053733
 31
0.0
  0
POLYLINE
  5
2507
  8
0
 62
     0
 66
     1
 10
0.0
 20
0.0
 30
0.0
  0
VERTEX
  5
29B8
  8
0
 62
     0
 10
134.522447
 20
96.231022
 30
0.0
  0
VERTEX
  5
29B9
  8
0
 62
     0
 10
134.697277
 20
96.46673
 30
0.0
  0
VERTEX
  5
29BA
  8
0
 62
     0
 10
134.873923
 20
96.703829
 30
0.0
  0
SEQEND
  5
29BB
  8
0
 62
     0
  0
POLYLINE
  5
2508
  8
0
 62
     0
 66
     1
 10
0.0
 20
0.0
 30
0.0
  0
VERTEX
  5
29BC
  8
0
 62
     0
 10
133.820907
 20
96.053733
 30
0.0
  0
VERTEX
  5
29BD
  8
0
 62
     0
 10
133.992164
 20
96.289052
 30
0.0
  0
VERTEX
  5
29BE
  8
0
 62
     0
 10
134.165843
 20
96.52654
 30
0.0
  0
SEQEND
  5
29BF
  8
0
 62
     0
  0
POLYLINE
  5
2509
  8
0
 62
     0
 66
     1
 10
0.0
 20
0.0
 30
0.0
  0
VERTEX
  5
29C0
  8
0
 62
     0
 10
134.843844
 20
97.365144
 30
0.0
  0
VERTEX
  5
29C1
  8
0
 62
     0
 10
134.866988
 20
97.291471
 30
0.0
  0
VERTEX
  5
29C2
  8
0
 62
     0
 10
134.89532
 20
97.228981
 30
0.0
  0
VERTEX
  5
29C3
  8
0
 62
     0
 10
134.924254
 20
97.188128
 30
0.0
  0
VERTEX
  5
29C4
  8
0
 62
     0
 10
134.949305
 20
97.175247
 30
0.0
  0
SEQEND
  5
29C5
  8
0
 62
     0
  0
POLYLINE
  5
250A
  8
0
 62
     0
 66
     1
 10
0.0
 20
0.0
 30
0.0
  0
VERTEX
  5
29C6
  8
0
 62
     0
 10
134.165843
 20
96.52654
 30
0.0
  0
VERTEX
  5
29C7
  8
0
 62
     0
 10
134.342961
 20
96.379412
 30
0.0
  0
VERTEX
  5
29C8
  8
0
 62
     0
 10
134.522447
 20
96.231022
 30
0.0
  0
SEQEND
  5
29C9
  8
0
 62
     0
  0
POLYLINE
  5
250B
  8
0
 62
     0
 66
     1
 10
0.0
 20
0.0
 30
0.0
  0
VERTEX
  5
29CA
  8
0
 62
     0
 10
134.843844
 20
97.365144
 30
0.0
  0
VERTEX
  5
29CB
  8
0
 62
     0
 10
134.918029
 20
97.364197
 30
0.0
  0
VERTEX
  5
29CC
  8
0
 62
     0
 10
134.989585
 20
97.363866
 30
0.0
  0
VERTEX
  5
29CD
  8
0
 62
     0
 10
135.048579
 20
97.364197
 30
0.0
  0
VERTEX
  5
29CE
  8
0
 62
     0
 10
135.086823
 20
97.365144
 30
0.0
  0
SEQEND
  5
29CF
  8
0
 62
     0
  0
LINE
  5
250C
  8
0
 62
     0
 10
135.055297
 20
96.231022
 30
0.0
 11
134.522447
 21
96.231022
 31
0.0
  0
LINE
  5
250D
  8
0
 62
     0
 10
134.28427
 20
96.053733
 30
0.0
 11
133.820907
 21
96.053733
 31
0.0
  0
POLYLINE
  5
250E
  8
0
 62
     0
 66
     1
 10
0.0
 20
0.0
 30
0.0
  0
VERTEX
  5
29D0
  8
0
 62
     0
 10
135.151465
 20
97.201329
 30
0.0
  0
VERTEX
  5
29D1
  8
0
 62
     0
 10
135.05284
 20
97.188939
 30
0.0
  0
VERTEX
  5
29D2
  8
0
 62
     0
 10
134.949309
 20
97.175246
 30
0.0
  0
SEQEND
  5
29D3
  8
0
 62
     0
  0
LINE
  5
250F
  8
0
 62
     0
 10
134.066023
 20
96.909719
 30
0.0
 11
135.151465
 21
97.201329
 31
0.0
  0
POLYLINE
  5
2510
  8
0
 62
     0
 66
     1
 10
0.0
 20
0.0
 30
0.0
  0
VERTEX
  5
29D4
  8
0
 62
     0
 10
133.316443
 20
103.394064
 30
0.0
  0
VERTEX
  5
29D5
  8
0
 62
     0
 10
133.259673
 20
102.744624
 30
0.0
  0
VERTEX
  5
29D6
  8
0
 62
     0
 10
133.074289
 20
102.083615
 30
0.0
  0
VERTEX
  5
29D7
  8
0
 62
     0
 10
132.766316
 20
101.47217
 30
0.0
  0
VERTEX
  5
29D8
  8
0
 62
     0
 10
132.347115
 20
100.934786
 30
0.0
  0
VERTEX
  5
29D9
  8
0
 62
     0
 10
131.832876
 20
100.493142
 30
0.0
  0
VERTEX
  5
29DA
  8
0
 62
     0
 10
131.24362
 20
100.164813
 30
0.0
  0
VERTEX
  5
29DB
  8
0
 62
     0
 10
130.602389
 20
99.96272
 30
0.0
  0
VERTEX
  5
29DC
  8
0
 62
     0
 10
129.936489
 20
99.894684
 30
0.0
  0
SEQEND
  5
29DD
  8
0
 62
     0
  0
POLYLINE
  5
2511
  8
0
 62
     0
 66
     1
 10
0.0
 20
0.0
 30
0.0
  0
VERTEX
  5
29DE
  8
0
 62
     0
 10
129.913442
 20
106.894662
 30
0.0
  0
VERTEX
  5
29DF
  8
0
 62
     0
 10
130.586344
 20
106.825383
 30
0.0
  0
VERTEX
  5
29E0
  8
0
 62
     0
 10
131.228253
 20
106.622212
 30
0.0
  0
VERTEX
  5
29E1
  8
0
 62
     0
 10
131.818481
 20
106.293245
 30
0.0
  0
VERTEX
  5
29E2
  8
0
 62
     0
 10
132.334249
 20
105.85149
 30
0.0
  0
VERTEX
  5
29E3
  8
0
 62
     0
 10
132.755698
 20
105.314455
 30
0.0
  0
VERTEX
  5
29E4
  8
0
 62
     0
 10
133.066686
 20
104.703642
 30
0.0
  0
VERTEX
  5
29E5
  8
0
 62
     0
 10
133.255767
 20
104.043263
 30
0.0
  0
VERTEX
  5
29E6
  8
0
 62
     0
 10
133.316444
 20
103.394064
 30
0.0
  0
SEQEND
  5
29E7
  8
0
 62
     0
  0
LINE
  5
2512
  8
0
 62
     0
 10
129.935536
 20
99.894673
 30
0.0
 11
129.936489
 21
99.894673
 31
0.0
  0
LINE
  5
2513
  8
0
 62
     0
 10
129.913441
 20
106.894673
 30
0.0
 11
129.9131
 21
106.894673
 31
0.0
  0
LINE
  5
2514
  8
0
 62
     0
 10
129.500139
 20
106.811252
 30
0.0
 11
130.053427
 21
106.88025
 31
0.0
  0
LINE
  5
2515
  8
0
 62
     0
 10
133.025271
 20
101.986295
 30
0.0
 11
133.025271
 21
104.784986
 31
0.0
  0
POLYLINE
  5
2516
  8
0
 62
     0
 66
     1
 10
0.0
 20
0.0
 30
0.0
  0
VERTEX
  5
29E8
  8
0
 62
     0
 10
134.962636
 20
108.475736
 30
0.0
  0
VERTEX
  5
29E9
  8
0
 62
     0
 10
134.793363
 20
108.477522
 30
0.0
  0
VERTEX
  5
29EA
  8
0
 62
     0
 10
133.884551
 20
108.503747
 30
0.0
  0
VERTEX
  5
29EB
  8
0
 62
     0
 10
133.031812
 20
108.544345
 30
0.0
  0
SEQEND
  5
29EC
  8
0
 62
     0
  0
LINE
  5
2517
  8
0
 62
     0
 10
133.405156
 20
108.526571
 30
0.0
 11
133.405156
 21
108.544345
 31
0.0
  0
LINE
  5
2518
  8
0
 62
     0
 10
124.483523
 20
109.494673
 30
0.0
 11
125.304129
 21
109.494673
 31
0.0
  0
LINE
  5
2519
  8
0
 62
     0
 10
124.485309
 20
109.309572
 30
0.0
 11
124.483523
 21
109.494673
 31
0.0
  0
POLYLINE
  5
251A
  8
0
 62
     0
 66
     1
 10
0.0
 20
0.0
 30
0.0
  0
VERTEX
  5
29ED
  8
0
 62
     0
 10
124.422422
 20
109.48091
 30
0.0
  0
VERTEX
  5
29EE
  8
0
 62
     0
 10
124.455726
 20
109.440973
 30
0.0
  0
VERTEX
  5
29EF
  8
0
 62
     0
 10
124.477571
 20
109.380294
 30
0.0
  0
VERTEX
  5
29F0
  8
0
 62
     0
 10
124.485309
 20
109.309572
 30
0.0
  0
SEQEND
  5
29F1
  8
0
 62
     0
  0
LINE
  5
251B
  8
0
 62
     0
 10
124.382212
 20
109.494673
 30
0.0
 11
124.422422
 21
109.48091
 31
0.0
  0
POLYLINE
  5
251C
  8
0
 62
     0
 66
     1
 10
0.0
 20
0.0
 30
0.0
  0
VERTEX
  5
29F2
  8
0
 62
     0
 10
124.382211
 20
109.494673
 30
0.0
  0
VERTEX
  5
29F3
  8
0
 62
     0
 10
124.098824
 20
109.427316
 30
0.0
  0
VERTEX
  5
29F4
  8
0
 62
     0
 10
123.822059
 20
109.361965
 30
0.0
  0
SEQEND
  5
29F5
  8
0
 62
     0
  0
LINE
  5
251D
  8
0
 62
     0
 10
125.685406
 20
109.494673
 30
0.0
 11
125.685406
 21
110.369337
 31
0.0
  0
LINE
  5
251E
  8
0
 62
     0
 10
125.677473
 20
109.494673
 30
0.0
 11
125.677473
 21
110.36936
 31
0.0
  0
LINE
  5
251F
  8
0
 62
     0
 10
125.304129
 20
109.494673
 30
0.0
 11
125.304129
 21
110.370408
 31
0.0
  0
LINE
  5
2520
  8
0
 62
     0
 10
125.685406
 20
109.494673
 30
0.0
 11
126.013759
 21
109.494673
 31
0.0
  0
LINE
  5
2521
  8
0
 62
     0
 10
131.435406
 20
112.794673
 30
0.0
 11
133.560406
 21
112.794673
 31
0.0
  0
LINE
  5
2522
  8
0
 62
     0
 10
131.435406
 20
111.383364
 30
0.0
 11
133.560406
 21
111.383364
 31
0.0
  0
LINE
  5
2523
  8
0
 62
     0
 10
131.435406
 20
110.344673
 30
0.0
 11
131.435406
 21
114.594673
 31
0.0
  0
LINE
  5
2524
  8
0
 62
     0
 10
133.560406
 20
111.094673
 30
0.0
 11
133.560406
 21
114.094648
 31
0.0
  0
LINE
  5
2525
  8
0
 62
     0
 10
136.235937
 20
97.36708
 30
0.0
 11
136.429707
 21
108.468196
 31
0.0
  0
LINE
  5
2526
  8
0
 62
     0
 10
136.191281
 20
98.205809
 30
0.0
 11
136.369486
 21
108.467485
 31
0.0
  0
LINE
  5
2527
  8
0
 62
     0
 10
136.060636
 20
96.724035
 30
0.0
 11
136.26424
 21
108.444729
 31
0.0
  0
LINE
  5
2528
  8
0
 62
     0
 10
135.570659
 20
98.205809
 30
0.0
 11
135.74447
 21
108.467485
 31
0.0
  0
POLYLINE
  5
2529
  8
0
 62
     0
 66
     1
 10
0.0
 20
0.0
 30
0.0
  0
VERTEX
  5
29F6
  8
0
 62
     0
 10
135.475523
 20
96.724035
 30
0.0
  0
VERTEX
  5
29F7
  8
0
 62
     0
 10
135.742309
 20
96.81711
 30
0.0
  0
VERTEX
  5
29F8
  8
0
 62
     0
 10
135.937076
 20
96.81711
 30
0.0
  0
VERTEX
  5
29F9
  8
0
 62
     0
 10
136.060636
 20
96.724035
 30
0.0
  0
SEQEND
  5
29FA
  8
0
 62
     0
  0
POLYLINE
  5
252A
  8
0
 62
     0
 66
     1
 10
0.0
 20
0.0
 30
0.0
  0
VERTEX
  5
29FB
  8
0
 62
     0
 10
136.08611
 20
97.175247
 30
0.0
  0
VERTEX
  5
29FC
  8
0
 62
     0
 10
136.145279
 20
97.201372
 30
0.0
  0
VERTEX
  5
29FD
  8
0
 62
     0
 10
136.193001
 20
97.244998
 30
0.0
  0
VERTEX
  5
29FE
  8
0
 62
     0
 10
136.224282
 20
97.301562
 30
0.0
  0
VERTEX
  5
29FF
  8
0
 62
     0
 10
136.235418
 20
97.355026
 30
0.0
  0
SEQEND
  5
2A00
  8
0
 62
     0
  0
POLYLINE
  5
252B
  8
0
 62
     0
 66
     1
 10
0.0
 20
0.0
 30
0.0
  0
VERTEX
  5
2A01
  8
0
 62
     0
 10
136.078176
 20
97.201326
 30
0.0
  0
VERTEX
  5
2A02
  8
0
 62
     0
 10
136.134834
 20
97.226801
 30
0.0
  0
VERTEX
  5
2A03
  8
0
 62
     0
 10
136.182866
 20
97.272516
 30
0.0
  0
VERTEX
  5
2A04
  8
0
 62
     0
 10
136.212377
 20
97.3303
 30
0.0
  0
VERTEX
  5
2A05
  8
0
 62
     0
 10
136.222043
 20
97.397067
 30
0.0
  0
SEQEND
  5
2A06
  8
0
 62
     0
  0
POLYLINE
  5
252C
  8
0
 62
     0
 66
     1
 10
0.0
 20
0.0
 30
0.0
  0
VERTEX
  5
2A07
  8
0
 62
     0
 10
136.060636
 20
96.724035
 30
0.0
  0
VERTEX
  5
2A08
  8
0
 62
     0
 10
135.937007
 20
96.566014
 30
0.0
  0
VERTEX
  5
2A09
  8
0
 62
     0
 10
135.813293
 20
96.408311
 30
0.0
  0
SEQEND
  5
2A0A
  8
0
 62
     0
  0
POLYLINE
  5
252D
  8
0
 62
     0
 66
     1
 10
0.0
 20
0.0
 30
0.0
  0
VERTEX
  5
2A0B
  8
0
 62
     0
 10
135.237019
 20
96.408311
 30
0.0
  0
VERTEX
  5
2A0C
  8
0
 62
     0
 10
135.355983
 20
96.566014
 30
0.0
  0
VERTEX
  5
2A0D
  8
0
 62
     0
 10
135.475523
 20
96.724035
 30
0.0
  0
SEQEND
  5
2A0E
  8
0
 62
     0
  0
POLYLINE
  5
252E
  8
0
 62
     0
 66
     1
 10
0.0
 20
0.0
 30
0.0
  0
VERTEX
  5
2A0F
  8
0
 62
     0
 10
136.229538
 20
97.318662
 30
0.0
  0
VERTEX
  5
2A10
  8
0
 62
     0
 10
136.215786
 20
97.281259
 30
0.0
  0
VERTEX
  5
2A11
  8
0
 62
     0
 10
136.194993
 20
97.247458
 30
0.0
  0
VERTEX
  5
2A12
  8
0
 62
     0
 10
136.170348
 20
97.220584
 30
0.0
  0
VERTEX
  5
2A13
  8
0
 62
     0
 10
136.140278
 20
97.198043
 30
0.0
  0
VERTEX
  5
2A14
  8
0
 62
     0
 10
136.112234
 20
97.183782
 30
0.0
  0
VERTEX
  5
2A15
  8
0
 62
     0
 10
136.086866
 20
97.175242
 30
0.0
  0
SEQEND
  5
2A16
  8
0
 62
     0
  0
POLYLINE
  5
252F
  8
0
 62
     0
 66
     1
 10
0.0
 20
0.0
 30
0.0
  0
VERTEX
  5
2A17
  8
0
 62
     0
 10
135.340762
 20
97.397067
 30
0.0
  0
VERTEX
  5
2A18
  8
0
 62
     0
 10
135.420607
 20
97.666702
 30
0.0
  0
VERTEX
  5
2A19
  8
0
 62
     0
 10
135.497243
 20
97.936275
 30
0.0
  0
VERTEX
  5
2A1A
  8
0
 62
     0
 10
135.570659
 20
98.205809
 30
0.0
  0
SEQEND
  5
2A1B
  8
0
 62
     0
  0
LINE
  5
2530
  8
0
 62
     0
 10
136.235418
 20
97.355026
 30
0.0
 11
136.229538
 21
97.318662
 31
0.0
  0
LINE
  5
2531
  8
0
 62
     0
 10
136.235418
 20
97.355026
 30
0.0
 11
136.235426
 21
97.355151
 31
0.0
  0
LINE
  5
2532
  8
0
 62
     0
 10
136.235426
 20
97.355151
 30
0.0
 11
136.235938
 21
97.367156
 31
0.0
  0
LINE
  5
2533
  8
0
 62
     0
 10
136.236401
 20
97.396817
 30
0.0
 11
136.23585
 21
97.365144
 31
0.0
  0
LINE
  5
2534
  8
0
 62
     0
 10
135.475523
 20
96.724035
 30
0.0
 11
135.495957
 21
97.931752
 31
0.0
  0
POLYLINE
  5
2535
  8
0
 62
     0
 66
     1
 10
0.0
 20
0.0
 30
0.0
  0
VERTEX
  5
2A1C
  8
0
 62
     0
 10
136.222054
 20
97.397067
 30
0.0
  0
VERTEX
  5
2A1D
  8
0
 62
     0
 10
136.215185
 20
97.666702
 30
0.0
  0
VERTEX
  5
2A1E
  8
0
 62
     0
 10
136.204927
 20
97.936275
 30
0.0
  0
VERTEX
  5
2A1F
  8
0
 62
     0
 10
136.191281
 20
98.205809
 30
0.0
  0
SEQEND
  5
2A20
  8
0
 62
     0
  0
POLYLINE
  5
2536
  8
0
 62
     0
 66
     1
 10
0.0
 20
0.0
 30
0.0
  0
VERTEX
  5
2A21
  8
0
 62
     0
 10
136.086101
 20
97.175246
 30
0.0
  0
VERTEX
  5
2A22
  8
0
 62
     0
 10
136.084679
 20
97.188939
 30
0.0
  0
VERTEX
  5
2A23
  8
0
 62
     0
 10
136.078175
 20
97.201329
 30
0.0
  0
SEQEND
  5
2A24
  8
0
 62
     0
  0
LINE
  5
2537
  8
0
 62
     0
 10
136.235939
 20
97.367184
 30
0.0
 11
136.23302
 21
97.382127
 31
0.0
  0
LINE
  5
2538
  8
0
 62
     0
 10
136.23302
 20
97.382127
 30
0.0
 11
136.222054
 21
97.397067
 31
0.0
  0
LINE
  5
2539
  8
0
 62
     0
 10
136.086866
 20
97.175242
 30
0.0
 11
136.08611
 21
97.175247
 31
0.0
  0
LINE
  5
253A
  8
0
 62
     0
 10
135.813293
 20
96.408311
 30
0.0
 11
135.237019
 21
96.408311
 31
0.0
  0
LINE
  5
253B
  8
0
 62
     0
 10
136.0684
 20
97.171008
 30
0.0
 11
136.08669
 21
97.175196
 31
0.0
  0
LINE
  5
253C
  8
0
 62
     0
 10
136.086101
 20
97.175246
 30
0.0
 11
136.068402
 21
97.171111
 31
0.0
  0
LINE
  5
253D
  8
0
 62
     0
 10
136.078175
 20
97.201329
 30
0.0
 11
136.068886
 21
97.19898
 31
0.0
  0
LINE
  5
253E
  8
0
 62
     0
 10
136.191281
 20
98.205809
 30
0.0
 11
136.085896
 21
98.17816
 31
0.0
  0
LINE
  5
253F
  8
0
 62
     0
 10
135.376463
 20
108.477522
 30
0.0
 11
136.369486
 21
108.467485
 31
0.0
  0
POLYLINE
  5
2540
  8
0
 62
     0
 66
     1
 10
0.0
 20
0.0
 30
0.0
  0
VERTEX
  5
2A25
  8
0
 62
     0
 10
135.205133
 20
108.468389
 30
0.0
  0
VERTEX
  5
2A26
  8
0
 62
     0
 10
135.401711
 20
108.467898
 30
0.0
  0
VERTEX
  5
2A27
  8
0
 62
     0
 10
135.581552
 20
108.467621
 30
0.0
  0
VERTEX
  5
2A28
  8
0
 62
     0
 10
135.74447
 20
108.467485
 30
0.0
  0
SEQEND
  5
2A29
  8
0
 62
     0
  0
POLYLINE
  5
2541
  8
0
 62
     0
 66
     1
 10
0.0
 20
0.0
 30
0.0
  0
VERTEX
  5
2A2A
  8
0
 62
     0
 10
135.744465
 20
108.444715
 30
0.0
  0
VERTEX
  5
2A2B
  8
0
 62
     0
 10
135.940933
 20
108.444674
 30
0.0
  0
VERTEX
  5
2A2C
  8
0
 62
     0
 10
136.137993
 20
108.444674
 30
0.0
  0
VERTEX
  5
2A2D
  8
0
 62
     0
 10
136.26424
 20
108.444729
 30
0.0
  0
SEQEND
  5
2A2E
  8
0
 62
     0
  0
POLYLINE
  5
2542
  8
0
 62
     0
 66
     1
 10
0.0
 20
0.0
 30
0.0
  0
VERTEX
  5
2A2F
  8
0
 62
     0
 10
136.369486
 20
108.467485
 30
0.0
  0
VERTEX
  5
2A30
  8
0
 62
     0
 10
136.406804
 20
108.467621
 30
0.0
  0
VERTEX
  5
2A31
  8
0
 62
     0
 10
136.42643
 20
108.467898
 30
0.0
  0
SEQEND
  5
2A32
  8
0
 62
     0
  0
LINE
  5
2543
  8
0
 62
     0
 10
136.42643
 20
108.467898
 30
0.0
 11
136.429707
 21
108.468165
 31
0.0
  0
LINE
  5
2544
  8
0
 62
     0
 10
135.460406
 20
112.794673
 30
0.0
 11
145.360406
 21
112.794673
 31
0.0
  0
LINE
  5
2545
  8
0
 62
     0
 10
135.460406
 20
111.383364
 30
0.0
 11
145.360406
 21
111.383364
 31
0.0
  0
LINE
  5
2546
  8
0
 62
     0
 10
135.460406
 20
111.094673
 30
0.0
 11
135.460406
 21
114.094648
 31
0.0
  0
LINE
  5
2547
  8
0
 62
     0
 10
145.360406
 20
111.094673
 30
0.0
 11
145.360406
 21
114.094648
 31
0.0
  0
LINE
  5
2548
  8
0
 62
     0
 10
132.535406
 20
157.894673
 30
0.0
 11
133.625807
 21
157.894673
 31
0.0
  0
LINE
  5
2549
  8
0
 62
     0
 10
135.245006
 20
157.894673
 30
0.0
 11
136.335406
 21
157.894673
 31
0.0
  0
LINE
  5
254A
  8
0
 62
     0
 10
149.435406
 20
125.794673
 30
0.0
 11
150.035406
 21
137.794673
 31
0.0
  0
LINE
  5
254B
  8
0
 62
     0
 10
149.955406
 20
121.188055
 30
0.0
 11
149.955406
 21
134.759936
 31
0.0
  0
LINE
  5
254C
  8
0
 62
     0
 10
149.935406
 20
110.783082
 30
0.0
 11
149.935406
 21
135.794673
 31
0.0
  0
LINE
  5
254D
  8
0
 62
     0
 10
150.185406
 20
113.3641
 30
0.0
 11
150.185406
 21
121.188055
 31
0.0
  0
LINE
  5
254E
  8
0
 62
     0
 10
149.435406
 20
111.094673
 30
0.0
 11
149.435406
 21
125.794673
 31
0.0
  0
ARC
  5
254F
  8
0
 62
     0
 10
149.635406
 20
110.782966
 30
0.0
 40
0.3
 50
280.916245
 51
0.0
  0
LINE
  5
2550
  8
0
 62
     0
 10
149.889911
 20
111.094673
 30
0.0
 11
149.815712
 21
111.009772
 31
0.0
  0
LINE
  5
2551
  8
0
 62
     0
 10
148.748933
 20
114.594673
 30
0.0
 11
148.733661
 21
111.094673
 31
0.0
  0
LINE
  5
2552
  8
0
 62
     0
 10
147.260406
 20
112.794673
 30
0.0
 11
148.741079
 21
112.794673
 31
0.0
  0
LINE
  5
2553
  8
0
 62
     0
 10
147.260406
 20
111.383364
 30
0.0
 11
148.73492
 21
111.383364
 31
0.0
  0
LINE
  5
2554
  8
0
 62
     0
 10
147.260406
 20
111.094673
 30
0.0
 11
147.260406
 21
114.094648
 31
0.0
  0
LINE
  5
2555
  8
0
 62
     0
 10
149.815712
 20
111.009772
 30
0.0
 11
149.689636
 21
110.957079
 31
0.0
  0
LINE
  5
2556
  8
0
 62
     0
 10
149.385406
 20
110.344673
 30
0.0
 11
149.385406
 21
111.094673
 31
0.0
  0
LINE
  5
2557
  8
0
 62
     0
 10
149.689636
 20
110.957079
 30
0.0
 11
149.692218
 21
110.488394
 31
0.0
  0
LINE
  5
2558
  8
0
 62
     0
 10
149.674148
 20
111.094673
 30
0.0
 11
149.689636
 21
110.957079
 31
0.0
  0
LINE
  5
2559
  8
0
 62
     0
 10
149.385406
 20
110.439179
 30
0.0
 11
149.692218
 21
110.488393
 31
0.0
  0
LINE
  5
255A
  8
0
 62
     0
 10
149.689636
 20
110.957079
 30
0.0
 11
149.385406
 21
110.90806
 31
0.0
  0
ARC
  5
255B
  8
0
 62
     0
 10
149.185406
 20
113.3641
 30
0.0
 40
1.0
 50
319.217579
 51
0.0
  0
LINE
  5
255C
  8
0
 62
     0
 10
149.935406
 20
115.14259
 30
0.0
 11
150.185406
 21
115.14259
 31
0.0
  0
LINE
  5
255D
  8
0
 62
     0
 10
149.935406
 20
121.188055
 30
0.0
 11
150.185406
 21
121.188055
 31
0.0
  0
LINE
  5
255E
  8
0
 62
     0
 10
149.935406
 20
144.794673
 30
0.0
 11
150.035406
 21
149.294673
 31
0.0
  0
LINE
  5
255F
  8
0
 62
     0
 10
149.935406
 20
137.794673
 30
0.0
 11
150.035406
 21
140.794673
 31
0.0
  0
ARC
  5
2560
  8
0
 62
     0
 10
149.235406
 20
135.094673
 30
0.0
 40
0.8
 50
332.482452
 51
0.0
  0
LINE
  5
2561
  8
0
 62
     0
 10
150.035406
 20
135.794673
 30
0.0
 11
150.035406
 21
135.094673
 31
0.0
  0
LINE
  5
2562
  8
0
 62
     0
 10
150.035406
 20
137.794673
 30
0.0
 11
149.935406
 21
137.794673
 31
0.0
  0
LINE
  5
2563
  8
0
 62
     0
 10
150.035406
 20
135.794673
 30
0.0
 11
149.935406
 21
135.794673
 31
0.0
  0
LINE
  5
2564
  8
0
 62
     0
 10
149.935406
 20
140.794673
 30
0.0
 11
150.035406
 21
144.794673
 31
0.0
  0
LINE
  5
2565
  8
0
 62
     0
 10
150.035406
 20
140.794673
 30
0.0
 11
149.935406
 21
140.794673
 31
0.0
  0
LINE
  5
2566
  8
0
 62
     0
 10
150.035406
 20
144.794673
 30
0.0
 11
149.935406
 21
144.794673
 31
0.0
  0
ARC
  5
2567
  8
0
 62
     0
 10
127.535406
 20
252.753587
 30
0.0
 40
100.0
 50
282.304624
 51
282.944082
  0
LINE
  5
2568
  8
0
 62
     0
 10
148.84633
 20
155.05075
 30
0.0
 11
148.835406
 21
155.048367
 31
0.0
  0
LINE
  5
2569
  8
0
 62
     0
 10
149.935406
 20
149.294673
 30
0.0
 11
150.035406
 21
154.794673
 31
0.0
  0
LINE
  5
256A
  8
0
 62
     0
 10
150.035406
 20
149.294673
 30
0.0
 11
149.935406
 21
149.294673
 31
0.0
  0
LINE
  5
256B
  8
0
 62
     0
 10
149.935406
 20
155.294673
 30
0.0
 11
150.035406
 21
155.294673
 31
0.0
  0
LINE
  5
256C
  8
0
 62
     0
 10
150.035406
 20
154.794673
 30
0.0
 11
149.935406
 21
154.794673
 31
0.0
  0
ARC
  5
256D
  8
0
 62
     0
 10
147.935406
 20
217.894673
 30
0.0
 40
3.9
 50
67.380135
 51
112.619865
  0
LINE
  5
256E
  8
0
 62
     0
 10
149.635406
 20
221.494673
 30
0.0
 11
146.285406
 21
221.494673
 31
0.0
  0
LINE
  5
256F
  8
0
 62
     0
 10
149.935406
 20
221.194673
 30
0.0
 11
146.385406
 21
221.194673
 31
0.0
  0
LINE
  5
2570
  8
0
 62
     0
 10
147.885406
 20
219.094673
 30
0.0
 11
146.885406
 21
219.094673
 31
0.0
  0
LINE
  5
2571
  8
0
 62
     0
 10
146.285406
 20
218.894673
 30
0.0
 11
147.885406
 21
218.894673
 31
0.0
  0
LINE
  5
2572
  8
0
 62
     0
 10
136.285406
 20
216.594673
 30
0.0
 11
147.885406
 21
216.594673
 31
0.0
  0
LINE
  5
2573
  8
0
 62
     0
 10
128.233396
 20
197.882489
 30
0.0
 11
148.958455
 21
197.158754
 31
0.0
  0
LINE
  5
2574
  8
0
 62
     0
 10
146.248855
 20
181.894673
 30
0.0
 11
147.016362
 21
181.894673
 31
0.0
  0
LINE
  5
2575
  8
0
 62
     0
 10
145.785406
 20
216.594673
 30
0.0
 11
145.785406
 21
197.494673
 31
0.0
  0
LINE
  5
2576
  8
0
 62
     0
 10
144.535406
 20
207.494673
 30
0.0
 11
144.535406
 21
205.994673
 31
0.0
  0
LINE
  5
2577
  8
0
 62
     0
 10
137.535406
 20
207.494673
 30
0.0
 11
137.535406
 21
205.994673
 31
0.0
  0
LINE
  5
2578
  8
0
 62
     0
 10
137.335406
 20
207.494673
 30
0.0
 11
137.335406
 21
205.994673
 31
0.0
  0
LINE
  5
2579
  8
0
 62
     0
 10
136.285406
 20
197.601307
 30
0.0
 11
136.285406
 21
216.594673
 31
0.0
  0
LINE
  5
257A
  8
0
 62
     0
 10
135.035406
 20
217.894673
 30
0.0
 11
135.035406
 21
197.644958
 31
0.0
  0
LINE
  5
257B
  8
0
 62
     0
 10
133.535406
 20
197.701496
 30
0.0
 11
133.535406
 21
217.894673
 31
0.0
  0
LINE
  5
257C
  8
0
 62
     0
 10
132.285406
 20
218.463419
 30
0.0
 11
132.285406
 21
197.74099
 31
0.0
  0
LINE
  5
257D
  8
0
 62
     0
 10
131.235406
 20
207.494673
 30
0.0
 11
131.235406
 21
205.994673
 31
0.0
  0
LINE
  5
257E
  8
0
 62
     0
 10
131.035406
 20
205.994673
 30
0.0
 11
131.035406
 21
207.494673
 31
0.0
  0
LINE
  5
257F
  8
0
 62
     0
 10
127.535406
 20
197.893302
 30
0.0
 11
127.535406
 21
224.394673
 31
0.0
  0
LINE
  5
2580
  8
0
 62
     0
 10
124.035406
 20
207.494673
 30
0.0
 11
124.035406
 21
205.994673
 31
0.0
  0
LINE
  5
2581
  8
0
 62
     0
 10
123.835406
 20
207.494673
 30
0.0
 11
123.835406
 21
205.994673
 31
0.0
  0
ARC
  5
2582
  8
0
 62
     0
 10
127.535406
 20
301.394673
 30
0.0
 40
127.5
 50
272.694751
 51
273.509863
  0
LINE
  5
2583
  8
0
 62
     0
 10
135.358455
 20
195.702667
 30
0.0
 11
133.512357
 21
195.702667
 31
0.0
  0
LINE
  5
2584
  8
0
 62
     0
 10
135.341001
 20
195.667757
 30
0.0
 11
133.529811
 21
195.667757
 31
0.0
  0
LINE
  5
2585
  8
0
 62
     0
 10
133.529811
 20
174.035664
 30
0.0
 11
133.529811
 21
195.667757
 31
0.0
  0
LINE
  5
2586
  8
0
 62
     0
 10
133.416362
 20
181.894673
 30
0.0
 11
133.416362
 21
197.701496
 31
0.0
  0
LINE
  5
2587
  8
0
 62
     0
 10
132.648855
 20
181.894673
 30
0.0
 11
132.648855
 21
195.894673
 31
0.0
  0
LINE
  5
2588
  8
0
 62
     0
 10
132.648855
 20
181.894673
 30
0.0
 11
133.416362
 21
181.894673
 31
0.0
  0
LINE
  5
2589
  8
0
 62
     0
 10
133.416362
 20
181.894673
 30
0.0
 11
133.418154
 21
178.762118
 31
0.0
  0
POLYLINE
  5
258A
  8
0
 62
     0
 66
     1
 10
0.0
 20
0.0
 30
0.0
  0
VERTEX
  5
2A33
  8
0
 62
     0
 10
129.535406
 20
195.894673
 30
0.0
  0
VERTEX
  5
2A34
  8
0
 62
     0
 10
128.914207
 20
195.888944
 30
0.0
  0
VERTEX
  5
2A35
  8
0
 62
     0
 10
128.234713
 20
195.885386
 30
0.0
  0
VERTEX
  5
2A36
  8
0
 62
     0
 10
127.535406
 20
195.8842
 30
0.0
  0
VERTEX
  5
2A37
  8
0
 62
     0
 10
126.8361
 20
195.885386
 30
0.0
  0
VERTEX
  5
2A38
  8
0
 62
     0
 10
126.156605
 20
195.888944
 30
0.0
  0
VERTEX
  5
2A39
  8
0
 62
     0
 10
125.535406
 20
195.894673
 30
0.0
  0
SEQEND
  5
2A3A
  8
0
 62
     0
  0
LINE
  5
258B
  8
0
 62
     0
 10
124.535406
 20
191.994673
 30
0.0
 11
130.535406
 21
191.994673
 31
0.0
  0
LINE
  5
258C
  8
0
 62
     0
 10
125.535406
 20
195.894673
 30
0.0
 11
125.535406
 21
197.837022
 31
0.0
  0
LINE
  5
258D
  8
0
 62
     0
 10
124.535406
 20
190.694673
 30
0.0
 11
124.535406
 21
191.994673
 31
0.0
  0
LINE
  5
258E
  8
0
 62
     0
 10
123.785406
 20
190.894673
 30
0.0
 11
123.785406
 21
192.294673
 31
0.0
  0
LINE
  5
258F
  8
0
 62
     0
 10
125.535406
 20
191.994673
 30
0.0
 11
125.535406
 21
192.294673
 31
0.0
  0
LINE
  5
2590
  8
0
 62
     0
 10
127.535406
 20
187.594673
 30
0.0
 11
127.535406
 21
192.294673
 31
0.0
  0
LINE
  5
2591
  8
0
 62
     0
 10
124.035406
 20
204.494673
 30
0.0
 11
124.035406
 21
202.994673
 31
0.0
  0
LINE
  5
2592
  8
0
 62
     0
 10
123.835406
 20
204.494673
 30
0.0
 11
123.835406
 21
202.994673
 31
0.0
  0
ARC
  5
2593
  8
0
 62
     0
 10
127.535406
 20
177.894673
 30
0.0
 40
20.0
 50
88.0
 51
92.0
  0
LINE
  5
2594
  8
0
 62
     0
 10
133.512357
 20
197.698144
 30
0.0
 11
133.512357
 21
195.702667
 31
0.0
  0
LINE
  5
2595
  8
0
 62
     0
 10
129.535406
 20
195.894673
 30
0.0
 11
129.535406
 21
197.837022
 31
0.0
  0
LINE
  5
2596
  8
0
 62
     0
 10
132.648855
 20
195.894673
 30
0.0
 11
129.535406
 21
195.894673
 31
0.0
  0
LINE
  5
2597
  8
0
 62
     0
 10
131.285406
 20
190.894673
 30
0.0
 11
132.535406
 21
190.894673
 31
0.0
  0
LINE
  5
2598
  8
0
 62
     0
 10
130.535406
 20
190.694673
 30
0.0
 11
130.535406
 21
191.994673
 31
0.0
  0
LINE
  5
2599
  8
0
 62
     0
 10
129.535406
 20
191.994673
 30
0.0
 11
129.535406
 21
192.294673
 31
0.0
  0
LINE
  5
259A
  8
0
 62
     0
 10
131.285406
 20
190.894673
 30
0.0
 11
131.285406
 21
192.294673
 31
0.0
  0
LINE
  5
259B
  8
0
 62
     0
 10
132.385406
 20
190.694673
 30
0.0
 11
132.385406
 21
190.894673
 31
0.0
  0
LINE
  5
259C
  8
0
 62
     0
 10
133.512357
 20
195.702667
 30
0.0
 11
133.529811
 21
195.667757
 31
0.0
  0
LINE
  5
259D
  8
0
 62
     0
 10
132.648855
 20
195.894673
 30
0.0
 11
132.535406
 21
195.667757
 31
0.0
  0
LINE
  5
259E
  8
0
 62
     0
 10
131.235406
 20
204.494673
 30
0.0
 11
131.235406
 21
202.994673
 31
0.0
  0
LINE
  5
259F
  8
0
 62
     0
 10
131.035406
 20
202.994673
 30
0.0
 11
131.035406
 21
204.494673
 31
0.0
  0
LINE
  5
25A0
  8
0
 62
     0
 10
146.248855
 20
181.894673
 30
0.0
 11
146.248855
 21
195.894673
 31
0.0
  0
LINE
  5
25A1
  8
0
 62
     0
 10
136.221957
 20
195.894673
 30
0.0
 11
136.221957
 21
181.894673
 31
0.0
  0
LINE
  5
25A2
  8
0
 62
     0
 10
135.454451
 20
197.630325
 30
0.0
 11
135.454451
 21
181.894673
 31
0.0
  0
LINE
  5
25A3
  8
0
 62
     0
 10
135.341001
 20
174.133828
 30
0.0
 11
135.341001
 21
195.667757
 31
0.0
  0
ARC
  5
25A4
  8
0
 62
     0
 10
127.535406
 20
301.394673
 30
0.0
 40
127.5
 50
273.957679
 51
278.388378
  0
LINE
  5
25A5
  8
0
 62
     0
 10
135.454451
 20
181.894673
 30
0.0
 11
136.221957
 21
181.894673
 31
0.0
  0
LINE
  5
25A6
  8
0
 62
     0
 10
136.285406
 20
205.994673
 30
0.0
 11
145.785406
 21
205.994673
 31
0.0
  0
LINE
  5
25A7
  8
0
 62
     0
 10
145.785406
 20
204.494673
 30
0.0
 11
136.285406
 21
204.494673
 31
0.0
  0
LINE
  5
25A8
  8
0
 62
     0
 10
136.285406
 20
202.994673
 30
0.0
 11
145.785406
 21
202.994673
 31
0.0
  0
LINE
  5
25A9
  8
0
 62
     0
 10
145.785406
 20
197.494673
 30
0.0
 11
139.339009
 21
197.494673
 31
0.0
  0
LINE
  5
25AA
  8
0
 62
     0
 10
146.135406
 20
195.667757
 30
0.0
 11
136.335406
 21
195.667757
 31
0.0
  0
POLYLINE
  5
25AB
  8
0
 62
     0
 66
     1
 10
0.0
 20
0.0
 30
0.0
  0
VERTEX
  5
2A3B
  8
0
 62
     0
 10
143.035406
 20
195.894673
 30
0.0
  0
VERTEX
  5
2A3C
  8
0
 62
     0
 10
142.414207
 20
195.888944
 30
0.0
  0
VERTEX
  5
2A3D
  8
0
 62
     0
 10
141.734713
 20
195.885386
 30
0.0
  0
VERTEX
  5
2A3E
  8
0
 62
     0
 10
141.035406
 20
195.8842
 30
0.0
  0
VERTEX
  5
2A3F
  8
0
 62
     0
 10
140.3361
 20
195.885386
 30
0.0
  0
VERTEX
  5
2A40
  8
0
 62
     0
 10
139.656605
 20
195.888944
 30
0.0
  0
VERTEX
  5
2A41
  8
0
 62
     0
 10
139.035406
 20
195.894673
 30
0.0
  0
SEQEND
  5
2A42
  8
0
 62
     0
  0
LINE
  5
25AC
  8
0
 62
     0
 10
146.135406
 20
192.294673
 30
0.0
 11
136.335406
 21
192.294673
 31
0.0
  0
LINE
  5
25AD
  8
0
 62
     0
 10
138.035406
 20
191.994673
 30
0.0
 11
144.035406
 21
191.994673
 31
0.0
  0
LINE
  5
25AE
  8
0
 62
     0
 10
136.335406
 20
190.694673
 30
0.0
 11
146.135406
 21
190.694673
 31
0.0
  0
LINE
  5
25AF
  8
0
 62
     0
 10
136.335406
 20
187.594673
 30
0.0
 11
146.135406
 21
187.594673
 31
0.0
  0
LINE
  5
25B0
  8
0
 62
     0
 10
139.035406
 20
195.894673
 30
0.0
 11
139.035406
 21
197.505275
 31
0.0
  0
LINE
  5
25B1
  8
0
 62
     0
 10
135.358455
 20
197.633677
 30
0.0
 11
135.358455
 21
195.702667
 31
0.0
  0
LINE
  5
25B2
  8
0
 62
     0
 10
139.035406
 20
195.894673
 30
0.0
 11
136.221957
 21
195.894673
 31
0.0
  0
LINE
  5
25B3
  8
0
 62
     0
 10
137.285406
 20
190.894673
 30
0.0
 11
136.335406
 21
190.894673
 31
0.0
  0
LINE
  5
25B4
  8
0
 62
     0
 10
138.035406
 20
190.694673
 30
0.0
 11
138.035406
 21
191.994673
 31
0.0
  0
LINE
  5
25B5
  8
0
 62
     0
 10
137.285406
 20
190.894673
 30
0.0
 11
137.285406
 21
192.294673
 31
0.0
  0
LINE
  5
25B6
  8
0
 62
     0
 10
136.221957
 20
195.894673
 30
0.0
 11
136.335406
 21
195.667757
 31
0.0
  0
LINE
  5
25B7
  8
0
 62
     0
 10
135.358455
 20
195.702667
 30
0.0
 11
135.341001
 21
195.667757
 31
0.0
  0
LINE
  5
25B8
  8
0
 62
     0
 10
139.035406
 20
191.994673
 30
0.0
 11
139.035406
 21
192.294673
 31
0.0
  0
LINE
  5
25B9
  8
0
 62
     0
 10
137.535406
 20
204.494673
 30
0.0
 11
137.535406
 21
202.994673
 31
0.0
  0
LINE
  5
25BA
  8
0
 62
     0
 10
137.335406
 20
204.494673
 30
0.0
 11
137.335406
 21
202.994673
 31
0.0
  0
LINE
  5
25BB
  8
0
 62
     0
 10
143.035406
 20
195.894673
 30
0.0
 11
143.035406
 21
197.365592
 31
0.0
  0
LINE
  5
25BC
  8
0
 62
     0
 10
146.248855
 20
195.894673
 30
0.0
 11
143.035406
 21
195.894673
 31
0.0
  0
LINE
  5
25BD
  8
0
 62
     0
 10
143.035406
 20
191.994673
 30
0.0
 11
143.035406
 21
192.294673
 31
0.0
  0
LINE
  5
25BE
  8
0
 62
     0
 10
144.785406
 20
190.894673
 30
0.0
 11
146.135406
 21
190.894673
 31
0.0
  0
LINE
  5
25BF
  8
0
 62
     0
 10
144.785406
 20
190.894673
 30
0.0
 11
144.785406
 21
192.294673
 31
0.0
  0
LINE
  5
25C0
  8
0
 62
     0
 10
144.035406
 20
190.694673
 30
0.0
 11
144.035406
 21
191.994673
 31
0.0
  0
LINE
  5
25C1
  8
0
 62
     0
 10
145.935406
 20
190.894673
 30
0.0
 11
145.935406
 21
190.694673
 31
0.0
  0
LINE
  5
25C2
  8
0
 62
     0
 10
146.248855
 20
195.894673
 30
0.0
 11
146.135406
 21
195.667757
 31
0.0
  0
LINE
  5
25C3
  8
0
 62
     0
 10
144.535406
 20
204.494673
 30
0.0
 11
144.535406
 21
202.994673
 31
0.0
  0
ARC
  5
25C4
  8
0
 62
     0
 10
136.685406
 20
217.894673
 30
0.0
 40
3.9
 50
67.380135
 51
112.619865
  0
LINE
  5
25C5
  8
0
 62
     0
 10
124.035406
 20
210.494673
 30
0.0
 11
124.035406
 21
208.994673
 31
0.0
  0
LINE
  5
25C6
  8
0
 62
     0
 10
123.835406
 20
210.494673
 30
0.0
 11
123.835406
 21
208.994673
 31
0.0
  0
LINE
  5
25C7
  8
0
 62
     0
 10
124.035406
 20
213.494673
 30
0.0
 11
124.035406
 21
211.994673
 31
0.0
  0
LINE
  5
25C8
  8
0
 62
     0
 10
123.835406
 20
213.494673
 30
0.0
 11
123.835406
 21
211.994673
 31
0.0
  0
LINE
  5
25C9
  8
0
 62
     0
 10
131.235406
 20
210.494673
 30
0.0
 11
131.235406
 21
208.994673
 31
0.0
  0
LINE
  5
25CA
  8
0
 62
     0
 10
131.035406
 20
208.994673
 30
0.0
 11
131.035406
 21
210.494673
 31
0.0
  0
LINE
  5
25CB
  8
0
 62
     0
 10
131.235406
 20
213.494673
 30
0.0
 11
131.235406
 21
211.994673
 31
0.0
  0
LINE
  5
25CC
  8
0
 62
     0
 10
131.035406
 20
211.994673
 30
0.0
 11
131.035406
 21
213.494673
 31
0.0
  0
LINE
  5
25CD
  8
0
 62
     0
 10
133.535406
 20
217.894673
 30
0.0
 11
135.035406
 21
217.894673
 31
0.0
  0
LINE
  5
25CE
  8
0
 62
     0
 10
146.285406
 20
221.594673
 30
0.0
 11
138.785406
 21
221.594673
 31
0.0
  0
LINE
  5
25CF
  8
0
 62
     0
 10
145.785406
 20
213.494673
 30
0.0
 11
136.285406
 21
213.494673
 31
0.0
  0
LINE
  5
25D0
  8
0
 62
     0
 10
136.285406
 20
211.994673
 30
0.0
 11
145.785406
 21
211.994673
 31
0.0
  0
LINE
  5
25D1
  8
0
 62
     0
 10
145.785406
 20
210.494673
 30
0.0
 11
136.285406
 21
210.494673
 31
0.0
  0
LINE
  5
25D2
  8
0
 62
     0
 10
136.285406
 20
208.994673
 30
0.0
 11
145.785406
 21
208.994673
 31
0.0
  0
LINE
  5
25D3
  8
0
 62
     0
 10
145.785406
 20
207.494673
 30
0.0
 11
136.285406
 21
207.494673
 31
0.0
  0
LINE
  5
25D4
  8
0
 62
     0
 10
137.335406
 20
216.594673
 30
0.0
 11
137.335406
 21
218.894673
 31
0.0
  0
LINE
  5
25D5
  8
0
 62
     0
 10
137.185406
 20
219.094673
 30
0.0
 11
137.185406
 21
216.594673
 31
0.0
  0
LINE
  5
25D6
  8
0
 62
     0
 10
137.535406
 20
210.494673
 30
0.0
 11
137.535406
 21
208.994673
 31
0.0
  0
LINE
  5
25D7
  8
0
 62
     0
 10
137.335406
 20
210.494673
 30
0.0
 11
137.335406
 21
208.994673
 31
0.0
  0
ARC
  5
25D8
  8
0
 62
     0
 10
139.535406
 20
213.294673
 30
0.0
 40
2.0
 50
174.260799
 51
180.0
  0
LINE
  5
25D9
  8
0
 62
     0
 10
137.535406
 20
213.294673
 30
0.0
 11
137.535406
 21
211.994673
 31
0.0
  0
LINE
  5
25DA
  8
0
 62
     0
 10
137.335406
 20
213.494673
 30
0.0
 11
137.335406
 21
211.994673
 31
0.0
  0
LINE
  5
25DB
  8
0
 62
     0
 10
138.185406
 20
219.094673
 30
0.0
 11
137.185406
 21
219.094673
 31
0.0
  0
LINE
  5
25DC
  8
0
 62
     0
 10
137.185406
 20
218.894673
 30
0.0
 11
138.785406
 21
218.894673
 31
0.0
  0
ARC
  5
25DD
  8
0
 62
     0
 10
138.185406
 20
219.594673
 30
0.0
 40
0.5
 50
270.0
 51
0.0
  0
LINE
  5
25DE
  8
0
 62
     0
 10
138.785406
 20
221.594673
 30
0.0
 11
138.785406
 21
218.894673
 31
0.0
  0
LINE
  5
25DF
  8
0
 62
     0
 10
138.685406
 20
221.494673
 30
0.0
 11
138.685406
 21
219.594673
 31
0.0
  0
LINE
  5
25E0
  8
0
 62
     0
 10
144.535406
 20
210.494673
 30
0.0
 11
144.535406
 21
208.994673
 31
0.0
  0
ARC
  5
25E1
  8
0
 62
     0
 10
142.535406
 20
213.294673
 30
0.0
 40
2.0
 50
0.0
 51
5.827235
  0
LINE
  5
25E2
  8
0
 62
     0
 10
145.19976
 20
213.294673
 30
0.0
 11
144.535406
 21
213.294673
 31
0.0
  0
LINE
  5
25E3
  8
0
 62
     0
 10
145.17216
 20
213.494673
 30
0.0
 11
145.19976
 21
213.294673
 31
0.0
  0
LINE
  5
25E4
  8
0
 62
     0
 10
144.535406
 20
213.294673
 30
0.0
 11
144.535406
 21
211.994673
 31
0.0
  0
LINE
  5
25E5
  8
0
 62
     0
 10
145.199313
 20
213.494673
 30
0.0
 11
145.19976
 21
213.294673
 31
0.0
  0
ARC
  5
25E6
  8
0
 62
     0
 10
146.885406
 20
219.594673
 30
0.0
 40
0.5
 50
180.0
 51
270.0
  0
LINE
  5
25E7
  8
0
 62
     0
 10
146.385406
 20
219.594673
 30
0.0
 11
146.385406
 21
221.494673
 31
0.0
  0
LINE
  5
25E8
  8
0
 62
     0
 10
146.285406
 20
218.894673
 30
0.0
 11
146.285406
 21
221.594673
 31
0.0
  0
LINE
  5
25E9
  8
0
 62
     0
 10
149.635406
 20
200.194673
 30
0.0
 11
149.635406
 21
221.494673
 31
0.0
  0
LINE
  5
25EA
  8
0
 62
     0
 10
149.054451
 20
197.218881
 30
0.0
 11
149.054451
 21
179.05027
 31
0.0
  0
LINE
  5
25EB
  8
0
 62
     0
 10
148.941001
 20
195.667757
 30
0.0
 11
148.941001
 21
175.430168
 31
0.0
  0
LINE
  5
25EC
  8
0
 62
     0
 10
147.129811
 20
195.667757
 30
0.0
 11
147.129811
 21
175.409319
 31
0.0
  0
LINE
  5
25ED
  8
0
 62
     0
 10
147.016362
 20
181.894673
 30
0.0
 11
147.016362
 21
197.226574
 31
0.0
  0
LINE
  5
25EE
  8
0
 62
     0
 10
147.263394
 20
175.430168
 30
0.0
 11
148.941001
 21
175.430168
 31
0.0
  0
ARC
  5
25EF
  8
0
 62
     0
 10
127.535406
 20
301.394673
 30
0.0
 40
127.5
 50
278.840342
 51
278.901098
  0
LINE
  5
25F0
  8
0
 62
     0
 10
149.054451
 20
179.05027
 30
0.0
 11
149.935406
 21
179.05027
 31
0.0
  0
LINE
  5
25F1
  8
0
 62
     0
 10
149.935406
 20
179.194673
 30
0.0
 11
150.035406
 21
179.194673
 31
0.0
  0
LINE
  5
25F2
  8
0
 62
     0
 10
148.932274
 20
200.194673
 30
0.0
 11
148.932274
 21
197.159669
 31
0.0
  0
LINE
  5
25F3
  8
0
 62
     0
 10
148.185406
 20
200.294673
 30
0.0
 11
148.185406
 21
197.18575
 31
0.0
  0
LINE
  5
25F4
  8
0
 62
     0
 10
147.112357
 20
197.223222
 30
0.0
 11
147.112357
 21
195.702667
 31
0.0
  0
LINE
  5
25F5
  8
0
 62
     0
 10
148.958455
 20
195.702667
 30
0.0
 11
147.112357
 21
195.702667
 31
0.0
  0
LINE
  5
25F6
  8
0
 62
     0
 10
148.941001
 20
195.667757
 30
0.0
 11
147.129811
 21
195.667757
 31
0.0
  0
LINE
  5
25F7
  8
0
 62
     0
 10
147.112357
 20
195.702667
 30
0.0
 11
147.129811
 21
195.667757
 31
0.0
  0
LINE
  5
25F8
  8
0
 62
     0
 10
148.958455
 20
197.158754
 30
0.0
 11
148.958455
 21
195.702667
 31
0.0
  0
LINE
  5
25F9
  8
0
 62
     0
 10
148.958455
 20
195.702667
 30
0.0
 11
148.941001
 21
195.667757
 31
0.0
  0
LINE
  5
25FA
  8
0
 62
     0
 10
149.935406
 20
200.194673
 30
0.0
 11
148.932274
 21
200.194673
 31
0.0
  0
LINE
  5
25FB
  8
0
 62
     0
 10
149.935406
 20
197.218881
 30
0.0
 11
149.054451
 21
197.218881
 31
0.0
  0
LINE
  5
25FC
  8
0
 62
     0
 10
148.985406
 20
202.094673
 30
0.0
 11
148.985406
 21
200.194673
 31
0.0
  0
LINE
  5
25FD
  8
0
 62
     0
 10
146.985406
 20
197.226574
 30
0.0
 11
146.985406
 21
202.094673
 31
0.0
  0
LINE
  5
25FE
  8
0
 62
     0
 10
148.985406
 20
200.294673
 30
0.0
 11
146.985406
 21
200.294673
 31
0.0
  0
LINE
  5
25FF
  8
0
 62
     0
 10
149.054451
 20
197.218881
 30
0.0
 11
148.932274
 21
200.194673
 31
0.0
  0
LINE
  5
2600
  8
0
 62
     0
 10
148.985406
 20
202.094673
 30
0.0
 11
146.985406
 21
202.094673
 31
0.0
  0
LINE
  5
2601
  8
0
 62
     0
 10
149.935406
 20
201.831317
 30
0.0
 11
150.035406
 21
201.831317
 31
0.0
  0
LINE
  5
2602
  8
0
 62
     0
 10
149.935406
 20
200.844103
 30
0.0
 11
150.035406
 21
200.844103
 31
0.0
  0
LINE
  5
2603
  8
0
 62
     0
 10
150.035406
 20
206.945588
 30
0.0
 11
149.935406
 21
206.945588
 31
0.0
  0
LINE
  5
2604
  8
0
 62
     0
 10
147.885406
 20
216.594673
 30
0.0
 11
147.885406
 21
219.094673
 31
0.0
  0
LINE
  5
2605
  8
0
 62
     0
 10
147.735406
 20
216.594673
 30
0.0
 11
147.735406
 21
218.894673
 31
0.0
  0
ARC
  5
2606
  8
0
 62
     0
 10
149.635406
 20
221.194673
 30
0.0
 40
0.3
 50
0.0
 51
90.0
  0
ENDSEC
  0
EOF
