  0
SECTION
  2
HEADER
  9
$ACADVER
  1
AC1014
  9
$ACADMAINTVER
 70
     0
  9
$DWGCODEPAGE
  3
ANSI_1252
  9
$INSBASE
 10
130.743179
 20
98.938889
 30
0.0
  9
$EXTMIN
 10
106.462737
 20
60.688518
 30
0.0
  9
$EXTMAX
 10
160.164476
 20
120.936626
 30
0.0
  9
$LIMMIN
 10
0.0
 20
0.0
  9
$LIMMAX
 10
210.0
 20
297.0
  9
$ORTHOMODE
 70
     1
  9
$REGENMODE
 70
     1
  9
$FILLMODE
 70
     1
  9
$QTEXTMODE
 70
     0
  9
$MIRRTEXT
 70
     1
  9
$DRAGMODE
 70
     2
  9
$LTSCALE
 40
7.0
  9
$OSMODE
 70
     0
  9
$ATTMODE
 70
     1
  9
$TEXTSIZE
 40
0.2
  9
$TRACEWID
 40
0.05
  9
$TEXTSTYLE
  7
STANDARD
  9
$CLAYER
  8
COTATION1
  9
$CELTYPE
  6
BYLAYER
  9
$CECOLOR
 62
   256
  9
$CELTSCALE
 40
1.0
  9
$DELOBJ
 70
     1
  9
$DISPSILH
 70
     0
  9
$DIMSCALE
 40
1.0
  9
$DIMASZ
 40
3.0
  9
$DIMEXO
 40
0.0625
  9
$DIMDLI
 40
0.38
  9
$DIMRND
 40
0.01
  9
$DIMDLE
 40
0.0
  9
$DIMEXE
 40
0.18
  9
$DIMTP
 40
0.0
  9
$DIMTM
 40
0.0
  9
$DIMTXT
 40
2.5
  9
$DIMCEN
 40
0.09
  9
$DIMTSZ
 40
0.0
  9
$DIMTOL
 70
     0
  9
$DIMLIM
 70
     0
  9
$DIMTIH
 70
     0
  9
$DIMTOH
 70
     0
  9
$DIMSE1
 70
     0
  9
$DIMSE2
 70
     0
  9
$DIMTAD
 70
     1
  9
$DIMZIN
 70
    12
  9
$DIMBLK
  1

  9
$DIMASO
 70
     1
  9
$DIMSHO
 70
     1
  9
$DIMPOST
  1

  9
$DIMAPOST
  1

  9
$DIMALT
 70
     0
  9
$DIMALTD
 70
     2
  9
$DIMALTF
 40
25.4
  9
$DIMLFAC
 40
1.0
  9
$DIMTOFL
 70
     1
  9
$DIMTVP
 40
0.0
  9
$DIMTIX
 70
     0
  9
$DIMSOXD
 70
     0
  9
$DIMSAH
 70
     0
  9
$DIMBLK1
  1

  9
$DIMBLK2
  1

  9
$DIMSTYLE
  2
SC_STAND
  9
$DIMCLRD
 70
     0
  9
$DIMCLRE
 70
     0
  9
$DIMCLRT
 70
     0
  9
$DIMTFAC
 40
1.0
  9
$DIMGAP
 40
1.0
  9
$DIMJUST
 70
     0
  9
$DIMSD1
 70
     0
  9
$DIMSD2
 70
     0
  9
$DIMTOLJ
 70
     1
  9
$DIMTZIN
 70
    12
  9
$DIMALTZ
 70
    12
  9
$DIMALTTZ
 70
    12
  9
$DIMFIT
 70
     5
  9
$DIMUPT
 70
     0
  9
$DIMUNIT
 70
     2
  9
$DIMDEC
 70
     4
  9
$DIMTDEC
 70
     4
  9
$DIMALTU
 70
     2
  9
$DIMALTTD
 70
     2
  9
$DIMTXSTY
  7
STANDARD
  9
$DIMAUNIT
 70
     0
  9
$LUNITS
 70
     2
  9
$LUPREC
 70
     4
  9
$SKETCHINC
 40
0.1
  9
$FILLETRAD
 40
0.0
  9
$AUNITS
 70
     0
  9
$AUPREC
 70
     0
  9
$MENU
  1
acad
  9
$ELEVATION
 40
0.0
  9
$PELEVATION
 40
0.0
  9
$THICKNESS
 40
0.0
  9
$LIMCHECK
 70
     0
  9
$BLIPMODE
 70
     1
  9
$CHAMFERA
 40
0.0
  9
$CHAMFERB
 40
0.0
  9
$CHAMFERC
 40
0.0
  9
$CHAMFERD
 40
0.0
  9
$SKPOLY
 70
     0
  9
$TDCREATE
 40
2451086.429629861
  9
$TDUPDATE
 40
2451387.897391018
  9
$TDINDWG
 40
0.0000258102
  9
$TDUSRTIMER
 40
0.0000258102
  9
$USRTIMER
 70
     1
  9
$ANGBASE
 50
0.0
  9
$ANGDIR
 70
     0
  9
$PDMODE
 70
     0
  9
$PDSIZE
 40
0.0
  9
$PLINEWID
 40
0.0
  9
$COORDS
 70
     1
  9
$SPLFRAME
 70
     0
  9
$SPLINETYPE
 70
     6
  9
$SPLINESEGS
 70
     8
  9
$ATTDIA
 70
     0
  9
$ATTREQ
 70
     1
  9
$HANDLING
 70
     1
  9
$HANDSEED
  5
514
  9
$SURFTAB1
 70
     6
  9
$SURFTAB2
 70
     6
  9
$SURFTYPE
 70
     6
  9
$SURFU
 70
     6
  9
$SURFV
 70
     6
  9
$UCSNAME
  2

  9
$UCSORG
 10
0.0
 20
0.0
 30
0.0
  9
$UCSXDIR
 10
1.0
 20
0.0
 30
0.0
  9
$UCSYDIR
 10
0.0
 20
1.0
 30
0.0
  9
$PUCSNAME
  2

  9
$PUCSORG
 10
0.0
 20
0.0
 30
0.0
  9
$PUCSXDIR
 10
1.0
 20
0.0
 30
0.0
  9
$PUCSYDIR
 10
0.0
 20
1.0
 30
0.0
  9
$USERI1
 70
     0
  9
$USERI2
 70
     0
  9
$USERI3
 70
     0
  9
$USERI4
 70
     0
  9
$USERI5
 70
     0
  9
$USERR1
 40
0.0
  9
$USERR2
 40
0.0
  9
$USERR3
 40
0.0
  9
$USERR4
 40
0.0
  9
$USERR5
 40
0.0
  9
$WORLDVIEW
 70
     1
  9
$SHADEDGE
 70
     3
  9
$SHADEDIF
 70
    70
  9
$TILEMODE
 70
     1
  9
$MAXACTVP
 70
    16
  9
$PINSBASE
 10
0.0
 20
0.0
 30
0.0
  9
$PLIMCHECK
 70
     0
  9
$PEXTMIN
 10
1.000000E+20
 20
1.000000E+20
 30
1.000000E+20
  9
$PEXTMAX
 10
-1.000000E+20
 20
-1.000000E+20
 30
-1.000000E+20
  9
$PLIMMIN
 10
0.0
 20
0.0
  9
$PLIMMAX
 10
12.0
 20
9.0
  9
$UNITMODE
 70
     0
  9
$VISRETAIN
 70
     0
  9
$PLINEGEN
 70
     0
  9
$PSLTSCALE
 70
     1
  9
$TREEDEPTH
 70
  3020
  9
$PICKSTYLE
 70
     1
  9
$CMLSTYLE
  2
STANDARD
  9
$CMLJUST
 70
     0
  9
$CMLSCALE
 40
1.0
  9
$PROXYGRAPHICS
 70
     1
  9
$MEASUREMENT
 70
     0
  0
ENDSEC
  0
SECTION
  2
CLASSES
  0
CLASS
  1
DICTIONARYVAR
  2
AcDbDictionaryVar
  3
"AutoCAD"
 90
        0
280
     0
281
     0
  0
CLASS
  1
LWPOLYLINE
  2
AcDbPolyline
  3
"AutoCAD"
 90
        0
280
     0
281
     1
  0
ENDSEC
  0
SECTION
  2
TABLES
  0
TABLE
  2
VPORT
  5
4EA
100
AcDbSymbolTable
 70
     1
  0
VPORT
  5
50F
100
AcDbSymbolTableRecord
100
AcDbViewportTableRecord
  2
*ACTIVE
 70
     0
 10
0.0
 20
0.0
 11
1.0
 21
1.0
 12
225.654671
 22
135.037441
 13
0.0
 23
0.0
 14
1.0
 24
1.0
 15
0.0
 25
0.0
 16
0.0
 26
0.0
 36
1.0
 17
0.0
 27
0.0
 37
0.0
 40
270.074882
 41
1.671053
 42
50.0
 43
0.0
 44
0.0
 50
0.0
 51
0.0
 71
     0
 72
   100
 73
     1
 74
     1
 75
     0
 76
     0
 77
     0
 78
     0
  0
ENDTAB
  0
TABLE
  2
LTYPE
  5
4E7
100
AcDbSymbolTable
 70
     1
  0
LTYPE
  5
4F3
100
AcDbSymbolTableRecord
100
AcDbLinetypeTableRecord
  2
BYBLOCK
 70
     0
  3

 72
    65
 73
     0
 40
0.0
  0
LTYPE
  5
4F4
100
AcDbSymbolTableRecord
100
AcDbLinetypeTableRecord
  2
BYLAYER
 70
     0
  3

 72
    65
 73
     0
 40
0.0
  0
LTYPE
  5
4F5
100
AcDbSymbolTableRecord
100
AcDbLinetypeTableRecord
  2
CONTINUOUS
 70
     0
  3
Solid line
 72
    65
 73
     0
 40
0.0
  0
ENDTAB
  0
TABLE
  2
LAYER
  5
4E4
100
AcDbSymbolTable
 70
     4
  0
LAYER
  5
4F0
100
AcDbSymbolTableRecord
100
AcDbLayerTableRecord
  2
0
 70
     0
 62
     7
  6
CONTINUOUS
  0
LAYER
  5
503
100
AcDbSymbolTableRecord
100
AcDbLayerTableRecord
  2
COTATION1
 70
     0
 62
     2
  6
CONTINUOUS
  0
LAYER
  5
504
100
AcDbSymbolTableRecord
100
AcDbLayerTableRecord
  2
ALPHA
 70
     0
 62
   255
  6
CONTINUOUS
  0
LAYER
  5
505
100
AcDbSymbolTableRecord
100
AcDbLayerTableRecord
  2
DEFPOINTS
 70
     0
 62
     7
  6
CONTINUOUS
  0
ENDTAB
  0
TABLE
  2
STYLE
  5
4E5
100
AcDbSymbolTable
 70
     2
  0
STYLE
  5
4F1
100
AcDbSymbolTableRecord
100
AcDbTextStyleTableRecord
  2
STANDARD
 70
     0
 40
0.0
 41
1.0
 50
0.0
 71
     0
 42
0.2
  3
txt
  4

  0
STYLE
  5
500
100
AcDbSymbolTableRecord
100
AcDbTextStyleTableRecord
  2
ROMANS
 70
     0
 40
0.0
 41
1.0
 50
0.0
 71
     0
 42
2.9
  3
romans.shx
  4

  0
ENDTAB
  0
TABLE
  2
VIEW
  5
4E8
100
AcDbSymbolTable
 70
     0
  0
ENDTAB
  0
TABLE
  2
UCS
  5
4E9
100
AcDbSymbolTable
 70
     0
  0
ENDTAB
  0
TABLE
  2
APPID
  5
4EB
100
AcDbSymbolTable
 70
     1
  0
APPID
  5
4F2
100
AcDbSymbolTableRecord
100
AcDbRegAppTableRecord
  2
ACAD
 70
     0
  0
ENDTAB
  0
TABLE
  2
DIMSTYLE
  5
4EC
100
AcDbSymbolTable
 70
     1
  0
DIMSTYLE
105
502
102
{ACAD_REACTORS
330
1F
330
2D
102
}
100
AcDbSymbolTableRecord
100
AcDbDimStyleTableRecord
  2
SC_STAND
 70
     0
  3

  4

  5

  6

  7

 40
1.0
 41
3.0
 42
0.0625
 43
0.38
 44
0.18
 45
0.01
 46
0.0
 47
0.0
 48
0.0
140
2.5
141
0.09
142
0.0
143
25.4
144
1.0
145
0.0
146
1.0
147
1.0
 71
     0
 72
     0
 73
     0
 74
     0
 75
     0
 76
     0
 77
     1
 78
    12
170
     0
171
     2
172
     1
173
     0
174
     0
175
     0
176
     0
177
     0
178
     0
270
     2
271
     4
272
     4
273
     2
274
     2
340
4F1
275
     0
280
     0
281
     0
282
     0
283
     1
284
    12
285
    12
286
    12
287
     5
288
     0
  0
ENDTAB
  0
TABLE
  2
BLOCK_RECORD
  5
4E3
100
AcDbSymbolTable
 70
     2
  0
BLOCK_RECORD
  5
4F9
100
AcDbSymbolTableRecord
100
AcDbBlockTableRecord
  2
*MODEL_SPACE
  0
BLOCK_RECORD
  5
4F6
100
AcDbSymbolTableRecord
100
AcDbBlockTableRecord
  2
*PAPER_SPACE
  0
BLOCK_RECORD
  5
4FE
100
AcDbSymbolTableRecord
100
AcDbBlockTableRecord
  2
*D0
  0
BLOCK_RECORD
  5
4FF
100
AcDbSymbolTableRecord
100
AcDbBlockTableRecord
  2
*D1
  0
ENDTAB
  0
ENDSEC
  0
SECTION
  2
BLOCKS
  0
BLOCK
  5
508
100
AcDbEntity
  8
0
100
AcDbBlockBegin
  2
*MODEL_SPACE
 70
     0
 10
0.0
 20
0.0
 30
0.0
  3
*MODEL_SPACE
  1

  0
ENDBLK
  5
509
100
AcDbEntity
  8
0
100
AcDbBlockEnd
  0
BLOCK
  5
506
100
AcDbEntity
 67
     1
  8
0
100
AcDbBlockBegin
  2
*PAPER_SPACE
 70
     0
 10
0.0
 20
0.0
 30
0.0
  3
*PAPER_SPACE
  1

  0
ENDBLK
  5
507
100
AcDbEntity
 67
     1
  8
0
100
AcDbBlockEnd
  0
BLOCK
  5
38
100
AcDbEntity
  8
0
100
AcDbBlockBegin
  2
*D0
 70
     1
 10
0.0
 20
0.0
 30
0.0
  3
*D0
  1
AVE_GLOBAL
  0
LINE
  5
2F
100
AcDbEntity
  8
0
  6
BYBLOCK
 62
     0
100
AcDbLine
 10
111.972554
 20
86.474126
 30
0.0
 11
111.972554
 21
61.008518
 31
0.0
  0
LINE
  5
30
100
AcDbEntity
  8
0
  6
BYBLOCK
 62
     0
100
AcDbLine
 10
148.572554
 20
83.374126
 30
0.0
 11
148.572554
 21
61.008518
 31
0.0
  0
LINE
  5
31
100
AcDbEntity
  8
0
  6
BYBLOCK
 62
     0
100
AcDbLine
 10
114.972554
 20
61.188518
 30
0.0
 11
145.572554
 21
61.188518
 31
0.0
  0
SOLID
  5
32
100
AcDbEntity
  8
0
  6
BYBLOCK
 62
     0
100
AcDbTrace
 10
114.972554
 20
61.688518
 30
0.0
 11
114.972554
 21
60.688518
 31
0.0
 12
111.972554
 22
61.188518
 32
0.0
 13
111.972554
 23
61.188518
 33
0.0
  0
SOLID
  5
33
100
AcDbEntity
  8
0
  6
BYBLOCK
 62
     0
100
AcDbTrace
 10
145.572554
 20
61.688518
 30
0.0
 11
145.572554
 21
60.688518
 31
0.0
 12
148.572554
 22
61.188518
 32
0.0
 13
148.572554
 23
61.188518
 33
0.0
  0
TEXT
  5
34
100
AcDbEntity
  8
0
  6
BYBLOCK
 62
     0
100
AcDbText
 10
126.105888
 20
62.188518
 30
0.0
 40
2.5
  1
36.6
  7
ROMANS
100
AcDbText
  0
POINT
  5
35
100
AcDbEntity
  8
DEFPOINTS
  6
BYBLOCK
 62
     0
100
AcDbPoint
 10
111.972554
 20
86.536626
 30
0.0
  0
POINT
  5
36
100
AcDbEntity
  8
DEFPOINTS
  6
BYBLOCK
 62
     0
100
AcDbPoint
 10
148.572554
 20
83.436626
 30
0.0
  0
POINT
  5
37
100
AcDbEntity
  8
DEFPOINTS
  6
BYBLOCK
 62
     0
100
AcDbPoint
 10
148.572554
 20
61.188518
 30
0.0
  0
ENDBLK
  5
39
100
AcDbEntity
  8
0
100
AcDbBlockEnd
  0
BLOCK
  5
2B
100
AcDbEntity
  8
0
100
AcDbBlockBegin
  2
*D1
 70
     1
 10
0.0
 20
0.0
 30
0.0
  3
*D1
  1
AVE_GLOBAL
  0
LINE
  5
21
100
AcDbEntity
  8
0
  6
BYBLOCK
 62
     0
100
AcDbLine
 10
144.513838
 20
81.936626
 30
0.0
 11
159.844476
 21
81.936626
 31
0.0
  0
LINE
  5
22
100
AcDbEntity
  8
0
  6
BYBLOCK
 62
     0
100
AcDbLine
 10
144.513838
 20
113.933466
 30
0.0
 11
159.844476
 21
113.933466
 31
0.0
  0
LINE
  5
23
100
AcDbEntity
  8
0
  6
BYBLOCK
 62
     0
100
AcDbLine
 10
159.664476
 20
84.936626
 30
0.0
 11
159.664476
 21
110.933466
 31
0.0
  0
SOLID
  5
24
100
AcDbEntity
  8
0
  6
BYBLOCK
 62
     0
100
AcDbTrace
 10
159.164476
 20
84.936626
 30
0.0
 11
160.164476
 21
84.936626
 31
0.0
 12
159.664476
 22
81.936626
 32
0.0
 13
159.664476
 23
81.936626
 33
0.0
  0
SOLID
  5
25
100
AcDbEntity
  8
0
  6
BYBLOCK
 62
     0
100
AcDbTrace
 10
159.164476
 20
110.933466
 30
0.0
 11
160.164476
 21
110.933466
 31
0.0
 12
159.664476
 22
113.933466
 32
0.0
 13
159.664476
 23
113.933466
 33
0.0
  0
TEXT
  5
26
100
AcDbEntity
  8
0
  6
BYBLOCK
 62
     0
100
AcDbText
 10
158.664476
 20
95.554093
 30
0.0
 40
2.5
  1
32
 50
90.0
  7
ROMANS
100
AcDbText
  0
POINT
  5
27
100
AcDbEntity
  8
DEFPOINTS
  6
BYBLOCK
 62
     0
100
AcDbPoint
 10
144.451338
 20
81.936626
 30
0.0
  0
POINT
  5
29
100
AcDbEntity
  8
DEFPOINTS
  6
BYBLOCK
 62
     0
100
AcDbPoint
 10
144.451338
 20
113.933466
 30
0.0
  0
POINT
  5
2A
100
AcDbEntity
  8
DEFPOINTS
  6
BYBLOCK
 62
     0
100
AcDbPoint
 10
159.664476
 20
113.933466
 30
0.0
  0
ENDBLK
  5
2C
100
AcDbEntity
  8
0
100
AcDbBlockEnd
  0
ENDSEC
  0
SECTION
  2
ENTITIES
  0
DIMENSION
  5
1F
100
AcDbEntity
  8
COTATION1
100
AcDbDimension
  2
*D1
 10
159.664476
 20
113.933466
 30
0.0
 11
157.414476
 21
97.935046
 31
0.0
  3
SC_STAND
100
AcDbAlignedDimension
 13
144.451338
 23
81.936626
 33
0.0
 14
144.451338
 24
113.933466
 34
0.0
 50
90.0
100
AcDbRotatedDimension
  0
DIMENSION
  5
2D
100
AcDbEntity
  8
COTATION1
100
AcDbDimension
  2
*D0
 10
148.572554
 20
61.188518
 30
0.0
 11
130.272554
 21
63.438518
 31
0.0
  3
SC_STAND
100
AcDbAlignedDimension
 13
111.972554
 23
86.536626
 33
0.0
 14
148.572554
 24
83.436626
 34
0.0
100
AcDbRotatedDimension
  0
LINE
  5
3A
100
AcDbEntity
  8
ALPHA
100
AcDbLine
 10
115.863738
 20
83.344869
 30
0.0
 11
121.660071
 21
84.894877
 31
0.0
  0
LINE
  5
3C
100
AcDbEntity
  8
ALPHA
100
AcDbLine
 10
117.413746
 20
77.548536
 30
0.0
 11
123.210079
 21
79.098543
 31
0.0
  0
LINE
  5
3D
100
AcDbEntity
  8
ALPHA
100
AcDbLine
 10
114.752899
 20
87.498908
 30
0.0
 11
120.549232
 21
89.048915
 31
0.0
  0
LINE
  5
3E
100
AcDbEntity
  8
ALPHA
100
AcDbLine
 10
119.210017
 20
79.995641
 30
0.0
 11
120.055388
 21
79.921253
 31
0.0
  0
LINE
  5
3F
100
AcDbEntity
  8
ALPHA
100
AcDbLine
 10
118.568925
 20
79.824205
 30
0.0
 11
119.210017
 21
79.995641
 31
0.0
  0
ARC
  5
40
100
AcDbEntity
  8
ALPHA
100
AcDbCircle
 10
119.536908
 20
81.221706
 30
0.0
 40
1.7
100
AcDbArc
 50
134.65105
 51
235.29148
  0
LINE
  5
41
100
AcDbEntity
  8
ALPHA
100
AcDbLine
 10
119.440116
 20
82.334474
 30
0.0
 11
118.34217
 21
82.431087
 31
0.0
  0
LINE
  5
42
100
AcDbEntity
  8
ALPHA
100
AcDbLine
 10
120.089369
 20
82.508092
 30
0.0
 11
119.440116
 21
82.334474
 31
0.0
  0
ARC
  5
43
100
AcDbEntity
  8
ALPHA
100
AcDbCircle
 10
119.536908
 20
81.221706
 30
0.0
 40
1.4
100
AcDbArc
 50
291.736766
 51
66.758055
  0
LINE
  5
44
100
AcDbEntity
  8
ALPHA
100
AcDbLine
 10
106.943387
 20
118.638457
 30
0.0
 11
108.372516
 21
119.020623
 31
0.0
  0
LINE
  5
45
100
AcDbEntity
  8
ALPHA
100
AcDbLine
 10
113.307021
 20
115.431795
 30
0.0
 11
109.274129
 21
118.820199
 31
0.0
  0
LINE
  5
46
100
AcDbEntity
  8
ALPHA
100
AcDbLine
 10
124.19175
 20
75.427533
 30
0.0
 11
124.481567
 21
75.505033
 31
0.0
  0
LINE
  5
47
100
AcDbEntity
  8
ALPHA
100
AcDbLine
 10
115.734571
 20
83.827897
 30
0.0
 11
121.530904
 21
85.377904
 31
0.0
  0
LINE
  5
48
100
AcDbEntity
  8
ALPHA
100
AcDbLine
 10
118.596926
 20
74.672351
 30
0.0
 11
117.877668
 21
77.362053
 31
0.0
  0
LINE
  5
49
100
AcDbEntity
  8
ALPHA
100
AcDbLine
 10
117.491246
 20
77.258719
 30
0.0
 11
117.413746
 21
77.548536
 31
0.0
  0
LINE
  5
4A
100
AcDbEntity
  8
ALPHA
100
AcDbLine
 10
123.545914
 20
77.842671
 30
0.0
 11
123.210079
 21
79.098543
 31
0.0
  0
LINE
  5
4B
100
AcDbEntity
  8
ALPHA
100
AcDbLine
 10
123.552756
 20
77.817085
 30
0.0
 11
123.545914
 21
77.842671
 31
0.0
  0
LINE
  5
4C
100
AcDbEntity
  8
ALPHA
100
AcDbLine
 10
124.181413
 20
75.466188
 30
0.0
 11
123.552756
 21
77.817085
 31
0.0
  0
LINE
  5
4D
100
AcDbEntity
  8
ALPHA
100
AcDbLine
 10
122.066428
 20
74.859196
 30
0.0
 11
124.19175
 21
75.427533
 31
0.0
  0
ARC
  5
4E
100
AcDbEntity
  8
ALPHA
100
AcDbCircle
 10
107.072554
 20
118.155429
 30
0.0
 40
0.5
100
AcDbArc
 50
104.971265
 51
194.971265
  0
ARC
  5
4F
100
AcDbEntity
  8
ALPHA
100
AcDbCircle
 10
112.663742
 20
114.666163
 30
0.0
 40
1.0
100
AcDbArc
 50
14.971265
 51
49.963285
  0
ARC
  5
50
100
AcDbEntity
  8
ALPHA
100
AcDbCircle
 10
108.63085
 20
118.054567
 30
0.0
 40
1.0
100
AcDbArc
 50
49.963285
 51
104.971265
  0
LINE
  5
51
100
AcDbEntity
  8
ALPHA
100
AcDbLine
 10
124.181413
 20
75.466188
 30
0.0
 11
124.19175
 21
75.427533
 31
0.0
  0
LINE
  5
52
100
AcDbEntity
  8
ALPHA
100
AcDbLine
 10
123.83573
 20
77.920172
 30
0.0
 11
124.481567
 21
75.505033
 31
0.0
  0
LINE
  5
53
100
AcDbEntity
  8
ALPHA
100
AcDbLine
 10
123.545914
 20
77.842671
 30
0.0
 11
123.83573
 21
77.920172
 31
0.0
  0
LINE
  5
54
100
AcDbEntity
  8
ALPHA
100
AcDbLine
 10
115.863738
 20
83.344869
 30
0.0
 11
115.734571
 21
83.827897
 31
0.0
  0
LINE
  5
55
100
AcDbEntity
  8
ALPHA
100
AcDbLine
 10
121.530904
 20
85.377904
 30
0.0
 11
121.660071
 21
84.894877
 31
0.0
  0
LINE
  5
56
100
AcDbEntity
  8
ALPHA
100
AcDbLine
 10
118.172554
 20
97.936626
 30
0.0
 11
120.549232
 21
89.048915
 31
0.0
  0
LINE
  5
57
100
AcDbEntity
  8
ALPHA
100
AcDbLine
 10
113.629798
 20
114.924497
 30
0.0
 11
118.172554
 21
97.936626
 31
0.0
  0
LINE
  5
58
100
AcDbEntity
  8
ALPHA
100
AcDbLine
 10
121.660071
 20
84.894877
 30
0.0
 11
123.210079
 21
79.098543
 31
0.0
  0
LINE
  5
59
100
AcDbEntity
  8
ALPHA
100
AcDbLine
 10
115.863738
 20
83.344869
 30
0.0
 11
117.413746
 21
77.548536
 31
0.0
  0
LINE
  5
5A
100
AcDbEntity
  8
ALPHA
100
AcDbLine
 10
117.877668
 20
77.362053
 30
0.0
 11
117.491246
 21
77.258719
 31
0.0
  0
LINE
  5
5B
100
AcDbEntity
  8
ALPHA
100
AcDbLine
 10
106.589526
 20
118.026262
 30
0.0
 11
114.752899
 21
87.498908
 31
0.0
  0
LINE
  5
5C
100
AcDbEntity
  8
ALPHA
100
AcDbLine
 10
121.530904
 20
85.377904
 30
0.0
 11
115.734571
 21
83.827897
 31
0.0
  0
LINE
  5
5D
100
AcDbEntity
  8
ALPHA
100
AcDbLine
 10
120.885067
 20
87.793043
 30
0.0
 11
120.549232
 21
89.048915
 31
0.0
  0
LINE
  5
5E
100
AcDbEntity
  8
ALPHA
100
AcDbLine
 10
121.530904
 20
85.377904
 30
0.0
 11
120.885067
 21
87.793043
 31
0.0
  0
LINE
  5
5F
100
AcDbEntity
  8
ALPHA
100
AcDbLine
 10
115.088734
 20
86.243036
 30
0.0
 11
114.752899
 21
87.498908
 31
0.0
  0
LINE
  5
60
100
AcDbEntity
  8
ALPHA
100
AcDbLine
 10
115.734571
 20
83.827897
 30
0.0
 11
115.088734
 21
86.243036
 31
0.0
  0
LINE
  5
61
100
AcDbEntity
  8
ALPHA
100
AcDbLine
 10
124.19175
 20
75.427533
 30
0.0
 11
122.066428
 21
74.859196
 31
0.0
  0
LINE
  5
62
100
AcDbEntity
  8
ALPHA
100
AcDbLine
 10
122.066428
 20
74.859196
 30
0.0
 11
118.596926
 21
74.672351
 31
0.0
  0
LINE
  5
63
100
AcDbEntity
  8
ALPHA
100
AcDbLine
 10
120.097919
 20
90.736626
 30
0.0
 11
120.581641
 21
90.736626
 31
0.0
  0
LINE
  5
64
100
AcDbEntity
  8
ALPHA
100
AcDbLine
 10
113.346293
 20
90.736626
 30
0.0
 11
113.887096
 21
90.736626
 31
0.0
  0
LINE
  5
65
100
AcDbEntity
  8
ALPHA
100
AcDbLine
 10
123.972554
 20
114.5706
 30
0.0
 11
120.472554
 21
114.5706
 31
0.0
  0
LINE
  5
66
100
AcDbEntity
  8
ALPHA
100
AcDbLine
 10
113.838624
 20
114.14358
 30
0.0
 11
116.172554
 21
114.14358
 31
0.0
  0
LINE
  5
67
100
AcDbEntity
  8
ALPHA
100
AcDbLine
 10
116.472554
 20
113.936626
 30
0.0
 11
118.172554
 21
113.936626
 31
0.0
  0
LINE
  5
68
100
AcDbEntity
  8
ALPHA
100
AcDbLine
 10
115.242068
 20
108.895331
 30
0.0
 11
116.172554
 21
108.895331
 31
0.0
  0
LINE
  5
69
100
AcDbEntity
  8
ALPHA
100
AcDbLine
 10
113.346293
 20
92.758985
 30
0.0
 11
113.346293
 21
90.736626
 31
0.0
  0
LWPOLYLINE
  5
6A
100
AcDbEntity
  8
ALPHA
100
AcDbPolyline
 90
       17
 70
     0
 43
0.0
 10
111.972554
 20
89.995003
 10
112.176735
 20
90.029598
 10
112.358196
 20
90.068733
 10
112.519198
 20
90.111296
 10
112.661653
 20
90.156448
 10
112.787199
 20
90.20354
 10
112.897233
 20
90.252067
 10
112.992951
 20
90.30162
 10
113.075361
 20
90.351848
 10
113.145332
 20
90.40244
 10
113.203613
 20
90.453089
 10
113.250684
 20
90.503244
 10
113.287245
 20
90.552439
 10
113.314115
 20
90.600237
 10
113.332402
 20
90.646828
 10
113.342934
 20
90.692413
 10
113.346293
 20
90.736626
  0
LWPOLYLINE
  5
7D
100
AcDbEntity
  8
ALPHA
100
AcDbPolyline
 90
        5
 70
     0
 43
0.0
 10
111.972554
 20
86.642447
 10
112.847618
 20
86.667657
 10
113.647219
 20
86.692636
 10
114.377462
 20
86.717483
 10
114.956101
 20
86.739024
  0
LINE
  5
84
100
AcDbEntity
  8
ALPHA
100
AcDbLine
 10
127.918053
 20
82.442227
 30
0.0
 11
128.091258
 21
82.342227
 31
0.0
  0
LINE
  5
85
100
AcDbEntity
  8
ALPHA
100
AcDbLine
 10
115.05302
 20
109.602285
 30
0.0
 11
116.172554
 21
109.602285
 31
0.0
  0
LWPOLYLINE
  5
86
100
AcDbEntity
  8
ALPHA
100
AcDbPolyline
 90
       15
 70
     0
 43
0.0
 10
116.472554
 20
113.936626
 10
116.472554
 20
113.751951
 10
116.472554
 20
113.568853
 10
116.472554
 20
113.388899
 10
116.472554
 20
113.213624
 10
116.472554
 20
113.044527
 10
116.472554
 20
112.883052
 10
116.472554
 20
112.73058
 10
116.472554
 20
112.588413
 10
116.472554
 20
112.457765
 10
116.472554
 20
112.339754
 10
116.472554
 20
112.235387
 10
116.472554
 20
112.145556
 10
116.472554
 20
112.071029
 10
116.472554
 20
112.013737
  0
LINE
  5
97
100
AcDbEntity
  8
ALPHA
100
AcDbLine
 10
126.413709
 20
82.736626
 30
0.0
 11
122.555753
 21
82.736626
 31
0.0
  0
LINE
  5
98
100
AcDbEntity
  8
ALPHA
100
AcDbLine
 10
127.864861
 20
82.350096
 30
0.0
 11
128.038066
 21
82.250096
 31
0.0
  0
LINE
  5
99
100
AcDbEntity
  8
ALPHA
100
AcDbLine
 10
116.472554
 20
116.436626
 30
0.0
 11
116.472554
 21
113.936626
 31
0.0
  0
LWPOLYLINE
  5
9A
100
AcDbEntity
  8
ALPHA
100
AcDbPolyline
 90
       11
 70
     0
 43
0.0
 10
116.472554
 20
113.936626
 10
116.425624
 20
113.936626
 10
116.379849
 20
113.936626
 10
116.336357
 20
113.936626
 10
116.296219
 20
113.936626
 10
116.260422
 20
113.936626
 10
116.229849
 20
113.936626
 10
116.205252
 20
113.936626
 10
116.187237
 20
113.936626
 10
116.176248
 20
113.936626
 10
116.172554
 20
113.936626
  0
LINE
  5
A7
100
AcDbEntity
  8
ALPHA
100
AcDbLine
 10
127.758478
 20
82.165836
 30
0.0
 11
127.931683
 21
82.065836
 31
0.0
  0
LINE
  5
A8
100
AcDbEntity
  8
ALPHA
100
AcDbLine
 10
125.472554
 20
79.896626
 30
0.0
 11
124.208654
 21
79.896626
 31
0.0
  0
LINE
  5
A9
100
AcDbEntity
  8
ALPHA
100
AcDbLine
 10
127.972554
 20
85.436626
 30
0.0
 11
126.413709
 21
82.736626
 31
0.0
  0
LWPOLYLINE
  5
AA
100
AcDbEntity
  8
ALPHA
100
AcDbPolyline
 90
       11
 70
     0
 43
0.0
 10
126.413709
 20
82.736626
 10
126.441381
 20
82.620234
 10
126.46744
 20
82.50659
 10
126.490488
 20
82.397807
 10
126.509385
 20
82.295189
 10
126.522965
 20
82.200917
 10
126.530498
 20
82.115677
 10
126.531411
 20
82.039984
 10
126.525317
 20
81.974125
 10
126.511884
 20
81.917618
 10
126.491059
 20
81.8706
  0
LINE
  5
B7
100
AcDbEntity
  8
ALPHA
100
AcDbLine
 10
127.598904
 20
81.889445
 30
0.0
 11
127.772109
 21
81.789445
 31
0.0
  0
LINE
  5
B8
100
AcDbEntity
  8
ALPHA
100
AcDbLine
 10
127.492521
 20
81.705184
 30
0.0
 11
127.665726
 21
81.605184
 31
0.0
  0
LINE
  5
B9
100
AcDbEntity
  8
ALPHA
100
AcDbLine
 10
127.439329
 20
81.613053
 30
0.0
 11
127.612535
 21
81.513053
 31
0.0
  0
LINE
  5
BA
100
AcDbEntity
  8
ALPHA
100
AcDbLine
 10
127.253159
 20
81.290597
 30
0.0
 11
127.426364
 21
81.190597
 31
0.0
  0
LINE
  5
BB
100
AcDbEntity
  8
ALPHA
100
AcDbLine
 10
127.199968
 20
81.198467
 30
0.0
 11
127.373173
 21
81.098467
 31
0.0
  0
LINE
  5
BC
100
AcDbEntity
  8
ALPHA
100
AcDbLine
 10
127.093585
 20
81.014206
 30
0.0
 11
127.26679
 21
80.914206
 31
0.0
  0
LINE
  5
BD
100
AcDbEntity
  8
ALPHA
100
AcDbLine
 10
127.727538
 20
84.012246
 30
0.0
 11
127.900743
 21
83.912246
 31
0.0
  0
LINE
  5
BE
100
AcDbEntity
  8
ALPHA
100
AcDbLine
 10
122.372554
 20
84.26838
 30
0.0
 11
121.827604
 21
84.26838
 31
0.0
  0
LINE
  5
BF
100
AcDbEntity
  8
ALPHA
100
AcDbLine
 10
121.76186
 20
87.209321
 30
0.0
 11
121.041162
 21
87.209321
 31
0.0
  0
LINE
  5
C0
100
AcDbEntity
  8
ALPHA
100
AcDbLine
 10
126.907415
 20
80.69175
 30
0.0
 11
127.08062
 21
80.59175
 31
0.0
  0
LINE
  5
C1
100
AcDbEntity
  8
ALPHA
100
AcDbLine
 10
126.827627
 20
80.553554
 30
0.0
 11
127.000832
 21
80.453554
 31
0.0
  0
LINE
  5
C2
100
AcDbEntity
  8
ALPHA
100
AcDbLine
 10
126.774436
 20
80.461424
 30
0.0
 11
126.947641
 21
80.361424
 31
0.0
  0
LINE
  5
C3
100
AcDbEntity
  8
ALPHA
100
AcDbLine
 10
126.721244
 20
80.369294
 30
0.0
 11
126.894449
 21
80.269294
 31
0.0
  0
LINE
  5
C4
100
AcDbEntity
  8
ALPHA
100
AcDbLine
 10
120.472554
 20
114.936626
 30
0.0
 11
118.172554
 21
114.936626
 31
0.0
  0
ARC
  5
C5
100
AcDbEntity
  8
ALPHA
100
AcDbCircle
 10
124.972554
 20
100.186626
 30
0.0
 40
1.5
100
AcDbArc
 50
104.477512
 51
180.0
  0
LINE
  5
C6
100
AcDbEntity
  8
ALPHA
100
AcDbLine
 10
111.972554
 20
89.936626
 30
0.0
 11
111.972554
 21
89.995003
 31
0.0
  0
LINE
  5
C7
100
AcDbEntity
  8
ALPHA
100
AcDbLine
 10
120.311848
 20
89.936626
 30
0.0
 11
120.849317
 21
89.936626
 31
0.0
  0
LINE
  5
C8
100
AcDbEntity
  8
ALPHA
100
AcDbLine
 10
111.972554
 20
89.936626
 30
0.0
 11
114.101025
 21
89.936626
 31
0.0
  0
LINE
  5
C9
100
AcDbEntity
  8
ALPHA
100
AcDbLine
 10
123.972554
 20
116.436626
 30
0.0
 11
123.972554
 21
114.5706
 31
0.0
  0
LINE
  5
CA
100
AcDbEntity
  8
ALPHA
100
AcDbLine
 10
123.972554
 20
116.436626
 30
0.0
 11
120.472554
 21
116.436626
 31
0.0
  0
LINE
  5
CB
100
AcDbEntity
  8
ALPHA
100
AcDbLine
 10
123.972554
 20
108.436626
 30
0.0
 11
123.972554
 21
108.136626
 31
0.0
  0
LINE
  5
CC
100
AcDbEntity
  8
ALPHA
100
AcDbLine
 10
123.972554
 20
108.886626
 30
0.0
 11
123.972554
 21
108.436626
 31
0.0
  0
LINE
  5
CD
100
AcDbEntity
  8
ALPHA
100
AcDbLine
 10
123.972554
 20
114.5706
 30
0.0
 11
123.972554
 21
110.436626
 31
0.0
  0
LINE
  5
CE
100
AcDbEntity
  8
ALPHA
100
AcDbLine
 10
124.972554
 20
108.136626
 30
0.0
 11
124.972554
 21
102.123118
 31
0.0
  0
LINE
  5
CF
100
AcDbEntity
  8
ALPHA
100
AcDbLine
 10
127.972554
 20
85.436626
 30
0.0
 11
127.972554
 21
90.243222
 31
0.0
  0
LINE
  5
D0
100
AcDbEntity
  8
ALPHA
100
AcDbLine
 10
111.972554
 20
97.896152
 30
0.0
 11
111.972554
 21
89.995003
 31
0.0
  0
LWPOLYLINE
  5
D1
100
AcDbEntity
  8
ALPHA
100
AcDbPolyline
 90
        5
 70
     0
 43
0.0
 10
111.972554
 20
87.59123
 10
112.847315
 20
87.54719
 10
113.646859
 20
87.505389
 10
114.377158
 20
87.465512
 10
114.749756
 20
87.444132
  0
LINE
  5
D8
100
AcDbEntity
  8
ALPHA
100
AcDbLine
 10
122.555753
 20
84.836626
 30
0.0
 11
122.555753
 21
82.736626
 31
0.0
  0
LINE
  5
D9
100
AcDbEntity
  8
ALPHA
100
AcDbLine
 10
126.491059
 20
81.8706
 30
0.0
 11
126.413708
 21
81.736626
 31
0.0
  0
LINE
  5
DA
100
AcDbEntity
  8
ALPHA
100
AcDbLine
 10
126.413709
 20
81.736626
 30
0.0
 11
122.555753
 21
81.736626
 31
0.0
  0
LINE
  5
DB
100
AcDbEntity
  8
ALPHA
100
AcDbLine
 10
122.555753
 20
82.736626
 30
0.0
 11
122.555753
 21
81.736626
 31
0.0
  0
LINE
  5
DC
100
AcDbEntity
  8
ALPHA
100
AcDbLine
 10
127.972554
 20
85.436626
 30
0.0
 11
127.972554
 21
84.436626
 31
0.0
  0
LINE
  5
DD
100
AcDbEntity
  8
ALPHA
100
AcDbLine
 10
127.972554
 20
84.436626
 30
0.0
 11
126.491059
 21
81.8706
 31
0.0
  0
LINE
  5
DE
100
AcDbEntity
  8
ALPHA
100
AcDbLine
 10
127.580986
 20
91.036828
 30
0.0
 11
123.668338
 21
94.036525
 31
0.0
  0
ARC
  5
DF
100
AcDbEntity
  8
ALPHA
100
AcDbCircle
 10
126.972554
 20
90.243222
 30
0.0
 40
1.0
100
AcDbArc
 50
0.0
 51
52.52382
  0
ARC
  5
E0
100
AcDbEntity
  8
ALPHA
100
AcDbCircle
 10
124.472554
 20
102.123118
 30
0.0
 40
0.5
100
AcDbArc
 50
284.477512
 51
0.0
  0
ARC
  5
E1
100
AcDbEntity
  8
ALPHA
100
AcDbCircle
 10
123.972554
 20
94.433328
 30
0.0
 40
0.5
100
AcDbArc
 50
180.0
 51
232.52382
  0
LINE
  5
E2
100
AcDbEntity
  8
ALPHA
100
AcDbLine
 10
127.687977
 20
83.543724
 30
0.0
 11
126.836914
 21
82.069639
 31
0.0
  0
LINE
  5
E3
100
AcDbEntity
  8
ALPHA
100
AcDbLine
 10
127.900743
 20
83.912246
 30
0.0
 11
127.687977
 21
83.543724
 31
0.0
  0
LINE
  5
E4
100
AcDbEntity
  8
ALPHA
100
AcDbLine
 10
128.086914
 20
84.234702
 30
0.0
 11
127.900743
 21
83.912246
 31
0.0
  0
LINE
  5
E5
100
AcDbEntity
  8
ALPHA
100
AcDbLine
 10
127.913709
 20
84.334702
 30
0.0
 11
128.086914
 21
84.234702
 31
0.0
  0
LINE
  5
E6
100
AcDbEntity
  8
ALPHA
100
AcDbLine
 10
127.514772
 20
83.643724
 30
0.0
 11
127.687977
 21
83.543724
 31
0.0
  0
LINE
  5
E7
100
AcDbEntity
  8
ALPHA
100
AcDbLine
 10
126.663708
 20
82.169639
 30
0.0
 11
126.836914
 21
82.069639
 31
0.0
  0
LINE
  5
E8
100
AcDbEntity
  8
ALPHA
100
AcDbLine
 10
120.472554
 20
116.436626
 30
0.0
 11
118.172554
 21
116.436626
 31
0.0
  0
LINE
  5
E9
100
AcDbEntity
  8
ALPHA
100
AcDbLine
 10
113.76026
 20
114.436626
 30
0.0
 11
116.172554
 21
114.436626
 31
0.0
  0
LINE
  5
EA
100
AcDbEntity
  8
ALPHA
100
AcDbLine
 10
116.40804
 20
112.013737
 30
0.0
 11
118.172554
 21
112.013737
 31
0.0
  0
LINE
  5
EB
100
AcDbEntity
  8
ALPHA
100
AcDbLine
 10
116.172554
 20
111.641332
 30
0.0
 11
116.172554
 21
108.895331
 31
0.0
  0
LINE
  5
EC
100
AcDbEntity
  8
ALPHA
100
AcDbLine
 10
116.172554
 20
111.70966
 30
0.0
 11
116.172554
 21
111.641332
 31
0.0
  0
LWPOLYLINE
  5
ED
100
AcDbEntity
  8
ALPHA
100
AcDbPolyline
 90
       10
 70
     0
 43
0.0
 10
116.172554
 20
111.70966
 10
116.17605
 20
111.756855
 10
116.186466
 20
111.803045
 10
116.203468
 20
111.846927
 10
116.226664
 20
111.887644
 10
116.25523
 20
111.923961
 10
116.288608
 20
111.955366
 10
116.325716
 20
111.981014
 10
116.365918
 20
112.000618
 10
116.40804
 20
112.013737
  0
LINE
  5
F9
100
AcDbEntity
  8
ALPHA
100
AcDbLine
 10
116.172554
 20
116.436626
 30
0.0
 11
116.172554
 21
113.936626
 31
0.0
  0
LINE
  5
FA
100
AcDbEntity
  8
ALPHA
100
AcDbLine
 10
116.472554
 20
116.436626
 30
0.0
 11
116.172554
 21
116.436626
 31
0.0
  0
LINE
  5
FB
100
AcDbEntity
  8
ALPHA
100
AcDbLine
 10
126.894449
 20
80.269294
 30
0.0
 11
126.867854
 21
80.223228
 31
0.0
  0
LINE
  5
FC
100
AcDbEntity
  8
ALPHA
100
AcDbLine
 10
126.947641
 20
80.361424
 30
0.0
 11
126.894449
 21
80.269294
 31
0.0
  0
LINE
  5
FD
100
AcDbEntity
  8
ALPHA
100
AcDbLine
 10
127.000832
 20
80.453554
 30
0.0
 11
126.947641
 21
80.361424
 31
0.0
  0
LINE
  5
FE
100
AcDbEntity
  8
ALPHA
100
AcDbLine
 10
127.08062
 20
80.59175
 30
0.0
 11
127.000832
 21
80.453554
 31
0.0
  0
LINE
  5
FF
100
AcDbEntity
  8
ALPHA
100
AcDbLine
 10
127.160407
 20
80.729945
 30
0.0
 11
127.08062
 21
80.59175
 31
0.0
  0
LINE
  5
100
100
AcDbEntity
  8
ALPHA
100
AcDbLine
 10
127.26679
 20
80.914206
 30
0.0
 11
127.160407
 21
80.729945
 31
0.0
  0
LINE
  5
101
100
AcDbEntity
  8
ALPHA
100
AcDbLine
 10
127.373173
 20
81.098467
 30
0.0
 11
127.26679
 21
80.914206
 31
0.0
  0
LINE
  5
102
100
AcDbEntity
  8
ALPHA
100
AcDbLine
 10
127.426364
 20
81.190597
 30
0.0
 11
127.373173
 21
81.098467
 31
0.0
  0
LINE
  5
103
100
AcDbEntity
  8
ALPHA
100
AcDbLine
 10
127.45296
 20
81.236662
 30
0.0
 11
127.426364
 21
81.190597
 31
0.0
  0
LINE
  5
104
100
AcDbEntity
  8
ALPHA
100
AcDbLine
 10
127.559343
 20
81.420923
 30
0.0
 11
127.45296
 21
81.236662
 31
0.0
  0
LINE
  5
105
100
AcDbEntity
  8
ALPHA
100
AcDbLine
 10
127.612535
 20
81.513053
 30
0.0
 11
127.559343
 21
81.420923
 31
0.0
  0
LINE
  5
106
100
AcDbEntity
  8
ALPHA
100
AcDbLine
 10
127.665726
 20
81.605184
 30
0.0
 11
127.612535
 21
81.513053
 31
0.0
  0
LINE
  5
107
100
AcDbEntity
  8
ALPHA
100
AcDbLine
 10
127.772109
 20
81.789445
 30
0.0
 11
127.665726
 21
81.605184
 31
0.0
  0
LINE
  5
108
100
AcDbEntity
  8
ALPHA
100
AcDbLine
 10
127.825301
 20
81.881575
 30
0.0
 11
127.772109
 21
81.789445
 31
0.0
  0
LINE
  5
109
100
AcDbEntity
  8
ALPHA
100
AcDbLine
 10
127.931683
 20
82.065836
 30
0.0
 11
127.825301
 21
81.881575
 31
0.0
  0
LINE
  5
10A
100
AcDbEntity
  8
ALPHA
100
AcDbLine
 10
128.038066
 20
82.250096
 30
0.0
 11
127.931683
 21
82.065836
 31
0.0
  0
LINE
  5
10B
100
AcDbEntity
  8
ALPHA
100
AcDbLine
 10
128.091258
 20
82.342227
 30
0.0
 11
128.038066
 21
82.250096
 31
0.0
  0
LINE
  5
10C
100
AcDbEntity
  8
ALPHA
100
AcDbLine
 10
128.117854
 20
82.388292
 30
0.0
 11
128.091258
 21
82.342227
 31
0.0
  0
LINE
  5
10D
100
AcDbEntity
  8
ALPHA
100
AcDbLine
 10
127.944649
 20
82.488292
 30
0.0
 11
128.117854
 21
82.388292
 31
0.0
  0
LINE
  5
10E
100
AcDbEntity
  8
ALPHA
100
AcDbLine
 10
127.652095
 20
81.981575
 30
0.0
 11
127.825301
 21
81.881575
 31
0.0
  0
LINE
  5
10F
100
AcDbEntity
  8
ALPHA
100
AcDbLine
 10
124.094891
 20
80.236626
 30
0.0
 11
126.644649
 21
80.236626
 31
0.0
  0
LINE
  5
110
100
AcDbEntity
  8
ALPHA
100
AcDbLine
 10
127.972554
 20
84.036626
 30
0.0
 11
127.972554
 21
82.536626
 31
0.0
  0
LINE
  5
111
100
AcDbEntity
  8
ALPHA
100
AcDbLine
 10
127.972554
 20
84.436626
 30
0.0
 11
127.972554
 21
84.300727
 31
0.0
  0
LINE
  5
112
100
AcDbEntity
  8
ALPHA
100
AcDbLine
 10
127.386138
 20
81.520923
 30
0.0
 11
127.559343
 21
81.420923
 31
0.0
  0
LINE
  5
113
100
AcDbEntity
  8
ALPHA
100
AcDbLine
 10
127.279755
 20
81.336662
 30
0.0
 11
127.45296
 21
81.236662
 31
0.0
  0
LINE
  5
114
100
AcDbEntity
  8
ALPHA
100
AcDbLine
 10
123.592998
 20
81.736626
 30
0.0
 11
124.094891
 21
80.236626
 31
0.0
  0
LINE
  5
115
100
AcDbEntity
  8
ALPHA
100
AcDbLine
 10
127.972554
 20
82.536626
 30
0.0
 11
126.644649
 21
80.236626
 31
0.0
  0
LINE
  5
116
100
AcDbEntity
  8
ALPHA
100
AcDbLine
 10
115.010225
 20
86.536626
 30
0.0
 11
111.972554
 21
86.536626
 31
0.0
  0
LINE
  5
117
100
AcDbEntity
  8
ALPHA
100
AcDbLine
 10
126.987202
 20
80.829945
 30
0.0
 11
127.160407
 21
80.729945
 31
0.0
  0
LINE
  5
118
100
AcDbEntity
  8
ALPHA
100
AcDbLine
 10
126.694649
 20
80.323228
 30
0.0
 11
126.867854
 21
80.223228
 31
0.0
  0
LINE
  5
119
100
AcDbEntity
  8
ALPHA
100
AcDbLine
 10
121.672554
 20
84.954992
 30
0.0
 11
121.632912
 21
84.996792
 31
0.0
  0
LINE
  5
11A
100
AcDbEntity
  8
ALPHA
100
AcDbLine
 10
121.801696
 20
84.569027
 30
0.0
 11
121.672554
 21
84.954992
 31
0.0
  0
LINE
  5
11B
100
AcDbEntity
  8
ALPHA
100
AcDbLine
 10
121.780044
 20
84.446231
 30
0.0
 11
121.801696
 21
84.569027
 31
0.0
  0
LINE
  5
11C
100
AcDbEntity
  8
ALPHA
100
AcDbLine
 10
122.79838
 20
80.638112
 30
0.0
 11
124.033421
 21
80.420341
 31
0.0
  0
LINE
  5
11D
100
AcDbEntity
  8
ALPHA
100
AcDbLine
 10
125.472554
 20
77.686626
 30
0.0
 11
123.898183
 21
77.686626
 31
0.0
  0
LINE
  5
11E
100
AcDbEntity
  8
ALPHA
100
AcDbLine
 10
125.472554
 20
77.962539
 30
0.0
 11
125.472554
 21
79.896626
 31
0.0
  0
LINE
  5
11F
100
AcDbEntity
  8
ALPHA
100
AcDbLine
 10
125.472554
 20
77.95803
 30
0.0
 11
125.472554
 21
77.962539
 31
0.0
  0
LINE
  5
120
100
AcDbEntity
  8
ALPHA
100
AcDbLine
 10
125.472554
 20
77.686626
 30
0.0
 11
125.472554
 21
77.95803
 31
0.0
  0
LINE
  5
121
100
AcDbEntity
  8
ALPHA
100
AcDbLine
 10
116.472554
 20
116.436626
 30
0.0
 11
118.172554
 21
116.436626
 31
0.0
  0
LINE
  5
122
100
AcDbEntity
  8
ALPHA
100
AcDbLine
 10
111.972554
 20
87.57897
 30
0.0
 11
111.972554
 21
86.642476
 31
0.0
  0
LINE
  5
123
100
AcDbEntity
  8
ALPHA
100
AcDbLine
 10
111.972554
 20
87.591216
 30
0.0
 11
111.972554
 21
87.57897
 31
0.0
  0
LINE
  5
124
100
AcDbEntity
  8
ALPHA
100
AcDbLine
 10
123.472554
 20
100.186626
 30
0.0
 11
123.472554
 21
94.433328
 31
0.0
  0
LINE
  5
125
100
AcDbEntity
  8
ALPHA
100
AcDbLine
 10
123.972554
 20
108.136626
 30
0.0
 11
124.972554
 21
108.136626
 31
0.0
  0
LINE
  5
126
100
AcDbEntity
  8
ALPHA
100
AcDbLine
 10
122.972554
 20
108.886626
 30
0.0
 11
123.972554
 21
108.886626
 31
0.0
  0
LINE
  5
127
100
AcDbEntity
  8
ALPHA
100
AcDbLine
 10
122.972554
 20
108.886626
 30
0.0
 11
120.472554
 21
110.886626
 31
0.0
  0
LINE
  5
128
100
AcDbEntity
  8
ALPHA
100
AcDbLine
 10
120.472554
 20
114.936626
 30
0.0
 11
120.472554
 21
110.886626
 31
0.0
  0
LINE
  5
129
100
AcDbEntity
  8
ALPHA
100
AcDbLine
 10
118.172554
 20
97.936626
 30
0.0
 11
118.172554
 21
114.936626
 31
0.0
  0
LINE
  5
12A
100
AcDbEntity
  8
ALPHA
100
AcDbLine
 10
122.555753
 20
84.836626
 30
0.0
 11
118.172554
 21
97.936626
 31
0.0
  0
LINE
  5
12B
100
AcDbEntity
  8
ALPHA
100
AcDbLine
 10
125.472554
 20
80.236626
 30
0.0
 11
125.472554
 21
79.896626
 31
0.0
  0
LINE
  5
12C
100
AcDbEntity
  8
ALPHA
100
AcDbLine
 10
124.094891
 20
80.236626
 30
0.0
 11
124.208654
 21
79.896626
 31
0.0
  0
LINE
  5
12D
100
AcDbEntity
  8
ALPHA
100
AcDbLine
 10
118.172554
 20
116.436626
 30
0.0
 11
120.472554
 21
116.436626
 31
0.0
  0
LINE
  5
12E
100
AcDbEntity
  8
ALPHA
100
AcDbLine
 10
118.172554
 20
116.436626
 30
0.0
 11
118.172554
 21
114.936626
 31
0.0
  0
LINE
  5
12F
100
AcDbEntity
  8
ALPHA
100
AcDbLine
 10
120.472554
 20
116.436626
 30
0.0
 11
120.472554
 21
114.936626
 31
0.0
  0
LINE
  5
130
100
AcDbEntity
  8
ALPHA
100
AcDbLine
 10
111.972554
 20
86.536626
 30
0.0
 11
111.972554
 21
86.642476
 31
0.0
  0
LINE
  5
131
100
AcDbEntity
  8
ALPHA
100
AcDbLine
 10
111.972554
 20
87.591216
 30
0.0
 11
111.972554
 21
89.936626
 31
0.0
  0
LINE
  5
132
100
AcDbEntity
  8
ALPHA
100
AcDbLine
 10
113.76026
 20
114.436626
 30
0.0
 11
116.172554
 21
114.436626
 31
0.0
  0
LINE
  5
133
100
AcDbEntity
  8
ALPHA
100
AcDbLine
 10
116.172554
 20
113.936626
 30
0.0
 11
116.172554
 21
111.718634
 31
0.0
  0
LINE
  5
134
100
AcDbEntity
  8
ALPHA
100
AcDbLine
 10
116.172554
 20
113.936626
 30
0.0
 11
116.172554
 21
111.70966
 31
0.0
  0
LWPOLYLINE
  5
135
100
AcDbEntity
  8
ALPHA
100
AcDbPolyline
 90
        4
 70
     0
 43
0.0
 10
147.706529
 20
85.136626
 10
147.706529
 20
85.229292
 10
147.706529
 20
85.501565
 10
147.706529
 20
85.936626
  0
LINE
  5
13B
100
AcDbEntity
  8
ALPHA
100
AcDbLine
 10
147.706529
 20
85.936626
 30
0.0
 11
140.522554
 21
85.936626
 31
0.0
  0
LINE
  5
13C
100
AcDbEntity
  8
ALPHA
100
AcDbLine
 10
136.522554
 20
113.936626
 30
0.0
 11
136.372554
 21
113.936626
 31
0.0
  0
LINE
  5
13D
100
AcDbEntity
  8
ALPHA
100
AcDbLine
 10
148.023089
 20
85.936626
 30
0.0
 11
147.706529
 21
85.936626
 31
0.0
  0
LWPOLYLINE
  5
13E
100
AcDbEntity
  8
ALPHA
100
AcDbPolyline
 90
        4
 70
     0
 43
0.0
 10
148.572554
 20
85.498813
 10
148.396385
 20
85.634954
 10
148.213365
 20
85.780494
 10
148.023089
 20
85.936626
  0
ARC
  5
144
100
AcDbEntity
  8
ALPHA
100
AcDbCircle
 10
126.472554
 20
91.930188
 30
0.0
 40
0.5
100
AcDbArc
 50
52.0
 51
146.517247
  0
LINE
  5
145
100
AcDbEntity
  8
ALPHA
100
AcDbLine
 10
128.085251
 20
87.25755
 30
0.0
 11
127.972554
 21
87.303082
 31
0.0
  0
ARC
  5
146
100
AcDbEntity
  8
ALPHA
100
AcDbCircle
 10
128.272554
 20
87.721141
 30
0.0
 40
0.5
100
AcDbArc
 50
248.0
 51
0.0
  0
LINE
  5
147
100
AcDbEntity
  8
ALPHA
100
AcDbLine
 10
127.972554
 20
86.136626
 30
0.0
 11
128.190167
 21
86.136626
 31
0.0
  0
LINE
  5
148
100
AcDbEntity
  8
ALPHA
100
AcDbLine
 10
140.822554
 20
85.136626
 30
0.0
 11
140.522554
 21
85.136626
 31
0.0
  0
LINE
  5
149
100
AcDbEntity
  8
ALPHA
100
AcDbLine
 10
140.522554
 20
81.936626
 30
0.0
 11
140.822554
 21
81.936626
 31
0.0
  0
LINE
  5
14A
100
AcDbEntity
  8
ALPHA
100
AcDbLine
 10
127.972554
 20
86.224547
 30
0.0
 11
128.772554
 21
85.901326
 31
0.0
  0
LINE
  5
14B
100
AcDbEntity
  8
ALPHA
100
AcDbLine
 10
124.972554
 20
93.736626
 30
0.0
 11
124.972554
 21
93.036626
 31
0.0
  0
LINE
  5
14C
100
AcDbEntity
  8
ALPHA
100
AcDbLine
 10
140.822554
 20
81.936626
 30
0.0
 11
144.451338
 21
81.936626
 31
0.0
  0
LINE
  5
14D
100
AcDbEntity
  8
ALPHA
100
AcDbLine
 10
140.822554
 20
85.136626
 30
0.0
 11
140.822554
 21
81.936626
 31
0.0
  0
LINE
  5
14E
100
AcDbEntity
  8
ALPHA
100
AcDbLine
 10
147.706529
 20
85.136626
 30
0.0
 11
140.822554
 21
85.136626
 31
0.0
  0
LINE
  5
14F
100
AcDbEntity
  8
ALPHA
100
AcDbLine
 10
148.572554
 20
84.636626
 30
0.0
 11
147.706529
 21
85.136626
 31
0.0
  0
LINE
  5
150
100
AcDbEntity
  8
ALPHA
100
AcDbLine
 10
148.572554
 20
83.436626
 30
0.0
 11
148.572554
 21
84.636626
 31
0.0
  0
LINE
  5
151
100
AcDbEntity
  8
ALPHA
100
AcDbLine
 10
144.451338
 20
81.936626
 30
0.0
 11
148.572554
 21
83.436626
 31
0.0
  0
LINE
  5
152
100
AcDbEntity
  8
ALPHA
100
AcDbLine
 10
148.572554
 20
84.636626
 30
0.0
 11
148.572554
 21
85.498813
 31
0.0
  0
LINE
  5
153
100
AcDbEntity
  8
ALPHA
100
AcDbLine
 10
148.572554
 20
91.536626
 30
0.0
 11
148.572554
 21
112.433466
 31
0.0
  0
LINE
  5
154
100
AcDbEntity
  8
ALPHA
100
AcDbLine
 10
144.451338
 20
113.933466
 30
0.0
 11
148.572554
 21
112.433466
 31
0.0
  0
LINE
  5
155
100
AcDbEntity
  8
ALPHA
100
AcDbLine
 10
144.451338
 20
113.933466
 30
0.0
 11
136.522554
 21
113.933466
 31
0.0
  0
LINE
  5
156
100
AcDbEntity
  8
ALPHA
100
AcDbLine
 10
136.522554
 20
113.933466
 30
0.0
 11
127.372554
 21
110.236626
 31
0.0
  0
LINE
  5
157
100
AcDbEntity
  8
ALPHA
100
AcDbLine
 10
127.372554
 20
110.236626
 30
0.0
 11
124.972554
 21
110.236626
 31
0.0
  0
LINE
  5
158
100
AcDbEntity
  8
ALPHA
100
AcDbLine
 10
124.972554
 20
102.123118
 30
0.0
 11
124.972554
 21
101.736626
 31
0.0
  0
LINE
  5
159
100
AcDbEntity
  8
ALPHA
100
AcDbLine
 10
124.972554
 20
101.736626
 30
0.0
 11
125.472554
 21
101.736626
 31
0.0
  0
LINE
  5
15A
100
AcDbEntity
  8
ALPHA
100
AcDbLine
 10
125.472554
 20
94.136626
 30
0.0
 11
125.472554
 21
101.736626
 31
0.0
  0
LINE
  5
15B
100
AcDbEntity
  8
ALPHA
100
AcDbLine
 10
124.972554
 20
94.136626
 30
0.0
 11
125.472554
 21
94.136626
 31
0.0
  0
LINE
  5
15C
100
AcDbEntity
  8
ALPHA
100
AcDbLine
 10
124.972554
 20
94.136626
 30
0.0
 11
124.972554
 21
93.736626
 31
0.0
  0
LINE
  5
15D
100
AcDbEntity
  8
ALPHA
100
AcDbLine
 10
124.972554
 20
93.736626
 30
0.0
 11
128.388216
 21
91.068019
 31
0.0
  0
ARC
  5
15E
100
AcDbEntity
  8
ALPHA
100
AcDbCircle
 10
127.772554
 20
90.280008
 30
0.0
 40
1.0
100
AcDbArc
 50
0.0
 51
52.0
  0
LINE
  5
15F
100
AcDbEntity
  8
ALPHA
100
AcDbLine
 10
128.772554
 20
90.280008
 30
0.0
 11
128.772554
 21
85.901326
 31
0.0
  0
LINE
  5
160
100
AcDbEntity
  8
ALPHA
100
AcDbLine
 10
128.772554
 20
85.901326
 30
0.0
 11
138.593353
 21
81.933466
 31
0.0
  0
LINE
  5
161
100
AcDbEntity
  8
ALPHA
100
AcDbLine
 10
138.593353
 20
81.933466
 30
0.0
 11
140.522554
 21
81.933466
 31
0.0
  0
LINE
  5
162
100
AcDbEntity
  8
ALPHA
100
AcDbLine
 10
140.522554
 20
91.136626
 30
0.0
 11
140.522554
 21
81.933466
 31
0.0
  0
LINE
  5
163
100
AcDbEntity
  8
ALPHA
100
AcDbLine
 10
147.079734
 20
91.136626
 30
0.0
 11
140.522554
 21
91.136626
 31
0.0
  0
LINE
  5
164
100
AcDbEntity
  8
ALPHA
100
AcDbLine
 10
136.372554
 20
113.933466
 30
0.0
 11
136.372554
 21
113.872862
 31
0.0
  0
LINE
  5
165
100
AcDbEntity
  8
ALPHA
100
AcDbLine
 10
127.372554
 20
110.236626
 30
0.0
 11
127.372554
 21
113.433466
 31
0.0
  0
LINE
  5
166
100
AcDbEntity
  8
ALPHA
100
AcDbLine
 10
127.872554
 20
113.933466
 30
0.0
 11
136.372554
 21
113.933466
 31
0.0
  0
LINE
  5
167
100
AcDbEntity
  8
ALPHA
100
AcDbLine
 10
127.872554
 20
113.933466
 30
0.0
 11
127.372554
 21
113.433466
 31
0.0
  0
LINE
  5
168
100
AcDbEntity
  8
ALPHA
100
AcDbLine
 10
148.572554
 20
91.536626
 30
0.0
 11
147.079734
 21
91.136626
 31
0.0
  0
LINE
  5
169
100
AcDbEntity
  8
ALPHA
100
AcDbLine
 10
123.972554
 20
114.5706
 30
0.0
 11
124.972554
 21
114.5706
 31
0.0
  0
LINE
  5
16A
100
AcDbEntity
  8
ALPHA
100
AcDbLine
 10
124.386768
 20
93.936412
 30
0.0
 11
123.472554
 21
94.850626
 31
0.0
  0
LINE
  5
16B
100
AcDbEntity
  8
ALPHA
100
AcDbLine
 10
124.972554
 20
116.436626
 30
0.0
 11
123.972554
 21
116.436626
 31
0.0
  0
ARC
  5
16C
100
AcDbEntity
  8
ALPHA
100
AcDbCircle
 10
122.972554
 20
92.522199
 30
0.0
 40
2.0
100
AcDbArc
 50
17.256926
 51
45.0
  0
LINE
  5
16D
100
AcDbEntity
  8
ALPHA
100
AcDbLine
 10
122.555753
 20
83.961626
 30
0.0
 11
122.372554
 21
83.961626
 31
0.0
  0
LINE
  5
16E
100
AcDbEntity
  8
ALPHA
100
AcDbLine
 10
122.555753
 20
83.961626
 30
0.0
 11
122.372554
 21
83.961626
 31
0.0
  0
LINE
  5
16F
100
AcDbEntity
  8
ALPHA
100
AcDbLine
 10
122.372554
 20
84.136626
 30
0.0
 11
122.372554
 21
85.384149
 31
0.0
  0
LINE
  5
170
100
AcDbEntity
  8
ALPHA
100
AcDbLine
 10
122.372554
 20
84.132443
 30
0.0
 11
122.372554
 21
84.136626
 31
0.0
  0
LINE
  5
171
100
AcDbEntity
  8
ALPHA
100
AcDbLine
 10
122.372554
 20
83.961626
 30
0.0
 11
122.372554
 21
84.132443
 31
0.0
  0
LINE
  5
172
100
AcDbEntity
  8
ALPHA
100
AcDbLine
 10
124.972554
 20
108.436626
 30
0.0
 11
123.972554
 21
108.436626
 31
0.0
  0
LINE
  5
173
100
AcDbEntity
  8
ALPHA
100
AcDbLine
 10
123.972554
 20
110.436626
 30
0.0
 11
124.972554
 21
110.436626
 31
0.0
  0
LINE
  5
174
100
AcDbEntity
  8
ALPHA
100
AcDbLine
 10
123.972554
 20
108.886626
 30
0.0
 11
123.972554
 21
110.436626
 31
0.0
  0
LINE
  5
175
100
AcDbEntity
  8
ALPHA
100
AcDbLine
 10
123.972554
 20
108.436626
 30
0.0
 11
123.972554
 21
108.886626
 31
0.0
  0
LINE
  5
176
100
AcDbEntity
  8
ALPHA
100
AcDbLine
 10
124.972554
 20
116.436626
 30
0.0
 11
124.972554
 21
114.5706
 31
0.0
  0
LINE
  5
177
100
AcDbEntity
  8
ALPHA
100
AcDbLine
 10
124.972554
 20
114.5706
 30
0.0
 11
124.972554
 21
110.436626
 31
0.0
  0
LINE
  5
178
100
AcDbEntity
  8
ALPHA
100
AcDbLine
 10
124.972554
 20
108.436626
 30
0.0
 11
124.972554
 21
110.436626
 31
0.0
  0
LINE
  5
179
100
AcDbEntity
  8
ALPHA
100
AcDbLine
 10
124.972554
 20
108.136626
 30
0.0
 11
124.972554
 21
108.436626
 31
0.0
  0
LINE
  5
17A
100
AcDbEntity
  8
ALPHA
100
AcDbLine
 10
147.352939
 20
87.636626
 30
0.0
 11
147.352939
 21
88.636626
 31
0.0
  0
LINE
  5
17B
100
AcDbEntity
  8
ALPHA
100
AcDbLine
 10
147.352939
 20
88.636626
 30
0.0
 11
147.872554
 21
88.336626
 31
0.0
  0
LINE
  5
17C
100
AcDbEntity
  8
ALPHA
100
AcDbLine
 10
147.352939
 20
87.636626
 30
0.0
 11
147.872554
 21
87.936626
 31
0.0
  0
LINE
  5
17D
100
AcDbEntity
  8
ALPHA
100
AcDbLine
 10
147.872554
 20
87.936626
 30
0.0
 11
147.872554
 21
88.336626
 31
0.0
  0
LINE
  5
17E
100
AcDbEntity
  8
ALPHA
100
AcDbLine
 10
140.522554
 20
87.636626
 30
0.0
 11
147.352939
 21
87.636626
 31
0.0
  0
LINE
  5
17F
100
AcDbEntity
  8
ALPHA
100
AcDbLine
 10
147.352939
 20
88.636626
 30
0.0
 11
140.522554
 21
88.636626
 31
0.0
  0
LWPOLYLINE
  5
180
100
AcDbEntity
  8
ALPHA
100
AcDbPolyline
 90
        9
 70
     0
 43
0.0
 10
129.360499
 20
80.133724
 10
129.429343
 20
80.524161
 10
129.493312
 20
80.886944
 10
129.550676
 20
81.212272
 10
129.599885
 20
81.491352
 10
129.63961
 20
81.716645
 10
129.668778
 20
81.882062
 10
129.6866
 20
81.983135
 10
129.692594
 20
82.017132
  0
LINE
  5
18B
100
AcDbEntity
  8
ALPHA
100
AcDbLine
 10
108.049419
 20
85.225226
 30
0.0
 11
108.057009
 21
85.268267
 31
0.0
  0
LWPOLYLINE
  5
18C
100
AcDbEntity
  8
ALPHA
100
AcDbPolyline
 90
        3
 70
     0
 43
0.0
 10
107.996232
 20
84.923584
 10
108.026983
 20
85.097985
 10
108.049419
 20
85.225226
  0
LINE
  5
191
100
AcDbEntity
  8
ALPHA
100
AcDbLine
 10
107.990681
 20
84.892104
 30
0.0
 11
107.996232
 21
84.923584
 31
0.0
  0
LWPOLYLINE
  5
192
100
AcDbEntity
  8
ALPHA
100
AcDbPolyline
 90
       10
 70
     0
 43
0.0
 10
107.428744
 20
81.705199
 10
107.477326
 20
81.980722
 10
107.536064
 20
82.313844
 10
107.602392
 20
82.690007
 10
107.67341
 20
83.092771
 10
107.746015
 20
83.504533
 10
107.817033
 20
83.907296
 10
107.88336
 20
84.283459
 10
107.942099
 20
84.616582
 10
107.990681
 20
84.892104
  0
LINE
  5
19E
100
AcDbEntity
  8
ALPHA
100
AcDbLine
 10
107.423193
 20
81.673719
 30
0.0
 11
107.428744
 21
81.705199
 31
0.0
  0
LWPOLYLINE
  5
19F
100
AcDbEntity
  8
ALPHA
100
AcDbPolyline
 90
        3
 70
     0
 43
0.0
 10
107.370005
 20
81.372077
 10
107.392441
 20
81.499318
 10
107.423193
 20
81.673719
  0
LINE
  5
1A4
100
AcDbEntity
  8
ALPHA
100
AcDbLine
 10
107.362416
 20
81.329036
 30
0.0
 11
107.370005
 21
81.372077
 31
0.0
  0
LWPOLYLINE
  5
1A5
100
AcDbEntity
  8
ALPHA
100
AcDbPolyline
 90
        9
 70
     0
 43
0.0
 10
128.80517
 20
76.984297
 10
128.811164
 20
77.018294
 10
128.828986
 20
77.119367
 10
128.858154
 20
77.284785
 10
128.897879
 20
77.510078
 10
128.947088
 20
77.789158
 10
129.004452
 20
78.114485
 10
129.068421
 20
78.477269
 10
129.137266
 20
78.867706
  0
LINE
  5
1B0
100
AcDbEntity
  8
ALPHA
100
AcDbLine
 10
129.137266
 20
78.867706
 30
0.0
 11
128.635222
 21
79.050435
 31
0.0
  0
LINE
  5
1B1
100
AcDbEntity
  8
ALPHA
100
AcDbLine
 10
128.635222
 20
79.050435
 30
0.0
 11
128.826235
 21
80.133724
 31
0.0
  0
LINE
  5
1B2
100
AcDbEntity
  8
ALPHA
100
AcDbLine
 10
107.362416
 20
81.329036
 30
0.0
 11
106.572554
 21
83.499163
 31
0.0
  0
LINE
  5
1B3
100
AcDbEntity
  8
ALPHA
100
AcDbLine
 10
108.057009
 20
85.268267
 30
0.0
 11
106.572554
 21
83.499163
 31
0.0
  0
LINE
  5
1B4
100
AcDbEntity
  8
ALPHA
100
AcDbLine
 10
107.367635
 20
81.328116
 30
0.0
 11
107.362416
 21
81.329036
 31
0.0
  0
LINE
  5
1B5
100
AcDbEntity
  8
ALPHA
100
AcDbLine
 10
116.850161
 20
79.656091
 30
0.0
 11
107.367635
 21
81.328116
 31
0.0
  0
LINE
  5
1B6
100
AcDbEntity
  8
ALPHA
100
AcDbLine
 10
125.921413
 20
78.056584
 30
0.0
 11
125.472554
 21
78.13573
 31
0.0
  0
LINE
  5
1B7
100
AcDbEntity
  8
ALPHA
100
AcDbLine
 10
126.709259
 20
77.917666
 30
0.0
 11
125.921413
 21
78.056584
 31
0.0
  0
LINE
  5
1B8
100
AcDbEntity
  8
ALPHA
100
AcDbLine
 10
108.062228
 20
85.267347
 30
0.0
 11
108.057009
 21
85.268267
 31
0.0
  0
LINE
  5
1B9
100
AcDbEntity
  8
ALPHA
100
AcDbLine
 10
115.710264
 20
83.918792
 30
0.0
 11
108.062228
 21
85.267347
 31
0.0
  0
LINE
  5
1BA
100
AcDbEntity
  8
ALPHA
100
AcDbLine
 10
128.80517
 20
76.984297
 30
0.0
 11
126.579023
 21
77.17906
 31
0.0
  0
LINE
  5
1BB
100
AcDbEntity
  8
ALPHA
100
AcDbLine
 10
127.203791
 20
80.722296
 30
0.0
 11
127.224809
 21
80.841493
 31
0.0
  0
LINE
  5
1BC
100
AcDbEntity
  8
ALPHA
100
AcDbLine
 10
126.718889
 20
77.97228
 30
0.0
 11
127.203791
 21
80.722296
 31
0.0
  0
LINE
  5
1BD
100
AcDbEntity
  8
ALPHA
100
AcDbLine
 10
126.709259
 20
77.917666
 30
0.0
 11
126.718889
 21
77.97228
 31
0.0
  0
LINE
  5
1BE
100
AcDbEntity
  8
ALPHA
100
AcDbLine
 10
126.579023
 20
77.17906
 30
0.0
 11
126.709259
 21
77.917666
 31
0.0
  0
LINE
  5
1BF
100
AcDbEntity
  8
ALPHA
100
AcDbLine
 10
129.692594
 20
82.017132
 30
0.0
 11
127.953694
 21
82.483069
 31
0.0
  0
LINE
  5
1C0
100
AcDbEntity
  8
ALPHA
100
AcDbLine
 10
107.367635
 20
81.328116
 30
0.0
 11
107.362416
 21
81.329036
 31
0.0
  0
LINE
  5
1C1
100
AcDbEntity
  8
ALPHA
100
AcDbLine
 10
116.850161
 20
79.656091
 30
0.0
 11
107.367635
 21
81.328116
 31
0.0
  0
LINE
  5
1C2
100
AcDbEntity
  8
ALPHA
100
AcDbLine
 10
125.921413
 20
78.056584
 30
0.0
 11
125.472554
 21
78.13573
 31
0.0
  0
LINE
  5
1C3
100
AcDbEntity
  8
ALPHA
100
AcDbLine
 10
126.709259
 20
77.917666
 30
0.0
 11
125.921413
 21
78.056584
 31
0.0
  0
LINE
  5
1C4
100
AcDbEntity
  8
ALPHA
100
AcDbLine
 10
128.826235
 20
80.133724
 30
0.0
 11
129.360499
 21
80.133724
 31
0.0
  0
LINE
  5
1C5
100
AcDbEntity
  8
ALPHA
100
AcDbLine
 10
108.062228
 20
85.267347
 30
0.0
 11
108.057009
 21
85.268267
 31
0.0
  0
LINE
  5
1C6
100
AcDbEntity
  8
ALPHA
100
AcDbLine
 10
115.710264
 20
83.918792
 30
0.0
 11
108.062228
 21
85.267347
 31
0.0
  0
LINE
  5
1C7
100
AcDbEntity
  8
ALPHA
100
AcDbLine
 10
128.80517
 20
76.984297
 30
0.0
 11
126.579023
 21
77.17906
 31
0.0
  0
LINE
  5
1C8
100
AcDbEntity
  8
ALPHA
100
AcDbLine
 10
129.133092
 20
77.266977
 30
0.0
 11
129.126759
 21
77.231061
 31
0.0
  0
LINE
  5
1C9
100
AcDbEntity
  8
ALPHA
100
AcDbLine
 10
129.398573
 20
78.772598
 30
0.0
 11
129.133092
 21
77.266977
 31
0.0
  0
LINE
  5
1CA
100
AcDbEntity
  8
ALPHA
100
AcDbLine
 10
129.692594
 20
82.017132
 30
0.0
 11
127.953694
 21
82.483069
 31
0.0
  0
LINE
  5
1CB
100
AcDbEntity
  8
ALPHA
100
AcDbLine
 10
129.91036
 20
81.675085
 30
0.0
 11
129.638576
 21
80.133724
 31
0.0
  0
LINE
  5
1CC
100
AcDbEntity
  8
ALPHA
100
AcDbLine
 10
129.360499
 20
80.133724
 30
0.0
 11
129.638576
 21
80.133724
 31
0.0
  0
LINE
  5
1CD
100
AcDbEntity
  8
ALPHA
100
AcDbLine
 10
129.398573
 20
78.772598
 30
0.0
 11
129.131863
 21
77.260009
 31
0.0
  0
LINE
  5
1CE
100
AcDbEntity
  8
ALPHA
100
AcDbLine
 10
129.12677
 20
77.231125
 30
0.0
 11
129.131863
 21
77.260009
 31
0.0
  0
LINE
  5
1CF
100
AcDbEntity
  8
ALPHA
100
AcDbLine
 10
129.398573
 20
78.772598
 30
0.0
 11
129.137266
 21
78.867706
 31
0.0
  0
LINE
  5
1D0
100
AcDbEntity
  8
ALPHA
100
AcDbLine
 10
129.910391
 20
81.67526
 30
0.0
 11
129.638576
 21
80.133724
 31
0.0
  0
ARC
  5
1D1
100
AcDbEntity
  8
ALPHA
100
AcDbCircle
 10
129.614949
 20
81.727355
 30
0.0
 40
0.3
100
AcDbArc
 50
350.0
 51
75.0
  0
ARC
  5
1D2
100
AcDbEntity
  8
ALPHA
100
AcDbCircle
 10
128.831316
 20
77.283156
 30
0.0
 40
0.3
100
AcDbArc
 50
265.0
 51
350.0
  0
LWPOLYLINE
  5
1D3
100
AcDbEntity
  8
ALPHA
100
AcDbPolyline
 90
       31
 70
     0
 43
0.0
 10
125.987741
 20
78.432747
 10
125.996535
 20
78.482625
 10
126.005808
 20
78.535214
 10
126.015542
 20
78.590416
 10
126.025719
 20
78.648134
 10
126.036323
 20
78.70827
 10
126.047335
 20
78.770722
 10
126.058735
 20
78.835378
 10
126.070504
 20
78.90212
 10
126.082619
 20
78.97083
 10
126.095061
 20
79.041392
 10
126.107808
 20
79.113686
 10
126.120838
 20
79.187582
 10
126.134127
 20
79.262947
 10
126.147652
 20
79.339649
 10
126.161389
 20
79.417555
 10
126.175315
 20
79.496532
 10
126.189404
 20
79.576438
 10
126.203633
 20
79.657133
 10
126.217975
 20
79.738474
 10
126.232407
 20
79.820319
 10
126.246902
 20
79.902526
 10
126.261436
 20
79.984951
 10
126.275983
 20
80.067448
 10
126.290516
 20
80.149873
 10
126.305012
 20
80.232081
 10
126.305172
 20
80.232992
 10
126.305333
 20
80.233903
 10
126.305494
 20
80.234814
 10
126.305654
 20
80.235726
 10
126.305815
 20
80.236637
  0
LWPOLYLINE
  5
1F4
100
AcDbEntity
  8
ALPHA
100
AcDbPolyline
 90
        6
 70
     0
 43
0.0
 10
125.97944
 20
78.385673
 10
125.98106
 20
78.39486
 10
125.9827
 20
78.404161
 10
125.98436
 20
78.413577
 10
125.986041
 20
78.423106
 10
125.987741
 20
78.432747
  0
LWPOLYLINE
  5
1FC
100
AcDbEntity
  8
ALPHA
100
AcDbPolyline
 90
       16
 70
     0
 43
0.0
 10
125.921413
 20
78.056584
 10
125.921741
 20
78.058444
 10
125.922661
 20
78.063661
 10
125.924175
 20
78.072251
 10
125.926288
 20
78.084233
 10
125.929002
 20
78.099625
 10
125.932318
 20
78.118433
 10
125.93623
 20
78.140614
 10
125.940726
 20
78.166116
 10
125.945799
 20
78.194885
 10
125.951438
 20
78.226866
 10
125.956351
 20
78.254728
 10
125.961614
 20
78.284575
 10
125.967221
 20
78.316372
 10
125.973165
 20
78.350084
 10
125.97944
 20
78.385673
  0
LWPOLYLINE
  5
20E
100
AcDbEntity
  8
ALPHA
100
AcDbPolyline
 90
       16
 70
     0
 43
0.0
 10
125.97944
 20
78.385673
 10
125.973165
 20
78.350084
 10
125.967221
 20
78.316372
 10
125.961614
 20
78.284575
 10
125.956351
 20
78.254728
 10
125.951438
 20
78.226866
 10
125.945799
 20
78.194885
 10
125.940726
 20
78.166116
 10
125.93623
 20
78.140614
 10
125.932318
 20
78.118433
 10
125.929002
 20
78.099625
 10
125.926288
 20
78.084233
 10
125.924175
 20
78.072251
 10
125.922661
 20
78.063661
 10
125.921741
 20
78.058444
 10
125.921413
 20
78.056584
  0
LWPOLYLINE
  5
220
100
AcDbEntity
  8
ALPHA
100
AcDbPolyline
 90
        6
 70
     0
 43
0.0
 10
125.982134
 20
78.400952
 10
125.981591
 20
78.397871
 10
125.98105
 20
78.394803
 10
125.980511
 20
78.391747
 10
125.979975
 20
78.388704
 10
125.97944
 20
78.385673
  0
LWPOLYLINE
  5
228
100
AcDbEntity
  8
ALPHA
100
AcDbPolyline
 90
       16
 70
     0
 43
0.0
 10
107.425662
 20
81.657205
 10
107.419387
 20
81.621615
 10
107.413442
 20
81.587904
 10
107.407836
 20
81.556106
 10
107.402573
 20
81.526259
 10
107.39766
 20
81.498398
 10
107.392021
 20
81.466417
 10
107.386948
 20
81.437648
 10
107.382452
 20
81.412146
 10
107.37854
 20
81.389964
 10
107.375224
 20
81.371157
 10
107.37251
 20
81.355765
 10
107.370397
 20
81.343783
 10
107.368883
 20
81.335192
 10
107.367963
 20
81.329976
 10
107.367635
 20
81.328116
  0
LWPOLYLINE
  5
23A
100
AcDbEntity
  8
ALPHA
100
AcDbPolyline
 90
        6
 70
     0
 43
0.0
 10
107.433963
 20
81.704279
 10
107.432262
 20
81.694637
 10
107.430582
 20
81.685108
 10
107.428922
 20
81.675693
 10
107.427282
 20
81.666392
 10
107.425662
 20
81.657205
  0
LWPOLYLINE
  5
242
100
AcDbEntity
  8
ALPHA
100
AcDbPolyline
 90
       46
 70
     0
 43
0.0
 10
107.9959
 20
84.891184
 10
107.987105
 20
84.841306
 10
107.977832
 20
84.788717
 10
107.968099
 20
84.733515
 10
107.957921
 20
84.675797
 10
107.947318
 20
84.615661
 10
107.936306
 20
84.553209
 10
107.924905
 20
84.488553
 10
107.913137
 20
84.421811
 10
107.901021
 20
84.353101
 10
107.888579
 20
84.282539
 10
107.875832
 20
84.210245
 10
107.862802
 20
84.13635
 10
107.849513
 20
84.060984
 10
107.835989
 20
83.984282
 10
107.822252
 20
83.906376
 10
107.808326
 20
83.8274
 10
107.794236
 20
83.747493
 10
107.780008
 20
83.666798
 10
107.765665
 20
83.585458
 10
107.751234
 20
83.503612
 10
107.736738
 20
83.421405
 10
107.722204
 20
83.33898
 10
107.707658
 20
83.256483
 10
107.693124
 20
83.174058
 10
107.678629
 20
83.091851
 10
107.664197
 20
83.010005
 10
107.649855
 20
82.928664
 10
107.635626
 20
82.84797
 10
107.621536
 20
82.768063
 10
107.607611
 20
82.689087
 10
107.593874
 20
82.61118
 10
107.580349
 20
82.534478
 10
107.56706
 20
82.459113
 10
107.55403
 20
82.385217
 10
107.541283
 20
82.312924
 10
107.528841
 20
82.242362
 10
107.516726
 20
82.173651
 10
107.504957
 20
82.10691
 10
107.493557
 20
82.042254
 10
107.482545
 20
81.979801
 10
107.471941
 20
81.919666
 10
107.461764
 20
81.861948
 10
107.45203
 20
81.806746
 10
107.442757
 20
81.754157
 10
107.433963
 20
81.704279
  0
LWPOLYLINE
  5
272
100
AcDbEntity
  8
ALPHA
100
AcDbPolyline
 90
        6
 70
     0
 43
0.0
 10
108.0042
 20
84.938258
 10
108.00258
 20
84.929071
 10
108.00094
 20
84.91977
 10
107.99928
 20
84.910354
 10
107.9976
 20
84.900826
 10
107.9959
 20
84.891184
  0
LWPOLYLINE
  5
27A
100
AcDbEntity
  8
ALPHA
100
AcDbPolyline
 90
       16
 70
     0
 43
0.0
 10
108.062228
 20
85.267347
 10
108.0619
 20
85.265487
 10
108.06098
 20
85.26027
 10
108.059465
 20
85.25168
 10
108.057352
 20
85.239698
 10
108.054638
 20
85.224306
 10
108.051322
 20
85.205498
 10
108.047411
 20
85.183317
 10
108.042914
 20
85.157815
 10
108.037841
 20
85.129046
 10
108.032202
 20
85.097065
 10
108.02729
 20
85.069204
 10
108.022027
 20
85.039356
 10
108.01642
 20
85.007559
 10
108.010476
 20
84.973848
 10
108.0042
 20
84.938258
  0
LWPOLYLINE
  5
28C
100
AcDbEntity
  8
ALPHA
100
AcDbPolyline
 90
       16
 70
     0
 43
0.0
 10
108.0042
 20
84.938258
 10
108.010476
 20
84.973848
 10
108.01642
 20
85.007559
 10
108.022027
 20
85.039356
 10
108.02729
 20
85.069204
 10
108.032202
 20
85.097065
 10
108.037841
 20
85.129046
 10
108.042914
 20
85.157815
 10
108.047411
 20
85.183317
 10
108.051322
 20
85.205498
 10
108.054638
 20
85.224306
 10
108.057352
 20
85.239698
 10
108.059465
 20
85.25168
 10
108.06098
 20
85.26027
 10
108.0619
 20
85.265487
 10
108.062228
 20
85.267347
  0
LWPOLYLINE
  5
29E
100
AcDbEntity
  8
ALPHA
100
AcDbPolyline
 90
        6
 70
     0
 43
0.0
 10
108.001506
 20
84.92298
 10
108.00205
 20
84.92606
 10
108.002591
 20
84.929129
 10
108.003129
 20
84.932184
 10
108.003666
 20
84.935227
 10
108.0042
 20
84.938258
  0
LWPOLYLINE
  5
2A6
100
AcDbEntity
  8
ALPHA
100
AcDbPolyline
 90
        6
 70
     0
 43
0.0
 10
107.425662
 20
81.657205
 10
107.426197
 20
81.660235
 10
107.426733
 20
81.663279
 10
107.427272
 20
81.666334
 10
107.427813
 20
81.669402
 10
107.428356
 20
81.672483
  0
LWPOLYLINE
  5
2AE
100
AcDbEntity
  8
ALPHA
100
AcDbPolyline
 90
       16
 70
     0
 43
0.0
 10
107.367635
 20
81.328116
 10
107.367963
 20
81.329976
 10
107.368883
 20
81.335192
 10
107.370397
 20
81.343783
 10
107.37251
 20
81.355765
 10
107.375224
 20
81.371157
 10
107.37854
 20
81.389964
 10
107.382452
 20
81.412146
 10
107.386948
 20
81.437648
 10
107.392021
 20
81.466417
 10
107.39766
 20
81.498398
 10
107.402573
 20
81.526259
 10
107.407836
 20
81.556106
 10
107.413442
 20
81.587904
 10
107.419387
 20
81.621615
 10
107.425662
 20
81.657205
  0
LINE
  5
2C0
100
AcDbEntity
  8
ALPHA
 62
    80
100
AcDbLine
 10
108.001451
 20
84.922664
 30
0.0
 11
115.810005
 21
83.545805
 31
0.0
  0
LINE
  5
2C1
100
AcDbEntity
  8
ALPHA
100
AcDbLine
 10
125.472554
 20
78.491129
 30
0.0
 11
125.98219
 21
78.401267
 31
0.0
  0
LINE
  5
2C2
100
AcDbEntity
  8
ALPHA
 62
    80
100
AcDbLine
 10
107.428412
 20
81.672799
 30
0.0
 11
116.75042
 21
80.029077
 31
0.0
  0
LWPOLYLINE
  5
2C3
100
AcDbEntity
  8
ALPHA
100
AcDbPolyline
 90
        9
 70
     0
 43
0.0
 10
126.305936
 20
80.237321
 10
126.246056
 20
79.897728
 10
126.186209
 20
79.558316
 10
126.130088
 20
79.240037
 10
126.080228
 20
78.957268
 10
126.038881
 20
78.72278
 10
126.007916
 20
78.547166
 10
125.98873
 20
78.438357
 10
125.98219
 20
78.401267
  0
LWPOLYLINE
  5
2CE
100
AcDbEntity
  8
ALPHA
100
AcDbPolyline
 90
       17
 70
     0
 43
0.0
 10
108.001451
 20
84.922664
 10
107.995995
 20
84.891717
 10
107.979832
 20
84.800056
 10
107.95358
 20
84.651172
 10
107.917532
 20
84.446732
 10
107.874321
 20
84.201674
 10
107.82504
 20
83.922185
 10
107.771565
 20
83.618911
 10
107.714932
 20
83.297731
 10
107.65928
 20
82.982114
 10
107.605748
 20
82.678518
 10
107.556374
 20
82.398507
 10
107.512332
 20
82.14873
 10
107.476839
 20
81.947437
 10
107.450414
 20
81.797577
 10
107.434065
 20
81.704857
 10
107.428412
 20
81.672799
  0
LINE
  5
2E1
100
AcDbEntity
  8
ALPHA
 62
    80
100
AcDbLine
 10
108.001451
 20
84.922664
 30
0.0
 11
115.810005
 21
83.545805
 31
0.0
  0
LINE
  5
2E2
100
AcDbEntity
  8
ALPHA
100
AcDbLine
 10
125.472554
 20
78.491129
 30
0.0
 11
125.98219
 21
78.401267
 31
0.0
  0
LINE
  5
2E3
100
AcDbEntity
  8
ALPHA
 62
    80
100
AcDbLine
 10
107.428412
 20
81.672799
 30
0.0
 11
116.75042
 21
80.029077
 31
0.0
  0
LINE
  5
2E4
100
AcDbEntity
  8
ALPHA
100
AcDbLine
 10
118.572554
 20
120.436626
 30
0.0
 11
120.072554
 21
120.436626
 31
0.0
  0
LINE
  5
2E5
100
AcDbEntity
  8
ALPHA
100
AcDbLine
 10
118.572554
 20
118.595653
 30
0.0
 11
120.072554
 21
118.595653
 31
0.0
  0
LINE
  5
2E6
100
AcDbEntity
  8
ALPHA
100
AcDbLine
 10
120.072554
 20
116.987009
 30
0.0
 11
118.572554
 21
116.987009
 31
0.0
  0
LINE
  5
2E7
100
AcDbEntity
  8
ALPHA
100
AcDbLine
 10
120.072554
 20
116.767836
 30
0.0
 11
118.572554
 21
116.767836
 31
0.0
  0
LINE
  5
2E8
100
AcDbEntity
  8
ALPHA
100
AcDbLine
 10
118.572554
 20
118.161427
 30
0.0
 11
120.072554
 21
118.161427
 31
0.0
  0
LINE
  5
2E9
100
AcDbEntity
  8
ALPHA
100
AcDbLine
 10
120.072554
 20
120.436626
 30
0.0
 11
120.072554
 21
118.595653
 31
0.0
  0
LINE
  5
2EA
100
AcDbEntity
  8
ALPHA
100
AcDbLine
 10
118.572554
 20
118.595653
 30
0.0
 11
118.572554
 21
120.436626
 31
0.0
  0
LINE
  5
2EB
100
AcDbEntity
  8
ALPHA
100
AcDbLine
 10
118.572554
 20
118.161427
 30
0.0
 11
118.572554
 21
116.987009
 31
0.0
  0
LINE
  5
2EC
100
AcDbEntity
  8
ALPHA
100
AcDbLine
 10
118.572554
 20
120.436626
 30
0.0
 11
118.572554
 21
120.936626
 31
0.0
  0
LINE
  5
2ED
100
AcDbEntity
  8
ALPHA
100
AcDbLine
 10
118.572554
 20
120.936626
 30
0.0
 11
120.072554
 21
120.936626
 31
0.0
  0
LINE
  5
2EE
100
AcDbEntity
  8
ALPHA
100
AcDbLine
 10
120.072554
 20
120.436626
 30
0.0
 11
120.072554
 21
120.936626
 31
0.0
  0
LINE
  5
2EF
100
AcDbEntity
  8
ALPHA
100
AcDbLine
 10
118.572554
 20
116.436626
 30
0.0
 11
118.572554
 21
116.767836
 31
0.0
  0
LINE
  5
2F0
100
AcDbEntity
  8
ALPHA
100
AcDbLine
 10
120.072554
 20
116.436626
 30
0.0
 11
120.072554
 21
116.767836
 31
0.0
  0
LINE
  5
2F1
100
AcDbEntity
  8
ALPHA
100
AcDbLine
 10
120.072554
 20
118.595653
 30
0.0
 11
120.072554
 21
118.161427
 31
0.0
  0
LINE
  5
2F2
100
AcDbEntity
  8
ALPHA
100
AcDbLine
 10
118.572554
 20
118.161427
 30
0.0
 11
118.572554
 21
118.595653
 31
0.0
  0
LINE
  5
2F3
100
AcDbEntity
  8
ALPHA
100
AcDbLine
 10
118.572554
 20
116.767836
 30
0.0
 11
118.572554
 21
116.987009
 31
0.0
  0
LINE
  5
2F4
100
AcDbEntity
  8
ALPHA
100
AcDbLine
 10
120.072554
 20
116.987009
 30
0.0
 11
120.072554
 21
116.767836
 31
0.0
  0
LINE
  5
2F5
100
AcDbEntity
  8
ALPHA
100
AcDbLine
 10
120.072554
 20
118.161427
 30
0.0
 11
120.072554
 21
116.987009
 31
0.0
  0
LINE
  5
2F6
100
AcDbEntity
  8
ALPHA
100
AcDbLine
 10
125.472554
 20
99.936626
 30
0.0
 11
124.242452
 21
99.936626
 31
0.0
  0
LINE
  5
2F7
100
AcDbEntity
  8
ALPHA
100
AcDbLine
 10
124.242452
 20
99.936626
 30
0.0
 11
123.472554
 21
99.800872
 31
0.0
  0
LINE
  5
2F8
100
AcDbEntity
  8
ALPHA
100
AcDbLine
 10
123.472554
 20
96.07238
 30
0.0
 11
124.242452
 21
95.936626
 31
0.0
  0
LINE
  5
2F9
100
AcDbEntity
  8
ALPHA
100
AcDbLine
 10
124.242452
 20
95.936626
 30
0.0
 11
125.472554
 21
95.936626
 31
0.0
  0
LINE
  5
2FA
100
AcDbEntity
  8
ALPHA
100
AcDbLine
 10
126.072554
 20
110.736626
 30
0.0
 11
126.072554
 21
113.536626
 31
0.0
  0
LINE
  5
2FB
100
AcDbEntity
  8
ALPHA
100
AcDbLine
 10
127.172554
 20
113.536626
 30
0.0
 11
127.172554
 21
110.736626
 31
0.0
  0
LINE
  5
2FC
100
AcDbEntity
  8
ALPHA
100
AcDbLine
 10
127.172554
 20
110.736626
 30
0.0
 11
127.172554
 21
110.236626
 31
0.0
  0
LINE
  5
2FD
100
AcDbEntity
  8
ALPHA
100
AcDbLine
 10
126.072554
 20
113.536626
 30
0.0
 11
124.972554
 21
113.536626
 31
0.0
  0
LINE
  5
2FE
100
AcDbEntity
  8
ALPHA
100
AcDbLine
 10
126.072554
 20
110.736626
 30
0.0
 11
124.972554
 21
110.736626
 31
0.0
  0
LINE
  5
2FF
100
AcDbEntity
  8
ALPHA
100
AcDbLine
 10
127.172554
 20
113.536626
 30
0.0
 11
127.172554
 21
110.736626
 31
0.0
  0
LINE
  5
300
100
AcDbEntity
  8
ALPHA
100
AcDbLine
 10
126.372554
 20
113.536626
 30
0.0
 11
126.072554
 21
113.536626
 31
0.0
  0
LINE
  5
301
100
AcDbEntity
  8
ALPHA
100
AcDbLine
 10
127.172554
 20
113.536626
 30
0.0
 11
126.372554
 21
113.536626
 31
0.0
  0
LINE
  5
302
100
AcDbEntity
  8
ALPHA
100
AcDbLine
 10
126.372554
 20
110.736626
 30
0.0
 11
126.072554
 21
110.736626
 31
0.0
  0
LINE
  5
303
100
AcDbEntity
  8
ALPHA
100
AcDbLine
 10
127.172554
 20
110.736626
 30
0.0
 11
126.372554
 21
110.736626
 31
0.0
  0
LINE
  5
304
100
AcDbEntity
  8
ALPHA
100
AcDbLine
 10
126.372554
 20
110.736626
 30
0.0
 11
126.372554
 21
110.236626
 31
0.0
  0
LINE
  5
305
100
AcDbEntity
  8
ALPHA
100
AcDbLine
 10
120.664063
 20
80.415656
 30
0.0
 11
118.694448
 21
80.762952
 31
0.0
  0
LINE
  5
306
100
AcDbEntity
  8
ALPHA
100
AcDbLine
 10
120.871773
 20
81.593636
 30
0.0
 11
118.902157
 21
81.940932
 31
0.0
  0
LINE
  5
307
100
AcDbEntity
  8
ALPHA
100
AcDbLine
 10
118.902157
 20
81.940932
 30
0.0
 11
118.976199
 21
82.36084
 31
0.0
  0
LWPOLYLINE
  5
308
100
AcDbEntity
  8
ALPHA
100
AcDbPolyline
 90
        8
 70
     0
 43
0.0
 10
118.902157
 20
81.940932
 10
118.792695
 20
81.947602
 10
118.682595
 20
81.928995
 10
118.579281
 20
81.88595
 10
118.486158
 20
81.819435
 10
118.409786
 20
81.733628
 10
118.353076
 20
81.631316
 10
118.319867
 20
81.517983
  0
LINE
  5
312
100
AcDbEntity
  8
ALPHA
100
AcDbLine
 10
118.611866
 20
80.294607
 30
0.0
 11
120.216814
 21
80.011611
 31
0.0
  0
LWPOLYLINE
  5
313
100
AcDbEntity
  8
ALPHA
100
AcDbPolyline
 90
        8
 70
     0
 43
0.0
 10
118.291931
 20
81.35955
 10
118.284375
 20
81.241693
 10
118.302672
 20
81.126156
 10
118.345091
 20
81.019402
 10
118.409848
 20
80.925049
 10
118.49221
 20
80.849265
 10
118.589306
 20
80.794124
 10
118.694448
 20
80.762952
  0
LINE
  5
31D
100
AcDbEntity
  8
ALPHA
100
AcDbLine
 10
119.430636
 20
82.280711
 30
0.0
 11
120.653016
 21
82.065172
 31
0.0
  0
LINE
  5
31E
100
AcDbEntity
  8
ALPHA
100
AcDbLine
 10
118.976199
 20
82.36084
 30
0.0
 11
119.430636
 21
82.280711
 31
0.0
  0
LINE
  5
31F
100
AcDbEntity
  8
ALPHA
100
AcDbLine
 10
118.611866
 20
80.294607
 30
0.0
 11
118.694448
 21
80.762952
 31
0.0
  0
LWPOLYLINE
  5
320
100
AcDbEntity
  8
ALPHA
100
AcDbPolyline
 90
        8
 70
     0
 43
0.0
 10
118.611866
 20
80.294607
 10
118.508402
 20
80.325374
 10
118.411976
 20
80.380513
 10
118.329794
 20
80.456883
 10
118.26484
 20
80.552657
 10
118.222032
 20
80.661914
 10
118.203545
 20
80.780873
 10
118.211507
 20
80.903442
  0
LWPOLYLINE
  5
32A
100
AcDbEntity
  8
ALPHA
100
AcDbPolyline
 90
        8
 70
     0
 43
0.0
 10
118.395967
 20
81.949567
 10
118.428206
 20
82.059062
 10
118.483863
 20
82.15852
 10
118.559275
 20
82.242181
 10
118.651812
 20
82.307285
 10
118.755036
 20
82.349521
 10
118.865533
 20
82.367729
 10
118.976199
 20
82.36084
  0
LINE
  5
334
100
AcDbEntity
  8
ALPHA
100
AcDbLine
 10
118.319867
 20
81.517983
 30
0.0
 11
118.395967
 21
81.949567
 31
0.0
  0
LINE
  5
335
100
AcDbEntity
  8
ALPHA
100
AcDbLine
 10
118.10911
 20
80.322725
 30
0.0
 11
118.211507
 21
80.903442
 31
0.0
  0
LINE
  5
336
100
AcDbEntity
  8
ALPHA
100
AcDbLine
 10
118.395967
 20
81.949567
 30
0.0
 11
118.478752
 21
82.419068
 31
0.0
  0
LINE
  5
337
100
AcDbEntity
  8
ALPHA
100
AcDbLine
 10
118.211507
 20
80.903442
 30
0.0
 11
118.291931
 21
81.35955
 31
0.0
  0
LINE
  5
338
100
AcDbEntity
  8
ALPHA
100
AcDbLine
 10
120.664063
 20
80.415656
 30
0.0
 11
120.660539
 21
80.395671
 31
0.0
  0
LINE
  5
339
100
AcDbEntity
  8
ALPHA
100
AcDbLine
 10
120.872904
 20
81.600051
 30
0.0
 11
120.871773
 21
81.593636
 31
0.0
  0
LINE
  5
33A
100
AcDbEntity
  8
ALPHA
100
AcDbLine
 10
118.291931
 20
81.35955
 30
0.0
 11
118.319867
 21
81.517983
 31
0.0
  0
LINE
  5
33B
100
AcDbEntity
  8
ALPHA
100
AcDbLine
 10
118.319867
 20
81.517983
 30
0.0
 11
118.395967
 21
81.949567
 31
0.0
  0
LINE
  5
33C
100
AcDbEntity
  8
ALPHA
100
AcDbLine
 10
118.211507
 20
80.903442
 30
0.0
 11
118.291931
 21
81.35955
 31
0.0
  0
LINE
  5
33D
100
AcDbEntity
  8
ALPHA
100
AcDbLine
 10
120.664063
 20
80.415656
 30
0.0
 11
120.871773
 21
81.593636
 31
0.0
  0
ENDSEC
  0
SECTION
  2
OBJECTS
  0
DICTIONARY
  5
4EE
100
AcDbDictionary
  3
ACAD_GROUP
350
4EF
  3
ACAD_MLINESTYLE
350
4FC
  3
ACDBVARIABLEDICTIONARY
350
50A
  0
DICTIONARY
  5
4EF
102
{ACAD_REACTORS
330
4EE
102
}
100
AcDbDictionary
  0
DICTIONARY
  5
4FC
102
{ACAD_REACTORS
330
4EE
102
}
100
AcDbDictionary
  3
STANDARD
350
4FD
  0
DICTIONARY
  5
50A
102
{ACAD_REACTORS
330
4EE
102
}
100
AcDbDictionary
  3
DIMADEC
350
50B
  0
MLINESTYLE
  5
4FD
102
{ACAD_REACTORS
330
4FC
102
}
100
AcDbMlineStyle
  2
STANDARD
 70
     0
  3

 62
   256
 51
90.0
 52
90.0
 71
     2
 49
0.5
 62
   256
  6
BYLAYER
 49
-0.5
 62
   256
  6
BYLAYER
  0
DICTIONARYVAR
  5
50B
102
{ACAD_REACTORS
330
50A
102
}
100
DictionaryVariables
280
     0
  1
0
  0
ENDSEC
  0
EOF
