  0
SECTION
  2
HEADER
  9
$ACADVER
  1
AC1012
  9
$DWGCODEPAGE
  3
ANSI_1252
  9
$INSBASE
 10
402.590624
 20
-1.041018
 30
0.0
  9
$EXTMIN
 10
50.992858
 20
53.919369
 30
0.0
  9
$EXTMAX
 10
167.194187
 20
164.094196
 30
0.0
  9
$LIMMIN
 10
-407.970438
 20
-367.832444
  9
$LIMMAX
 10
429.804077
 20
234.370848
  9
$ORTHOMODE
 70
     1
  9
$REGENMODE
 70
     1
  9
$FILLMODE
 70
     1
  9
$QTEXTMODE
 70
     0
  9
$MIRRTEXT
 70
     1
  9
$DRAGMODE
 70
     2
  9
$LTSCALE
 40
10.0
  9
$OSMODE
 70
    37
  9
$ATTMODE
 70
     1
  9
$TEXTSIZE
 40
6.0
  9
$TRACEWID
 40
1.0
  9
$TEXTSTYLE
  7
ROMANS
  9
$CLAYER
  8
COTATION1
  9
$CELTYPE
  6
BYLAYER
  9
$CECOLOR
 62
   256
  9
$CELTSCALE
 40
1.0
  9
$DELOBJ
 70
     1
  9
$DISPSILH
 70
     0
  9
$DIMSCALE
 40
1.0
  9
$DIMASZ
 40
5.0
  9
$DIMEXO
 40
2.0
  9
$DIMDLI
 40
0.38
  9
$DIMRND
 40
0.0
  9
$DIMDLE
 40
0.0
  9
$DIMEXE
 40
2.5
  9
$DIMTP
 40
0.0
  9
$DIMTM
 40
0.0
  9
$DIMTXT
 40
2.5
  9
$DIMCEN
 40
0.0
  9
$DIMTSZ
 40
0.0
  9
$DIMTOL
 70
     0
  9
$DIMLIM
 70
     0
  9
$DIMTIH
 70
     1
  9
$DIMTOH
 70
     1
  9
$DIMSE1
 70
     0
  9
$DIMSE2
 70
     0
  9
$DIMTAD
 70
     1
  9
$DIMZIN
 70
    12
  9
$DIMBLK
  1
OPEN30
  9
$DIMASO
 70
     1
  9
$DIMSHO
 70
     1
  9
$DIMPOST
  1

  9
$DIMAPOST
  1

  9
$DIMALT
 70
     0
  9
$DIMALTD
 70
     2
  9
$DIMALTF
 40
25.4
  9
$DIMLFAC
 40
1.0
  9
$DIMTOFL
 70
     0
  9
$DIMTVP
 40
0.0
  9
$DIMTIX
 70
     0
  9
$DIMSOXD
 70
     0
  9
$DIMSAH
 70
     0
  9
$DIMBLK1
  1

  9
$DIMBLK2
  1

  9
$DIMSTYLE
  2
SC_DEFAUT
  9
$DIMCLRD
 70
     0
  9
$DIMCLRE
 70
     0
  9
$DIMCLRT
 70
     0
  9
$DIMTFAC
 40
1.0
  9
$DIMGAP
 40
2.0
  9
$DIMJUST
 70
     0
  9
$DIMSD1
 70
     0
  9
$DIMSD2
 70
     0
  9
$DIMTOLJ
 70
     1
  9
$DIMTZIN
 70
    12
  9
$DIMALTZ
 70
    12
  9
$DIMALTTZ
 70
    12
  9
$DIMFIT
 70
     5
  9
$DIMUPT
 70
     0
  9
$DIMUNIT
 70
     2
  9
$DIMDEC
 70
     1
  9
$DIMTDEC
 70
     1
  9
$DIMALTU
 70
     2
  9
$DIMALTTD
 70
     2
  9
$DIMTXSTY
  7
ROMANS
  9
$DIMAUNIT
 70
     0
  9
$LUNITS
 70
     2
  9
$LUPREC
 70
     1
  9
$SKETCHINC
 40
0.1
  9
$FILLETRAD
 40
0.0
  9
$AUNITS
 70
     0
  9
$AUPREC
 70
     0
  9
$MENU
  1
acad
  9
$ELEVATION
 40
0.0
  9
$PELEVATION
 40
0.0
  9
$THICKNESS
 40
0.0
  9
$LIMCHECK
 70
     0
  9
$BLIPMODE
 70
     0
  9
$CHAMFERA
 40
0.0
  9
$CHAMFERB
 40
0.0
  9
$CHAMFERC
 40
0.0
  9
$CHAMFERD
 40
0.0
  9
$SKPOLY
 70
     0
  9
$TDCREATE
 40
2450373.687919444
  9
$TDUPDATE
 40
2453644.601784108
  9
$TDINDWG
 40
1.0690103356
  9
$TDUSRTIMER
 40
1.0690103356
  9
$USRTIMER
 70
     1
  9
$ANGBASE
 50
0.0
  9
$ANGDIR
 70
     0
  9
$PDMODE
 70
    32
  9
$PDSIZE
 40
0.0
  9
$PLINEWID
 40
0.0
  9
$COORDS
 70
     1
  9
$SPLFRAME
 70
     0
  9
$SPLINETYPE
 70
     6
  9
$SPLINESEGS
 70
     8
  9
$ATTDIA
 70
     0
  9
$ATTREQ
 70
     1
  9
$HANDLING
 70
     1
  9
$HANDSEED
  5
C3BB
  9
$SURFTAB1
 70
     6
  9
$SURFTAB2
 70
     6
  9
$SURFTYPE
 70
     6
  9
$SURFU
 70
     6
  9
$SURFV
 70
     6
  9
$UCSNAME
  2

  9
$UCSORG
 10
0.0
 20
0.0
 30
0.0
  9
$UCSXDIR
 10
1.0
 20
0.0
 30
0.0
  9
$UCSYDIR
 10
0.0
 20
1.0
 30
0.0
  9
$PUCSNAME
  2

  9
$PUCSORG
 10
0.0
 20
0.0
 30
0.0
  9
$PUCSXDIR
 10
1.0
 20
0.0
 30
0.0
  9
$PUCSYDIR
 10
0.0
 20
1.0
 30
0.0
  9
$USERI1
 70
     0
  9
$USERI2
 70
     0
  9
$USERI3
 70
     0
  9
$USERI4
 70
     0
  9
$USERI5
 70
     0
  9
$USERR1
 40
0.0
  9
$USERR2
 40
0.0
  9
$USERR3
 40
0.0
  9
$USERR4
 40
0.0
  9
$USERR5
 40
0.0
  9
$WORLDVIEW
 70
     1
  9
$SHADEDGE
 70
     3
  9
$SHADEDIF
 70
    70
  9
$TILEMODE
 70
     1
  9
$MAXACTVP
 70
    16
  9
$PINSBASE
 10
0.0
 20
0.0
 30
0.0
  9
$PLIMCHECK
 70
     0
  9
$PEXTMIN
 10
1.000000E+20
 20
1.000000E+20
 30
1.000000E+20
  9
$PEXTMAX
 10
-1.000000E+20
 20
-1.000000E+20
 30
-1.000000E+20
  9
$PLIMMIN
 10
0.0
 20
0.0
  9
$PLIMMAX
 10
12.0
 20
9.0
  9
$UNITMODE
 70
     0
  9
$VISRETAIN
 70
     0
  9
$PLINEGEN
 70
     0
  9
$PSLTSCALE
 70
     0
  9
$TREEDEPTH
 70
  3020
  9
$PICKSTYLE
 70
     0
  9
$CMLSTYLE
  2
STANDARD
  9
$CMLJUST
 70
     0
  9
$CMLSCALE
 40
1.0
  9
$SAVEIMAGES
 70
     1
  0
ENDSEC
  0
SECTION
  2
CLASSES
  0
CLASS
  1
ACDBDICTIONARYWDFLT
  2
AcDbDictionaryWithDefault
  3
AutoCAD 2000
 90
    32768
280
     0
281
     0
  0
CLASS
  1
ACDBPLACEHOLDER
  2
AcDbPlaceHolder
  3
AutoCAD 2000
 90
    32768
280
     0
281
     0
  0
CLASS
  1
LAYOUT
  2
AcDbLayout
  3
AutoCAD 2000
 90
    32768
280
     0
281
     0
  0
CLASS
  1
DICTIONARYVAR
  2
AcDbDictionaryVar
  3
"AutoCAD"
 90
    32768
280
     0
281
     0
  0
CLASS
  1
LONG_TRANSACTION
  2
AcDbLongTransaction
  3
AutoCAD 2000
 90
    32768
280
     0
281
     0
  0
CLASS
  1
LWPOLYLINE
  2
AcDbPolyline
  3
"AutoCAD"
 90
    32768
280
     0
281
     1
  0
CLASS
  1
HATCH
  2
AcDbHatch
  3
"ACAD_SEDONA"
 90
    32768
280
     0
281
     1
  0
CLASS
  1
XRECORD
  2
AcDbXrecord
  3
"<Built In>"
 90
    32768
280
     0
281
     0
  0
CLASS
  1
LONG_TRANSACTION
  2
AcDbLongTransaction
  3
AutoCAD 2000
 90
    32768
280
     0
281
     0
  0
CLASS
  1
LWPOLYLINE
  2
AcDbPolyline
  3
"AutoCAD"
 90
    32768
280
     0
281
     1
  0
CLASS
  1
HATCH
  2
AcDbHatch
  3
"ACAD_SEDONA"
 90
    32768
280
     0
281
     1
  0
CLASS
  1
XRECORD
  2
AcDbXrecord
  3
"<Built In>"
 90
    32768
280
     0
281
     0
  0
CLASS
  1
LONG_TRANSACTION
  2
AcDbLongTransaction
  3
AutoCAD 2000
 90
    32768
280
     0
281
     0
  0
CLASS
  1
LWPOLYLINE
  2
AcDbPolyline
  3
"AutoCAD"
 90
    32768
280
     0
281
     1
  0
CLASS
  1
HATCH
  2
AcDbHatch
  3
"ACAD_SEDONA"
 90
    32768
280
     0
281
     1
  0
CLASS
  1
XRECORD
  2
AcDbXrecord
  3
"<Built In>"
 90
    32768
280
     0
281
     0
  0
CLASS
  1
LONG_TRANSACTION
  2
AcDbLongTransaction
  3
AutoCAD 2000
 90
    32768
280
     0
281
     0
  0
CLASS
  1
LWPOLYLINE
  2
AcDbPolyline
  3
"AutoCAD"
 90
    32768
280
     0
281
     1
  0
CLASS
  1
HATCH
  2
AcDbHatch
  3
"ACAD_SEDONA"
 90
    32768
280
     0
281
     1
  0
CLASS
  1
XRECORD
  2
AcDbXrecord
  3
"<Built In>"
 90
    32768
280
     0
281
     0
  0
CLASS
  1
LONG_TRANSACTION
  2
AcDbLongTransaction
  3
AutoCAD 2000
 90
    32768
280
     0
281
     0
  0
CLASS
  1
LWPOLYLINE
  2
AcDbPolyline
  3
"AutoCAD"
 90
    32768
280
     0
281
     1
  0
CLASS
  1
HATCH
  2
AcDbHatch
  3
"ACAD_SEDONA"
 90
    32768
280
     0
281
     1
  0
CLASS
  1
XRECORD
  2
AcDbXrecord
  3
"<Built In>"
 90
    32768
280
     0
281
     0
  0
CLASS
  1
LONG_TRANSACTION
  2
AcDbLongTransaction
  3
AutoCAD 2000
 90
    32768
280
     0
281
     0
  0
CLASS
  1
LWPOLYLINE
  2
AcDbPolyline
  3
"AutoCAD"
 90
    32768
280
     0
281
     1
  0
CLASS
  1
HATCH
  2
AcDbHatch
  3
"ACAD_SEDONA"
 90
    32768
280
     0
281
     1
  0
CLASS
  1
XRECORD
  2
AcDbXrecord
  3
"<Built In>"
 90
    32768
280
     0
281
     0
  0
CLASS
  1
LONG_TRANSACTION
  2
AcDbLongTransaction
  3
AutoCAD 2000
 90
    32768
280
     0
281
     0
  0
CLASS
  1
LWPOLYLINE
  2
AcDbPolyline
  3
"AutoCAD"
 90
    32768
280
     0
281
     1
  0
CLASS
  1
HATCH
  2
AcDbHatch
  3
"ACAD_SEDONA"
 90
    32768
280
     0
281
     1
  0
CLASS
  1
XRECORD
  2
AcDbXrecord
  3
"<Built In>"
 90
    32768
280
     0
281
     0
  0
CLASS
  1
LONG_TRANSACTION
  2
AcDbLongTransaction
  3
AutoCAD 2000
 90
    32768
280
     0
281
     0
  0
CLASS
  1
LWPOLYLINE
  2
AcDbPolyline
  3
"AutoCAD"
 90
    32768
280
     0
281
     1
  0
CLASS
  1
HATCH
  2
AcDbHatch
  3
"ACAD_SEDONA"
 90
    32768
280
     0
281
     1
  0
CLASS
  1
XRECORD
  2
AcDbXrecord
  3
"<Built In>"
 90
    32768
280
     0
281
     0
  0
CLASS
  1
LONG_TRANSACTION
  2
AcDbLongTransaction
  3
AutoCAD 2000
 90
    32768
280
     0
281
     0
  0
CLASS
  1
LWPOLYLINE
  2
AcDbPolyline
  3
"AutoCAD"
 90
    32768
280
     0
281
     1
  0
CLASS
  1
HATCH
  2
AcDbHatch
  3
"ACAD_SEDONA"
 90
    32768
280
     0
281
     1
  0
CLASS
  1
XRECORD
  2
AcDbXrecord
  3
"<Built In>"
 90
    32768
280
     0
281
     0
  0
CLASS
  1
LONG_TRANSACTION
  2
AcDbLongTransaction
  3
AutoCAD 2000
 90
    32768
280
     0
281
     0
  0
CLASS
  1
LWPOLYLINE
  2
AcDbPolyline
  3
"AutoCAD"
 90
    32768
280
     0
281
     1
  0
CLASS
  1
HATCH
  2
AcDbHatch
  3
"ACAD_SEDONA"
 90
    32768
280
     0
281
     1
  0
CLASS
  1
XRECORD
  2
AcDbXrecord
  3
"<Built In>"
 90
    32768
280
     0
281
     0
  0
CLASS
  1
LONG_TRANSACTION
  2
AcDbLongTransaction
  3
AutoCAD 2000
 90
    32768
280
     0
281
     0
  0
CLASS
  1
LWPOLYLINE
  2
AcDbPolyline
  3
"AutoCAD"
 90
    32768
280
     0
281
     1
  0
CLASS
  1
HATCH
  2
AcDbHatch
  3
"ACAD_SEDONA"
 90
    32768
280
     0
281
     1
  0
CLASS
  1
XRECORD
  2
AcDbXrecord
  3
"<Built In>"
 90
    32768
280
     0
281
     0
  0
CLASS
  1
LONG_TRANSACTION
  2
AcDbLongTransaction
  3
AutoCAD 2000
 90
    32768
280
     0
281
     0
  0
CLASS
  1
LWPOLYLINE
  2
AcDbPolyline
  3
"AutoCAD"
 90
    32768
280
     0
281
     1
  0
CLASS
  1
HATCH
  2
AcDbHatch
  3
"ACAD_SEDONA"
 90
    32768
280
     0
281
     1
  0
CLASS
  1
XRECORD
  2
AcDbXrecord
  3
"<Built In>"
 90
    32768
280
     0
281
     0
  0
CLASS
  1
LONG_TRANSACTION
  2
AcDbLongTransaction
  3
AutoCAD 2000
 90
    32768
280
     0
281
     0
  0
CLASS
  1
LWPOLYLINE
  2
AcDbPolyline
  3
"AutoCAD"
 90
    32768
280
     0
281
     1
  0
CLASS
  1
HATCH
  2
AcDbHatch
  3
"ACAD_SEDONA"
 90
    32768
280
     0
281
     1
  0
CLASS
  1
XRECORD
  2
AcDbXrecord
  3
"<Built In>"
 90
    32768
280
     0
281
     0
  0
CLASS
  1
LONG_TRANSACTION
  2
AcDbLongTransaction
  3
AutoCAD 2000
 90
    32768
280
     0
281
     0
  0
CLASS
  1
LWPOLYLINE
  2
AcDbPolyline
  3
"AutoCAD"
 90
    32768
280
     0
281
     1
  0
CLASS
  1
HATCH
  2
AcDbHatch
  3
"ACAD_SEDONA"
 90
    32768
280
     0
281
     1
  0
CLASS
  1
XRECORD
  2
AcDbXrecord
  3
"<Built In>"
 90
    32768
280
     0
281
     0
  0
CLASS
  1
LONG_TRANSACTION
  2
AcDbLongTransaction
  3
AutoCAD 2000
 90
    32768
280
     0
281
     0
  0
CLASS
  1
LWPOLYLINE
  2
AcDbPolyline
  3
"AutoCAD"
 90
    32768
280
     0
281
     1
  0
CLASS
  1
HATCH
  2
AcDbHatch
  3
"ACAD_SEDONA"
 90
    32768
280
     0
281
     1
  0
CLASS
  1
XRECORD
  2
AcDbXrecord
  3
"<Built In>"
 90
    32768
280
     0
281
     0
  0
CLASS
  1
LONG_TRANSACTION
  2
AcDbLongTransaction
  3
AutoCAD 2000
 90
    32768
280
     0
281
     0
  0
CLASS
  1
LWPOLYLINE
  2
AcDbPolyline
  3
"AutoCAD"
 90
    32768
280
     0
281
     1
  0
CLASS
  1
HATCH
  2
AcDbHatch
  3
"ACAD_SEDONA"
 90
    32768
280
     0
281
     1
  0
CLASS
  1
XRECORD
  2
AcDbXrecord
  3
"<Built In>"
 90
    32768
280
     0
281
     0
  0
CLASS
  1
TABLESTYLE
  2
AcDbTableStyle
  3
ObjectDBX Classes
 90
    34815
280
     0
281
     0
  0
CLASS
  1
SORTENTSTABLE
  2
AcDbSortentsTable
  3
"AutoCAD"
 90
    32768
280
     0
281
     0
  0
CLASS
  1
DIMASSOC
  2
AcDbDimAssoc
  3
"AcDbDimAssoc|Product Desc:     AcDim ARX App For Dimension|Company:          Autodesk, Inc.|WEB Address:      www.autodesk.com"
 90
    32768
280
     0
281
     0
  0
CLASS
  1
ACAD_PROXY_OBJECT_WRAPPER
  2
AcDbProxyObjectWrapper
  3
AutoCAD 2000
 90
    32768
280
     0
281
     0
  0
CLASS
  1
LONG_TRANSACTION
  2
AcDbLongTransaction
  3
AutoCAD 2000
 90
    32768
280
     0
281
     0
  0
CLASS
  1
LWPOLYLINE
  2
AcDbPolyline
  3
"AutoCAD"
 90
    32768
280
     0
281
     1
  0
CLASS
  1
HATCH
  2
AcDbHatch
  3
"ACAD_SEDONA"
 90
    32768
280
     0
281
     1
  0
CLASS
  1
XRECORD
  2
AcDbXrecord
  3
"<Built In>"
 90
    32768
280
     0
281
     0
  0
CLASS
  1
LONG_TRANSACTION
  2
AcDbLongTransaction
  3
AutoCAD 2000
 90
    32768
280
     0
281
     0
  0
CLASS
  1
LWPOLYLINE
  2
AcDbPolyline
  3
"AutoCAD"
 90
    32768
280
     0
281
     1
  0
CLASS
  1
HATCH
  2
AcDbHatch
  3
"ACAD_SEDONA"
 90
    32768
280
     0
281
     1
  0
CLASS
  1
XRECORD
  2
AcDbXrecord
  3
"<Built In>"
 90
    32768
280
     0
281
     0
  0
ENDSEC
  0
SECTION
  2
TABLES
  0
TABLE
  2
VPORT
  5
7CF0
100
AcDbSymbolTable
 70
     2
  0
VPORT
  5
C3BA
100
AcDbSymbolTableRecord
100
AcDbViewportTableRecord
  2
*ACTIVE
 70
     0
 10
0.0
 20
0.0
 11
1.0
 21
1.0
 12
109.093523
 22
109.006782
 13
0.0
 23
0.0
 14
1.0
 24
1.0
 15
10.0
 25
10.0
 16
0.0
 26
0.0
 36
1.0
 17
0.0
 27
0.0
 37
0.0
 40
111.320492
 41
1.673611
 42
50.0
 43
0.0
 44
0.0
 50
0.0
 51
0.0
 71
     0
 72
   100
 73
     1
 74
     3
 75
     0
 76
     0
 77
     0
 78
     0
  0
ENDTAB
  0
TABLE
  2
LTYPE
  5
7CED
100
AcDbSymbolTable
 70
     3
  0
LTYPE
  5
7CFB
102
{ACAD_XDICTIONARY
360
C37F
102
}
100
AcDbSymbolTableRecord
100
AcDbLinetypeTableRecord
  2
BYBLOCK
 70
     0
  3

 72
    65
 73
     0
 40
0.0
  0
LTYPE
  5
7CFC
102
{ACAD_XDICTIONARY
360
C381
102
}
100
AcDbSymbolTableRecord
100
AcDbLinetypeTableRecord
  2
BYLAYER
 70
     0
  3

 72
    65
 73
     0
 40
0.0
  0
LTYPE
  5
7CFD
100
AcDbSymbolTableRecord
100
AcDbLinetypeTableRecord
  2
CONTINUOUS
 70
     0
  3
Solid line
 72
    65
 73
     0
 40
0.0
  0
LTYPE
  5
7D15
100
AcDbSymbolTableRecord
100
AcDbLinetypeTableRecord
  2
AXES2
 70
     0
  3
___ _ ___ _ ___ _ ___ _ ___ _ ___ _ ___ _ ___ _
 72
    65
 73
     4
 40
1.125
 49
0.75
 74
     0
 49
-0.125
 74
     0
 49
0.125
 74
     0
 49
-0.125
 74
     0
  0
LTYPE
  5
B527
100
AcDbSymbolTableRecord
100
AcDbLinetypeTableRecord
  2
CACHE2
 70
     0
  3
Caché (x.5) _ _ _ _ _ _ _ _ _ _ _ _ _ _ _ _ _
 72
    65
 73
     2
 40
0.1875
 49
0.125
 74
     0
 49
-0.0625
 74
     0
  0
ENDTAB
  0
TABLE
  2
LAYER
  5
7CEA
100
AcDbSymbolTable
 70
     5
  0
LAYER
  5
7CF8
100
AcDbSymbolTableRecord
100
AcDbLayerTableRecord
  2
0
 70
     0
 62
   255
  6
CONTINUOUS
  0
LAYER
  5
7D1C
100
AcDbSymbolTableRecord
100
AcDbLayerTableRecord
  2
COTATION1
 70
     0
 62
     2
  6
CONTINUOUS
  0
LAYER
  5
7D1D
100
AcDbSymbolTableRecord
100
AcDbLayerTableRecord
  2
AXE
 70
     0
 62
    80
  6
AXES2
  0
LAYER
  5
7D1E
102
{ACAD_XDICTIONARY
360
C3B0
102
}
100
AcDbSymbolTableRecord
100
AcDbLayerTableRecord
  2
DEFPOINTS
 70
     0
 62
     7
  6
CONTINUOUS
  0
LAYER
  5
7D1F
100
AcDbSymbolTableRecord
100
AcDbLayerTableRecord
  2
ALPHA
 70
     0
 62
   254
  6
CONTINUOUS
  0
ENDTAB
  0
TABLE
  2
STYLE
  5
7CEB
100
AcDbSymbolTable
 70
     1
  0
STYLE
  5
7CF9
100
AcDbSymbolTableRecord
100
AcDbTextStyleTableRecord
  2
ROMANS
 70
     0
 40
0.0
 41
1.0
 50
0.0
 71
     0
 42
6.0
  3
romans
  4

  0
ENDTAB
  0
TABLE
  2
VIEW
  5
7CEE
100
AcDbSymbolTable
 70
     0
  0
ENDTAB
  0
TABLE
  2
UCS
  5
7CEF
100
AcDbSymbolTable
 70
     0
  0
ENDTAB
  0
TABLE
  2
APPID
  5
7CF1
100
AcDbSymbolTable
 70
     2
  0
APPID
  5
7CFA
100
AcDbSymbolTableRecord
100
AcDbRegAppTableRecord
  2
ACAD
 70
     0
  0
APPID
  5
BDDF
100
AcDbSymbolTableRecord
100
AcDbRegAppTableRecord
  2
DCO15
 70
     0
  0
ENDTAB
  0
TABLE
  2
DIMSTYLE
  5
7CF2
100
AcDbSymbolTable
 70
     1
  0
DIMSTYLE
105
7D18
102
{ACAD_XDICTIONARY
360
C3AE
102
}
102
{ACAD_REACTORS
330
C179
330
C1D1
102
}
100
AcDbSymbolTableRecord
100
AcDbDimStyleTableRecord
  2
SC_DEFAUT
 70
     0
  3

  4

  5
OPEN30
  6

  7

 40
1.0
 41
5.0
 42
2.0
 43
0.38
 44
2.5
 45
0.0
 46
0.0
 47
0.0
 48
0.0
140
2.5
141
0.0
142
0.0
143
25.4
144
1.0
145
0.0
146
1.0
147
2.0
 71
     0
 72
     0
 73
     1
 74
     1
 75
     0
 76
     0
 77
     1
 78
    12
170
     0
171
     2
172
     0
173
     0
174
     0
175
     0
176
     0
177
     0
178
     0
270
     2
271
     1
272
     1
273
     2
274
     2
340
7CF9
275
     0
280
     0
281
     0
282
     0
283
     1
284
    12
285
    12
286
    12
287
     5
288
     0
  0
ENDTAB
  0
TABLE
  2
BLOCK_RECORD
  5
7CE9
100
AcDbSymbolTable
 70
     5
  0
BLOCK_RECORD
  5
7D06
102
{ACAD_XDICTIONARY
360
800F
102
}
100
AcDbSymbolTableRecord
100
AcDbBlockTableRecord
  2
*MODEL_SPACE
  0
BLOCK_RECORD
  5
7D02
102
{ACAD_XDICTIONARY
360
8011
102
}
100
AcDbSymbolTableRecord
100
AcDbBlockTableRecord
  2
*PAPER_SPACE
  0
BLOCK_RECORD
  5
7D0A
100
AcDbSymbolTableRecord
100
AcDbBlockTableRecord
  2
COTE
  0
BLOCK_RECORD
  5
7D0B
100
AcDbSymbolTableRecord
100
AcDbBlockTableRecord
  2
FOND
  0
BLOCK_RECORD
  5
7D0C
100
AcDbSymbolTableRecord
100
AcDbBlockTableRecord
  2
_OPEN30
  0
BLOCK_RECORD
  5
C186
100
AcDbSymbolTableRecord
100
AcDbBlockTableRecord
  2
*D3
  0
BLOCK_RECORD
  5
C1D2
100
AcDbSymbolTableRecord
100
AcDbBlockTableRecord
  2
*D4
  0
ENDTAB
  0
ENDSEC
  0
SECTION
  2
BLOCKS
  0
BLOCK
  5
7D24
100
AcDbEntity
  8
0
100
AcDbBlockBegin
  2
*MODEL_SPACE
 70
     0
 10
0.0
 20
0.0
 30
0.0
  3
*MODEL_SPACE
  1

  0
ENDBLK
  5
7D25
100
AcDbEntity
  8
0
100
AcDbBlockEnd
  0
BLOCK
  5
7D22
100
AcDbEntity
 67
     1
  8
0
100
AcDbBlockBegin
  2
*PAPER_SPACE
 70
     0
 10
0.0
 20
0.0
 30
0.0
  3
*PAPER_SPACE
  1

  0
ENDBLK
  5
7D23
100
AcDbEntity
 67
     1
  8
0
100
AcDbBlockEnd
  0
BLOCK
  5
E
100
AcDbEntity
  8
0
100
AcDbBlockBegin
  2
COTE
 70
     0
 10
0.0
 20
0.0
 30
0.0
  3
COTE
  1

  0
ENDBLK
  5
F
100
AcDbEntity
  8
0
100
AcDbBlockEnd
  0
BLOCK
  5
74
100
AcDbEntity
  8
0
100
AcDbBlockBegin
  2
FOND
 70
     0
 10
0.0
 20
0.0
 30
0.0
  3
FOND
  1

  0
ENDBLK
  5
75
100
AcDbEntity
  8
0
100
AcDbBlockEnd
  0
BLOCK
  5
4B08
100
AcDbEntity
  8
0
100
AcDbBlockBegin
  2
_OPEN30
 70
     0
 10
0.0
 20
0.0
 30
0.0
  3
_OPEN30
  1

  0
LINE
  5
4B05
100
AcDbEntity
  8
COTATION1
 62
     0
100
AcDbLine
 10
-1.0
 20
0.267949
 30
0.0
 11
0.0
 21
0.0
 31
0.0
1001
ACAD
1000
RTLwPs
1070
   158
  0
LINE
  5
4B06
100
AcDbEntity
  8
COTATION1
 62
     0
100
AcDbLine
 10
0.0
 20
0.0
 30
0.0
 11
-1.0
 21
-0.267949
 31
0.0
1001
ACAD
1000
RTLwPs
1070
   158
  0
LINE
  5
4B07
100
AcDbEntity
  8
COTATION1
 62
     0
100
AcDbLine
 10
0.0
 20
0.0
 30
0.0
 11
-1.0
 21
0.0
 31
0.0
1001
ACAD
1000
RTLwPs
1070
   158
  0
ENDBLK
  5
4B09
100
AcDbEntity
  8
0
100
AcDbBlockEnd
  0
BLOCK
  5
C190
100
AcDbEntity
  8
0
100
AcDbBlockBegin
  2
*D3
 70
     1
 10
0.0
 20
0.0
 30
0.0
  3
*D3
  1

  0
LINE
  5
C2BE
100
AcDbEntity
  8
COTATION1
 62
     0
100
AcDbLine
 10
152.022978
 20
91.692636
 30
0.0
 11
152.022978
 21
63.947227
 31
0.0
1001
ACAD
1000
RTLwPs
1070
   158
  0
LINE
  5
C2BF
100
AcDbEntity
  8
COTATION1
 62
     0
100
AcDbLine
 10
99.035724
 20
92.324196
 30
0.0
 11
99.035724
 21
63.947227
 31
0.0
1001
ACAD
1000
RTLwPs
1070
   158
  0
LINE
  5
C2C0
100
AcDbEntity
  8
COTATION1
 62
     0
100
AcDbLine
 10
147.022978
 20
66.447227
 30
0.0
 11
104.035724
 21
66.447227
 31
0.0
1001
ACAD
1000
RTLwPs
1070
   158
  0
INSERT
  5
C2C1
100
AcDbEntity
  8
COTATION1
 62
     0
100
AcDbBlockReference
  2
_OPEN30
 10
152.022978
 20
66.447227
 30
0.0
 41
5.0
 42
5.0
 43
5.0
1001
ACAD
1000
RTLwPs
1070
   158
  0
INSERT
  5
C2C2
100
AcDbEntity
  8
COTATION1
 62
     0
100
AcDbBlockReference
  2
_OPEN30
 10
99.035724
 20
66.447227
 30
0.0
 41
5.0
 42
5.0
 43
5.0
 50
180.0
1001
ACAD
1000
RTLwPs
1070
   158
  0
MTEXT
  5
C2C3
100
AcDbEntity
  8
COTATION1
 62
     0
100
AcDbMText
 10
125.529351
 20
69.697227
 30
0.0
 40
2.5
 41
0.0
 71
     5
 72
     1
  1
\A1;53
1001
ACAD
1000
MTEXTBEGIN
1070
    73
1070
     1
1070
    44
1040
1.0
1070
    74
1070
     0
1000
MTEXTEND
1000
MTEXTBEGIN
1070
    73
1070
     1
1070
    44
1040
1.0
1070
    74
1070
     0
1000
MTEXTEND
1000
MTEXTBEGIN
1070
    73
1070
     1
1070
    44
1040
1.0
1070
    74
1070
     0
1000
MTEXTEND
  0
POINT
  5
C2C4
100
AcDbEntity
  8
DEFPOINTS
 62
     0
100
AcDbPoint
 10
152.022978
 20
93.692636
 30
0.0
  0
POINT
  5
C2C5
100
AcDbEntity
  8
DEFPOINTS
 62
     0
100
AcDbPoint
 10
99.035724
 20
94.324196
 30
0.0
  0
POINT
  5
C2C6
100
AcDbEntity
  8
DEFPOINTS
 62
     0
100
AcDbPoint
 10
99.035724
 20
66.447227
 30
0.0
  0
ENDBLK
  5
C191
100
AcDbEntity
  8
0
100
AcDbBlockEnd
  0
BLOCK
  5
C1DC
100
AcDbEntity
  8
0
100
AcDbBlockBegin
  2
*D4
 70
     1
 10
0.0
 20
0.0
 30
0.0
  3
*D4
  1

  0
LINE
  5
C2D9
100
AcDbEntity
  8
COTATION1
 62
     0
100
AcDbLine
 10
61.019553
 20
116.059157
 30
0.0
 11
61.019553
 21
53.947227
 31
0.0
1001
ACAD
1000
RTLwPs
1070
   158
  0
LINE
  5
C2DA
100
AcDbEntity
  8
COTATION1
 62
     0
100
AcDbLine
 10
152.022978
 20
89.692636
 30
0.0
 11
152.022978
 21
53.947227
 31
0.0
1001
ACAD
1000
RTLwPs
1070
   158
  0
LINE
  5
C2DB
100
AcDbEntity
  8
COTATION1
 62
     0
100
AcDbLine
 10
66.019553
 20
56.447227
 30
0.0
 11
147.022978
 21
56.447227
 31
0.0
1001
ACAD
1000
RTLwPs
1070
   158
  0
INSERT
  5
C2DC
100
AcDbEntity
  8
COTATION1
 62
     0
100
AcDbBlockReference
  2
_OPEN30
 10
61.019553
 20
56.447227
 30
0.0
 41
5.0
 42
5.0
 43
5.0
 50
180.0
1001
ACAD
1000
RTLwPs
1070
   158
  0
INSERT
  5
C2DD
100
AcDbEntity
  8
COTATION1
 62
     0
100
AcDbBlockReference
  2
_OPEN30
 10
152.022978
 20
56.447227
 30
0.0
 41
5.0
 42
5.0
 43
5.0
1001
ACAD
1000
RTLwPs
1070
   158
  0
MTEXT
  5
C2DE
100
AcDbEntity
  8
COTATION1
 62
     0
100
AcDbMText
 10
106.521266
 20
59.697227
 30
0.0
 40
2.5
 41
0.0
 71
     5
 72
     1
  1
\A1;91
1001
ACAD
1000
MTEXTBEGIN
1070
    73
1070
     1
1070
    44
1040
1.0
1070
    74
1070
     0
1000
MTEXTEND
1000
MTEXTBEGIN
1070
    73
1070
     1
1070
    44
1040
1.0
1070
    74
1070
     0
1000
MTEXTEND
1000
MTEXTBEGIN
1070
    73
1070
     1
1070
    44
1040
1.0
1070
    74
1070
     0
1000
MTEXTEND
  0
POINT
  5
C2DF
100
AcDbEntity
  8
DEFPOINTS
 62
     0
100
AcDbPoint
 10
61.019553
 20
118.059157
 30
0.0
  0
POINT
  5
C2E0
100
AcDbEntity
  8
DEFPOINTS
 62
     0
100
AcDbPoint
 10
152.022978
 20
91.692636
 30
0.0
  0
POINT
  5
C2E1
100
AcDbEntity
  8
DEFPOINTS
 62
     0
100
AcDbPoint
 10
152.022978
 20
56.447227
 30
0.0
  0
ENDBLK
  5
C1DD
100
AcDbEntity
  8
0
100
AcDbBlockEnd
  0
ENDSEC
  0
SECTION
  2
ENTITIES
  0
INSERT
  5
A
100
AcDbEntity
  8
0
100
AcDbBlockReference
  2
COTE
 10
0.0
 20
0.0
 30
0.0
  0
INSERT
  5
17
100
AcDbEntity
  8
0
100
AcDbBlockReference
  2
COTE
 10
284.010391
 20
6.373258
 30
0.0
  0
INSERT
  5
72
100
AcDbEntity
  8
0
100
AcDbBlockReference
  2
FOND
 10
0.0
 20
0.0
 30
0.0
  0
LINE
  5
BB46
100
AcDbEntity
  8
ALPHA
100
AcDbLine
 10
100.658466
 20
158.330334
 30
0.0
 11
100.658466
 21
91.41921
 31
0.0
  0
LINE
  5
BB47
100
AcDbEntity
  8
ALPHA
100
AcDbLine
 10
99.035724
 20
94.324196
 30
0.0
 11
99.035724
 21
155.42535
 31
0.0
  0
SPLINE
  5
BB48
100
AcDbEntity
  8
ALPHA
100
AcDbSpline
210
-1.0
220
0.0
230
0.0
 70
    24
 71
     3
 72
     8
 73
     4
 74
     0
 42
0.0000001
 43
0.0000001
 40
10.0
 40
10.0
 40
10.0
 40
10.0
 40
11.0
 40
11.0
 40
11.0
 40
11.0
 10
151.438529453974
 20
108.5116042515637
 30
0.0
 10
151.438529453974
 20
108.5116042515637
 30
0.0
 10
151.438529453974
 20
141.7137082262863
 30
0.0
 10
151.438529453974
 20
141.7137082262863
 30
0.0
  0
SPLINE
  5
BB49
100
AcDbEntity
  8
ALPHA
100
AcDbSpline
210
-1.0
220
0.0
230
0.0
 70
    24
 71
     3
 72
     8
 73
     4
 74
     0
 42
0.0000001
 43
0.0000001
 40
4.0
 40
4.0
 40
4.0
 40
4.0
 40
5.0
 40
5.0
 40
5.0
 40
5.0
 10
100.6584670341835
 20
158.330334645113
 30
0.0
 10
100.6584670341835
 20
158.330334645113
 30
0.0
 10
100.6584670341835
 20
91.41127996218283
 30
0.0
 10
100.6584670341835
 20
91.41127996218283
 30
0.0
  0
LINE
  5
BB4A
100
AcDbEntity
  8
ALPHA
100
AcDbLine
 10
151.460451
 20
140.397416
 30
0.0
 11
151.460451
 21
109.660445
 31
0.0
  0
LINE
  5
BB4B
100
AcDbEntity
  8
ALPHA
100
AcDbLine
 10
151.798621
 20
109.660445
 30
0.0
 11
151.798621
 21
140.397416
 31
0.0
  0
LINE
  5
BB4C
100
AcDbEntity
  8
ALPHA
100
AcDbLine
 10
151.438529
 20
129.298018
 30
0.0
 11
151.438529
 21
120.938488
 31
0.0
  0
LINE
  5
BB4D
100
AcDbEntity
  8
ALPHA
100
AcDbLine
 10
152.147985
 20
120.938488
 30
0.0
 11
152.147985
 21
129.298018
 31
0.0
  0
SPLINE
  5
BB4E
100
AcDbEntity
  8
ALPHA
100
AcDbSpline
210
-1.0
220
0.0
230
0.0
 70
    24
 71
     3
 72
     8
 73
     4
 74
     0
 42
0.0000001
 43
0.0000001
 40
7.0
 40
7.0
 40
7.0
 40
7.0
 40
8.0
 40
8.0
 40
8.0
 40
8.0
 10
127.0894491852479
 20
156.9632001623798
 30
0.0
 10
127.0894491852479
 20
156.9632001623798
 30
0.0
 10
127.0894491852479
 20
92.99810749894779
 30
0.0
 10
127.0894491852479
 20
92.99810749894779
 30
0.0
  0
SPLINE
  5
BB4F
100
AcDbEntity
  8
ALPHA
100
AcDbSpline
210
-1.0
220
0.0
230
0.0
 70
    24
 71
     3
 72
     8
 73
     4
 74
     0
 42
0.0000001
 43
0.0000001
 40
3.0
 40
3.0
 40
3.0
 40
3.0
 40
4.0
 40
4.0
 40
4.0
 40
4.0
 10
100.6584670341835
 20
91.41127996218283
 30
0.0
 10
100.6584670341835
 20
91.41127996218283
 30
0.0
 10
100.6584670341835
 20
158.330334645113
 30
0.0
 10
100.6584670341835
 20
158.330334645113
 30
0.0
  0
LINE
  5
BB50
100
AcDbEntity
  8
ALPHA
100
AcDbLine
 10
90.024762
 20
138.886151
 30
0.0
 11
90.024762
 21
112.115783
 31
0.0
  0
SPLINE
  5
BB52
100
AcDbEntity
  8
ALPHA
100
AcDbSpline
210
-1.0
220
0.0
230
0.0
 70
    24
 71
     3
 72
     8
 73
     4
 74
     0
 42
0.0000001
 43
0.0000001
 40
17.0
 40
17.0
 40
17.0
 40
17.0
 40
18.0
 40
18.0
 40
18.0
 40
18.0
 10
61.01955341123176
 20
132.9423114511934
 30
0.0
 10
61.01955341123176
 20
132.9423114511934
 30
0.0
 10
61.01955341123176
 20
118.0591565296479
 30
0.0
 10
61.01955341123176
 20
118.0591565296479
 30
0.0
  0
SPLINE
  5
BB53
100
AcDbEntity
  8
ALPHA
100
AcDbSpline
210
-1.0
220
0.0
230
0.0
 70
    24
 71
     3
 72
     8
 73
     4
 74
     0
 42
0.0000001
 43
0.0000001
 40
7.0
 40
7.0
 40
7.0
 40
7.0
 40
8.0
 40
8.0
 40
8.0
 40
8.0
 10
78.82087952415088
 20
111.0173178105001
 30
0.0
 10
78.82087952415088
 20
111.0173178105001
 30
0.0
 10
78.82087952415088
 20
139.9846166099465
 30
0.0
 10
78.82087952415088
 20
139.9846166099465
 30
0.0
  0
LINE
  5
BB56
100
AcDbEntity
  8
ALPHA
100
AcDbLine
 10
68.530163
 20
107.901967
 30
0.0
 11
68.530163
 21
143.099967
 31
0.0
  0
SPLINE
  5
BB58
100
AcDbEntity
  8
ALPHA
100
AcDbSpline
210
0.0203285155233782
220
0.9997933543771011
230
0.0
 70
    24
 71
     3
 72
     8
 73
     4
 74
     0
 42
0.0000001
 43
0.0000001
 40
5.0
 40
5.0
 40
5.0
 40
5.0
 40
6.0
 40
6.0
 40
6.0
 40
6.0
 10
100.7584670341835
 20
91.41127996218283
 30
0.0
 10
100.7584670341835
 20
91.41127996218283
 30
0.0
 10
116.908471923352
 20
91.08290648014799
 30
0.0
 10
116.908471923352
 20
91.08290648014799
 30
0.0
  0
SPLINE
  5
BB59
100
AcDbEntity
  8
ALPHA
100
AcDbSpline
210
0.0202034682247036
220
0.9997958891052181
230
0.0
 70
    24
 71
     3
 72
     8
 73
     4
 74
     0
 42
0.0000001
 43
0.0000001
 40
2.0
 40
2.0
 40
2.0
 40
2.0
 40
3.0
 40
3.0
 40
3.0
 40
3.0
 10
116.908471923352
 20
91.08290648014799
 30
0.0
 10
116.908471923352
 20
91.08290648014799
 30
0.0
 10
100.6584670341835
 20
91.41127996218283
 30
0.0
 10
100.6584670341835
 20
91.41127996218283
 30
0.0
  0
LINE
  5
BB5A
100
AcDbEntity
  8
ALPHA
100
AcDbLine
 10
99.035724
 20
98.898102
 30
0.0
 11
99.035724
 21
110.60172
 31
0.0
  0
LINE
  5
BB5B
100
AcDbEntity
  8
ALPHA
100
AcDbLine
 10
97.967578
 20
110.60172
 30
0.0
 11
97.967578
 21
100.03015
 31
0.0
  0
LINE
  5
BB5C
100
AcDbEntity
  8
ALPHA
100
AcDbLine
 10
100.658466
 20
91.41921
 30
0.0
 11
99.035724
 21
94.324196
 31
0.0
  0
LINE
  5
BB5D
100
AcDbEntity
  8
ALPHA
100
AcDbLine
 10
97.967578
 20
100.03015
 30
0.0
 11
99.035724
 21
98.898102
 31
0.0
  0
SPLINE
  5
BB5E
100
AcDbEntity
  8
ALPHA
100
AcDbSpline
210
0.0
220
0.0
230
-1.0
 70
     8
 71
     3
 72
     8
 73
     4
 74
     0
 42
0.0000001
 43
0.0000001
 40
0.0
 40
0.0
 40
0.0
 40
0.0
 40
1.0
 40
1.0
 40
1.0
 40
1.0
 10
61.36938311510403
 20
117.4098725992609
 30
0.0
 10
61.83722203908269
 20
113.9717462696034
 30
0.0
 10
62.60731382720701
 20
110.565337833097
 30
0.0
 10
63.66379953290152
 20
107.260146790911
 30
0.0
  0
LINE
  5
BB5F
100
AcDbEntity
  8
ALPHA
100
AcDbLine
 10
78.82088
 20
112.115783
 30
0.0
 11
90.024762
 21
112.115783
 31
0.0
  0
SPLINE
  5
BB60
100
AcDbEntity
  8
ALPHA
100
AcDbSpline
210
-0.9961976858674729
220
0.0871215855703517
230
0.0
 70
    24
 71
     3
 72
     8
 73
     4
 74
     0
 42
0.0000001
 43
0.0000001
 40
3.0
 40
3.0
 40
3.0
 40
3.0
 40
4.0
 40
4.0
 40
4.0
 40
4.0
 10
68.53016393356859
 20
107.9019676876154
 30
0.0
 10
68.53016393356859
 20
107.9019676876154
 30
0.0
 10
68.71907197365965
 20
110.062049499126
 30
0.0
 10
68.71907197365965
 20
110.062049499126
 30
0.0
  0
SPLINE
  5
BB61
100
AcDbEntity
  8
ALPHA
100
AcDbSpline
210
0.0
220
0.0
230
1.0
 70
     8
 71
     3
 72
    11
 73
     7
 74
     0
 42
0.0000001
 43
0.0000001
 40
1.0
 40
1.0
 40
1.0
 40
1.0
 40
2.0
 40
2.0
 40
2.0
 40
3.0
 40
3.0
 40
3.0
 40
3.0
 10
63.66379953290152
 20
107.260146790911
 30
0.0
 10
63.99543809217255
 20
106.2227851090281
 30
0.0
 10
64.95350504117755
 20
105.5730347390359
 30
0.0
 10
66.04264151923359
 20
105.5730347390359
 30
0.0
 10
67.33887718198184
 20
105.5730347390359
 30
0.0
 10
68.41728554911902
 20
106.6113293001291
 30
0.0
 10
68.53016393356859
 20
107.9019676876154
 30
0.0
  0
SPLINE
  5
BB62
100
AcDbEntity
  8
ALPHA
100
AcDbSpline
210
0.0
220
1.0
230
0.0
 70
    24
 71
     3
 72
     8
 73
     4
 74
     0
 42
0.0000001
 43
0.0000001
 40
5.0
 40
5.0
 40
5.0
 40
5.0
 40
6.0
 40
6.0
 40
6.0
 40
6.0
 10
69.2167630323687
 20
110.5177609933703
 30
0.0
 10
69.2167630323687
 20
110.5177609933703
 30
0.0
 10
77.95516761696808
 20
110.5177609933703
 30
0.0
 10
77.95516761696808
 20
110.5177609933703
 30
0.0
  0
SPLINE
  5
BB63
100
AcDbEntity
  8
ALPHA
100
AcDbSpline
210
0.0
220
0.0
230
-1.0
 70
     8
 71
     3
 72
     8
 73
     4
 74
     0
 42
0.0000001
 43
0.0000001
 40
4.0
 40
4.0
 40
4.0
 40
4.0
 40
5.0
 40
5.0
 40
5.0
 40
5.0
 10
68.71907197365965
 20
110.062049499126
 30
0.0
 10
68.74099463510231
 20
110.3199906007811
 30
0.0
 10
68.95695617229285
 20
110.5177609933703
 30
0.0
 10
69.2167630323687
 20
110.5177609933703
 30
0.0
  0
SPLINE
  5
BB64
100
AcDbEntity
  8
ALPHA
100
AcDbSpline
210
-0.4998032509530518
220
0.8661389671044485
230
0.0
 70
    24
 71
     3
 72
     8
 73
     4
 74
     0
 42
0.0000001
 43
0.0000001
 40
6.0
 40
6.0
 40
6.0
 40
6.0
 40
7.0
 40
7.0
 40
7.0
 40
7.0
 10
77.95516761696808
 20
110.5177609933703
 30
0.0
 10
77.95516761696808
 20
110.5177609933703
 30
0.0
 10
78.82087952415088
 20
111.0173178105001
 30
0.0
 10
78.82087952415088
 20
111.0173178105001
 30
0.0
  0
LINE
  5
BB65
100
AcDbEntity
  8
ALPHA
100
AcDbLine
 10
90.024762
 20
112.115783
 30
0.0
 11
90.873683
 21
111.266396
 31
0.0
  0
LINE
  5
BB66
100
AcDbEntity
  8
ALPHA
100
AcDbLine
 10
90.873683
 20
111.266396
 30
0.0
 11
99.035724
 21
111.270053
 31
0.0
  0
LINE
  5
BB68
100
AcDbEntity
  8
ALPHA
100
AcDbLine
 10
99.035724
 20
110.60172
 30
0.0
 11
97.967578
 21
110.60172
 31
0.0
  0
SPLINE
  5
BB69
100
AcDbEntity
  8
ALPHA
100
AcDbSpline
210
-0.9999853911163388
220
-0.0054053264381267
230
0.0
 70
    24
 71
     3
 72
     8
 73
     4
 74
     0
 42
0.0000001
 43
0.0000001
 40
19.0
 40
19.0
 40
19.0
 40
19.0
 40
20.0
 40
20.0
 40
20.0
 40
20.0
 10
61.36845023589376
 20
117.5824552531713
 30
0.0
 10
61.36845023589376
 20
117.5824552531713
 30
0.0
 10
61.36938311510403
 20
117.4098725992609
 30
0.0
 10
61.36938311510403
 20
117.4098725992609
 30
0.0
  0
SPLINE
  5
BB6A
100
AcDbEntity
  8
ALPHA
100
AcDbSpline
210
0.0
220
0.0
230
-1.0
 70
     8
 71
     3
 72
     8
 73
     4
 74
     0
 42
0.0000001
 43
0.0000001
 40
18.0
 40
18.0
 40
18.0
 40
18.0
 40
19.0
 40
19.0
 40
19.0
 40
19.0
 10
61.01955341123176
 20
118.0591565296479
 30
0.0
 10
61.01955341123176
 20
117.841795673642
 30
0.0
 10
61.15995173238582
 20
117.6496225563147
 30
0.0
 10
61.36845023589376
 20
117.5824552531713
 30
0.0
  0
SPLINE
  5
BB6C
100
AcDbEntity
  8
ALPHA
100
AcDbSpline
210
-1.0
220
0.0
230
0.0
 70
    24
 71
     3
 72
     8
 73
     4
 74
     0
 42
0.0000001
 43
0.0000001
 40
8.0
 40
8.0
 40
8.0
 40
8.0
 40
9.0
 40
9.0
 40
9.0
 40
9.0
 10
152.0229782792435
 20
93.69263607103569
 30
0.0
 10
152.0229782792435
 20
93.69263607103569
 30
0.0
 10
152.0229782792435
 20
108.5116042515637
 30
0.0
 10
152.0229782792435
 20
108.5116042515637
 30
0.0
  0
SPLINE
  5
BB6D
100
AcDbEntity
  8
ALPHA
100
AcDbSpline
210
0.0
220
0.0
230
-1.0
 70
     8
 71
     3
 72
     8
 73
     4
 74
     0
 42
0.0000001
 43
0.0000001
 40
7.0
 40
7.0
 40
7.0
 40
7.0
 40
8.0
 40
8.0
 40
8.0
 40
8.0
 10
150.2024645002917
 20
91.87305517129436
 30
0.0
 10
151.2081082890235
 20
91.87305517129436
 30
0.0
 10
152.0229782792435
 20
92.68792516151442
 30
0.0
 10
152.0229782792435
 20
93.69263607103569
 30
0.0
  0
SPLINE
  5
BB6E
100
AcDbEntity
  8
ALPHA
100
AcDbSpline
210
0.0
220
0.0
230
1.0
 70
     8
 71
     3
 72
     8
 73
     4
 74
     0
 42
0.0000001
 43
0.0000001
 40
0.0
 40
0.0
 40
0.0
 40
0.0
 40
1.0
 40
1.0
 40
1.0
 40
1.0
 10
127.0894491852479
 20
92.99810749894779
 30
0.0
 10
127.0894491852479
 20
91.99246371021613
 30
0.0
 10
126.2745791950279
 20
91.17759371999607
 30
0.0
 10
125.2689354062961
 20
91.17759371999607
 30
0.0
  0
SPLINE
  5
BB6F
100
AcDbEntity
  8
ALPHA
100
AcDbSpline
210
-0.0237257897349245
220
0.9997185038306803
230
0.0
 70
    24
 71
     3
 72
     8
 73
     4
 74
     0
 42
0.0000001
 43
0.0000001
 40
6.0
 40
6.0
 40
6.0
 40
6.0
 40
7.0
 40
7.0
 40
7.0
 40
7.0
 10
116.908471923352
 20
91.08290648014799
 30
0.0
 10
116.908471923352
 20
91.08290648014799
 30
0.0
 10
150.2024645002917
 20
91.87305517129436
 30
0.0
 10
150.2024645002917
 20
91.87305517129436
 30
0.0
  0
SPLINE
  5
BB70
100
AcDbEntity
  8
ALPHA
100
AcDbSpline
210
-0.0113248706724988
220
0.9999358715958996
230
0.0
 70
    24
 71
     3
 72
     8
 73
     4
 74
     0
 42
0.0000001
 43
0.0000001
 40
1.0
 40
1.0
 40
1.0
 40
1.0
 40
2.0
 40
2.0
 40
2.0
 40
2.0
 10
125.2689354062961
 20
91.17759371999607
 30
0.0
 10
125.2689354062961
 20
91.17759371999607
 30
0.0
 10
116.908471923352
 20
91.08290648014799
 30
0.0
 10
116.908471923352
 20
91.08290648014799
 30
0.0
  0
SPLINE
  5
BB72
100
AcDbEntity
  8
ALPHA
100
AcDbSpline
210
0.0
220
1.0
230
0.0
 70
    24
 71
     3
 72
     8
 73
     4
 74
     0
 42
0.0000001
 43
0.0000001
 40
9.0
 40
9.0
 40
9.0
 40
9.0
 40
10.0
 40
10.0
 40
10.0
 40
10.0
 10
152.0229782792435
 20
108.5116042515637
 30
0.0
 10
152.0229782792435
 20
108.5116042515637
 30
0.0
 10
151.438529453974
 20
108.5116042515637
 30
0.0
 10
151.438529453974
 20
108.5116042515637
 30
0.0
  0
LINE
  5
BB73
100
AcDbEntity
  8
ALPHA
100
AcDbLine
 10
151.460451
 20
109.660445
 30
0.0
 11
151.798621
 21
109.660445
 31
0.0
  0
LINE
  5
BB74
100
AcDbEntity
  8
ALPHA
100
AcDbLine
 10
151.438529
 20
120.938488
 30
0.0
 11
152.147985
 21
120.938488
 31
0.0
  0
SPLINE
  5
BB75
100
AcDbEntity
  8
ALPHA
100
AcDbSpline
210
-0.03622274708016
220
0.9993437409590189
230
0.0
 70
    24
 71
     3
 72
     8
 73
     4
 74
     0
 42
0.0000001
 43
0.0000001
 40
3.0
 40
3.0
 40
3.0
 40
3.0
 40
4.0
 40
4.0
 40
4.0
 40
4.0
 10
116.908471923352
 20
158.9157163495927
 30
0.0
 10
116.908471923352
 20
158.9157163495927
 30
0.0
 10
100.7584670341835
 20
158.330334645113
 30
0.0
 10
100.7584670341835
 20
158.330334645113
 30
0.0
  0
SPLINE
  5
BB76
100
AcDbEntity
  8
ALPHA
100
AcDbSpline
210
-0.0360001701475129
220
0.9993517837825429
230
0.0
 70
    24
 71
     3
 72
     8
 73
     4
 74
     0
 42
0.0000001
 43
0.0000001
 40
4.0
 40
4.0
 40
4.0
 40
4.0
 40
5.0
 40
5.0
 40
5.0
 40
5.0
 10
100.6584661456712
 20
158.3303339223153
 30
0.0
 10
100.6584661456712
 20
158.3303339223153
 30
0.0
 10
116.908471923352
 20
158.9157163495927
 30
0.0
 10
116.908471923352
 20
158.9157163495927
 30
0.0
  0
SPLINE
  5
BB77
100
AcDbEntity
  8
ALPHA
100
AcDbSpline
210
0.0
220
0.0
230
-1.0
 70
     8
 71
     3
 72
     8
 73
     4
 74
     0
 42
0.0000001
 43
0.0000001
 40
14.0
 40
14.0
 40
14.0
 40
14.0
 40
15.0
 40
15.0
 40
15.0
 40
15.0
 10
63.66379953290152
 20
143.7417876295356
 30
0.0
 10
62.60731382720701
 20
140.4365965873495
 30
0.0
 10
61.83722203908269
 20
137.0301881508431
 30
0.0
 10
61.36938311510403
 20
133.5920618211857
 30
0.0
  0
SPLINE
  5
BB78
100
AcDbEntity
  8
ALPHA
100
AcDbSpline
210
0.0
220
0.0
230
-1.0
 70
     8
 71
     3
 72
     8
 73
     4
 74
     0
 42
0.0000001
 43
0.0000001
 40
16.0
 40
16.0
 40
16.0
 40
16.0
 40
17.0
 40
17.0
 40
17.0
 40
17.0
 10
61.36845023589376
 20
133.4180798484599
 30
0.0
 10
61.15995173238582
 20
133.3523118641318
 30
0.0
 10
61.01955341123176
 20
133.1601387468045
 30
0.0
 10
61.01955341123176
 20
132.9423114511934
 30
0.0
  0
SPLINE
  5
BB7A
100
AcDbEntity
  8
ALPHA
100
AcDbSpline
210
-0.9999856251617181
220
0.0053618532176889
230
0.0
 70
    24
 71
     3
 72
     8
 73
     4
 74
     0
 42
0.0000001
 43
0.0000001
 40
15.0
 40
15.0
 40
15.0
 40
15.0
 40
16.0
 40
16.0
 40
16.0
 40
16.0
 10
61.36938311510403
 20
133.5920618211857
 30
0.0
 10
61.36938311510403
 20
133.5920618211857
 30
0.0
 10
61.36845023589376
 20
133.4180798484599
 30
0.0
 10
61.36845023589376
 20
133.4180798484599
 30
0.0
  0
LINE
  5
BB7B
100
AcDbEntity
  8
ALPHA
100
AcDbLine
 10
90.024762
 20
138.886151
 30
0.0
 11
78.82088
 21
138.886151
 31
0.0
  0
SPLINE
  5
BB7C
100
AcDbEntity
  8
ALPHA
100
AcDbSpline
210
-0.9961976858674725
220
-0.087121585570354
230
0.0
 70
    24
 71
     3
 72
     8
 73
     4
 74
     0
 42
0.0000001
 43
0.0000001
 40
11.0
 40
11.0
 40
11.0
 40
11.0
 40
12.0
 40
12.0
 40
12.0
 40
12.0
 10
68.71907197365965
 20
140.9398849213205
 30
0.0
 10
68.71907197365965
 20
140.9398849213205
 30
0.0
 10
68.53016393356859
 20
143.099966732831
 30
0.0
 10
68.53016393356859
 20
143.099966732831
 30
0.0
  0
SPLINE
  5
BB7D
100
AcDbEntity
  8
ALPHA
100
AcDbSpline
210
0.0
220
1.0
230
0.0
 70
    24
 71
     3
 72
     8
 73
     4
 74
     0
 42
0.0000001
 43
0.0000001
 40
9.0
 40
9.0
 40
9.0
 40
9.0
 40
10.0
 40
10.0
 40
10.0
 40
10.0
 10
77.95516761696808
 20
140.4841734270762
 30
0.0
 10
77.95516761696808
 20
140.4841734270762
 30
0.0
 10
69.2167630323687
 20
140.4841734270762
 30
0.0
 10
69.2167630323687
 20
140.4841734270762
 30
0.0
  0
SPLINE
  5
BB7E
100
AcDbEntity
  8
ALPHA
100
AcDbSpline
210
0.0
220
0.0
230
1.0
 70
     8
 71
     3
 72
     8
 73
     4
 74
     0
 42
0.0000001
 43
0.0000001
 40
10.0
 40
10.0
 40
10.0
 40
10.0
 40
11.0
 40
11.0
 40
11.0
 40
11.0
 10
69.2167630323687
 20
140.4841734270762
 30
0.0
 10
68.95695617229285
 20
140.4841734270762
 30
0.0
 10
68.74099463510231
 20
140.6819438196653
 30
0.0
 10
68.71907197365965
 20
140.9398849213205
 30
0.0
  0
SPLINE
  5
BB7F
100
AcDbEntity
  8
ALPHA
100
AcDbSpline
210
0.4998032509530305
220
0.8661389671044609
230
0.0
 70
    24
 71
     3
 72
     8
 73
     4
 74
     0
 42
0.0000001
 43
0.0000001
 40
8.0
 40
8.0
 40
8.0
 40
8.0
 40
9.0
 40
9.0
 40
9.0
 40
9.0
 10
78.82087952415088
 20
139.9846166099465
 30
0.0
 10
78.82087952415088
 20
139.9846166099465
 30
0.0
 10
77.95516761696808
 20
140.4841734270762
 30
0.0
 10
77.95516761696808
 20
140.4841734270762
 30
0.0
  0
SPLINE
  5
BB80
100
AcDbEntity
  8
ALPHA
100
AcDbSpline
210
0.0
220
0.0
230
-1.0
 70
     8
 71
     3
 72
    11
 73
     7
 74
     0
 42
0.0000001
 43
0.0000001
 40
12.0
 40
12.0
 40
12.0
 40
12.0
 40
13.0
 40
13.0
 40
13.0
 40
14.0
 40
14.0
 40
14.0
 40
14.0
 10
68.53016393356859
 20
143.099966732831
 30
0.0
 10
68.41728554911902
 20
144.3906051203175
 30
0.0
 10
67.33887718198184
 20
145.4288996814107
 30
0.0
 10
66.04264151923359
 20
145.4288996814107
 30
0.0
 10
64.95350504117755
 20
145.4288996814107
 30
0.0
 10
63.99543809217255
 20
144.7791493114183
 30
0.0
 10
63.66379953290152
 20
143.7417876295356
 30
0.0
  0
LINE
  5
BB81
100
AcDbEntity
  8
ALPHA
100
AcDbLine
 10
99.035724
 20
139.735537
 30
0.0
 11
90.873683
 21
139.735537
 31
0.0
  0
LINE
  5
BB82
100
AcDbEntity
  8
ALPHA
100
AcDbLine
 10
90.873683
 20
139.735537
 30
0.0
 11
90.024762
 21
138.886151
 31
0.0
  0
LINE
  5
BB83
100
AcDbEntity
  8
ALPHA
100
AcDbLine
 10
99.035724
 20
155.42535
 30
0.0
 11
100.658466
 21
158.330334
 31
0.0
  0
SPLINE
  5
BB84
100
AcDbEntity
  8
ALPHA
100
AcDbSpline
210
-1.0
220
0.0
230
0.0
 70
    24
 71
     3
 72
     8
 73
     4
 74
     0
 42
0.0000001
 43
0.0000001
 40
0.0
 40
0.0
 40
0.0
 40
0.0
 40
1.0
 40
1.0
 40
1.0
 40
1.0
 10
152.0229782792435
 20
141.7137082262863
 30
0.0
 10
152.0229782792435
 20
141.7137082262863
 30
0.0
 10
152.0229782792435
 20
156.5317435276039
 30
0.0
 10
152.0229782792435
 20
156.5317435276039
 30
0.0
  0
LINE
  5
BB85
100
AcDbEntity
  8
ALPHA
100
AcDbLine
 10
152.147985
 20
129.298018
 30
0.0
 11
151.438529
 21
129.298018
 31
0.0
  0
LINE
  5
BB86
100
AcDbEntity
  8
ALPHA
100
AcDbLine
 10
151.798621
 20
140.397416
 30
0.0
 11
151.460451
 21
140.397416
 31
0.0
  0
SPLINE
  5
BB87
100
AcDbEntity
  8
ALPHA
100
AcDbSpline
210
0.0
220
1.0
230
0.0
 70
    24
 71
     3
 72
     8
 73
     4
 74
     0
 42
0.0000001
 43
0.0000001
 40
11.0
 40
11.0
 40
11.0
 40
11.0
 40
12.0
 40
12.0
 40
12.0
 40
12.0
 10
151.438529453974
 20
141.7137082262863
 30
0.0
 10
151.438529453974
 20
141.7137082262863
 30
0.0
 10
152.0229782792435
 20
141.7137082262863
 30
0.0
 10
152.0229782792435
 20
141.7137082262863
 30
0.0
  0
SPLINE
  5
BB88
100
AcDbEntity
  8
ALPHA
100
AcDbSpline
210
0.0
220
0.0
230
-1.0
 70
     8
 71
     3
 72
     8
 73
     4
 74
     0
 42
0.0000001
 43
0.0000001
 40
1.0
 40
1.0
 40
1.0
 40
1.0
 40
2.0
 40
2.0
 40
2.0
 40
2.0
 10
152.0229782792435
 20
156.5317435276039
 30
0.0
 10
152.0229782792435
 20
157.5373873163356
 30
0.0
 10
151.2081082890235
 20
158.3522573065557
 30
0.0
 10
150.2024645002917
 20
158.3522573065557
 30
0.0
  0
SPLINE
  5
BB89
100
AcDbEntity
  8
ALPHA
100
AcDbSpline
210
0.0
220
0.0
230
1.0
 70
     8
 71
     3
 72
     8
 73
     4
 74
     0
 42
0.0000001
 43
0.0000001
 40
6.0
 40
6.0
 40
6.0
 40
6.0
 40
7.0
 40
7.0
 40
7.0
 40
7.0
 10
125.2689354062961
 20
158.7841803809368
 30
0.0
 10
126.2745791950279
 20
158.7841803809368
 30
0.0
 10
127.0894491852479
 20
157.9693103907166
 30
0.0
 10
127.0894491852479
 20
156.9632001623798
 30
0.0
  0
SPLINE
  5
BB8A
100
AcDbEntity
  8
ALPHA
100
AcDbSpline
210
0.0169213220080212
220
0.9998568241810929
230
0.0
 70
    24
 71
     3
 72
     8
 73
     4
 74
     0
 42
0.0000001
 43
0.0000001
 40
2.0
 40
2.0
 40
2.0
 40
2.0
 40
3.0
 40
3.0
 40
3.0
 40
3.0
 10
150.2024645002917
 20
158.3522573065557
 30
0.0
 10
150.2024645002917
 20
158.3522573065557
 30
0.0
 10
116.908471923352
 20
158.9157163495927
 30
0.0
 10
116.908471923352
 20
158.9157163495927
 30
0.0
  0
SPLINE
  5
BB8B
100
AcDbEntity
  8
ALPHA
100
AcDbSpline
210
0.0157311484438303
220
0.9998762578282565
230
0.0
 70
    24
 71
     3
 72
     8
 73
     4
 74
     0
 42
0.0000001
 43
0.0000001
 40
5.0
 40
5.0
 40
5.0
 40
5.0
 40
6.0
 40
6.0
 40
6.0
 40
6.0
 10
116.908471923352
 20
158.9157163495927
 30
0.0
 10
116.908471923352
 20
158.9157163495927
 30
0.0
 10
125.2689354062961
 20
158.7841803809368
 30
0.0
 10
125.2689354062961
 20
158.7841803809368
 30
0.0
  0
TEXT
  5
BD2A
100
AcDbEntity
  8
AXE
100
AcDbText
 10
109.432281
 20
76.090868
 30
0.0
 40
8.0
  1
Y
 72
     2
 11
115.908472
 21
76.090868
 31
0.0
100
AcDbText
  0
LINE
  5
BD2B
100
AcDbEntity
  8
AXE
100
AcDbLine
 10
116.908472
 20
76.090868
 30
0.0
 11
116.908472
 21
164.069641
 31
0.0
  0
LINE
  5
BE34
100
AcDbEntity
  8
AXE
100
AcDbLine
 10
51.019553
 20
125.434039
 30
0.0
 11
167.147985
 21
125.434039
 31
0.0
  0
TEXT
  5
BE35
100
AcDbEntity
  8
AXE
100
AcDbText
 10
160.671794
 20
126.434039
 30
0.0
 40
8.0
  1
Z
 72
     2
 11
167.147985
 21
126.434039
 31
0.0
100
AcDbText
  0
DIMENSION
  5
C179
100
AcDbEntity
  8
COTATION1
100
AcDbDimension
  2
*D3
 10
99.035724
 20
66.447227
 30
0.0
 11
125.529351
 21
69.697227
 31
0.0
 70
    32
  3
SC_DEFAUT
100
AcDbAlignedDimension
 13
152.022978
 23
93.692636
 33
0.0
 14
99.035724
 24
94.324196
 34
0.0
100
AcDbRotatedDimension
  0
DIMENSION
  5
C1D1
100
AcDbEntity
  8
COTATION1
100
AcDbDimension
  2
*D4
 10
152.022978
 20
56.447227
 30
0.0
 11
106.521266
 21
59.697227
 31
0.0
 70
    32
  3
SC_DEFAUT
100
AcDbAlignedDimension
 13
61.019553
 23
118.059157
 33
0.0
 14
152.022978
 24
91.692636
 34
0.0
100
AcDbRotatedDimension
1001
ACAD
1000
DSTYLE
1002
{
1070
   271
1070
     2
1002
}
  0
VIEWPORT
  5
494D
102
{ACAD_XDICTIONARY
360
C32C
102
}
100
AcDbEntity
 67
     1
  8
0
100
AcDbViewport
 10
6.0
 20
4.5
 30
0.0
 40
13.37404
 41
9.064748
 68
    -1
 69
     1
1001
ACAD
1000
MVIEW
1002
{
1070
    16
1010
0.0
1020
0.0
1030
0.0
1010
0.0
1020
0.0
1030
1.0
1040
0.0
1040
9.064748
1040
6.0
1040
4.5
1040
50.0
1040
0.0
1040
0.0
1070
     0
1070
   100
1070
     1
1070
     1
1070
     0
1070
     0
1070
     0
1070
     0
1040
0.0
1040
0.0
1040
0.0
1040
10.0
1040
10.0
1040
10.0
1040
10.0
1070
     0
1002
{
1002
}
1002
}
  0
ENDSEC
  0
SECTION
  2
OBJECTS
  0
DICTIONARY
  5
7CF4
102
{ACAD_XDICTIONARY
360
C3A6
102
}
100
AcDbDictionary
  3
ACAD_COLOR
350
BD9E
  3
ACAD_GROUP
350
7CF5
  3
ACAD_LAYOUT
350
7D01
  3
ACAD_MATERIAL
350
BD9D
  3
ACAD_MLINESTYLE
350
7CFE
  3
ACAD_PLOTSETTINGS
350
7D00
  3
ACAD_PLOTSTYLENAME
350
7CF6
  3
ACAD_TABLESTYLE
350
BD9F
  3
ACDBHEADERROUNDTRIPXREC
350
C385
  3
ACDBVARIABLEDICTIONARY
350
8048
  3
ASE_INDEX_DICTIONARY
350
BDDE
  0
DICTIONARY
  5
C37F
100
AcDbDictionary
  3
ACAD_XREC_ROUNDTRIP
360
C380
  0
DICTIONARY
  5
C381
100
AcDbDictionary
  3
ACAD_XREC_ROUNDTRIP
360
C382
  0
DICTIONARY
  5
C3B0
100
AcDbDictionary
  3
ACAD_XREC_ROUNDTRIP
360
C3B1
  0
DICTIONARY
  5
C3AE
100
AcDbDictionary
  3
ACAD_XREC_ROUNDTRIP
360
C3AF
  0
DICTIONARY
  5
800F
100
AcDbDictionary
  3
ACAD_LAYOUTSELFREF
360
C3AD
  3
ACAD_SORTENTS
360
BDC4
  3
ACAD_XREC_ROUNDTRIP
360
C37D
  0
DICTIONARY
  5
8011
100
AcDbDictionary
  3
ACAD_LAYOUTSELFREF
360
C3AC
  3
ACAD_XREC_ROUNDTRIP
360
C37E
  0
DICTIONARY
  5
C32C
100
AcDbDictionary
  3
ACAD_XREC_ROUNDTRIP
360
C32D
  0
DICTIONARY
  5
C3A6
100
AcDbDictionary
  3
ACAD_XREC_ROUNDTRIP
360
C3A7
  0
DICTIONARY
  5
BD9E
102
{ACAD_REACTORS
330
7CF4
102
}
100
AcDbDictionary
  0
DICTIONARY
  5
7CF5
102
{ACAD_REACTORS
330
7CF4
102
}
100
AcDbDictionary
  0
DICTIONARY
  5
7D01
102
{ACAD_XDICTIONARY
360
C3AA
102
}
102
{ACAD_REACTORS
330
7CF4
102
}
100
AcDbDictionary
  3
MODEL
350
7D09
  3
PRÉSENTATION1
350
7D05
  0
DICTIONARY
  5
BD9D
102
{ACAD_REACTORS
330
7CF4
102
}
100
AcDbDictionary
  0
DICTIONARY
  5
7CFE
102
{ACAD_XDICTIONARY
360
C3A8
102
}
102
{ACAD_REACTORS
330
7CF4
102
}
100
AcDbDictionary
  3
STANDARD
350
7CFF
  0
DICTIONARY
  5
7D00
102
{ACAD_REACTORS
330
7CF4
102
}
100
AcDbDictionary
  0
ACAD_ZOMBIE_OBJECT
  5
7CF6
102
{ACAD_REACTORS
330
7CF4
102
}
100
AcDbZombieObject
 90
      499
 91
      500
 93
       86
310
405010041939BDC9B585B0
350
7CF7
340
7CF7
 94
        0
  0
DICTIONARY
  5
BD9F
102
{ACAD_XDICTIONARY
360
C3B2
102
}
102
{ACAD_REACTORS
330
7CF4
102
}
100
AcDbDictionary
  3
STANDARD
350
BDA0
  0
DICTIONARY
  5
C385
102
{ACAD_REACTORS
330
7CF4
102
}
100
AcDbDictionary
  3
CEPSNTYPE
350
C38F
  3
DIMSTYLEDATA
350
C393
  3
FINGERPRINTGUID
350
C390
  3
HYPERLINKBASE
350
C388
  3
INSUNITS
350
C38E
  3
LAYOUTDICT
350
C38A
  3
LWETCUNION
350
C38D
  3
PLOTSETDICT
350
C38B
  3
PLOTSTYLNAMDICT
350
C38C
  3
PSVPSCALE
350
C392
  3
PUCSBASE
350
C396
  3
PUCSORGBACK
350
C39C
  3
PUCSORGBOTTOM
350
C398
  3
PUCSORGFRONT
350
C39B
  3
PUCSORGLEFT
350
C399
  3
PUCSORGRIGHT
350
C39A
  3
PUCSORGTOP
350
C397
  3
PUCSORTHOREF
350
C394
  3
PUCSORTHOVIEW
350
C395
  3
STYLESHEET
350
C389
  3
TSTACKALIGN
350
C386
  3
TSTACKSIZE
350
C387
  3
UCSBASE
350
C39F
  3
UCSORGBACK
350
C3A5
  3
UCSORGBOTTOM
350
C3A1
  3
UCSORGFRONT
350
C3A4
  3
UCSORGLEFT
350
C3A2
  3
UCSORGRIGHT
350
C3A3
  3
UCSORGTOP
350
C3A0
  3
UCSORTHOREF
350
C39D
  3
UCSORTHOVIEW
350
C39E
  3
VERSIONGUID
350
C391
  0
DICTIONARY
  5
8048
102
{ACAD_REACTORS
330
7CF4
102
}
100
AcDbDictionary
  3
CTABLESTYLE
350
BDE2
  3
DIMASSOC
350
804A
  3
HIDETEXT
350
8049
  3
PROJECTNAME
350
C2FD
  0
DICTIONARY
  5
BDDE
102
{ACAD_XDICTIONARY
360
C3B4
102
}
102
{ACAD_REACTORS
330
7CF4
102
}
100
AcDbDictionary
  3
ASEBLOCKHIERARCHYINDEXRECORD
350
BDE0
1001
DCO15
1040
1538222681.453
  0
XRECORD
  5
C380
102
{ACAD_REACTORS
330
C37F
102
}
100
AcDbXrecord
102
EXTNAMES
  1
BYBLOCK
  2
ByBlock
  0
XRECORD
  5
C382
102
{ACAD_REACTORS
330
C381
102
}
100
AcDbXrecord
102
EXTNAMES
  1
BYLAYER
  2
ByLayer
  0
XRECORD
  5
C3B1
102
{ACAD_REACTORS
330
C3B0
102
}
100
AcDbXrecord
102
PLOTBIT
280
     0
  0
XRECORD
  5
C3AF
102
{ACAD_REACTORS
330
C3AE
102
}
100
AcDbXrecord
102
ACADR14ROUNDTRIP
1000
DSTYLE
1002
{
1070
   279
 70
     2
1070
   341
340
7D0C
1070
   342
340
7D0C
1002
}
  0
XRECORD
  5
C3AD
102
{ACAD_REACTORS
330
800F
102
}
100
AcDbXrecord
340
7D06
  0
SORTENTSTABLE
  5
BDC4
102
{ACAD_REACTORS
330
800F
102
}
100
AcDbSortentsTable
330
7D06
331
BE35
  5
BE37
331
BB70
  5
BB70
331
BB8A
  5
BB8A
331
BB63
  5
BB63
331
BB7D
  5
BB7D
331
BB6E
  5
BB6E
331
BB47
  5
BB47
331
BB61
  5
BB61
331
BB88
  5
BB88
331
BB7B
  5
BB7B
331
BB52
  5
BB52
331
BB6C
  5
BB6C
331
BB5F
  5
BB5F
331
BD2B
  5
BDE3
331
BB86
  5
BB86
331
BB50
  5
BB50
331
BB6A
  5
BB6A
331
BB5D
  5
BB5D
331
BB77
  5
BB77
331
BB4E
  5
BB4E
331
BB84
  5
BB84
331
BB68
  5
BB68
331
BB5B
  5
BB5B
331
BB75
  5
BB75
331
BB4C
  5
BB4C
331
BB82
  5
BB82
331
BB59
  5
BB59
331
BB73
  5
BB73
331
BB66
  5
BB66
331
BB4A
  5
BB4A
331
BB80
  5
BB80
331
A
  5
A
331
17
  5
17
331
BB64
  5
BB64
331
BB8B
  5
BB8B
331
BB48
  5
BB48
331
BB7E
  5
BB7E
331
BB6F
  5
BB6F
331
BE34
  5
BE36
331
BB62
  5
BB62
331
BB89
  5
BB89
331
BB7C
  5
BB7C
331
BB53
  5
BB53
331
BB6D
  5
BB6D
331
BB46
  5
BB46
331
BB60
  5
BB60
331
BB7A
  5
BB7A
331
BB87
  5
BB87
331
BB5E
  5
BB5E
331
BB78
  5
BB78
331
BD2A
  5
BD30
331
BB85
  5
BB85
331
BB4F
  5
BB4F
331
BB69
  5
BB69
331
BB5C
  5
BB5C
331
BB76
  5
BB76
331
BB4D
  5
BB4D
331
BB83
  5
BB83
331
BB5A
  5
BB5A
331
BB74
  5
BB74
331
72
  5
72
331
BB4B
  5
BB4B
331
BB81
  5
BB81
331
BB58
  5
BB58
331
BB72
  5
BB72
331
BB65
  5
BB65
331
BB49
  5
BB49
331
BB7F
  5
BB7F
331
BB56
  5
BB56
  0
XRECORD
  5
C37D
102
{ACAD_REACTORS
330
800F
102
}
100
AcDbXrecord
102
EXTNAMES
  1
*MODEL_SPACE
  2
*Model_Space
  0
XRECORD
  5
C3AC
102
{ACAD_REACTORS
330
8011
102
}
100
AcDbXrecord
340
7D02
  0
XRECORD
  5
C37E
102
{ACAD_REACTORS
330
8011
102
}
100
AcDbXrecord
102
EXTNAMES
  1
*PAPER_SPACE
  2
*Paper_Space
  0
XRECORD
  5
C32D
102
{ACAD_REACTORS
330
C32C
102
}
100
AcDbXrecord
102
SHADEPLOT
 70
     0
102
UCS
 74
     0
 71
     0
 10
0.0
 20
0.0
 30
0.0
 10
0.0
 20
0.0
 30
0.0
 10
0.0
 20
0.0
 30
0.0
146
0.0
 79
     0
102
VIEW
281
     0
102
NEWVIEWCONTROL
280
     4
  0
XRECORD
  5
C3A7
102
{ACAD_REACTORS
330
C3A6
102
}
100
AcDbXrecord
102
EXTNAMES
  1
ACDBVARIABLEDICTIONARY
  2
AcDbVariableDictionary
  0
DICTIONARY
  5
C3AA
100
AcDbDictionary
  3
ACAD_XREC_ROUNDTRIP
360
C3AB
  0
ACAD_ZOMBIE_OBJECT
  5
7D09
102
{ACAD_XDICTIONARY
360
C330
102
}
102
{ACAD_REACTORS
330
7D01
102
}
100
AcDbZombieObject
 90
      499
 91
      502
 93
      428
310
A2C01AAAAAAAAA5A69054D6F64656C901A800000000000000000000000000000000000000000000A1000000000000008902A6A6AAAA8
330
7D06
330
0
340
0
340
0
 94
        0
  0
ACAD_ZOMBIE_OBJECT
  5
7D05
102
{ACAD_XDICTIONARY
360
C32E
102
}
102
{ACAD_REACTORS
330
7D01
102
}
100
AcDbZombieObject
 90
      499
 91
      502
 93
     1484
310
9154850204C617365724A65742035303030204E2050532C00800000040B87E17400000003838A84550000000000444F1640000000000611C510000000080253F6A40000000101FA3DC901024134A901416AA5910690D5072E973656E746174696F6E31406A800000000000000000000000000000000000000000000A100000
310
0000000008902A6A6A10232D5E076BC5510408CB5781DAF154410232D5E076BC5510408CB5781DAF15C410232D5E076BC5710408CB5781DAF15C40
330
7D02
330
494D
340
0
340
0
 94
        0
  0
DICTIONARY
  5
C3A8
100
AcDbDictionary
  3
ACAD_XREC_ROUNDTRIP
360
C3A9
  0
MLINESTYLE
  5
7CFF
102
{ACAD_REACTORS
330
7CFE
102
}
100
AcDbMlineStyle
  2
STANDARD
 70
     0
  3

 62
   256
 51
90.0
 52
90.0
 71
     2
 49
0.5
 62
   256
  6
BYLAYER
 49
-0.5
 62
   256
  6
BYLAYER
  0
ACAD_ZOMBIE_OBJECT
  5
7CF7
102
{ACAD_REACTORS
330
7CF6
102
}
100
AcDbZombieObject
 90
      499
 91
      501
 93
        0
 94
        0
  0
DICTIONARY
  5
C3B2
100
AcDbDictionary
  3
ACAD_XREC_ROUNDTRIP
360
C3B3
  0
ACAD_ZOMBIE_OBJECT
  5
BDA0
102
{ACAD_REACTORS
330
BD9F
102
}
100
AcDbZombieObject
 90
      499
 91
      571
 93
     1841
310
4214DD185B99185C9928B81E85EB51B8AE3F2E07A17AD46E2B8FC02B5E8DC0F42B1CFD028000000C1008070000C3001FDFF8000000C1003FBFF000000182007F7FE00000030400FEFFC00000060801FDFF8000000C1003FBFF00000018200000000000000681FA0B0000001820100E000186003FBFF000000182007F7FE000
310
00030400FEFFC00000060801FDFF8000000C1003FBFF000000182007F7FE000000304000AD7A3703D0AC73F4160000003040201C00030C007F7FE00000030400FEFFC00000060801FDFF8000000C1003FBFF000000182007F7FE00000030400FEFFC000000608000
340
7CF9
340
7CF9
340
7CF9
 94
        0
1001
ACAD
1000
AcadProxyRoundTripData
1071
      568
1071
   393239
1070
     0
  0
XRECORD
  5
C38F
102
{ACAD_REACTORS
330
C385
102
}
100
AcDbXrecord
 90
        0
  0
XRECORD
  5
C393
102
{ACAD_REACTORS
330
C385
102
}
100
AcDbXrecord
1000
DSTYLE
1002
{
1070
   279
 70
     2
1070
   341
340
7D0C
1070
   342
340
7D0C
1002
}
  0
XRECORD
  5
C390
102
{ACAD_REACTORS
330
C385
102
}
100
AcDbXrecord
  1
{20110D97-5561-4CA7-8FED-06A9B97BF164}
  0
XRECORD
  5
C388
102
{ACAD_REACTORS
330
C385
102
}
100
AcDbXrecord
  1

  0
XRECORD
  5
C38E
102
{ACAD_REACTORS
330
C385
102
}
100
AcDbXrecord
 90
        0
  0
XRECORD
  5
C38A
102
{ACAD_REACTORS
330
C385
102
}
100
AcDbXrecord
340
7D01
  0
XRECORD
  5
C38D
102
{ACAD_REACTORS
330
C385
102
}
100
AcDbXrecord
 90
    14877
  0
XRECORD
  5
C38B
102
{ACAD_REACTORS
330
C385
102
}
100
AcDbXrecord
340
7D00
  0
XRECORD
  5
C38C
102
{ACAD_REACTORS
330
C385
102
}
100
AcDbXrecord
340
7CF6
  0
XRECORD
  5
C392
102
{ACAD_REACTORS
330
C385
102
}
100
AcDbXrecord
 40
0.0
  0
XRECORD
  5
C396
102
{ACAD_REACTORS
330
C385
102
}
100
AcDbXrecord
340
0
  0
XRECORD
  5
C39C
102
{ACAD_REACTORS
330
C385
102
}
100
AcDbXrecord
 10
0.0
 20
0.0
 30
0.0
  0
XRECORD
  5
C398
102
{ACAD_REACTORS
330
C385
102
}
100
AcDbXrecord
 10
0.0
 20
0.0
 30
0.0
  0
XRECORD
  5
C39B
102
{ACAD_REACTORS
330
C385
102
}
100
AcDbXrecord
 10
0.0
 20
0.0
 30
0.0
  0
XRECORD
  5
C399
102
{ACAD_REACTORS
330
C385
102
}
100
AcDbXrecord
 10
0.0
 20
0.0
 30
0.0
  0
XRECORD
  5
C39A
102
{ACAD_REACTORS
330
C385
102
}
100
AcDbXrecord
 10
0.0
 20
0.0
 30
0.0
  0
XRECORD
  5
C397
102
{ACAD_REACTORS
330
C385
102
}
100
AcDbXrecord
 10
0.0
 20
0.0
 30
0.0
  0
XRECORD
  5
C394
102
{ACAD_REACTORS
330
C385
102
}
100
AcDbXrecord
340
0
  0
XRECORD
  5
C395
102
{ACAD_REACTORS
330
C385
102
}
100
AcDbXrecord
 70
     0
  0
XRECORD
  5
C389
102
{ACAD_REACTORS
330
C385
102
}
100
AcDbXrecord
  1

  0
XRECORD
  5
C386
102
{ACAD_REACTORS
330
C385
102
}
100
AcDbXrecord
 90
        1
  0
XRECORD
  5
C387
102
{ACAD_REACTORS
330
C385
102
}
100
AcDbXrecord
 90
       70
  0
XRECORD
  5
C39F
102
{ACAD_REACTORS
330
C385
102
}
100
AcDbXrecord
340
0
  0
XRECORD
  5
C3A5
102
{ACAD_REACTORS
330
C385
102
}
100
AcDbXrecord
 10
0.0
 20
0.0
 30
0.0
  0
XRECORD
  5
C3A1
102
{ACAD_REACTORS
330
C385
102
}
100
AcDbXrecord
 10
0.0
 20
0.0
 30
0.0
  0
XRECORD
  5
C3A4
102
{ACAD_REACTORS
330
C385
102
}
100
AcDbXrecord
 10
0.0
 20
0.0
 30
0.0
  0
XRECORD
  5
C3A2
102
{ACAD_REACTORS
330
C385
102
}
100
AcDbXrecord
 10
0.0
 20
0.0
 30
0.0
  0
XRECORD
  5
C3A3
102
{ACAD_REACTORS
330
C385
102
}
100
AcDbXrecord
 10
0.0
 20
0.0
 30
0.0
  0
XRECORD
  5
C3A0
102
{ACAD_REACTORS
330
C385
102
}
100
AcDbXrecord
 10
0.0
 20
0.0
 30
0.0
  0
XRECORD
  5
C39D
102
{ACAD_REACTORS
330
C385
102
}
100
AcDbXrecord
340
0
  0
XRECORD
  5
C39E
102
{ACAD_REACTORS
330
C385
102
}
100
AcDbXrecord
 70
     0
  0
XRECORD
  5
C391
102
{ACAD_REACTORS
330
C385
102
}
100
AcDbXrecord
  1
{8690AF35-AC65-4367-9840-C9A69BD34444}
  0
DICTIONARYVAR
  5
BDE2
102
{ACAD_REACTORS
330
8048
102
}
100
DictionaryVariables
280
     0
  1
STANDARD
  0
DICTIONARYVAR
  5
804A
102
{ACAD_REACTORS
330
8048
102
}
100
DictionaryVariables
280
     0
  1
2
  0
DICTIONARYVAR
  5
8049
102
{ACAD_REACTORS
330
8048
102
}
100
DictionaryVariables
280
     0
  1
1
  0
DICTIONARYVAR
  5
C2FD
102
{ACAD_REACTORS
330
8048
102
}
100
DictionaryVariables
280
     0
  1

  0
DICTIONARY
  5
C3B4
100
AcDbDictionary
  3
ACAD_XREC_ROUNDTRIP
360
C3B5
  0
XRECORD
  5
BDE0
102
{ACAD_REACTORS
330
BDDE
102
}
100
AcDbXrecord
330
A
330
17
330
72
330
0
330
0
330
0
330
0
330
0
330
0
330
0
330
0
330
0
330
0
330
0
330
0
330
0
330
0
330
0
330
0
330
0
330
0
330
0
330
0
330
0
330
0
330
0
330
0
330
0
330
0
330
0
330
0
330
0
330
0
330
0
330
0
330
0
330
0
330
0
330
0
330
0
330
0
330
0
330
0
330
0
330
0
330
0
330
0
330
0
330
0
330
0
330
0
330
0
330
0
330
0
330
0
330
0
330
0
  0
XRECORD
  5
C3AB
102
{ACAD_REACTORS
330
C3AA
102
}
100
AcDbXrecord
102
EXTNAMES
  1
MODEL
  2
Model
  1
PRÉSENTATION1
  2
Présentation1
  0
DICTIONARY
  5
C330
100
AcDbDictionary
  3
ACAD_XREC_ROUNDTRIP
360
C331
  0
DICTIONARY
  5
C32E
100
AcDbDictionary
  3
ACAD_XREC_ROUNDTRIP
360
C32F
  0
XRECORD
  5
C3A9
102
{ACAD_REACTORS
330
C3A8
102
}
100
AcDbXrecord
102
EXTNAMES
  1
STANDARD
  2
Standard
  0
XRECORD
  5
C3B3
102
{ACAD_REACTORS
330
C3B2
102
}
100
AcDbXrecord
102
EXTNAMES
  1
STANDARD
  2
Standard
  0
XRECORD
  5
C3B5
102
{ACAD_REACTORS
330
C3B4
102
}
100
AcDbXrecord
102
EXTNAMES
  1
ASEBLOCKHIERARCHYINDEXRECORD
  2
ASEBlockHierarchyIndexRecord
  0
XRECORD
  5
C331
102
{ACAD_REACTORS
330
C330
102
}
100
AcDbXrecord
102
SHADEPLOT
 70
     0
102
SHADEPLOTRESLEVEL
 70
     2
102
SHADEPLOTCUSTOMDPI
 70
   300
  0
XRECORD
  5
C32F
102
{ACAD_REACTORS
330
C32E
102
}
100
AcDbXrecord
102
SHADEPLOT
 70
     0
102
SHADEPLOTRESLEVEL
 70
     2
102
SHADEPLOTCUSTOMDPI
 70
   300
  0
ENDSEC
  0
EOF
