  0
SECTION
  2
HEADER
  9
$ACADVER
  1
AC1009
  9
$INSBASE
 10
402.590624
 20
-1.041018
 30
0.0
  9
$EXTMIN
 10
1197.162921
 20
11.228457
 30
0.0
  9
$EXTMAX
 10
1299.750632
 20
178.228457
 30
0.0
  9
$LIMMIN
 10
-407.970438
 20
-367.832444
  9
$LIMMAX
 10
429.804077
 20
234.370848
  9
$ORTHOMODE
 70
     1
  9
$REGENMODE
 70
     1
  9
$FILLMODE
 70
     1
  9
$QTEXTMODE
 70
     0
  9
$MIRRTEXT
 70
     1
  9
$DRAGMODE
 70
     2
  9
$LTSCALE
 40
10.0
  9
$OSMODE
 70
    35
  9
$ATTMODE
 70
     1
  9
$TEXTSIZE
 40
6.0
  9
$TRACEWID
 40
1.0
  9
$TEXTSTYLE
  7
ROMANS
  9
$CLAYER
  8
ALPHA
  9
$CELTYPE
  6
BYLAYER
  9
$CECOLOR
 62
   256
  9
$DIMSCALE
 40
1.0
  9
$DIMASZ
 40
5.0
  9
$DIMEXO
 40
2.0
  9
$DIMDLI
 40
0.38
  9
$DIMRND
 40
0.0
  9
$DIMDLE
 40
0.0
  9
$DIMEXE
 40
2.5
  9
$DIMTP
 40
0.0
  9
$DIMTM
 40
0.0
  9
$DIMTXT
 40
2.5
  9
$DIMCEN
 40
0.0
  9
$DIMTSZ
 40
0.0
  9
$DIMTOL
 70
     0
  9
$DIMLIM
 70
     0
  9
$DIMTIH
 70
     1
  9
$DIMTOH
 70
     1
  9
$DIMSE1
 70
     0
  9
$DIMSE2
 70
     0
  9
$DIMTAD
 70
     1
  9
$DIMZIN
 70
    12
  9
$DIMBLK
  1
OPEN30
  9
$DIMASO
 70
     1
  9
$DIMSHO
 70
     1
  9
$DIMPOST
  1

  9
$DIMAPOST
  1

  9
$DIMALT
 70
     0
  9
$DIMALTD
 70
     2
  9
$DIMALTF
 40
25.4
  9
$DIMLFAC
 40
1.0
  9
$DIMTOFL
 70
     0
  9
$DIMTVP
 40
0.0
  9
$DIMTIX
 70
     0
  9
$DIMSOXD
 70
     0
  9
$DIMSAH
 70
     0
  9
$DIMBLK1
  1

  9
$DIMBLK2
  1

  9
$DIMSTYLE
  2
SC_DEFAUT
  9
$DIMCLRD
 70
     0
  9
$DIMCLRE
 70
     0
  9
$DIMCLRT
 70
     0
  9
$DIMTFAC
 40
1.0
  9
$DIMGAP
 40
2.0
  9
$LUNITS
 70
     2
  9
$LUPREC
 70
     1
  9
$SKETCHINC
 40
0.1
  9
$FILLETRAD
 40
0.0
  9
$AUNITS
 70
     0
  9
$AUPREC
 70
     0
  9
$MENU
  1
acad
  9
$ELEVATION
 40
0.0
  9
$PELEVATION
 40
0.0
  9
$THICKNESS
 40
0.0
  9
$LIMCHECK
 70
     0
  9
$BLIPMODE
 70
     0
  9
$CHAMFERA
 40
0.0
  9
$CHAMFERB
 40
0.0
  9
$SKPOLY
 70
     0
  9
$TDCREATE
 40
2450373.687919
  9
$TDUPDATE
 40
2453054.643373
  9
$TDINDWG
 40
0.856431
  9
$TDUSRTIMER
 40
0.856431
  9
$USRTIMER
 70
     1
  9
$ANGBASE
 50
0.0
  9
$ANGDIR
 70
     0
  9
$PDMODE
 70
    32
  9
$PDSIZE
 40
0.0
  9
$PLINEWID
 40
0.0
  9
$COORDS
 70
     1
  9
$SPLFRAME
 70
     0
  9
$SPLINETYPE
 70
     6
  9
$SPLINESEGS
 70
     8
  9
$ATTDIA
 70
     0
  9
$ATTREQ
 70
     1
  9
$HANDLING
 70
     1
  9
$HANDSEED
  5
71DE
  9
$SURFTAB1
 70
     6
  9
$SURFTAB2
 70
     6
  9
$SURFTYPE
 70
     6
  9
$SURFU
 70
     6
  9
$SURFV
 70
     6
  9
$UCSNAME
  2

  9
$UCSORG
 10
0.0
 20
0.0
 30
0.0
  9
$UCSXDIR
 10
1.0
 20
0.0
 30
0.0
  9
$UCSYDIR
 10
0.0
 20
1.0
 30
0.0
  9
$PUCSNAME
  2

  9
$PUCSORG
 10
0.0
 20
0.0
 30
0.0
  9
$PUCSXDIR
 10
1.0
 20
0.0
 30
0.0
  9
$PUCSYDIR
 10
0.0
 20
1.0
 30
0.0
  9
$USERI1
 70
     0
  9
$USERI2
 70
     0
  9
$USERI3
 70
     0
  9
$USERI4
 70
     0
  9
$USERI5
 70
     0
  9
$USERR1
 40
0.0
  9
$USERR2
 40
0.0
  9
$USERR3
 40
0.0
  9
$USERR4
 40
0.0
  9
$USERR5
 40
0.0
  9
$WORLDVIEW
 70
     1
  9
$SHADEDGE
 70
     3
  9
$SHADEDIF
 70
    70
  9
$TILEMODE
 70
     1
  9
$MAXACTVP
 70
    16
  9
$PLIMCHECK
 70
     0
  9
$PEXTMIN
 10
-1.452248
 20
-0.437698
 30
0.0
  9
$PEXTMAX
 10
12.749749
 20
8.310198
 30
0.0
  9
$PLIMMIN
 10
0.0
 20
0.0
  9
$PLIMMAX
 10
12.0
 20
9.0
  9
$UNITMODE
 70
     0
  9
$VISRETAIN
 70
     0
  9
$PLINEGEN
 70
     0
  9
$PSLTSCALE
 70
     0
  0
ENDSEC
  0
SECTION
  2
TABLES
  0
TABLE
  2
VPORT
 70
     2
  0
VPORT
  2
*ACTIVE
 70
     0
 10
0.0
 20
0.0
 11
1.0
 21
1.0
 12
1248.435595
 22
94.718054
 13
0.0
 23
0.0
 14
1.0
 24
1.0
 15
10.0
 25
10.0
 16
0.0
 26
0.0
 36
1.0
 17
0.0
 27
0.0
 37
0.0
 40
168.257345
 41
1.466346
 42
50.0
 43
0.0
 44
0.0
 50
0.0
 51
0.0
 71
     0
 72
   100
 73
     1
 74
     0
 75
     0
 76
     0
 77
     0
 78
     0
  0
ENDTAB
  0
TABLE
  2
LTYPE
 70
     3
  0
LTYPE
  2
CONTINUOUS
 70
     0
  3
Solid line
 72
    65
 73
     0
 40
0.0
  0
LTYPE
  2
AXES2
 70
     0
  3
___ _ ___ _ ___ _ ___ _ ___ _ ___ _ ___ _ ___ _
 72
    65
 73
     4
 40
1.125
 49
0.75
 49
-0.125
 49
0.125
 49
-0.125
  0
LTYPE
  2
CACHE2
 70
     0
  3
Caché (x.5) _ _ _ _ _ _ _ _ _ _ _ _ _ _ _ _ _
 72
    65
 73
     2
 40
0.1875
 49
0.125
 49
-0.0625
  0
ENDTAB
  0
TABLE
  2
LAYER
 70
     6
  0
LAYER
  2
0
 70
     0
 62
   255
  6
CONTINUOUS
  0
LAYER
  2
COTATION1
 70
     0
 62
     2
  6
CONTINUOUS
  0
LAYER
  2
AXE
 70
     0
 62
    80
  6
AXES2
  0
LAYER
  2
DEFPOINTS
 70
     0
 62
     7
  6
CONTINUOUS
  0
LAYER
  2
ALPHA
 70
     0
 62
   254
  6
CONTINUOUS
  0
LAYER
  2
POINTILLE_COURT
 70
     0
 62
    41
  6
CACHE2
  0
ENDTAB
  0
TABLE
  2
STYLE
 70
     2
  0
STYLE
  2
ROMANS
 70
     0
 40
0.0
 41
1.0
 50
0.0
 71
     0
 42
6.0
  3
romans
  4

  0
STYLE
  2
STANDARD
 70
     0
 40
0.2
 41
1.0
 50
0.0
 71
     0
 42
0.2
  3
txt
  4

  0
ENDTAB
  0
TABLE
  2
VIEW
 70
     0
  0
ENDTAB
  0
TABLE
  2
UCS
 70
     0
  0
ENDTAB
  0
TABLE
  2
APPID
 70
     1
  0
APPID
  2
ACAD
 70
     0
  0
ENDTAB
  0
TABLE
  2
DIMSTYLE
 70
     1
  0
DIMSTYLE
  2
SC_DEFAUT
 70
     0
  3

  4

  5
OPEN30
  6

  7

 40
1.0
 41
5.0
 42
2.0
 43
0.38
 44
2.5
 45
0.0
 46
0.0
 47
0.0
 48
0.0
140
2.5
141
0.0
142
0.0
143
25.4
144
1.0
145
0.0
146
1.0
147
2.0
 71
     0
 72
     0
 73
     1
 74
     1
 75
     0
 76
     0
 77
     1
 78
    12
170
     0
171
     2
172
     0
173
     0
174
     0
175
     0
176
     0
177
     0
178
     0
  0
ENDTAB
  0
ENDSEC
  0
SECTION
  2
BLOCKS
  0
BLOCK
  8
0
  2
$MODEL_SPACE
 70
     0
 10
0.0
 20
0.0
 30
0.0
  3
$MODEL_SPACE
  1

  0
ENDBLK
  5
716D
  8
0
  0
BLOCK
 67
     1
  8
0
  2
$PAPER_SPACE
 70
     0
 10
0.0
 20
0.0
 30
0.0
  3
$PAPER_SPACE
  1

  0
ENDBLK
  5
716B
 67
     1
  8
0
  0
BLOCK
  8
0
  2
COTE
 70
     0
 10
0.0
 20
0.0
 30
0.0
  3
COTE
  1

  0
ENDBLK
  5
F
  8
0
  0
BLOCK
  8
0
  2
FOND
 70
     0
 10
0.0
 20
0.0
 30
0.0
  3
FOND
  1

  0
ENDBLK
  5
75
  8
0
  0
BLOCK
  8
0
  2
_OPEN30
 70
     0
 10
0.0
 20
0.0
 30
0.0
  3
_OPEN30
  1

  0
LINE
  5
4B05
  8
COTATION1
 62
     0
 10
-1.0
 20
0.267949
 30
0.0
 11
0.0
 21
0.0
 31
0.0
1001
ACAD
1000
RTLwPs
1070
   158
  0
LINE
  5
4B06
  8
COTATION1
 62
     0
 10
0.0
 20
0.0
 30
0.0
 11
-1.0
 21
-0.267949
 31
0.0
1001
ACAD
1000
RTLwPs
1070
   158
  0
LINE
  5
4B07
  8
COTATION1
 62
     0
 10
0.0
 20
0.0
 30
0.0
 11
-1.0
 21
0.0
 31
0.0
1001
ACAD
1000
RTLwPs
1070
   158
  0
ENDBLK
  5
4B09
  8
0
  0
BLOCK
  8
0
  2
*D3
 70
     1
 10
0.0
 20
0.0
 30
0.0
  3
*D3
  1

  0
LINE
  5
6FE2
  8
COTATION1
 62
     0
 10
1222.632023
 20
53.344118
 30
0.0
 11
1207.496255
 21
39.515317
 31
0.0
1001
ACAD
1000
RTLwPs
1070
   158
  0
LINE
  5
6FE3
  8
COTATION1
 62
     0
 10
1207.496255
 20
39.515317
 30
0.0
 11
1197.162921
 21
39.515317
 31
0.0
1001
ACAD
1000
RTLwPs
1070
   158
  0
INSERT
  5
6FE4
  8
COTATION1
 62
     0
  2
_OPEN30
 10
1226.323335
 20
56.716687
 30
0.0
 41
5.0
 42
5.0
 43
5.0
 50
42.416396
1001
ACAD
1000
RTLwPs
1070
   158
  0
TEXT
  5
6FE5
  8
COTATION1
 62
     0
 10
1196.805778
 20
41.515317
 30
0.0
 40
2.5
  1
2x%%c3
1001
ACAD
1000
MTEXTBEGIN
1070
    73
1070
     1
1070
    44
1040
1.0
1070
    74
1070
     0
1000
MTEXTEND
  0
POINT
  5
6FE6
  8
DEFPOINTS
 62
     0
 10
1226.323335
 20
56.716687
 30
0.0
  0
POINT
  5
6FE7
  8
DEFPOINTS
 62
     0
 10
1228.538122
 20
58.740228
 30
0.0
  0
ENDBLK
  5
6EBF
  8
0
  0
BLOCK
  8
0
  2
*D4
 70
     1
 10
0.0
 20
0.0
 30
0.0
  3
*D4
  1

  0
LINE
  5
6FC3
  8
COTATION1
 62
     0
 10
1253.080729
 20
108.728457
 30
0.0
 11
1288.441108
 21
108.728457
 31
0.0
1001
ACAD
1000
RTLwPs
1070
   158
  0
LINE
  5
6FC4
  8
COTATION1
 62
     0
 10
1252.930729
 20
57.728457
 30
0.0
 11
1288.441108
 21
57.728457
 31
0.0
1001
ACAD
1000
RTLwPs
1070
   158
  0
LINE
  5
6FC5
  8
COTATION1
 62
     0
 10
1285.941108
 20
103.728457
 30
0.0
 11
1285.941108
 21
86.478457
 31
0.0
1001
ACAD
1000
RTLwPs
1070
   158
  0
LINE
  5
6FC6
  8
COTATION1
 62
     0
 10
1285.941108
 20
62.728457
 30
0.0
 11
1285.941108
 21
79.978457
 31
0.0
1001
ACAD
1000
RTLwPs
1070
   158
  0
INSERT
  5
6FC7
  8
COTATION1
 62
     0
  2
_OPEN30
 10
1285.941108
 20
108.728457
 30
0.0
 41
5.0
 42
5.0
 43
5.0
 50
90.0
1001
ACAD
1000
RTLwPs
1070
   158
  0
INSERT
  5
6FC8
  8
COTATION1
 62
     0
  2
_OPEN30
 10
1285.941108
 20
57.728457
 30
0.0
 41
5.0
 42
5.0
 43
5.0
 50
270.0
1001
ACAD
1000
RTLwPs
1070
   158
  0
TEXT
  5
6FC9
  8
COTATION1
 62
     0
 10
1283.917299
 20
81.978457
 30
0.0
 40
2.5
  1
51
1001
ACAD
1000
MTEXTBEGIN
1070
    73
1070
     1
1070
    44
1040
1.0
1070
    74
1070
     0
1000
MTEXTEND
  0
POINT
  5
6FCA
  8
DEFPOINTS
 62
     0
 10
1251.080729
 20
108.728457
 30
0.0
  0
POINT
  5
6FCB
  8
DEFPOINTS
 62
     0
 10
1250.930729
 20
57.728457
 30
0.0
  0
POINT
  5
6FCC
  8
DEFPOINTS
 62
     0
 10
1285.941108
 20
57.728457
 30
0.0
  0
ENDBLK
  5
6ECC
  8
0
  0
BLOCK
  8
0
  2
*D5
 70
     1
 10
0.0
 20
0.0
 30
0.0
  3
*D5
  1

  0
LINE
  5
70AE
  8
COTATION1
 62
     0
 10
1238.930729
 20
118.728457
 30
0.0
 11
1288.441108
 21
118.728457
 31
0.0
  0
LINE
  5
70AF
  8
COTATION1
 62
     0
 10
1253.080729
 20
108.728457
 30
0.0
 11
1288.441108
 21
108.728457
 31
0.0
  0
LINE
  5
70B0
  8
COTATION1
 62
     0
 10
1285.941108
 20
123.728457
 30
0.0
 11
1285.941108
 21
128.728457
 31
0.0
  0
LINE
  5
70B1
  8
COTATION1
 62
     0
 10
1285.941108
 20
103.728457
 30
0.0
 11
1285.941108
 21
98.728457
 31
0.0
  0
TEXT
  5
70B2
  8
COTATION1
 62
     0
 10
1283.415421
 20
112.478457
 30
0.0
 40
2.5
  1
10
  0
INSERT
  5
70B3
  8
COTATION1
 62
     0
  2
_OPEN30
 10
1285.941108
 20
118.728457
 30
0.0
 41
5.0
 42
5.0
 43
5.0
 50
270.0
  0
INSERT
  5
70B4
  8
COTATION1
 62
     0
  2
_OPEN30
 10
1285.941108
 20
108.728457
 30
0.0
 41
5.0
 42
5.0
 43
5.0
 50
90.0
  0
POINT
  5
70B5
  8
DEFPOINTS
 62
     0
 10
1236.930729
 20
118.728457
 30
0.0
  0
POINT
  5
70B6
  8
DEFPOINTS
 62
     0
 10
1251.080729
 20
108.728457
 30
0.0
  0
POINT
  5
70B7
  8
DEFPOINTS
 62
     0
 10
1285.941108
 20
108.728457
 30
0.0
  0
ENDBLK
  5
6ED9
  8
0
  0
BLOCK
  8
0
  2
*D6
 70
     1
 10
0.0
 20
0.0
 30
0.0
  3
*D6
  1

  0
LINE
  5
70B8
  8
COTATION1
 62
     0
 10
1254.080729
 20
110.728457
 30
0.0
 11
1278.441108
 21
110.728457
 31
0.0
  0
LINE
  5
70B9
  8
COTATION1
 62
     0
 10
1253.080729
 20
108.728457
 30
0.0
 11
1278.441108
 21
108.728457
 31
0.0
  0
LINE
  5
70BA
  8
COTATION1
 62
     0
 10
1275.941108
 20
115.728457
 30
0.0
 11
1275.941108
 21
120.728457
 31
0.0
  0
LINE
  5
70BB
  8
COTATION1
 62
     0
 10
1275.941108
 20
103.728457
 30
0.0
 11
1275.941108
 21
98.728457
 31
0.0
  0
TEXT
  5
70BC
  8
COTATION1
 62
     0
 10
1271.917299
 20
98.926735
 30
0.0
 40
2.5
  1
2
  0
INSERT
  5
70BD
  8
COTATION1
 62
     0
  2
_OPEN30
 10
1275.941108
 20
110.728457
 30
0.0
 41
5.0
 42
5.0
 43
5.0
 50
270.0
  0
INSERT
  5
70BE
  8
COTATION1
 62
     0
  2
_OPEN30
 10
1275.941108
 20
108.728457
 30
0.0
 41
5.0
 42
5.0
 43
5.0
 50
90.0
  0
POINT
  5
70BF
  8
DEFPOINTS
 62
     0
 10
1252.080729
 20
110.728457
 30
0.0
  0
POINT
  5
70C0
  8
DEFPOINTS
 62
     0
 10
1251.080729
 20
108.728457
 30
0.0
  0
POINT
  5
70C1
  8
DEFPOINTS
 62
     0
 10
1275.941108
 20
108.728457
 30
0.0
  0
ENDBLK
  5
6EE6
  8
0
  0
BLOCK
  8
0
  2
*D7
 70
     1
 10
0.0
 20
0.0
 30
0.0
  3
*D7
  1

  0
LINE
  5
6FA0
  8
COTATION1
 62
     0
 10
1227.430729
 20
51.228457
 30
0.0
 11
1227.430729
 21
21.228457
 31
0.0
1001
ACAD
1000
RTLwPs
1070
   158
  0
LINE
  5
6FA1
  8
COTATION1
 62
     0
 10
1246.430729
 20
51.228457
 30
0.0
 11
1246.430729
 21
21.228457
 31
0.0
1001
ACAD
1000
RTLwPs
1070
   158
  0
LINE
  5
6FA2
  8
COTATION1
 62
     0
 10
1232.430729
 20
23.728457
 30
0.0
 11
1241.430729
 21
23.728457
 31
0.0
1001
ACAD
1000
RTLwPs
1070
   158
  0
INSERT
  5
6FA3
  8
COTATION1
 62
     0
  2
_OPEN30
 10
1227.430729
 20
23.728457
 30
0.0
 41
5.0
 42
5.0
 43
5.0
 50
180.0
1001
ACAD
1000
RTLwPs
1070
   158
  0
INSERT
  5
6FA4
  8
COTATION1
 62
     0
  2
_OPEN30
 10
1246.430729
 20
23.728457
 30
0.0
 41
5.0
 42
5.0
 43
5.0
1001
ACAD
1000
RTLwPs
1070
   158
  0
TEXT
  5
6FA5
  8
COTATION1
 62
     0
 10
1234.430729
 20
25.728457
 30
0.0
 40
2.5
  1
19
1001
ACAD
1000
MTEXTBEGIN
1070
    73
1070
     1
1070
    44
1040
1.0
1070
    74
1070
     0
1000
MTEXTEND
  0
POINT
  5
6FA6
  8
DEFPOINTS
 62
     0
 10
1227.430729
 20
53.228457
 30
0.0
  0
POINT
  5
6FA7
  8
DEFPOINTS
 62
     0
 10
1246.430729
 20
53.228457
 30
0.0
  0
POINT
  5
6FA8
  8
DEFPOINTS
 62
     0
 10
1246.430729
 20
23.728457
 30
0.0
  0
ENDBLK
  5
6F3C
  8
0
  0
BLOCK
  8
0
  2
*D8
 70
     1
 10
0.0
 20
0.0
 30
0.0
  3
*D8
  1

  0
LINE
  5
6F5E
  8
COTATION1
 62
     0
 10
1250.50119
 20
117.400431
 30
0.0
 11
1256.004879
 21
131.685986
 31
0.0
1001
ACAD
1000
RTLwPs
1070
   158
  0
LINE
  5
6F5F
  8
COTATION1
 62
     0
 10
1256.004879
 20
131.685986
 30
0.0
 11
1277.885831
 21
131.685986
 31
0.0
1001
ACAD
1000
RTLwPs
1070
   158
  0
INSERT
  5
6F60
  8
COTATION1
 62
     0
  2
_OPEN30
 10
1248.703664
 20
112.734715
 30
0.0
 41
5.0
 42
5.0
 43
5.0
 50
248.930196
1001
ACAD
1000
RTLwPs
1070
   158
  0
TEXT
  5
6F61
  8
COTATION1
 62
     0
 10
1257.647736
 20
133.685986
 30
0.0
 40
2.5
  1
2x%%c4.3x6.3
1001
ACAD
1000
MTEXTBEGIN
1070
    73
1070
     1
1070
    44
1040
1.0
1070
    74
1070
     0
1000
MTEXTEND
  0
POINT
  5
6F62
  8
DEFPOINTS
 62
     0
 10
1248.703664
 20
112.734715
 30
0.0
  0
POINT
  5
6F63
  8
DEFPOINTS
 62
     0
 10
1247.157793
 20
108.722199
 30
0.0
  0
ENDBLK
  5
6F65
  8
0
  0
BLOCK
  8
0
  2
*D9
 70
     1
 10
0.0
 20
0.0
 30
0.0
  3
*D9
  1

  0
LINE
  5
706E
  8
COTATION1
 62
     0
 10
1238.930729
 20
138.728457
 30
0.0
 11
1298.441108
 21
138.728457
 31
0.0
1001
ACAD
1000
RTLwPs
1070
   158
  0
LINE
  5
706F
  8
COTATION1
 62
     0
 10
1249.780729
 20
50.228457
 30
0.0
 11
1298.441108
 21
50.228457
 31
0.0
1001
ACAD
1000
RTLwPs
1070
   158
  0
LINE
  5
7070
  8
COTATION1
 62
     0
 10
1295.941108
 20
133.728457
 30
0.0
 11
1295.941108
 21
97.728457
 31
0.0
1001
ACAD
1000
RTLwPs
1070
   158
  0
LINE
  5
7071
  8
COTATION1
 62
     0
 10
1295.941108
 20
55.228457
 30
0.0
 11
1295.941108
 21
91.228457
 31
0.0
1001
ACAD
1000
RTLwPs
1070
   158
  0
INSERT
  5
7072
  8
COTATION1
 62
     0
  2
_OPEN30
 10
1295.941108
 20
138.728457
 30
0.0
 41
5.0
 42
5.0
 43
5.0
 50
90.0
1001
ACAD
1000
RTLwPs
1070
   158
  0
INSERT
  5
7073
  8
COTATION1
 62
     0
  2
_OPEN30
 10
1295.941108
 20
50.228457
 30
0.0
 41
5.0
 42
5.0
 43
5.0
 50
270.0
1001
ACAD
1000
RTLwPs
1070
   158
  0
TEXT
  5
7074
  8
COTATION1
 62
     0
 10
1291.774442
 20
93.228457
 30
0.0
 40
2.5
  1
88.5
1001
ACAD
1000
MTEXTBEGIN
1070
    73
1070
     1
1070
    44
1040
1.0
1070
    74
1070
     0
1000
MTEXTEND
  0
POINT
  5
7075
  8
DEFPOINTS
 62
     0
 10
1236.930729
 20
138.728457
 30
0.0
  0
POINT
  5
7076
  8
DEFPOINTS
 62
     0
 10
1247.780729
 20
50.228457
 30
0.0
  0
POINT
  5
7077
  8
DEFPOINTS
 62
     0
 10
1295.941108
 20
50.228457
 30
0.0
  0
ENDBLK
  5
6F72
  8
0
  0
BLOCK
  8
0
  2
*D10
 70
     1
 10
0.0
 20
0.0
 30
0.0
  3
*D10
  1

  0
LINE
  5
6F74
  8
COTATION1
 62
     0
 10
1225.930729
 20
116.878457
 30
0.0
 11
1225.930729
 21
176.228457
 31
0.0
1001
ACAD
1000
RTLwPs
1070
   158
  0
LINE
  5
6F75
  8
COTATION1
 62
     0
 10
1247.930729
 20
116.878457
 30
0.0
 11
1247.930729
 21
176.228457
 31
0.0
1001
ACAD
1000
RTLwPs
1070
   158
  0
LINE
  5
6F76
  8
COTATION1
 62
     0
 10
1230.930729
 20
173.728457
 30
0.0
 11
1242.930729
 21
173.728457
 31
0.0
1001
ACAD
1000
RTLwPs
1070
   158
  0
INSERT
  5
6F77
  8
COTATION1
 62
     0
  2
_OPEN30
 10
1225.930729
 20
173.728457
 30
0.0
 41
5.0
 42
5.0
 43
5.0
 50
180.0
1001
ACAD
1000
RTLwPs
1070
   158
  0
INSERT
  5
6F78
  8
COTATION1
 62
     0
  2
_OPEN30
 10
1247.930729
 20
173.728457
 30
0.0
 41
5.0
 42
5.0
 43
5.0
1001
ACAD
1000
RTLwPs
1070
   158
  0
TEXT
  5
6F79
  8
COTATION1
 62
     0
 10
1234.549776
 20
175.728457
 30
0.0
 40
2.5
  1
22
1001
ACAD
1000
MTEXTBEGIN
1070
    73
1070
     1
1070
    44
1040
1.0
1070
    74
1070
     0
1000
MTEXTEND
  0
POINT
  5
6F7A
  8
DEFPOINTS
 62
     0
 10
1225.930729
 20
114.878457
 30
0.0
  0
POINT
  5
6F7B
  8
DEFPOINTS
 62
     0
 10
1247.930729
 20
114.878457
 30
0.0
  0
POINT
  5
6F7C
  8
DEFPOINTS
 62
     0
 10
1247.930729
 20
173.728457
 30
0.0
  0
ENDBLK
  5
6F7E
  8
0
  0
BLOCK
  8
0
  2
*D11
 70
     1
 10
0.0
 20
0.0
 30
0.0
  3
*D11
  1

  0
LINE
  5
6F80
  8
COTATION1
 62
     0
 10
1226.930729
 20
114.878457
 30
0.0
 11
1226.930729
 21
166.228457
 31
0.0
1001
ACAD
1000
RTLwPs
1070
   158
  0
LINE
  5
6F81
  8
COTATION1
 62
     0
 10
1246.930729
 20
114.878457
 30
0.0
 11
1246.930729
 21
166.228457
 31
0.0
1001
ACAD
1000
RTLwPs
1070
   158
  0
LINE
  5
6F82
  8
COTATION1
 62
     0
 10
1231.930729
 20
163.728457
 30
0.0
 11
1241.930729
 21
163.728457
 31
0.0
1001
ACAD
1000
RTLwPs
1070
   158
  0
INSERT
  5
6F83
  8
COTATION1
 62
     0
  2
_OPEN30
 10
1226.930729
 20
163.728457
 30
0.0
 41
5.0
 42
5.0
 43
5.0
 50
180.0
1001
ACAD
1000
RTLwPs
1070
   158
  0
INSERT
  5
6F84
  8
COTATION1
 62
     0
  2
_OPEN30
 10
1246.930729
 20
163.728457
 30
0.0
 41
5.0
 42
5.0
 43
5.0
1001
ACAD
1000
RTLwPs
1070
   158
  0
TEXT
  5
6F85
  8
COTATION1
 62
     0
 10
1234.549776
 20
165.728457
 30
0.0
 40
2.5
  1
20
1001
ACAD
1000
MTEXTBEGIN
1070
    73
1070
     1
1070
    44
1040
1.0
1070
    74
1070
     0
1000
MTEXTEND
  0
POINT
  5
6F86
  8
DEFPOINTS
 62
     0
 10
1226.930729
 20
112.878457
 30
0.0
  0
POINT
  5
6F87
  8
DEFPOINTS
 62
     0
 10
1246.930729
 20
112.878457
 30
0.0
  0
POINT
  5
6F88
  8
DEFPOINTS
 62
     0
 10
1246.930729
 20
163.728457
 30
0.0
  0
ENDBLK
  5
6F8A
  8
0
  0
BLOCK
  8
0
  2
*D12
 70
     1
 10
0.0
 20
0.0
 30
0.0
  3
*D12
  1

  0
LINE
  5
6FE8
  8
COTATION1
 62
     0
 10
1231.338685
 20
103.098855
 30
0.0
 11
1255.749817
 21
71.92229
 31
0.0
1001
ACAD
1000
RTLwPs
1070
   158
  0
LINE
  5
6FE9
  8
COTATION1
 62
     0
 10
1255.749817
 20
71.92229
 30
0.0
 11
1269.654579
 21
71.92229
 31
0.0
1001
ACAD
1000
RTLwPs
1070
   158
  0
INSERT
  5
6FEA
  8
COTATION1
 62
     0
  2
_OPEN30
 10
1228.256198
 20
107.03564
 30
0.0
 41
5.0
 42
5.0
 43
5.0
 50
128.060809
1001
ACAD
1000
RTLwPs
1070
   158
  0
TEXT
  5
6FEB
  8
COTATION1
 62
     0
 10
1257.392674
 20
73.92229
 30
0.0
 40
2.5
  1
2x%%c4.3
1001
ACAD
1000
MTEXTBEGIN
1070
    73
1070
     1
1070
    44
1040
1.0
1070
    74
1070
     0
1000
MTEXTEND
  0
POINT
  5
6FEC
  8
DEFPOINTS
 62
     0
 10
1228.256198
 20
107.03564
 30
0.0
  0
POINT
  5
6FED
  8
DEFPOINTS
 62
     0
 10
1225.605259
 20
110.421274
 30
0.0
  0
ENDBLK
  5
6F93
  8
0
  0
BLOCK
  8
0
  2
*D13
 70
     1
 10
0.0
 20
0.0
 30
0.0
  3
*D13
  1

  0
LINE
  5
6F95
  8
COTATION1
 62
     0
 10
1221.430729
 20
51.728457
 30
0.0
 11
1221.430729
 21
11.228457
 31
0.0
1001
ACAD
1000
RTLwPs
1070
   158
  0
LINE
  5
6F96
  8
COTATION1
 62
     0
 10
1252.430729
 20
51.728457
 30
0.0
 11
1252.430729
 21
11.228457
 31
0.0
1001
ACAD
1000
RTLwPs
1070
   158
  0
LINE
  5
6F97
  8
COTATION1
 62
     0
 10
1226.430729
 20
13.728457
 30
0.0
 11
1247.430729
 21
13.728457
 31
0.0
1001
ACAD
1000
RTLwPs
1070
   158
  0
INSERT
  5
6F98
  8
COTATION1
 62
     0
  2
_OPEN30
 10
1221.430729
 20
13.728457
 30
0.0
 41
5.0
 42
5.0
 43
5.0
 50
180.0
1001
ACAD
1000
RTLwPs
1070
   158
  0
INSERT
  5
6F99
  8
COTATION1
 62
     0
  2
_OPEN30
 10
1252.430729
 20
13.728457
 30
0.0
 41
5.0
 42
5.0
 43
5.0
1001
ACAD
1000
RTLwPs
1070
   158
  0
TEXT
  5
6F9A
  8
COTATION1
 62
     0
 10
1234.906919
 20
15.728457
 30
0.0
 40
2.5
  1
31
1001
ACAD
1000
MTEXTBEGIN
1070
    73
1070
     1
1070
    44
1040
1.0
1070
    74
1070
     0
1000
MTEXTEND
  0
POINT
  5
6F9B
  8
DEFPOINTS
 62
     0
 10
1221.430729
 20
53.728457
 30
0.0
  0
POINT
  5
6F9C
  8
DEFPOINTS
 62
     0
 10
1252.430729
 20
53.728457
 30
0.0
  0
POINT
  5
6F9D
  8
DEFPOINTS
 62
     0
 10
1252.430729
 20
13.728457
 30
0.0
  0
ENDBLK
  5
6F9F
  8
0
  0
BLOCK
  8
0
  2
*D14
 70
     1
 10
0.0
 20
0.0
 30
0.0
  3
*D14
  1

  0
LINE
  5
6FAA
  8
COTATION1
 62
     0
 10
1234.930729
 20
138.728457
 30
0.0
 11
1198.930729
 21
138.728457
 31
0.0
1001
ACAD
1000
RTLwPs
1070
   158
  0
LINE
  5
6FAB
  8
COTATION1
 62
     0
 10
1220.780729
 20
108.728457
 30
0.0
 11
1198.930729
 21
108.728457
 31
0.0
1001
ACAD
1000
RTLwPs
1070
   158
  0
LINE
  5
6FAC
  8
COTATION1
 62
     0
 10
1201.430729
 20
133.728457
 30
0.0
 11
1201.430729
 21
126.978457
 31
0.0
1001
ACAD
1000
RTLwPs
1070
   158
  0
LINE
  5
6FAD
  8
COTATION1
 62
     0
 10
1201.430729
 20
113.728457
 30
0.0
 11
1201.430729
 21
120.478457
 31
0.0
1001
ACAD
1000
RTLwPs
1070
   158
  0
INSERT
  5
6FAE
  8
COTATION1
 62
     0
  2
_OPEN30
 10
1201.430729
 20
138.728457
 30
0.0
 41
5.0
 42
5.0
 43
5.0
 50
90.0
1001
ACAD
1000
RTLwPs
1070
   158
  0
INSERT
  5
6FAF
  8
COTATION1
 62
     0
  2
_OPEN30
 10
1201.430729
 20
108.728457
 30
0.0
 41
5.0
 42
5.0
 43
5.0
 50
270.0
1001
ACAD
1000
RTLwPs
1070
   158
  0
TEXT
  5
6FB0
  8
COTATION1
 62
     0
 10
1199.049776
 20
122.478457
 30
0.0
 40
2.5
  1
30
1001
ACAD
1000
MTEXTBEGIN
1070
    73
1070
     1
1070
    44
1040
1.0
1070
    74
1070
     0
1000
MTEXTEND
  0
POINT
  5
6FB1
  8
DEFPOINTS
 62
     0
 10
1236.930729
 20
138.728457
 30
0.0
  0
POINT
  5
6FB2
  8
DEFPOINTS
 62
     0
 10
1222.780729
 20
108.728457
 30
0.0
  0
POINT
  5
6FB3
  8
DEFPOINTS
 62
     0
 10
1201.430729
 20
108.728457
 30
0.0
  0
ENDBLK
  5
6FB5
  8
0
  0
BLOCK
  8
0
  2
*D15
 70
     1
 10
0.0
 20
0.0
 30
0.0
  3
*D15
  1

  0
LINE
  5
6FB7
  8
COTATION1
 62
     0
 10
1232.930729
 20
139.728457
 30
0.0
 11
1232.930729
 21
156.228457
 31
0.0
1001
ACAD
1000
RTLwPs
1070
   158
  0
LINE
  5
6FB8
  8
COTATION1
 62
     0
 10
1240.930729
 20
139.728457
 30
0.0
 11
1240.930729
 21
156.228457
 31
0.0
1001
ACAD
1000
RTLwPs
1070
   158
  0
LINE
  5
6FB9
  8
COTATION1
 62
     0
 10
1227.930729
 20
153.728457
 30
0.0
 11
1222.930729
 21
153.728457
 31
0.0
1001
ACAD
1000
RTLwPs
1070
   158
  0
LINE
  5
6FBA
  8
COTATION1
 62
     0
 10
1245.930729
 20
153.728457
 30
0.0
 11
1250.930729
 21
153.728457
 31
0.0
1001
ACAD
1000
RTLwPs
1070
   158
  0
INSERT
  5
6FBB
  8
COTATION1
 62
     0
  2
_OPEN30
 10
1232.930729
 20
153.728457
 30
0.0
 41
5.0
 42
5.0
 43
5.0
1001
ACAD
1000
RTLwPs
1070
   158
  0
INSERT
  5
6FBC
  8
COTATION1
 62
     0
  2
_OPEN30
 10
1240.930729
 20
153.728457
 30
0.0
 41
5.0
 42
5.0
 43
5.0
 50
180.0
1001
ACAD
1000
RTLwPs
1070
   158
  0
TEXT
  5
6FBD
  8
COTATION1
 62
     0
 10
1234.728348
 20
155.728457
 30
0.0
 40
2.5
  1
%%c
1001
ACAD
1000
MTEXTBEGIN
1070
    73
1070
     1
1070
    44
1040
1.0
1070
    74
1070
     0
1000
MTEXTEND
  0
TEXT
  5
7132
  8
COTATION1
 62
     0
 10
1236.990252
 20
155.728457
 30
0.0
 40
2.5
  1
8
1001
ACAD
1000
R13OBJECT
1002
{
1005
6FBD
1002
}
  0
POINT
  5
6FBE
  8
DEFPOINTS
 62
     0
 10
1232.930729
 20
137.728457
 30
0.0
  0
POINT
  5
6FBF
  8
DEFPOINTS
 62
     0
 10
1240.930729
 20
137.728457
 30
0.0
  0
POINT
  5
6FC0
  8
DEFPOINTS
 62
     0
 10
1240.930729
 20
153.728457
 30
0.0
  0
ENDBLK
  5
6FC2
  8
0
  0
ENDSEC
  0
SECTION
  2
ENTITIES
  0
INSERT
  5
A
  8
0
  2
COTE
 10
0.0
 20
0.0
 30
0.0
  0
INSERT
  5
17
  8
0
  2
COTE
 10
284.010391
 20
6.373258
 30
0.0
  0
INSERT
  5
72
  8
0
  2
FOND
 10
0.0
 20
0.0
 30
0.0
  0
LINE
  5
636A
  8
AXE
 10
1236.930729
 20
143.728457
 30
0.0
 11
1236.930729
 21
33.728457
 31
0.0
  0
LINE
  5
63A2
  8
AXE
 10
1217.430729
 20
86.228457
 30
0.0
 11
1267.430729
 21
86.228457
 31
0.0
  0
POLYLINE
  5
6632
  8
ALPHA
 66
     1
 10
0.0
 20
0.0
 30
0.0
 70
   128
  0
VERTEX
  5
7173
  8
ALPHA
 10
1228.476134
 20
116.646215
 30
0.0
  0
VERTEX
  5
7174
  8
ALPHA
 10
1228.666193
 20
116.646215
 30
0.0
  0
VERTEX
  5
7175
  8
ALPHA
 10
1229.203315
 20
116.646215
 30
0.0
  0
VERTEX
  5
7176
  8
ALPHA
 10
1231.120428
 20
116.646215
 30
0.0
  0
VERTEX
  5
7177
  8
ALPHA
 10
1233.83083
 20
116.646215
 30
0.0
  0
VERTEX
  5
7178
  8
ALPHA
 10
1236.937875
 20
116.646215
 30
0.0
  0
VERTEX
  5
7179
  8
ALPHA
 10
1240.044921
 20
116.646215
 30
0.0
  0
VERTEX
  5
717A
  8
ALPHA
 10
1242.755322
 20
116.646215
 30
0.0
  0
VERTEX
  5
717B
  8
ALPHA
 10
1244.672435
 20
116.646215
 30
0.0
  0
VERTEX
  5
717C
  8
ALPHA
 10
1245.209558
 20
116.646215
 30
0.0
  0
VERTEX
  5
717D
  8
ALPHA
 10
1245.399616
 20
116.646215
 30
0.0
  0
SEQEND
  5
717E
  8
ALPHA
  0
POLYLINE
  5
6633
  8
ALPHA
 66
     1
 10
0.0
 20
0.0
 30
0.0
 70
   128
  0
VERTEX
  5
717F
  8
ALPHA
 10
1252.430729
 20
102.014089
 30
0.0
  0
VERTEX
  5
7180
  8
ALPHA
 10
1252.210575
 20
102.515048
 30
0.0
  0
VERTEX
  5
7181
  8
ALPHA
 10
1251.811342
 20
102.840362
 30
0.0
  0
VERTEX
  5
7182
  8
ALPHA
 10
1250.6828
 20
103.231063
 30
0.0
  0
VERTEX
  5
7183
  8
ALPHA
 10
1249.289187
 20
103.606102
 30
0.0
  0
VERTEX
  5
7184
  8
ALPHA
 10
1245.818869
 20
104.264281
 30
0.0
  0
VERTEX
  5
7185
  8
ALPHA
 10
1241.624634
 20
104.725066
 30
0.0
  0
VERTEX
  5
7186
  8
ALPHA
 10
1236.930729
 20
104.898623
 30
0.0
  0
VERTEX
  5
7187
  8
ALPHA
 10
1232.236815
 20
104.725066
 30
0.0
  0
VERTEX
  5
7188
  8
ALPHA
 10
1228.04252
 20
104.264281
 30
0.0
  0
VERTEX
  5
7189
  8
ALPHA
 10
1224.572038
 20
103.606102
 30
0.0
  0
VERTEX
  5
718A
  8
ALPHA
 10
1223.178289
 20
103.231063
 30
0.0
  0
VERTEX
  5
718B
  8
ALPHA
 10
1222.049565
 20
102.840362
 30
0.0
  0
VERTEX
  5
718C
  8
ALPHA
 10
1221.650195
 20
102.515048
 30
0.0
  0
VERTEX
  5
718D
  8
ALPHA
 10
1221.430729
 20
102.014089
 30
0.0
  0
SEQEND
  5
718E
  8
ALPHA
  0
POLYLINE
  5
6634
  8
ALPHA
 66
     1
 10
0.0
 20
0.0
 30
0.0
 70
   128
210
0.0
220
0.0
230
-1.0
  0
VERTEX
  5
718F
  8
ALPHA
 10
-1245.373778
 20
104.326884
 30
0.0
  0
VERTEX
  5
7190
  8
ALPHA
 10
-1244.357085
 20
104.700782
 30
0.0
  0
VERTEX
  5
7191
  8
ALPHA
 10
-1243.487588
 20
105.576464
 30
0.0
  0
VERTEX
  5
7192
  8
ALPHA
 10
-1240.497158
 20
111.920158
 30
0.0
  0
VERTEX
  5
7193
  8
ALPHA
 10
-1239.666589
 20
113.270098
 30
0.0
  0
VERTEX
  5
7194
  8
ALPHA
 10
-1238.797205
 20
114.345721
 30
0.0
  0
VERTEX
  5
7195
  8
ALPHA
 10
-1237.88619
 20
115.057066
 30
0.0
  0
VERTEX
  5
7196
  8
ALPHA
 10
-1236.930729
 20
115.314173
 30
0.0
  0
VERTEX
  5
7197
  8
ALPHA
 10
-1235.975107
 20
115.057066
 30
0.0
  0
VERTEX
  5
7198
  8
ALPHA
 10
-1235.063995
 20
114.345721
 30
0.0
  0
VERTEX
  5
7199
  8
ALPHA
 10
-1234.194539
 20
113.270098
 30
0.0
  0
VERTEX
  5
719A
  8
ALPHA
 10
-1233.363887
 20
111.920158
 30
0.0
  0
VERTEX
  5
719B
  8
ALPHA
 10
-1230.37222
 20
105.576464
 30
0.0
  0
VERTEX
  5
719C
  8
ALPHA
 10
-1229.503341
 20
104.700782
 30
0.0
  0
VERTEX
  5
719D
  8
ALPHA
 10
-1228.487679
 20
104.326884
 30
0.0
  0
SEQEND
  5
719E
  8
ALPHA
  0
POLYLINE
  5
6635
  8
ALPHA
 66
     1
 10
0.0
 20
0.0
 30
0.0
 70
   128
  0
VERTEX
  5
719F
  8
ALPHA
 10
1245.399616
 20
116.646215
 30
0.0
  0
VERTEX
  5
71A0
  8
ALPHA
 10
1245.399616
 20
116.335521
 30
0.0
  0
VERTEX
  5
71A1
  8
ALPHA
 10
1245.399616
 20
115.651994
 30
0.0
  0
VERTEX
  5
71A2
  8
ALPHA
 10
1245.399616
 20
114.968467
 30
0.0
  0
VERTEX
  5
71A3
  8
ALPHA
 10
1245.399616
 20
114.657772
 30
0.0
  0
VERTEX
  5
71A4
  8
ALPHA
 10
1244.527147
 20
113.964985
 30
0.0
  0
VERTEX
  5
71A5
  8
ALPHA
 10
1243.338331
 20
113.323118
 30
0.0
  0
VERTEX
  5
71A6
  8
ALPHA
 10
1242.061281
 20
112.850918
 30
0.0
  0
VERTEX
  5
71A7
  8
ALPHA
 10
1240.924107
 20
112.66713
 30
0.0
  0
SEQEND
  5
71A8
  8
ALPHA
  0
POLYLINE
  5
6636
  8
ALPHA
 66
     1
 10
0.0
 20
0.0
 30
0.0
 70
   128
210
0.0
220
0.0
230
-1.0
  0
VERTEX
  5
71A9
  8
ALPHA
 10
-1232.951643
 20
112.66713
 30
0.0
  0
VERTEX
  5
71AA
  8
ALPHA
 10
-1231.815011
 20
112.850918
 30
0.0
  0
VERTEX
  5
71AB
  8
ALPHA
 10
-1230.538038
 20
113.323118
 30
0.0
  0
VERTEX
  5
71AC
  8
ALPHA
 10
-1229.34899
 20
113.964985
 30
0.0
  0
VERTEX
  5
71AD
  8
ALPHA
 10
-1228.476134
 20
114.657772
 30
0.0
  0
SEQEND
  5
71AE
  8
ALPHA
  0
POLYLINE
  5
6637
  8
ALPHA
 66
     1
 10
0.0
 20
0.0
 30
0.0
 70
   128
  0
VERTEX
  5
71AF
  8
ALPHA
 10
1240.924107
 20
112.66713
 30
0.0
  0
VERTEX
  5
71B0
  8
ALPHA
 10
1240.674597
 20
112.66713
 30
0.0
  0
VERTEX
  5
71B1
  8
ALPHA
 10
1240.059873
 20
112.66713
 30
0.0
  0
SEQEND
  5
71B2
  8
ALPHA
  0
POLYLINE
  5
6638
  8
ALPHA
 66
     1
 10
0.0
 20
0.0
 30
0.0
 70
   128
  0
VERTEX
  5
71B3
  8
ALPHA
 10
1233.801221
 20
112.66713
 30
0.0
  0
VERTEX
  5
71B4
  8
ALPHA
 10
1233.196624
 20
112.66713
 30
0.0
  0
VERTEX
  5
71B5
  8
ALPHA
 10
1232.951643
 20
112.66713
 30
0.0
  0
SEQEND
  5
71B6
  8
ALPHA
  0
POLYLINE
  5
6639
  8
ALPHA
 66
     1
 10
0.0
 20
0.0
 30
0.0
 70
   128
  0
VERTEX
  5
71B7
  8
ALPHA
 10
1228.476134
 20
114.657772
 30
0.0
  0
VERTEX
  5
71B8
  8
ALPHA
 10
1228.476134
 20
114.968467
 30
0.0
  0
VERTEX
  5
71B9
  8
ALPHA
 10
1228.476134
 20
115.651994
 30
0.0
  0
VERTEX
  5
71BA
  8
ALPHA
 10
1228.476134
 20
116.335521
 30
0.0
  0
VERTEX
  5
71BB
  8
ALPHA
 10
1228.476134
 20
116.646215
 30
0.0
  0
SEQEND
  5
71BC
  8
ALPHA
  0
DIMENSION
  5
663A
  8
COTATION1
  2
*D8
 10
1247.157793
 20
108.722199
 30
0.0
 11
1267.945355
 21
131.685986
 31
0.0
 70
   131
  1
2x<>x6.3
 15
1248.703664
 25
112.734715
 35
0.0
 40
0.0
1001
ACAD
1000
DSTYLE
1002
{
1070
   288
1070
     1
1002
}
  0
DIMENSION
  5
663B
  8
COTATION1
  2
*D9
 10
1295.941108
 20
50.228457
 30
0.0
 11
1295.941108
 21
94.478457
 31
0.0
 13
1236.930729
 23
138.728457
 33
0.0
 14
1247.780729
 24
50.228457
 34
0.0
 50
90.0
  0
DIMENSION
  5
663C
  8
COTATION1
  2
*D10
 10
1247.930729
 20
173.728457
 30
0.0
 11
1236.930729
 21
176.978457
 31
0.0
 13
1225.930729
 23
114.878457
 33
0.0
 14
1247.930729
 24
114.878457
 34
0.0
  0
DIMENSION
  5
663D
  8
COTATION1
  2
*D11
 10
1246.930729
 20
163.728457
 30
0.0
 11
1236.930729
 21
166.978457
 31
0.0
 13
1226.930729
 23
112.878457
 33
0.0
 14
1246.930729
 24
112.878457
 34
0.0
  0
DIMENSION
  5
6646
  8
COTATION1
  2
*D12
 10
1225.605259
 20
110.421274
 30
0.0
 11
1263.702198
 21
71.92229
 31
0.0
 70
   131
  1
2x<>
 15
1228.256198
 25
107.03564
 35
0.0
 40
0.0
1001
ACAD
1000
DSTYLE
1002
{
1070
   288
1070
     1
1002
}
  0
DIMENSION
  5
664A
  8
COTATION1
  2
*D13
 10
1252.430729
 20
13.728457
 30
0.0
 11
1236.930729
 21
16.978457
 31
0.0
 13
1221.430729
 23
53.728457
 33
0.0
 14
1252.430729
 24
53.728457
 34
0.0
  0
LINE
  5
664B
  8
ALPHA
 10
1249.430729
 20
54.728457
 30
0.0
 11
1252.430729
 21
54.728457
 31
0.0
  0
LINE
  5
664C
  8
AXE
 10
1252.080729
 20
110.728457
 30
0.0
 11
1243.780729
 21
110.728457
 31
0.0
  0
ARC
  5
664D
  8
ALPHA
 10
1236.930729
 20
64.233363
 30
0.0
 40
54.495095
 50
73.978407
 51
106.021593
  0
LINE
  5
664E
  8
ALPHA
 10
1221.430729
 20
53.728457
 30
0.0
 11
1252.430729
 21
53.728457
 31
0.0
  0
DIMENSION
  5
6650
  8
COTATION1
  2
*D7
 10
1246.430729
 20
23.728457
 30
0.0
 11
1236.930729
 21
26.978457
 31
0.0
 13
1227.430729
 23
53.228457
 33
0.0
 14
1246.430729
 24
53.228457
 34
0.0
  0
LINE
  5
6662
  8
ALPHA
 10
1221.430729
 20
116.028457
 30
0.0
 11
1221.430729
 21
53.728457
 31
0.0
  0
TEXT
  5
666E
  8
AXE
 10
1229.454538
 20
33.728457
 30
0.0
 40
8.0
  1
Y
 72
     2
 11
1235.930729
 21
33.728457
 31
0.0
  0
LINE
  5
6671
  8
ALPHA
 10
1224.430729
 20
58.780776
 30
0.0
 11
1236.930729
 21
58.780776
 31
0.0
  0
LINE
  5
6672
  8
ALPHA
 10
1225.930729
 20
54.728457
 30
0.0
 11
1247.930729
 21
54.728457
 31
0.0
  0
LINE
  5
6673
  8
ALPHA
 10
1221.430729
 20
54.728457
 30
0.0
 11
1224.430729
 21
54.728457
 31
0.0
  0
LINE
  5
6674
  8
ALPHA
 10
1225.930729
 20
58.780776
 30
0.0
 11
1226.943529
 21
54.728457
 31
0.0
  0
LINE
  5
6675
  8
ALPHA
 10
1224.430729
 20
54.728457
 30
0.0
 11
1224.430729
 21
58.780776
 31
0.0
  0
LINE
  5
6676
  8
ALPHA
 10
1225.930729
 20
54.728457
 30
0.0
 11
1225.930729
 21
58.780776
 31
0.0
  0
LINE
  5
6677
  8
ALPHA
 10
1247.930729
 20
58.780776
 30
0.0
 11
1246.917928
 21
54.728457
 31
0.0
  0
LINE
  5
6678
  8
ALPHA
 10
1247.930729
 20
54.728457
 30
0.0
 11
1247.930729
 21
58.780776
 31
0.0
  0
LINE
  5
6679
  8
ALPHA
 10
1249.430729
 20
54.728457
 30
0.0
 11
1249.430729
 21
58.780776
 31
0.0
  0
LINE
  5
667A
  8
ALPHA
 10
1249.430729
 20
58.780776
 30
0.0
 11
1236.930729
 21
58.780776
 31
0.0
  0
LINE
  5
668A
  8
ALPHA
 10
1250.080729
 20
110.728457
 30
0.0
 11
1250.080729
 21
108.728457
 31
0.0
  0
LINE
  5
668B
  8
AXE
 10
1247.930729
 20
106.578457
 30
0.0
 11
1247.930729
 21
114.878457
 31
0.0
  0
LINE
  5
668C
  8
AXE
 10
1246.930729
 20
104.578457
 30
0.0
 11
1246.930729
 21
112.878457
 31
0.0
  0
LINE
  5
668D
  8
ALPHA
 10
1238.387564
 20
110.030533
 30
0.0
 11
1236.930729
 21
108.573698
 31
0.0
  0
CIRCLE
  5
668E
  8
ALPHA
 10
1236.930729
 20
107.728457
 30
0.0
 40
2.735279
  0
LINE
  5
668F
  8
AXE
 10
1225.930729
 20
106.578457
 30
0.0
 11
1225.930729
 21
114.878457
 31
0.0
  0
LINE
  5
6690
  8
AXE
 10
1226.930729
 20
104.578457
 30
0.0
 11
1226.930729
 21
112.878457
 31
0.0
  0
ARC
  5
6691
  8
ALPHA
 10
1226.930729
 20
108.728457
 30
0.0
 40
2.15
 50
270.0
 51
57.663974
  0
LINE
  5
6692
  8
ALPHA
 10
1223.780729
 20
110.728457
 30
0.0
 11
1223.780729
 21
108.728457
 31
0.0
  0
ARC
  5
6693
  8
ALPHA
 10
1246.930729
 20
108.728457
 30
0.0
 40
2.15
 50
122.336026
 51
270.0
  0
LINE
  5
6694
  8
ALPHA
 10
1236.086315
 20
107.729281
 30
0.0
 11
1234.62453
 21
106.266401
 31
0.0
  0
LINE
  5
6695
  8
AXE
 10
1222.780729
 20
108.728457
 30
0.0
 11
1231.080729
 21
108.728457
 31
0.0
  0
ARC
  5
6696
  8
ALPHA
 10
1225.930729
 20
108.728457
 30
0.0
 40
2.15
 50
180.0
 51
270.0
  0
LINE
  5
6697
  8
ALPHA
 10
1225.930729
 20
106.578457
 30
0.0
 11
1226.930729
 21
106.578457
 31
0.0
  0
LINE
  5
6698
  8
ALPHA
 10
1247.930729
 20
106.578457
 30
0.0
 11
1246.930729
 21
106.578457
 31
0.0
  0
ARC
  5
6699
  8
ALPHA
 10
1247.930729
 20
108.728457
 30
0.0
 40
2.15
 50
270.0
 51
0.0
  0
LINE
  5
669A
  8
ALPHA
 10
1237.514012
 20
106.301584
 30
0.0
 11
1236.940625
 21
106.874421
 31
0.0
  0
LINE
  5
669B
  8
ALPHA
 10
1235.512925
 20
108.302121
 30
0.0
 11
1236.086315
 21
107.729281
 31
0.0
  0
LINE
  5
669C
  8
ALPHA
 10
1236.357339
 20
109.145437
 30
0.0
 11
1235.512925
 21
108.302121
 31
0.0
  0
LINE
  5
669D
  8
ALPHA
 10
1236.930729
 20
108.573698
 30
0.0
 11
1236.357339
 21
109.145437
 31
0.0
  0
LINE
  5
669E
  8
ALPHA
 10
1236.940625
 20
106.874421
 30
0.0
 11
1235.478291
 21
105.41209
 31
0.0
  0
LINE
  5
669F
  8
ALPHA
 10
1238.358429
 20
107.145998
 30
0.0
 11
1237.514012
 21
106.301584
 31
0.0
  0
LINE
  5
66A0
  8
ALPHA
 10
1237.785039
 20
107.717737
 30
0.0
 11
1238.358429
 21
107.145998
 31
0.0
  0
LINE
  5
66A1
  8
ALPHA
 10
1239.241874
 20
109.175673
 30
0.0
 11
1237.785039
 21
107.717737
 31
0.0
  0
LINE
  5
66A2
  8
AXE
 10
1251.080729
 20
108.728457
 30
0.0
 11
1242.780729
 21
108.728457
 31
0.0
  0
ARC
  5
66A7
  8
ALPHA
 10
1222.030729
 20
116.028457
 30
0.0
 40
0.6
 50
103.554708
 51
180.0
  0
LINE
  5
66A8
  8
ALPHA
 10
1226.487141
 20
116.646216
 30
0.0
 11
1228.46184
 21
116.646216
 31
0.0
  0
LINE
  5
66A9
  8
ALPHA
 10
1228.442599
 20
116.059633
 30
0.0
 11
1226.51298
 21
116.059633
 31
0.0
  0
ARC
  5
66AA
  8
ALPHA
 10
1225.930729
 20
110.728457
 30
0.0
 40
2.15
 50
0.0
 51
180.0
  0
LINE
  5
66AB
  8
AXE
 10
1221.780729
 20
110.728457
 30
0.0
 11
1230.080729
 21
110.728457
 31
0.0
  0
LINE
  5
66AC
  8
ALPHA
 10
1228.080729
 20
110.728457
 30
0.0
 11
1228.080729
 21
110.545047
 31
0.0
  0
LINE
  5
66AD
  8
ALPHA
 10
1228.46184
 20
114.656673
 30
0.0
 11
1226.487141
 21
114.656673
 31
0.0
  0
LINE
  5
66AE
  8
ALPHA
 10
1226.487141
 20
114.656673
 30
0.0
 11
1226.487141
 21
116.646216
 31
0.0
  0
LINE
  5
66AF
  8
ALPHA
 10
1228.46184
 20
116.646216
 30
0.0
 11
1228.46184
 21
114.656673
 31
0.0
  0
LINE
  5
66B4
  8
ALPHA
 10
1247.374316
 20
114.657771
 30
0.0
 11
1247.374316
 21
116.647314
 31
0.0
  0
LINE
  5
66B5
  8
ALPHA
 10
1245.780729
 20
110.728457
 30
0.0
 11
1245.780729
 21
110.545047
 31
0.0
  0
LINE
  5
66B6
  8
ALPHA
 10
1245.399617
 20
116.647314
 30
0.0
 11
1245.399617
 21
114.657771
 31
0.0
  0
LINE
  5
66B7
  8
ALPHA
 10
1247.374316
 20
116.647314
 30
0.0
 11
1245.399617
 21
116.647314
 31
0.0
  0
LINE
  5
66B8
  8
ALPHA
 10
1245.417757
 20
116.059633
 30
0.0
 11
1247.348477
 21
116.059633
 31
0.0
  0
LINE
  5
66B9
  8
ALPHA
 10
1245.399617
 20
114.657771
 30
0.0
 11
1247.374316
 21
114.657771
 31
0.0
  0
ARC
  5
66BA
  8
ALPHA
 10
1247.930729
 20
110.728457
 30
0.0
 40
2.15
 50
0.0
 51
180.0
  0
LINE
  5
66BB
  8
ALPHA
 10
1252.430729
 20
116.028457
 30
0.0
 11
1252.430729
 21
53.728457
 31
0.0
  0
TEXT
  5
66BC
  8
AXE
 10
1260.954538
 20
87.228457
 30
0.0
 40
8.0
  1
X
 72
     2
 11
1267.430729
 21
87.228457
 31
0.0
  0
ARC
  5
66BD
  8
ALPHA
 10
1251.830729
 20
116.028457
 30
0.0
 40
0.6
 50
0.0
 51
76.445292
  0
LINE
  5
6CBC
  8
ALPHA
 10
1240.571926
 20
134.99112
 30
0.0
 11
1240.991758
 21
134.768598
 31
0.0
  0
POLYLINE
  5
6CBD
  8
ALPHA
 66
     1
 10
0.0
 20
0.0
 30
0.0
 70
   128
  0
VERTEX
  5
71BD
  8
ALPHA
 10
1243.865759
 20
128.98577
 30
0.0
  0
VERTEX
  5
71BE
  8
ALPHA
 10
1243.825582
 20
128.789948
 30
0.0
  0
VERTEX
  5
71BF
  8
ALPHA
 10
1243.71966
 20
128.27369
 30
0.0
  0
VERTEX
  5
71C0
  8
ALPHA
 10
1243.398244
 20
126.707114
 30
0.0
  0
VERTEX
  5
71C1
  8
ALPHA
 10
1243.076827
 20
125.140537
 30
0.0
  0
VERTEX
  5
71C2
  8
ALPHA
 10
1242.970906
 20
124.624279
 30
0.0
  0
VERTEX
  5
71C3
  8
ALPHA
 10
1242.930729
 20
124.428457
 30
0.0
  0
SEQEND
  5
71C4
  8
ALPHA
  0
LINE
  5
6CBE
  8
ALPHA
 10
1243.633372
 20
130.146611
 30
0.0
 11
1243.865759
 21
128.98577
 31
0.0
  0
POLYLINE
  5
6CBF
  8
ALPHA
 66
     1
 10
0.0
 20
0.0
 30
0.0
 70
   128
  0
VERTEX
  5
71C5
  8
ALPHA
 10
1240.991758
 20
134.768598
 30
0.0
  0
VERTEX
  5
71C6
  8
ALPHA
 10
1241.105265
 20
134.569997
 30
0.0
  0
VERTEX
  5
71C7
  8
ALPHA
 10
1241.40451
 20
134.046413
 30
0.0
  0
VERTEX
  5
71C8
  8
ALPHA
 10
1242.312565
 20
132.457605
 30
0.0
  0
VERTEX
  5
71C9
  8
ALPHA
 10
1243.220619
 20
130.868796
 30
0.0
  0
VERTEX
  5
71CA
  8
ALPHA
 10
1243.519865
 20
130.345212
 30
0.0
  0
VERTEX
  5
71CB
  8
ALPHA
 10
1243.633372
 20
130.146611
 30
0.0
  0
SEQEND
  5
71CC
  8
ALPHA
  0
LINE
  5
6CC0
  8
ALPHA
 10
1233.289531
 20
134.99112
 30
0.0
 11
1232.869699
 21
134.768598
 31
0.0
  0
POLYLINE
  5
6CC1
  8
ALPHA
 66
     1
 10
0.0
 20
0.0
 30
0.0
 70
   128
  0
VERTEX
  5
71CD
  8
ALPHA
 10
1232.869699
 20
134.768598
 30
0.0
  0
VERTEX
  5
71CE
  8
ALPHA
 10
1232.756193
 20
134.569997
 30
0.0
  0
VERTEX
  5
71CF
  8
ALPHA
 10
1232.456947
 20
134.046413
 30
0.0
  0
VERTEX
  5
71D0
  8
ALPHA
 10
1231.548892
 20
132.457605
 30
0.0
  0
VERTEX
  5
71D1
  8
ALPHA
 10
1230.640838
 20
130.868796
 30
0.0
  0
VERTEX
  5
71D2
  8
ALPHA
 10
1230.341592
 20
130.345212
 30
0.0
  0
VERTEX
  5
71D3
  8
ALPHA
 10
1230.228085
 20
130.146611
 30
0.0
  0
SEQEND
  5
71D4
  8
ALPHA
  0
LINE
  5
6CC2
  8
ALPHA
 10
1230.228085
 20
130.146611
 30
0.0
 11
1229.995698
 21
128.98577
 31
0.0
  0
POLYLINE
  5
6CC3
  8
ALPHA
 66
     1
 10
0.0
 20
0.0
 30
0.0
 70
   128
  0
VERTEX
  5
71D5
  8
ALPHA
 10
1229.995698
 20
128.98577
 30
0.0
  0
VERTEX
  5
71D6
  8
ALPHA
 10
1230.035875
 20
128.789948
 30
0.0
  0
VERTEX
  5
71D7
  8
ALPHA
 10
1230.141797
 20
128.27369
 30
0.0
  0
VERTEX
  5
71D8
  8
ALPHA
 10
1230.463213
 20
126.707114
 30
0.0
  0
VERTEX
  5
71D9
  8
ALPHA
 10
1230.78463
 20
125.140537
 30
0.0
  0
VERTEX
  5
71DA
  8
ALPHA
 10
1230.890551
 20
124.624279
 30
0.0
  0
VERTEX
  5
71DB
  8
ALPHA
 10
1230.930728
 20
124.428457
 30
0.0
  0
SEQEND
  5
71DC
  8
ALPHA
  0
LINE
  5
6CC4
  8
ALPHA
 10
1243.130729
 20
121.528457
 30
0.0
 11
1236.930729
 21
121.528457
 31
0.0
  0
LINE
  5
6CC5
  8
ALPHA
 10
1242.680729
 20
122.628457
 30
0.0
 11
1237.080729
 21
122.628457
 31
0.0
  0
LINE
  5
6CC6
  8
ALPHA
 10
1242.680729
 20
122.128457
 30
0.0
 11
1237.080729
 21
122.128457
 31
0.0
  0
LINE
  5
6CC7
  8
ALPHA
 10
1242.930729
 20
123.228457
 30
0.0
 11
1236.930729
 21
123.228457
 31
0.0
  0
LINE
  5
6CC8
  8
ALPHA
 10
1242.930729
 20
124.428457
 30
0.0
 11
1236.930729
 21
124.428457
 31
0.0
  0
LINE
  5
6CC9
  8
ALPHA
 10
1244.680729
 20
119.728457
 30
0.0
 11
1236.930729
 21
119.728457
 31
0.0
  0
LINE
  5
6CCA
  8
ALPHA
 10
1243.680729
 20
120.728457
 30
0.0
 11
1236.930729
 21
120.728457
 31
0.0
  0
LINE
  5
6CCB
  8
ALPHA
 10
1230.930729
 20
121.528457
 30
0.0
 11
1231.530729
 21
122.128457
 31
0.0
  0
LINE
  5
6CCC
  8
ALPHA
 10
1230.730729
 20
121.528457
 30
0.0
 11
1236.930729
 21
121.528457
 31
0.0
  0
LINE
  5
6CCD
  8
ALPHA
 10
1229.180729
 20
119.728457
 30
0.0
 11
1236.930729
 21
119.728457
 31
0.0
  0
LINE
  5
6CCE
  8
ALPHA
 10
1229.180729
 20
119.728457
 30
0.0
 11
1229.180729
 21
118.17456
 31
0.0
  0
LINE
  5
6CCF
  8
ALPHA
 10
1230.430729
 20
121.228457
 30
0.0
 11
1230.430729
 21
120.728457
 31
0.0
  0
LINE
  5
6CD0
  8
ALPHA
 10
1229.180729
 20
119.728457
 30
0.0
 11
1230.180729
 21
120.728457
 31
0.0
  0
LINE
  5
6CD1
  8
ALPHA
 10
1230.180729
 20
120.728457
 30
0.0
 11
1236.930729
 21
120.728457
 31
0.0
  0
ARC
  5
6CD2
  8
ALPHA
 10
1230.730729
 20
121.228457
 30
0.0
 40
0.3
 50
90.0
 51
180.0
  0
LINE
  5
6CD3
  8
ALPHA
 10
1237.080729
 20
122.528457
 30
0.0
 11
1236.930729
 21
122.528457
 31
0.0
  0
LINE
  5
6CD4
  8
ALPHA
 10
1237.080729
 20
122.528457
 30
0.0
 11
1236.930729
 21
122.528457
 31
0.0
  0
LINE
  5
6CD5
  8
ALPHA
 10
1237.080729
 20
122.228457
 30
0.0
 11
1236.930729
 21
122.228457
 31
0.0
  0
LINE
  5
6CD6
  8
ALPHA
 10
1237.080729
 20
122.628457
 30
0.0
 11
1237.080729
 21
122.128457
 31
0.0
  0
LINE
  5
6CD7
  8
ALPHA
 10
1230.930729
 20
124.428457
 30
0.0
 11
1230.930729
 21
123.228457
 31
0.0
  0
LINE
  5
6CD8
  8
ALPHA
 10
1230.930729
 20
124.428457
 30
0.0
 11
1236.930729
 21
124.428457
 31
0.0
  0
LINE
  5
6CD9
  8
ALPHA
 10
1230.930729
 20
123.228457
 30
0.0
 11
1236.930729
 21
123.228457
 31
0.0
  0
LINE
  5
6CDA
  8
ALPHA
 10
1230.930729
 20
123.228457
 30
0.0
 11
1231.530729
 21
122.628457
 31
0.0
  0
LINE
  5
6CDB
  8
ALPHA
 10
1236.780729
 20
122.628457
 30
0.0
 11
1236.780729
 21
122.128457
 31
0.0
  0
LINE
  5
6CDC
  8
ALPHA
 10
1231.180729
 20
122.128457
 30
0.0
 11
1236.780729
 21
122.128457
 31
0.0
  0
LINE
  5
6CDD
  8
ALPHA
 10
1231.180729
 20
122.628457
 30
0.0
 11
1236.780729
 21
122.628457
 31
0.0
  0
LINE
  5
6CDE
  8
ALPHA
 10
1236.780729
 20
122.228457
 30
0.0
 11
1236.930729
 21
122.228457
 31
0.0
  0
LINE
  5
6CDF
  8
ALPHA
 10
1236.780729
 20
122.528457
 30
0.0
 11
1236.930729
 21
122.528457
 31
0.0
  0
LINE
  5
6CE0
  8
ALPHA
 10
1236.780729
 20
122.528457
 30
0.0
 11
1236.930729
 21
122.528457
 31
0.0
  0
ARC
  5
6CE1
  8
ALPHA
 10
1231.180729
 20
122.378457
 30
0.0
 40
0.25
 50
90.0
 51
270.0
  0
LINE
  5
6CE2
  8
ALPHA
 10
1242.930729
 20
121.528457
 30
0.0
 11
1242.330729
 21
122.128457
 31
0.0
  0
LINE
  5
6CE3
  8
ALPHA
 10
1244.680729
 20
119.728457
 30
0.0
 11
1244.680729
 21
118.17456
 31
0.0
  0
LINE
  5
6CE4
  8
ALPHA
 10
1244.680729
 20
119.728457
 30
0.0
 11
1243.680729
 21
120.728457
 31
0.0
  0
LINE
  5
6CE5
  8
ALPHA
 10
1243.430729
 20
121.228457
 30
0.0
 11
1243.430729
 21
120.728457
 31
0.0
  0
ARC
  5
6CE6
  8
ALPHA
 10
1243.130729
 20
121.228457
 30
0.0
 40
0.3
 50
0.0
 51
90.0
  0
ARC
  5
6CE7
  8
ALPHA
 10
1242.680729
 20
122.378457
 30
0.0
 40
0.25
 50
270.0
 51
90.0
  0
LINE
  5
6CE8
  8
ALPHA
 10
1242.930729
 20
123.228457
 30
0.0
 11
1242.330729
 21
122.628457
 31
0.0
  0
LINE
  5
6CE9
  8
ALPHA
 10
1242.930729
 20
124.428457
 30
0.0
 11
1242.930729
 21
123.228457
 31
0.0
  0
ARC
  5
6CEA
  8
ALPHA
 10
1236.930729
 20
130.228457
 30
0.0
 40
8.5
 50
61.927513
 51
118.072487
  0
LINE
  5
6CEB
  8
ALPHA
 10
1240.930729
 20
137.728457
 30
0.0
 11
1236.930729
 21
137.728457
 31
0.0
  0
LINE
  5
6CEC
  8
ALPHA
 10
1236.930729
 20
134.99112
 30
0.0
 11
1240.930729
 21
134.99112
 31
0.0
  0
LINE
  5
6CED
  8
ALPHA
 10
1240.991757
 20
134.768599
 30
0.0
 11
1236.930729
 21
134.768599
 31
0.0
  0
LINE
  5
6CEE
  8
ALPHA
 10
1232.8697
 20
134.768599
 30
0.0
 11
1236.930729
 21
134.768599
 31
0.0
  0
LINE
  5
6CEF
  8
ALPHA
 10
1236.930729
 20
134.99112
 30
0.0
 11
1232.930729
 21
134.99112
 31
0.0
  0
LINE
  5
6CF0
  8
ALPHA
 10
1232.930729
 20
137.728457
 30
0.0
 11
1232.930729
 21
134.99112
 31
0.0
  0
LINE
  5
6CF1
  8
ALPHA
 10
1232.930729
 20
137.728457
 30
0.0
 11
1236.930729
 21
137.728457
 31
0.0
  0
LINE
  5
6CF2
  8
ALPHA
 10
1240.930729
 20
137.728457
 30
0.0
 11
1240.930729
 21
134.99112
 31
0.0
  0
DIMENSION
  5
6CF3
  8
COTATION1
  2
*D14
 10
1201.430729
 20
108.728457
 30
0.0
 11
1201.430729
 21
123.728457
 31
0.0
 70
   128
 13
1236.930729
 23
138.728457
 33
0.0
 14
1222.780729
 24
108.728457
 34
0.0
 50
90.0
  0
DIMENSION
  5
6CF4
  8
COTATION1
  2
*D15
 10
1240.930729
 20
153.728457
 30
0.0
 11
1236.930729
 21
153.728457
 31
0.0
 70
   128
  1
%%c<>
 13
1232.930729
 23
137.728457
 33
0.0
 14
1240.930729
 24
137.728457
 34
0.0
  0
DIMENSION
  5
6EAB
  8
COTATION1
  2
*D3
 10
1228.538122
 20
58.740228
 30
0.0
 11
1201.329588
 21
39.515317
 31
0.0
 70
   131
  1
2x<>
 15
1226.323335
 25
56.716687
 35
0.0
 40
0.0
1001
ACAD
1000
DSTYLE
1002
{
1070
   288
1070
     1
1002
}
  0
CIRCLE
  5
6EAC
  8
POINTILLE_COURT
 10
1227.430729
 20
57.728457
 30
0.0
 40
1.5
  0
LINE
  5
6EAD
  8
AXE
 10
1231.930729
 20
57.728457
 30
0.0
 11
1222.930729
 21
57.728457
 31
0.0
  0
LINE
  5
6EAE
  8
AXE
 10
1227.430729
 20
53.228457
 30
0.0
 11
1227.430729
 21
62.228457
 31
0.0
  0
LINE
  5
6EAF
  8
AXE
 10
1241.930729
 20
57.728457
 30
0.0
 11
1250.930729
 21
57.728457
 31
0.0
  0
CIRCLE
  5
6EB0
  8
POINTILLE_COURT
 10
1246.430729
 20
57.728457
 30
0.0
 40
1.5
  0
LINE
  5
6EB1
  8
AXE
 10
1246.430729
 20
53.228457
 30
0.0
 11
1246.430729
 21
62.228457
 31
0.0
  0
DIMENSION
  5
6EB2
  8
COTATION1
  2
*D4
 10
1285.941108
 20
57.728457
 30
0.0
 11
1285.941108
 21
83.228457
 31
0.0
 13
1251.080729
 23
108.728457
 33
0.0
 14
1250.930729
 24
57.728457
 34
0.0
 50
90.0
  0
DIMENSION
  5
6EB3
  8
COTATION1
  2
*D5
 10
1285.941108
 20
108.728457
 30
0.0
 11
1285.974945
 21
113.728457
 31
0.0
 70
   128
 13
1236.930729
 23
118.728457
 33
0.0
 14
1251.080729
 24
108.728457
 34
0.0
 50
90.0
1001
ACAD
1000
DSTYLE
1002
{
1070
   287
1070
     5
1070
   279
1070
     2
1070
   289
1070
     3
1002
}
  0
DIMENSION
  5
6EB4
  8
COTATION1
  2
*D6
 10
1275.941108
 20
108.728457
 30
0.0
 11
1273.107775
 21
100.176735
 31
0.0
 70
   128
 13
1252.080729
 23
110.728457
 33
0.0
 14
1251.080729
 24
108.728457
 34
0.0
 50
90.0
1001
ACAD
1000
DSTYLE
1002
{
1070
   287
1070
     5
1070
   279
1070
     2
1070
   289
1070
     3
1002
}
  0
LINE
  5
7069
  8
ALPHA
 10
1226.080755
 20
50.228457
 30
0.0
 11
1247.780702
 21
50.228457
 31
0.0
  0
LINE
  5
706A
  8
ALPHA
 10
1247.780729
 20
53.728457
 30
0.0
 11
1247.780729
 21
50.228457
 31
0.0
  0
LINE
  5
706B
  8
ALPHA
 10
1226.080729
 20
53.728457
 30
0.0
 11
1226.080729
 21
50.228457
 31
0.0
  0
VIEWPORT
  5
494D
 67
     1
  8
0
 10
4.995325
 20
6.556512
 30
0.0
 40
22.70986
 41
13.988421
 68
    -1
 69
     1
1001
ACAD
1000
MVIEW
1002
{
1070
    16
1010
0.0
1020
0.0
1030
0.0
1010
0.0
1020
0.0
1030
1.0
1040
0.0
1040
13.988421
1040
4.995325
1040
6.556512
1040
50.0
1040
0.0
1040
0.0
1070
     0
1070
   100
1070
     1
1070
     1
1070
     0
1070
     0
1070
     0
1070
     0
1040
0.0
1040
0.0
1040
0.0
1040
10.0
1040
10.0
1040
10.0
1040
10.0
1070
     0
1002
{
1002
}
1002
}
  0
ENDSEC
  0
EOF
