  0
SECTION
  2
HEADER
  9
$ACADVER
  1
AC1009
  9
$INSBASE
 10
0.0
 20
0.0
 30
0.0
  9
$EXTMIN
 10
74.553681
 20
62.081503
 30
-0.001526
  9
$EXTMAX
 10
135.699463
 20
214.164518
 30
0.0
  9
$LIMMIN
 10
0.0
 20
0.0
  9
$LIMMAX
 10
150.0
 20
150.0
  9
$ORTHOMODE
 70
     0
  9
$REGENMODE
 70
     1
  9
$FILLMODE
 70
     1
  9
$QTEXTMODE
 70
     0
  9
$MIRRTEXT
 70
     1
  9
$DRAGMODE
 70
     2
  9
$LTSCALE
 40
9.777778
  9
$OSMODE
 70
   167
  9
$ATTMODE
 70
     1
  9
$TEXTSIZE
 40
0.2
  9
$TRACEWID
 40
0.05
  9
$TEXTSTYLE
  7
STANDARD
  9
$CLAYER
  8
0
  9
$CELTYPE
  6
BYLAYER
  9
$CECOLOR
 62
   256
  9
$DIMSCALE
 40
1.0
  9
$DIMASZ
 40
2.5
  9
$DIMEXO
 40
1.111111
  9
$DIMDLI
 40
2.0
  9
$DIMRND
 40
0.0
  9
$DIMDLE
 40
0.0
  9
$DIMEXE
 40
3.2
  9
$DIMTP
 40
0.0
  9
$DIMTM
 40
0.0
  9
$DIMTXT
 40
2.008929
  9
$DIMCEN
 40
1.6
  9
$DIMTSZ
 40
0.0
  9
$DIMTOL
 70
     0
  9
$DIMLIM
 70
     0
  9
$DIMTIH
 70
     0
  9
$DIMTOH
 70
     0
  9
$DIMSE1
 70
     0
  9
$DIMSE2
 70
     0
  9
$DIMTAD
 70
     1
  9
$DIMZIN
 70
     8
  9
$DIMBLK
  1

  9
$DIMASO
 70
     1
  9
$DIMSHO
 70
     1
  9
$DIMPOST
  1

  9
$DIMAPOST
  1

  9
$DIMALT
 70
     0
  9
$DIMALTD
 70
     2
  9
$DIMALTF
 40
25.4
  9
$DIMLFAC
 40
1.0
  9
$DIMTOFL
 70
     0
  9
$DIMTVP
 40
0.0
  9
$DIMTIX
 70
     0
  9
$DIMSOXD
 70
     0
  9
$DIMSAH
 70
     0
  9
$DIMBLK1
  1

  9
$DIMBLK2
  1

  9
$DIMSTYLE
  2
STANDARD
  9
$DIMCLRD
 70
     0
  9
$DIMCLRE
 70
     0
  9
$DIMCLRT
 70
     0
  9
$DIMTFAC
 40
1.0
  9
$DIMGAP
 40
1.0
  9
$LUNITS
 70
     2
  9
$LUPREC
 70
     4
  9
$SKETCHINC
 40
0.1
  9
$FILLETRAD
 40
0.0
  9
$AUNITS
 70
     0
  9
$AUPREC
 70
     0
  9
$MENU
  1
.
  9
$ELEVATION
 40
0.0
  9
$PELEVATION
 40
0.0
  9
$THICKNESS
 40
0.0
  9
$LIMCHECK
 70
     0
  9
$BLIPMODE
 70
     0
  9
$CHAMFERA
 40
0.0
  9
$CHAMFERB
 40
0.0
  9
$SKPOLY
 70
     0
  9
$TDCREATE
 40
2452282.428316
  9
$TDUPDATE
 40
2452292.363427
  9
$TDINDWG
 40
0.012128
  9
$TDUSRTIMER
 40
0.012128
  9
$USRTIMER
 70
     1
  9
$ANGBASE
 50
0.0
  9
$ANGDIR
 70
     0
  9
$PDMODE
 70
     0
  9
$PDSIZE
 40
0.0
  9
$PLINEWID
 40
0.0
  9
$COORDS
 70
     2
  9
$SPLFRAME
 70
     0
  9
$SPLINETYPE
 70
     6
  9
$SPLINESEGS
 70
     8
  9
$ATTDIA
 70
     0
  9
$ATTREQ
 70
     1
  9
$HANDLING
 70
     1
  9
$HANDSEED
  5
4212
  9
$SURFTAB1
 70
     6
  9
$SURFTAB2
 70
     6
  9
$SURFTYPE
 70
     6
  9
$SURFU
 70
     6
  9
$SURFV
 70
     6
  9
$UCSNAME
  2

  9
$UCSORG
 10
0.0
 20
0.0
 30
0.0
  9
$UCSXDIR
 10
1.0
 20
0.0
 30
0.0
  9
$UCSYDIR
 10
0.0
 20
1.0
 30
0.0
  9
$PUCSNAME
  2

  9
$PUCSORG
 10
0.0
 20
0.0
 30
0.0
  9
$PUCSXDIR
 10
1.0
 20
0.0
 30
0.0
  9
$PUCSYDIR
 10
0.0
 20
1.0
 30
0.0
  9
$USERI1
 70
     0
  9
$USERI2
 70
     0
  9
$USERI3
 70
     0
  9
$USERI4
 70
     0
  9
$USERI5
 70
     0
  9
$USERR1
 40
0.0
  9
$USERR2
 40
0.0
  9
$USERR3
 40
0.0
  9
$USERR4
 40
0.0
  9
$USERR5
 40
0.0
  9
$WORLDVIEW
 70
     1
  9
$SHADEDGE
 70
     3
  9
$SHADEDIF
 70
    70
  9
$TILEMODE
 70
     1
  9
$MAXACTVP
 70
    48
  9
$PLIMCHECK
 70
     0
  9
$PEXTMIN
 10
1.000000E+020
 20
1.000000E+020
 30
1.000000E+020
  9
$PEXTMAX
 10
-1.000000E+020
 20
-1.000000E+020
 30
-1.000000E+020
  9
$PLIMMIN
 10
0.0
 20
0.0
  9
$PLIMMAX
 10
12.0
 20
9.0
  9
$UNITMODE
 70
     0
  9
$VISRETAIN
 70
     1
  9
$PLINEGEN
 70
     0
  9
$PSLTSCALE
 70
     1
  0
ENDSEC
  0
SECTION
  2
TABLES
  0
TABLE
  2
VPORT
 70
     2
  0
VPORT
  2
*ACTIVE
 70
     0
 10
0.0
 20
0.0
 11
1.0
 21
1.0
 12
105.126572
 22
138.12301
 13
0.0
 23
0.0
 14
1.0
 24
1.0
 15
0.0
 25
0.0
 16
0.0
 26
0.0
 36
1.0
 17
0.0
 27
0.0
 37
0.0
 40
153.757323
 41
1.700368
 42
50.0
 43
0.0
 44
0.0
 50
0.0
 51
0.0
 71
     0
 72
   100
 73
     1
 74
     1
 75
     0
 76
     0
 77
     0
 78
     0
  0
ENDTAB
  0
TABLE
  2
LTYPE
 70
     6
  0
LTYPE
  2
CONTINUOUS
 70
     0
  3
Solid line
 72
    65
 73
     0
 40
0.0
  0
LTYPE
  2
CENTER
 70
     0
  3
____ _ ____ _ ____ _ ____ _ ____ _ ____ _ ____
 72
    65
 73
     4
 40
0.6
 49
0.375
 49
-0.075
 49
0.075
 49
-0.075
  0
LTYPE
  2
HIDDEN
 70
     0
  3
- - - - - - - - - - - - - - - - - - - -
 72
    65
 73
     2
 40
0.2
 49
0.1
 49
-0.1
  0
LTYPE
  2
PHANTOM
 70
     0
  3
_____ _ _ _____ _ _ _____ _ _ _____
 72
    65
 73
     6
 40
0.8
 49
0.45
 49
-0.05
 49
0.1
 49
-0.05
 49
0.1
 49
-0.05
  0
ENDTAB
  0
TABLE
  2
LAYER
 70
     5
  0
LAYER
  2
0
 70
     0
 62
     7
  6
CONTINUOUS
  0
LAYER
  2
DEFPOINTS
 70
     0
 62
     7
  6
CONTINUOUS
  0
ENDTAB
  0
TABLE
  2
STYLE
 70
     1
  0
STYLE
  2
STANDARD
 70
     0
 40
0.0
 41
1.0
 50
0.0
 71
     0
 42
0.2
  3
txt
  4

  0
ENDTAB
  0
TABLE
  2
VIEW
 70
     0
  0
ENDTAB
  0
TABLE
  2
UCS
 70
     0
  0
ENDTAB
  0
TABLE
  2
APPID
 70
     1
  0
APPID
  2
ACAD
 70
     0
  0
ENDTAB
  0
TABLE
  2
DIMSTYLE
 70
     1
  0
DIMSTYLE
  2
STANDARD
 70
     0
  3

  4

  5

  6

  7

 40
1.0
 41
0.18
 42
0.0625
 43
0.02
 44
0.1
 45
0.0
 46
0.0
 47
0.0
 48
0.0
140
0.18
141
0.0
142
0.0
143
25.4
144
1.0
145
0.0
146
1.0
147
1.0
 71
     0
 72
     0
 73
     0
 74
     0
 75
     0
 76
     0
 77
     1
 78
     8
170
     0
171
     2
172
     0
173
     0
174
     0
175
     0
176
     0
177
     0
178
     0
  0
ENDTAB
  0
ENDSEC
  0
SECTION
  2
BLOCKS
  0
BLOCK
  8
0
  2
$MODEL_SPACE
 70
     0
 10
0.0
 20
0.0
 30
0.0
  3
$MODEL_SPACE
  1

  0
ENDBLK
  5
20
  8
0
  0
BLOCK
 67
     1
  8
0
  2
$PAPER_SPACE
 70
     0
 10
0.0
 20
0.0
 30
0.0
  3
$PAPER_SPACE
  1

  0
ENDBLK
  5
1C
 67
     1
  8
0
  0
BLOCK
  8
0
  2
*D0
 70
     1
 10
0.0
 20
0.0
 30
0.0
  3
*D0
  1

  0
LINE
  5
3E77
  8
0
 62
     0
 10
122.297919
 20
201.252538
 30
0.0
 11
77.057223
 21
201.252538
 31
0.0
1001
ACAD
1000
RTLwPs
1070
   158
  0
LINE
  5
3E78
  8
0
 62
     0
 10
114.921919
 20
62.082538
 30
0.0
 11
77.057223
 21
62.082538
 31
0.0
1001
ACAD
1000
RTLwPs
1070
   158
  0
LINE
  5
3E79
  8
0
 62
     0
 10
78.057223
 20
198.752538
 30
0.0
 11
78.057223
 21
64.582538
 31
0.0
1001
ACAD
1000
RTLwPs
1070
   158
  0
SOLID
  5
3E7A
  8
0
 62
     0
 10
77.640556
 20
198.752538
 30
0.0
 11
78.47389
 21
198.752538
 31
0.0
 12
78.057223
 22
201.252538
 32
0.0
 13
78.057223
 23
201.252538
 33
0.0
  0
SOLID
  5
3E7B
  8
0
 62
     0
 10
77.640556
 20
64.582538
 30
0.0
 11
78.47389
 21
64.582538
 31
0.0
 12
78.057223
 22
62.082538
 32
0.0
 13
78.057223
 23
62.082538
 33
0.0
  0
TEXT
  8
0
  40
2.5
  5
4210
  62
0
  72
0
  71
0
 10
70.8072
 20
127.027
 30
0.000000
  1
139.17
  0
POINT
  5
3E7D
  8
DEFPOINTS
 62
     0
 10
123.297919
 20
201.252538
 30
0.0
  0
POINT
  5
3E7E
  8
DEFPOINTS
 62
     0
 10
115.921919
 20
62.082538
 30
0.0
  0
POINT
  5
3E7F
  8
DEFPOINTS
 62
     0
 10
78.057223
 20
62.082538
 30
0.0
  0
ENDBLK
  5
3DB0
  8
0
  0
BLOCK
  8
0
  2
*D1
 70
     1
 10
0.0
 20
0.0
 30
0.0
  3
*D1
  1

  0
LINE
  5
3E80
  8
0
 62
     0
 10
90.647919
 20
202.852538
 30
0.0
 11
90.647919
 21
211.657982
 31
0.0
1001
ACAD
1000
RTLwPs
1070
   158
  0
LINE
  5
3E81
  8
0
 62
     0
 10
135.447919
 20
202.852538
 30
0.0
 11
135.447919
 21
211.657982
 31
0.0
1001
ACAD
1000
RTLwPs
1070
   158
  0
LINE
  5
3E82
  8
0
 62
     0
 10
93.147919
 20
210.657982
 30
0.0
 11
132.947919
 21
210.657982
 31
0.0
1001
ACAD
1000
RTLwPs
1070
   158
  0
SOLID
  5
3E83
  8
0
 62
     0
 10
93.147919
 20
211.074648
 30
0.0
 11
93.147919
 21
210.241315
 31
0.0
 12
90.647919
 22
210.657982
 32
0.0
 13
90.647919
 23
210.657982
 33
0.0
  0
SOLID
  5
3E84
  8
0
 62
     0
 10
132.947919
 20
211.074648
 30
0.0
 11
132.947919
 21
210.241315
 31
0.0
 12
135.447919
 22
210.657982
 32
0.0
 13
135.447919
 23
210.657982
 33
0.0
  0
TEXT
  8
0
  40
2.5
  5
4211
  62
0
  72
0
  71
0
 10
108.228
 20
208.483
 30
0.000000
  1
44.8
  0
POINT
  5
3E86
  8
DEFPOINTS
 62
     0
 10
90.647919
 20
201.852538
 30
0.0
  0
POINT
  5
3E87
  8
DEFPOINTS
 62
     0
 10
135.447919
 20
201.852538
 30
0.0
  0
POINT
  5
3E88
  8
DEFPOINTS
 62
     0
 10
135.447919
 20
210.657982
 30
0.0
  0
ENDBLK
  5
3DBC
  8
0
  0
ENDSEC
  0
SECTION
  2
ENTITIES
  0
ARC
  5
399C
  8
0
 62
     0
 10
113.047919
 20
219.952538
 30
0.0
 40
129.5
 50
260.450974
 51
271.725771
  0
ARC
  5
399D
  8
0
 62
     0
 10
113.047919
 20
219.952538
 30
0.0
 40
130.0
 50
260.450974
 51
271.719131
  0
ARC
  5
399E
  8
0
 62
     0
 10
113.047919
 20
253.252538
 30
0.0
 40
106.0
 50
258.705216
 51
281.019833
  0
ARC
  5
399F
  8
0
 62
     0
 10
113.047919
 20
256.795615
 30
0.0
 40
109.343077
 50
258.894324
 51
280.839284
  0
ARC
  5
39A0
  8
0
 62
     0
 10
113.047919
 20
217.452538
 30
0.0
 40
127.987078
 50
269.171162
 51
274.956531
  0
ARC
  5
39A1
  8
0
 62
     0
 10
113.047919
 20
280.992538
 30
0.0
 40
125.94
 50
259.954003
 51
280.045997
  0
ARC
  5
39A2
  8
0
 62
     0
 10
113.047919
 20
280.992538
 30
0.0
 40
126.44
 50
260.177324
 51
279.822676
  0
ARC
  5
39A3
  8
0
 62
     0
 10
113.047919
 20
280.992538
 30
0.0
 40
125.24
 50
267.80352
 51
272.19648
  0
LINE
  5
39A4
  8
0
 62
     0
 10
124.297919
 20
201.152538
 30
0.0
 11
90.947919
 21
201.152538
 31
0.0
  0
LINE
  5
39A5
  8
0
 62
     0
 10
124.197919
 20
200.852538
 30
0.0
 11
90.647919
 21
200.852538
 31
0.0
  0
LINE
  5
39A6
  8
0
 62
     0
 10
117.797919
 20
198.121284
 30
0.0
 11
108.297919
 21
198.121284
 31
0.0
  0
POLYLINE
  5
39A7
  8
0
 62
     0
 66
     1
 10
0.0
 20
0.0
 30
0.0
  0
VERTEX
  5
3EFB
  8
0
 62
     0
 10
117.797919
 20
197.152538
 30
0.0
  0
VERTEX
  5
3EFC
  8
0
 62
     0
 10
114.655889
 20
197.000202
 30
0.0
  0
VERTEX
  5
3EFD
  8
0
 62
     0
 10
111.439948
 20
197.000202
 30
0.0
  0
VERTEX
  5
3EFE
  8
0
 62
     0
 10
108.297919
 20
197.152538
 30
0.0
  0
SEQEND
  5
3EFF
  8
0
 62
     0
  0
LINE
  5
39A8
  8
0
 62
     0
 10
117.797919
 20
193.152538
 30
0.0
 11
108.297919
 21
193.152538
 31
0.0
  0
LINE
  5
39A9
  8
0
 62
     0
 10
108.297919
 20
191.652538
 30
0.0
 11
117.797919
 21
191.652538
 31
0.0
  0
LINE
  5
39AA
  8
0
 62
     0
 10
117.797919
 20
190.152538
 30
0.0
 11
108.297919
 21
190.152538
 31
0.0
  0
LINE
  5
39AB
  8
0
 62
     0
 10
108.297919
 20
188.652538
 30
0.0
 11
117.797919
 21
188.652538
 31
0.0
  0
LINE
  5
39AC
  8
0
 62
     0
 10
117.797919
 20
187.152538
 30
0.0
 11
108.297919
 21
187.152538
 31
0.0
  0
LINE
  5
39AD
  8
0
 62
     0
 10
108.297919
 20
185.652538
 30
0.0
 11
117.797919
 21
185.652538
 31
0.0
  0
LINE
  5
39AE
  8
0
 62
     0
 10
117.797919
 20
184.152538
 30
0.0
 11
108.297919
 21
184.152538
 31
0.0
  0
LINE
  5
39AF
  8
0
 62
     0
 10
108.297919
 20
182.652538
 30
0.0
 11
117.797919
 21
182.652538
 31
0.0
  0
LINE
  5
39B0
  8
0
 62
     0
 10
117.797919
 20
177.152538
 30
0.0
 11
108.297919
 21
177.152538
 31
0.0
  0
LINE
  5
39B1
  8
0
 62
     0
 10
107.897919
 20
172.952538
 30
0.0
 11
119.047919
 21
172.952538
 31
0.0
  0
LINE
  5
39B2
  8
0
 62
     0
 10
107.897919
 20
171.952538
 30
0.0
 11
118.197919
 21
171.952538
 31
0.0
  0
LINE
  5
39B3
  8
0
 62
     0
 10
110.047919
 20
171.652538
 30
0.0
 11
116.047919
 21
171.652538
 31
0.0
  0
LINE
  5
39B4
  8
0
 62
     0
 10
107.897919
 20
170.352538
 30
0.0
 11
118.197919
 21
170.352538
 31
0.0
  0
LINE
  5
39B5
  8
0
 62
     0
 10
108.247919
 20
167.252538
 30
0.0
 11
117.847919
 21
167.252538
 31
0.0
  0
POLYLINE
  5
39B6
  8
0
 62
     0
 66
     1
 10
0.0
 20
0.0
 30
0.0
  0
VERTEX
  5
3F00
  8
0
 62
     0
 10
108.247919
 20
166.652538
 30
0.0
  0
VERTEX
  5
3F01
  8
0
 62
     0
 10
110.170439
 20
166.974098
 30
0.0
  0
VERTEX
  5
3F02
  8
0
 62
     0
 10
112.089274
 20
167.132801
 30
0.0
  0
VERTEX
  5
3F03
  8
0
 62
     0
 10
114.006653
 20
167.132797
 30
0.0
  0
VERTEX
  5
3F04
  8
0
 62
     0
 10
115.925435
 20
166.974094
 30
0.0
  0
VERTEX
  5
3F05
  8
0
 62
     0
 10
117.847919
 20
166.652538
 30
0.0
  0
SEQEND
  5
3F06
  8
0
 62
     0
  0
POLYLINE
  5
39B7
  8
0
 62
     0
 66
     1
 10
0.0
 20
0.0
 30
0.0
  0
VERTEX
  5
3F07
  8
0
 62
     0
 10
112.37798
 20
83.724379
 30
0.0
  0
VERTEX
  5
3F08
  8
0
 62
     0
 10
112.567884
 20
84.37122
 30
0.0
  0
VERTEX
  5
3F09
  8
0
 62
     0
 10
112.876531
 20
84.969015
 30
0.0
  0
VERTEX
  5
3F0A
  8
0
 62
     0
 10
113.292437
 20
85.495531
 30
0.0
  0
VERTEX
  5
3F0B
  8
0
 62
     0
 10
113.800133
 20
85.931189
 30
0.0
  0
VERTEX
  5
3F0C
  8
0
 62
     0
 10
114.380735
 20
86.25979
 30
0.0
  0
VERTEX
  5
3F0D
  8
0
 62
     0
 10
115.012652
 20
86.469117
 30
0.0
  0
SEQEND
  5
3F0E
  8
0
 62
     0
  0
POLYLINE
  5
39B8
  8
0
 62
     0
 66
     1
 10
0.0
 20
0.0
 30
0.0
  0
VERTEX
  5
3F0F
  8
0
 62
     0
 10
118.975804
 20
83.049048
 30
0.0
  0
VERTEX
  5
3F10
  8
0
 62
     0
 10
118.912327
 20
83.731602
 30
0.0
  0
VERTEX
  5
3F11
  8
0
 62
     0
 10
118.728738
 20
84.389282
 30
0.0
  0
VERTEX
  5
3F12
  8
0
 62
     0
 10
118.432377
 20
84.999265
 30
0.0
  0
VERTEX
  5
3F13
  8
0
 62
     0
 10
118.033483
 20
85.542217
 30
0.0
  0
VERTEX
  5
3F14
  8
0
 62
     0
 10
117.544876
 20
86.000902
 30
0.0
  0
VERTEX
  5
3F15
  8
0
 62
     0
 10
116.982265
 20
86.360037
 30
0.0
  0
VERTEX
  5
3F16
  8
0
 62
     0
 10
116.364593
 20
86.606965
 30
0.0
  0
VERTEX
  5
3F17
  8
0
 62
     0
 10
115.712793
 20
86.73297
 30
0.0
  0
VERTEX
  5
3F18
  8
0
 62
     0
 10
115.049458
 20
86.733576
 30
0.0
  0
VERTEX
  5
3F19
  8
0
 62
     0
 10
114.397183
 20
86.608822
 30
0.0
  0
VERTEX
  5
3F1A
  8
0
 62
     0
 10
113.778499
 20
86.36316
 30
0.0
  0
VERTEX
  5
3F1B
  8
0
 62
     0
 10
113.214411
 20
86.005133
 30
0.0
  0
VERTEX
  5
3F1C
  8
0
 62
     0
 10
112.724117
 20
85.547087
 30
0.0
  0
VERTEX
  5
3F1D
  8
0
 62
     0
 10
112.323835
 20
85.004019
 30
0.0
  0
VERTEX
  5
3F1E
  8
0
 62
     0
 10
112.027054
 20
84.393071
 30
0.0
  0
VERTEX
  5
3F1F
  8
0
 62
     0
 10
111.84463
 20
83.733681
 30
0.0
  0
VERTEX
  5
3F20
  8
0
 62
     0
 10
111.784304
 20
83.049048
 30
0.0
  0
SEQEND
  5
3F21
  8
0
 62
     0
  0
POLYLINE
  5
39B9
  8
0
 62
     0
 66
     1
 10
0.0
 20
0.0
 30
0.0
  0
VERTEX
  5
3F22
  8
0
 62
     0
 10
111.784304
 20
83.049048
 30
0.0
  0
VERTEX
  5
3F23
  8
0
 62
     0
 10
111.848769
 20
82.364496
 30
0.0
  0
VERTEX
  5
3F24
  8
0
 62
     0
 10
112.035077
 20
81.705374
 30
0.0
  0
VERTEX
  5
3F25
  8
0
 62
     0
 10
112.335273
 20
81.094777
 30
0.0
  0
VERTEX
  5
3F26
  8
0
 62
     0
 10
112.738314
 20
80.552088
 30
0.0
  0
VERTEX
  5
3F27
  8
0
 62
     0
 10
113.230569
 20
80.094343
 30
0.0
  0
VERTEX
  5
3F28
  8
0
 62
     0
 10
113.795794
 20
79.736379
 30
0.0
  0
VERTEX
  5
3F29
  8
0
 62
     0
 10
114.414858
 20
79.490427
 30
0.0
  0
VERTEX
  5
3F2A
  8
0
 62
     0
 10
115.066948
 20
79.364986
 30
0.0
  0
VERTEX
  5
3F2B
  8
0
 62
     0
 10
115.729766
 20
79.364608
 30
0.0
  0
VERTEX
  5
3F2C
  8
0
 62
     0
 10
116.380891
 20
79.489562
 30
0.0
  0
VERTEX
  5
3F2D
  8
0
 62
     0
 10
116.997789
 20
79.735682
 30
0.0
  0
VERTEX
  5
3F2E
  8
0
 62
     0
 10
117.559403
 20
80.094507
 30
0.0
  0
VERTEX
  5
3F2F
  8
0
 62
     0
 10
118.046537
 20
80.553462
 30
0.0
  0
VERTEX
  5
3F30
  8
0
 62
     0
 10
118.443244
 20
81.097136
 30
0.0
  0
VERTEX
  5
3F31
  8
0
 62
     0
 10
118.736603
 20
81.708006
 30
0.0
  0
VERTEX
  5
3F32
  8
0
 62
     0
 10
118.916468
 20
82.36639
 30
0.0
  0
VERTEX
  5
3F33
  8
0
 62
     0
 10
118.975804
 20
83.049048
 30
0.0
  0
SEQEND
  5
3F34
  8
0
 62
     0
  0
POLYLINE
  5
39BA
  8
0
 62
     0
 66
     1
 10
0.0
 20
0.0
 30
0.0
  0
VERTEX
  5
3F35
  8
0
 62
     0
 10
112.023373
 20
83.052538
 30
0.0
  0
VERTEX
  5
3F36
  8
0
 62
     0
 10
112.084685
 20
82.404191
 30
0.0
  0
VERTEX
  5
3F37
  8
0
 62
     0
 10
112.261327
 20
81.780839
 30
0.0
  0
VERTEX
  5
3F38
  8
0
 62
     0
 10
112.54577
 20
81.2034
 30
0.0
  0
VERTEX
  5
3F39
  8
0
 62
     0
 10
112.92754
 20
80.690193
 30
0.0
  0
VERTEX
  5
3F3A
  8
0
 62
     0
 10
113.393723
 20
80.257324
 30
0.0
  0
VERTEX
  5
3F3B
  8
0
 62
     0
 10
113.928929
 20
79.918818
 30
0.0
  0
VERTEX
  5
3F3C
  8
0
 62
     0
 10
114.515042
 20
79.686237
 30
0.0
  0
VERTEX
  5
3F3D
  8
0
 62
     0
 10
115.132356
 20
79.567613
 30
0.0
  0
VERTEX
  5
3F3E
  8
0
 62
     0
 10
115.448049
 20
79.552538
 30
0.0
  0
SEQEND
  5
3F3F
  8
0
 62
     0
  0
LINE
  5
39BB
  8
0
 62
     0
 10
113.782919
 20
108.052538
 30
0.0
 11
110.932919
 21
108.052538
 31
0.0
  0
LINE
  5
39BC
  8
0
 62
     0
 10
113.782919
 20
106.752538
 30
0.0
 11
110.932919
 21
106.752538
 31
0.0
  0
LINE
  5
39BD
  8
0
 62
     0
 10
113.732919
 20
105.152538
 30
0.0
 11
113.362919
 21
105.152538
 31
0.0
  0
LINE
  5
39BE
  8
0
 62
     0
 10
113.757919
 20
104.527538
 30
0.0
 11
113.362919
 21
104.527538
 31
0.0
  0
LINE
  5
39BF
  8
0
 62
     0
 10
114.347137
 20
101.852538
 30
0.0
 11
113.362919
 21
101.852538
 31
0.0
  0
LINE
  5
39C0
  8
0
 62
     0
 10
113.035419
 20
101.752538
 30
0.0
 11
120.060419
 21
101.752538
 31
0.0
  0
LINE
  5
39C1
  8
0
 62
     0
 10
114.447919
 20
101.452538
 30
0.0
 11
112.922919
 21
101.452538
 31
0.0
  0
POLYLINE
  5
39C2
  8
0
 62
     0
 66
     1
 10
0.0
 20
0.0
 30
0.0
  0
VERTEX
  5
3F40
  8
0
 62
     0
 10
111.526272
 20
89.152538
 30
0.0
  0
VERTEX
  5
3F41
  8
0
 62
     0
 10
114.90104
 20
88.605549
 30
0.0
  0
VERTEX
  5
3F42
  8
0
 62
     0
 10
118.313213
 20
88.263941
 30
0.0
  0
SEQEND
  5
3F43
  8
0
 62
     0
  0
LINE
  5
39C3
  8
0
 62
     0
 10
114.655657
 20
88.553586
 30
0.0
 11
112.554575
 21
88.863133
 31
0.0
  0
POLYLINE
  5
39C4
  8
0
 62
     0
 66
     1
 10
0.0
 20
0.0
 30
0.0
  0
VERTEX
  5
3F44
  8
0
 62
     0
 10
118.917668
 20
88.202211
 30
0.0
  0
VERTEX
  5
3F45
  8
0
 62
     0
 10
116.328605
 20
88.398863
 30
0.0
  0
VERTEX
  5
3F46
  8
0
 62
     0
 10
113.751392
 20
88.715778
 30
0.0
  0
VERTEX
  5
3F47
  8
0
 62
     0
 10
111.189985
 20
89.152538
 30
0.0
  0
SEQEND
  5
3F48
  8
0
 62
     0
  0
POLYLINE
  5
39C5
  8
0
 62
     0
 66
     1
 10
0.0
 20
0.0
 30
0.0
  0
VERTEX
  5
3F49
  8
0
 62
     0
 10
118.544325
 20
88.202211
 30
0.0
  0
VERTEX
  5
3F4A
  8
0
 62
     0
 10
115.955262
 20
88.398863
 30
0.0
  0
VERTEX
  5
3F4B
  8
0
 62
     0
 10
113.378048
 20
88.715778
 30
0.0
  0
VERTEX
  5
3F4C
  8
0
 62
     0
 10
110.816642
 20
89.152538
 30
0.0
  0
SEQEND
  5
3F4D
  8
0
 62
     0
  0
POLYLINE
  5
39C6
  8
0
 62
     0
 66
     1
 10
0.0
 20
0.0
 30
0.0
  0
VERTEX
  5
3F4E
  8
0
 62
     0
 10
120.475089
 20
88.127936
 30
0.0
  0
VERTEX
  5
3F4F
  8
0
 62
     0
 10
117.144844
 20
88.263941
 30
0.0
  0
VERTEX
  5
3F50
  8
0
 62
     0
 10
113.810355
 20
88.605549
 30
0.0
  0
VERTEX
  5
3F51
  8
0
 62
     0
 10
110.480356
 20
89.152538
 30
0.0
  0
SEQEND
  5
3F52
  8
0
 62
     0
  0
POLYLINE
  5
39C7
  8
0
 62
     0
 66
     1
 10
0.0
 20
0.0
 30
0.0
  0
VERTEX
  5
3F53
  8
0
 62
     0
 10
115.425613
 20
86.552538
 30
0.0
  0
VERTEX
  5
3F54
  8
0
 62
     0
 10
115.114696
 20
86.537912
 30
0.0
  0
VERTEX
  5
3F55
  8
0
 62
     0
 10
114.497242
 20
86.419952
 30
0.0
  0
VERTEX
  5
3F56
  8
0
 62
     0
 10
113.91156
 20
86.187658
 30
0.0
  0
VERTEX
  5
3F57
  8
0
 62
     0
 10
113.377534
 20
85.849104
 30
0.0
  0
VERTEX
  5
3F58
  8
0
 62
     0
 10
112.913342
 20
85.415959
 30
0.0
  0
VERTEX
  5
3F59
  8
0
 62
     0
 10
112.534346
 20
84.902399
 30
0.0
  0
VERTEX
  5
3F5A
  8
0
 62
     0
 10
112.25332
 20
84.324631
 30
0.0
  0
VERTEX
  5
3F5B
  8
0
 62
     0
 10
112.080553
 20
83.701028
 30
0.0
  0
VERTEX
  5
3F5C
  8
0
 62
     0
 10
112.023373
 20
83.052538
 30
0.0
  0
SEQEND
  5
3F5D
  8
0
 62
     0
  0
POLYLINE
  5
39C8
  8
0
 62
     0
 66
     1
 10
0.0
 20
0.0
 30
0.0
  0
VERTEX
  5
3F5E
  8
0
 62
     0
 10
115.576801
 20
79.565607
 30
0.0
  0
VERTEX
  5
3F5F
  8
0
 62
     0
 10
115.012652
 20
79.635959
 30
0.0
  0
VERTEX
  5
3F60
  8
0
 62
     0
 10
114.380735
 20
79.845287
 30
0.0
  0
VERTEX
  5
3F61
  8
0
 62
     0
 10
113.800133
 20
80.173888
 30
0.0
  0
VERTEX
  5
3F62
  8
0
 62
     0
 10
113.292437
 20
80.609546
 30
0.0
  0
VERTEX
  5
3F63
  8
0
 62
     0
 10
112.876531
 20
81.136062
 30
0.0
  0
VERTEX
  5
3F64
  8
0
 62
     0
 10
112.567884
 20
81.733857
 30
0.0
  0
SEQEND
  5
3F65
  8
0
 62
     0
  0
POLYLINE
  5
39C9
  8
0
 62
     0
 66
     1
 10
0.0
 20
0.0
 30
0.0
  0
VERTEX
  5
3F66
  8
0
 62
     0
 10
102.498244
 20
74.452538
 30
0.0
  0
VERTEX
  5
3F67
  8
0
 62
     0
 10
104.933425
 20
74.494637
 30
0.0
  0
VERTEX
  5
3F68
  8
0
 62
     0
 10
108.87535
 20
74.743332
 30
0.0
  0
VERTEX
  5
3F69
  8
0
 62
     0
 10
112.782761
 20
75.215555
 30
0.0
  0
VERTEX
  5
3F6A
  8
0
 62
     0
 10
116.647486
 20
75.911852
 30
0.0
  0
SEQEND
  5
3F6B
  8
0
 62
     0
  0
POLYLINE
  5
39CA
  8
0
 62
     0
 66
     1
 10
0.0
 20
0.0
 30
0.0
  0
VERTEX
  5
3F6C
  8
0
 62
     0
 10
113.529304
 20
75.218233
 30
0.0
  0
VERTEX
  5
3F6D
  8
0
 62
     0
 10
120.508058
 20
75.437133
 30
0.0
  0
VERTEX
  5
3F6E
  8
0
 62
     0
 10
127.943866
 20
76.139349
 30
0.0
  0
VERTEX
  5
3F6F
  8
0
 62
     0
 10
135.203797
 20
77.284577
 30
0.0
  0
SEQEND
  5
3F70
  8
0
 62
     0
  0
POLYLINE
  5
39CB
  8
0
 62
     0
 66
     1
 10
0.0
 20
0.0
 30
0.0
  0
VERTEX
  5
3F71
  8
0
 62
     0
 10
103.501804
 20
74.455845
 30
0.0
  0
VERTEX
  5
3F72
  8
0
 62
     0
 10
107.781078
 20
74.591101
 30
0.0
  0
VERTEX
  5
3F73
  8
0
 62
     0
 10
112.398997
 20
75.034842
 30
0.0
  0
VERTEX
  5
3F74
  8
0
 62
     0
 10
117.020854
 20
75.784734
 30
0.0
  0
VERTEX
  5
3F75
  8
0
 62
     0
 10
117.707881
 20
75.942046
 30
0.0
  0
SEQEND
  5
3F76
  8
0
 62
     0
  0
LINE
  5
39CC
  8
0
 62
     0
 10
113.70401
 20
75.215555
 30
0.0
 11
109.753067
 21
74.743333
 31
0.0
  0
POLYLINE
  5
39CD
  8
0
 62
     0
 66
     1
 10
0.0
 20
0.0
 30
0.0
  0
VERTEX
  5
3F77
  8
0
 62
     0
 10
92.989732
 20
75.282857
 30
0.0
  0
VERTEX
  5
3F78
  8
0
 62
     0
 10
96.97176
 20
74.862801
 30
0.0
  0
VERTEX
  5
3F79
  8
0
 62
     0
 10
100.943182
 20
74.665607
 30
0.0
  0
VERTEX
  5
3F7A
  8
0
 62
     0
 10
104.895114
 20
74.691026
 30
0.0
  0
VERTEX
  5
3F7B
  8
0
 62
     0
 10
108.820164
 20
74.939035
 30
0.0
  0
VERTEX
  5
3F7C
  8
0
 62
     0
 10
112.710786
 20
75.409962
 30
0.0
  0
VERTEX
  5
3F7D
  8
0
 62
     0
 10
116.558844
 20
76.104351
 30
0.0
  0
VERTEX
  5
3F7E
  8
0
 62
     0
 10
120.356357
 20
77.023043
 30
0.0
  0
SEQEND
  5
3F7F
  8
0
 62
     0
  0
DIMENSION
  5
39CE
  8
0
 62
     0
  2
*D0
 10
78.057223
 20
62.082538
 30
0.0
 11
78.057223
 21
131.451562
 31
0.0
 70
   128
 13
123.297919
 23
201.252538
 33
0.0
 14
115.921919
 24
62.082538
 34
0.0
 50
270.0
1001
ACAD
1000
DSTYLE
1002
{
1070
    41
1040
2.5
1070
    42
1040
1.0
1070
    43
1040
11.259259
1070
    44
1040
1.0
1070
   140
1040
2.5
1070
   141
1040
2.666667
1070
   271
1070
     2
1002
}
  0
DIMENSION
  5
39CF
  8
0
 62
     0
  2
*D1
 10
135.447919
 20
210.657982
 30
0.0
 11
113.228441
 21
210.657982
 31
0.0
 70
   128
 13
90.647919
 23
201.852538
 33
0.0
 14
135.447919
 24
201.852538
 34
0.0
1001
ACAD
1000
DSTYLE
1002
{
1070
    41
1040
2.5
1070
    42
1040
1.0
1070
    43
1040
11.259259
1070
    44
1040
1.0
1070
   140
1040
2.5
1070
   141
1040
2.666667
1070
   271
1070
     2
1002
}
  0
ARC
  5
39D0
  8
0
 62
     0
 10
92.247919
 20
140.152538
 30
0.0
 40
0.5
 50
113.67495
 51
180.0
  0
LINE
  5
39D1
  8
0
 62
     0
 10
92.047919
 20
138.652538
 30
0.0
 11
92.047919
 21
149.109368
 31
0.0
  0
LINE
  5
39D2
  8
0
 62
     0
 10
91.747919
 20
138.452538
 30
0.0
 11
91.747919
 21
149.303868
 31
0.0
  0
LINE
  5
39D3
  8
0
 62
     0
 10
91.047919
 20
134.952538
 30
0.0
 11
91.047919
 21
156.59382
 31
0.0
  0
LINE
  5
39D4
  8
0
 62
     0
 10
90.547919
 20
134.952538
 30
0.0
 11
90.547919
 21
186.603412
 31
0.0
  0
LINE
  5
39D5
  8
0
 62
     0
 10
91.147919
 20
105.452538
 30
0.0
 11
91.147919
 21
92.73996
 31
0.0
  0
LINE
  5
39D6
  8
0
 62
     0
 10
90.647919
 20
77.579335
 30
0.0
 11
90.647919
 21
115.452538
 31
0.0
  0
ARC
  5
39D7
  8
0
 62
     0
 10
102.747919
 20
76.252538
 30
0.0
 40
2.0
 50
243.453749
 51
295.407757
  0
ARC
  5
39D8
  8
0
 62
     0
 10
102.747919
 20
76.652538
 30
0.0
 40
2.4
 50
245.674109
 51
293.028778
  0
LINE
  5
39D9
  8
0
 62
     0
 10
92.4357
 20
89.152538
 30
0.0
 11
109.894724
 21
89.152538
 31
0.0
  0
LINE
  5
39DA
  8
0
 62
     0
 10
95.611895
 20
89.019831
 30
0.0
 11
109.334572
 21
89.019831
 31
0.0
  0
POLYLINE
  5
39DB
  8
0
 62
     0
 66
     1
 10
0.0
 20
0.0
 30
0.0
  0
VERTEX
  5
3F80
  8
0
 62
     0
 10
109.4132
 20
88.829293
 30
0.0
  0
VERTEX
  5
3F81
  8
0
 62
     0
 10
109.051079
 20
88.748011
 30
0.0
  0
VERTEX
  5
3F82
  8
0
 62
     0
 10
108.658385
 20
88.668036
 30
0.0
  0
VERTEX
  5
3F83
  8
0
 62
     0
 10
108.222946
 20
88.589012
 30
0.0
  0
VERTEX
  5
3F84
  8
0
 62
     0
 10
107.733258
 20
88.511873
 30
0.0
  0
VERTEX
  5
3F85
  8
0
 62
     0
 10
107.177481
 20
88.438741
 30
0.0
  0
VERTEX
  5
3F86
  8
0
 62
     0
 10
106.542813
 20
88.372924
 30
0.0
  0
VERTEX
  5
3F87
  8
0
 62
     0
 10
105.834469
 20
88.319927
 30
0.0
  0
VERTEX
  5
3F88
  8
0
 62
     0
 10
105.113814
 20
88.2854
 30
0.0
  0
VERTEX
  5
3F89
  8
0
 62
     0
 10
104.440601
 20
88.267452
 30
0.0
  0
VERTEX
  5
3F8A
  8
0
 62
     0
 10
103.812075
 20
88.259639
 30
0.0
  0
VERTEX
  5
3F8B
  8
0
 62
     0
 10
103.236417
 20
88.257025
 30
0.0
  0
VERTEX
  5
3F8C
  8
0
 62
     0
 10
102.729015
 20
88.256414
 30
0.0
  0
VERTEX
  5
3F8D
  8
0
 62
     0
 10
102.282621
 20
88.256432
 30
0.0
  0
VERTEX
  5
3F8E
  8
0
 62
     0
 10
101.882091
 20
88.256883
 30
0.0
  0
VERTEX
  5
3F8F
  8
0
 62
     0
 10
101.530978
 20
88.257939
 30
0.0
  0
VERTEX
  5
3F90
  8
0
 62
     0
 10
101.217923
 20
88.259788
 30
0.0
  0
VERTEX
  5
3F91
  8
0
 62
     0
 10
100.926782
 20
88.262639
 30
0.0
  0
VERTEX
  5
3F92
  8
0
 62
     0
 10
100.641638
 20
88.266828
 30
0.0
  0
VERTEX
  5
3F93
  8
0
 62
     0
 10
100.347159
 20
88.27295
 30
0.0
  0
VERTEX
  5
3F94
  8
0
 62
     0
 10
100.0285
 20
88.282022
 30
0.0
  0
VERTEX
  5
3F95
  8
0
 62
     0
 10
99.671595
 20
88.29568
 30
0.0
  0
VERTEX
  5
3F96
  8
0
 62
     0
 10
99.271702
 20
88.315964
 30
0.0
  0
VERTEX
  5
3F97
  8
0
 62
     0
 10
98.829885
 20
88.345185
 30
0.0
  0
VERTEX
  5
3F98
  8
0
 62
     0
 10
98.336075
 20
88.387109
 30
0.0
  0
VERTEX
  5
3F99
  8
0
 62
     0
 10
97.792782
 20
88.445414
 30
0.0
  0
VERTEX
  5
3F9A
  8
0
 62
     0
 10
97.276023
 20
88.513452
 30
0.0
  0
VERTEX
  5
3F9B
  8
0
 62
     0
 10
96.799223
 20
88.587641
 30
0.0
  0
VERTEX
  5
3F9C
  8
0
 62
     0
 10
96.360046
 20
88.666035
 30
0.0
  0
VERTEX
  5
3F9D
  8
0
 62
     0
 10
95.955649
 20
88.747015
 30
0.0
  0
VERTEX
  5
3F9E
  8
0
 62
     0
 10
95.583026
 20
88.829293
 30
0.0
  0
SEQEND
  5
3F9F
  8
0
 62
     0
  0
POLYLINE
  5
39DC
  8
0
 62
     0
 66
     1
 10
0.0
 20
0.0
 30
0.0
  0
VERTEX
  5
3FA0
  8
0
 62
     0
 10
109.334572
 20
89.019831
 30
0.0
  0
VERTEX
  5
3FA1
  8
0
 62
     0
 10
108.976355
 20
88.939383
 30
0.0
  0
VERTEX
  5
3FA2
  8
0
 62
     0
 10
108.587898
 20
88.860239
 30
0.0
  0
VERTEX
  5
3FA3
  8
0
 62
     0
 10
108.157073
 20
88.782038
 30
0.0
  0
VERTEX
  5
3FA4
  8
0
 62
     0
 10
107.672443
 20
88.705701
 30
0.0
  0
VERTEX
  5
3FA5
  8
0
 62
     0
 10
107.122184
 20
88.633327
 30
0.0
  0
VERTEX
  5
3FA6
  8
0
 62
     0
 10
106.493444
 20
88.56819
 30
0.0
  0
VERTEX
  5
3FA7
  8
0
 62
     0
 10
105.791314
 20
88.515757
 30
0.0
  0
VERTEX
  5
3FA8
  8
0
 62
     0
 10
105.076307
 20
88.481604
 30
0.0
  0
VERTEX
  5
3FA9
  8
0
 62
     0
 10
104.407227
 20
88.463845
 30
0.0
  0
VERTEX
  5
3FAA
  8
0
 62
     0
 10
103.781518
 20
88.456114
 30
0.0
  0
VERTEX
  5
3FAB
  8
0
 62
     0
 10
103.207516
 20
88.453525
 30
0.0
  0
VERTEX
  5
3FAC
  8
0
 62
     0
 10
102.701041
 20
88.45292
 30
0.0
  0
VERTEX
  5
3FAD
  8
0
 62
     0
 10
102.255426
 20
88.452938
 30
0.0
  0
VERTEX
  5
3FAE
  8
0
 62
     0
 10
101.855816
 20
88.453384
 30
0.0
  0
VERTEX
  5
3FAF
  8
0
 62
     0
 10
101.50581
 20
88.454429
 30
0.0
  0
VERTEX
  5
3FB0
  8
0
 62
     0
 10
101.194024
 20
88.456259
 30
0.0
  0
VERTEX
  5
3FB1
  8
0
 62
     0
 10
100.904311
 20
88.45908
 30
0.0
  0
VERTEX
  5
3FB2
  8
0
 62
     0
 10
100.620794
 20
88.463225
 30
0.0
  0
VERTEX
  5
3FB3
  8
0
 62
     0
 10
100.328222
 20
88.469284
 30
0.0
  0
VERTEX
  5
3FB4
  8
0
 62
     0
 10
100.011868
 20
88.478262
 30
0.0
  0
VERTEX
  5
3FB5
  8
0
 62
     0
 10
99.657821
 20
88.491778
 30
0.0
  0
VERTEX
  5
3FB6
  8
0
 62
     0
 10
99.261422
 20
88.511849
 30
0.0
  0
VERTEX
  5
3FB7
  8
0
 62
     0
 10
98.823735
 20
88.540766
 30
0.0
  0
VERTEX
  5
3FB8
  8
0
 62
     0
 10
98.334848
 20
88.58225
 30
0.0
  0
VERTEX
  5
3FB9
  8
0
 62
     0
 10
97.797303
 20
88.639933
 30
0.0
  0
VERTEX
  5
3FBA
  8
0
 62
     0
 10
97.286047
 20
88.707265
 30
0.0
  0
VERTEX
  5
3FBB
  8
0
 62
     0
 10
96.814466
 20
88.780682
 30
0.0
  0
VERTEX
  5
3FBC
  8
0
 62
     0
 10
96.380181
 20
88.858259
 30
0.0
  0
VERTEX
  5
3FBD
  8
0
 62
     0
 10
95.980343
 20
88.938396
 30
0.0
  0
VERTEX
  5
3FBE
  8
0
 62
     0
 10
95.611895
 20
89.019831
 30
0.0
  0
SEQEND
  5
3FBF
  8
0
 62
     0
  0
POLYLINE
  5
39DD
  8
0
 62
     0
 66
     1
 10
0.0
 20
0.0
 30
0.0
  0
VERTEX
  5
3FC0
  8
0
 62
     0
 10
92.976546
 20
75.088088
 30
0.0
  0
VERTEX
  5
3FC1
  8
0
 62
     0
 10
97.618922
 20
74.619956
 30
0.0
  0
VERTEX
  5
3FC2
  8
0
 62
     0
 10
102.498277
 20
74.452544
 30
0.0
  0
SEQEND
  5
3FC3
  8
0
 62
     0
  0
LINE
  5
39DE
  8
0
 62
     0
 10
99.407919
 20
68.682538
 30
0.0
 11
109.407919
 21
68.682538
 31
0.0
  0
LINE
  5
39DF
  8
0
 62
     0
 10
92.547919
 20
81.252538
 30
0.0
 11
92.547919
 21
82.723542
 31
0.0
  0
LINE
  5
39E0
  8
0
 62
     0
 10
92.347919
 20
80.514243
 30
0.0
 11
92.347919
 21
83.769719
 31
0.0
  0
LINE
  5
39E1
  8
0
 62
     0
 10
92.147919
 20
83.76302
 30
0.0
 11
92.147919
 21
81.343631
 31
0.0
  0
LINE
  5
39E2
  8
0
 62
     0
 10
90.947919
 20
78.294843
 30
0.0
 11
90.947919
 21
84.079935
 31
0.0
  0
POLYLINE
  5
39E3
  8
0
 62
     0
 66
     1
 10
0.0
 20
0.0
 30
0.0
  0
VERTEX
  5
3FC4
  8
0
 62
     0
 10
92.125948
 20
80.352538
 30
0.0
  0
VERTEX
  5
3FC5
  8
0
 62
     0
 10
92.116279
 20
81.873273
 30
0.0
  0
VERTEX
  5
3FC6
  8
0
 62
     0
 10
92.107509
 20
83.421478
 30
0.0
  0
VERTEX
  5
3FC7
  8
0
 62
     0
 10
92.105821
 20
83.765226
 30
0.0
  0
SEQEND
  5
3FC8
  8
0
 62
     0
  0
POLYLINE
  5
39E4
  8
0
 62
     0
 66
     1
 10
0.0
 20
0.0
 30
0.0
  0
VERTEX
  5
3FC9
  8
0
 62
     0
 10
92.805466
 20
75.282964
 30
0.0
  0
VERTEX
  5
3FCA
  8
0
 62
     0
 10
92.736829
 20
79.871146
 30
0.0
  0
VERTEX
  5
3FCB
  8
0
 62
     0
 10
92.66809
 20
84.494291
 30
0.0
  0
VERTEX
  5
3FCC
  8
0
 62
     0
 10
92.599251
 20
89.152538
 30
0.0
  0
SEQEND
  5
3FCD
  8
0
 62
     0
  0
POLYLINE
  5
39E5
  8
0
 62
     0
 66
     1
 10
0.0
 20
0.0
 30
0.0
  0
VERTEX
  5
3FCE
  8
0
 62
     0
 10
92.989732
 20
75.282857
 30
0.0
  0
VERTEX
  5
3FCF
  8
0
 62
     0
 10
92.920988
 20
79.871147
 30
0.0
  0
VERTEX
  5
3FD0
  8
0
 62
     0
 10
92.852139
 20
84.494291
 30
0.0
  0
VERTEX
  5
3FD1
  8
0
 62
     0
 10
92.783183
 20
89.152538
 30
0.0
  0
SEQEND
  5
3FD2
  8
0
 62
     0
  0
LINE
  5
39E6
  8
0
 62
     0
 10
92.4357
 20
89.152538
 30
0.0
 11
92.676852
 21
75.336957
 31
0.0
  0
POLYLINE
  5
39E7
  8
0
 62
     0
 66
     1
 10
0.0
 20
0.0
 30
0.0
  0
VERTEX
  5
3FD3
  8
0
 62
     0
 10
92.989732
 20
75.282845
 30
0.0
  0
VERTEX
  5
3FD4
  8
0
 62
     0
 10
92.980873
 20
75.207968
 30
0.0
  0
VERTEX
  5
3FD5
  8
0
 62
     0
 10
92.975251
 20
75.144203
 30
0.0
  0
SEQEND
  5
3FD6
  8
0
 62
     0
  0
LINE
  5
39E8
  8
0
 62
     0
 10
92.975251
 20
75.144203
 30
0.0
 11
92.973834
 21
75.102106
 31
0.0
  0
LINE
  5
39E9
  8
0
 62
     0
 10
92.676844
 20
75.337422
 30
0.0
 11
92.678645
 21
75.313549
 31
0.0
  0
POLYLINE
  5
39EA
  8
0
 62
     0
 66
     1
 10
0.0
 20
0.0
 30
0.0
  0
VERTEX
  5
3FD7
  8
0
 62
     0
 10
92.805468
 20
75.282845
 30
0.0
  0
VERTEX
  5
3FD8
  8
0
 62
     0
 10
92.818261
 20
75.21423
 30
0.0
  0
VERTEX
  5
3FD9
  8
0
 62
     0
 10
92.854187
 20
75.153875
 30
0.0
  0
VERTEX
  5
3FDA
  8
0
 62
     0
 10
92.909836
 20
75.109471
 30
0.0
  0
VERTEX
  5
3FDB
  8
0
 62
     0
 10
92.949485
 20
75.093615
 30
0.0
  0
SEQEND
  5
3FDC
  8
0
 62
     0
  0
LINE
  5
39EB
  8
0
 62
     0
 10
92.973834
 20
75.102106
 30
0.0
 11
92.976699
 21
75.088066
 31
0.0
  0
POLYLINE
  5
39EC
  8
0
 62
     0
 66
     1
 10
0.0
 20
0.0
 30
0.0
  0
VERTEX
  5
3FDD
  8
0
 62
     0
 10
92.678645
 20
75.313549
 30
0.0
  0
VERTEX
  5
3FDE
  8
0
 62
     0
 10
92.71117
 20
75.226724
 30
0.0
  0
VERTEX
  5
3FDF
  8
0
 62
     0
 10
92.754775
 20
75.178116
 30
0.0
  0
SEQEND
  5
3FE0
  8
0
 62
     0
  0
POLYLINE
  5
39ED
  8
0
 62
     0
 66
     1
 10
0.0
 20
0.0
 30
0.0
  0
VERTEX
  5
3FE1
  8
0
 62
     0
 10
92.676847
 20
75.337305
 30
0.0
  0
VERTEX
  5
3FE2
  8
0
 62
     0
 10
92.690102
 20
75.323379
 30
0.0
  0
VERTEX
  5
3FE3
  8
0
 62
     0
 10
92.7369
 20
75.303502
 30
0.0
  0
VERTEX
  5
3FE4
  8
0
 62
     0
 10
92.805466
 20
75.282964
 30
0.0
  0
SEQEND
  5
3FE5
  8
0
 62
     0
  0
POLYLINE
  5
39EE
  8
0
 62
     0
 66
     1
 10
0.0
 20
0.0
 30
0.0
  0
VERTEX
  5
3FE6
  8
0
 62
     0
 10
92.754775
 20
75.178116
 30
0.0
  0
VERTEX
  5
3FE7
  8
0
 62
     0
 10
92.790606
 20
75.153187
 30
0.0
  0
VERTEX
  5
3FE8
  8
0
 62
     0
 10
92.821103
 20
75.137496
 30
0.0
  0
VERTEX
  5
3FE9
  8
0
 62
     0
 10
92.850783
 20
75.125122
 30
0.0
  0
VERTEX
  5
3FEA
  8
0
 62
     0
 10
92.882332
 20
75.113882
 30
0.0
  0
VERTEX
  5
3FEB
  8
0
 62
     0
 10
92.917138
 20
75.102912
 30
0.0
  0
VERTEX
  5
3FEC
  8
0
 62
     0
 10
92.949586
 20
75.093587
 30
0.0
  0
SEQEND
  5
3FED
  8
0
 62
     0
  0
POLYLINE
  5
39EF
  8
0
 62
     0
 66
     1
 10
0.0
 20
0.0
 30
0.0
  0
VERTEX
  5
3FEE
  8
0
 62
     0
 10
92.805468
 20
75.282845
 30
0.0
  0
VERTEX
  5
3FEF
  8
0
 62
     0
 10
92.826952
 20
75.282121
 30
0.0
  0
VERTEX
  5
3FF0
  8
0
 62
     0
 10
92.868193
 20
75.281871
 30
0.0
  0
VERTEX
  5
3FF1
  8
0
 62
     0
 10
92.924563
 20
75.282121
 30
0.0
  0
VERTEX
  5
3FF2
  8
0
 62
     0
 10
92.989732
 20
75.282845
 30
0.0
  0
SEQEND
  5
3FF3
  8
0
 62
     0
  0
LINE
  5
39F0
  8
0
 62
     0
 10
92.949485
 20
75.093615
 30
0.0
 11
92.949613
 21
75.09358
 31
0.0
  0
LINE
  5
39F1
  8
0
 62
     0
 10
92.949485
 20
75.093615
 30
0.0
 11
92.976704
 21
75.088066
 31
0.0
  0
LINE
  5
39F2
  8
0
 62
     0
 10
90.947919
 20
80.352538
 30
0.0
 11
92.589305
 21
80.352538
 31
0.0
  0
LINE
  5
39F3
  8
0
 62
     0
 10
90.647919
 20
80.052538
 30
0.0
 11
92.594541
 21
80.052538
 31
0.0
  0
POLYLINE
  5
39F4
  8
0
 62
     0
 66
     1
 10
0.0
 20
0.0
 30
0.0
  0
VERTEX
  5
3FF4
  8
0
 62
     0
 10
92.630493
 20
77.992872
 30
0.0
  0
VERTEX
  5
3FF5
  8
0
 62
     0
 10
92.424962
 20
78.028401
 30
0.0
  0
VERTEX
  5
3FF6
  8
0
 62
     0
 10
91.702819
 20
78.157824
 30
0.0
  0
VERTEX
  5
3FF7
  8
0
 62
     0
 10
90.981536
 20
78.29169
 30
0.0
  0
SEQEND
  5
3FF8
  8
0
 62
     0
  0
LINE
  5
39F5
  8
0
 62
     0
 10
90.892869
 20
77.437056
 30
0.0
 11
92.645354
 21
77.141497
 31
0.0
  0
LINE
  5
39F6
  8
0
 62
     0
 10
90.89204
 20
77.284577
 30
0.0
 11
92.647692
 21
77.007549
 31
0.0
  0
ARC
  5
39F7
  8
0
 62
     0
 10
90.947919
 20
80.052538
 30
0.0
 40
0.3
 50
90.0
 51
180.0
  0
ARC
  5
39F8
  8
0
 62
     0
 10
90.947919
 20
77.579328
 30
0.0
 40
0.3
 50
180.0
 51
259.265284
  0
POLYLINE
  5
39F9
  8
0
 62
     0
 66
     1
 10
0.0
 20
0.0
 30
0.0
  0
VERTEX
  5
3FF9
  8
0
 62
     0
 10
90.924772
 20
77.746223
 30
0.0
  0
VERTEX
  5
3FFA
  8
0
 62
     0
 10
90.918389
 20
77.684844
 30
0.0
  0
VERTEX
  5
3FFB
  8
0
 62
     0
 10
90.912361
 20
77.62855
 30
0.0
  0
VERTEX
  5
3FFC
  8
0
 62
     0
 10
90.907041
 20
77.578069
 30
0.0
  0
VERTEX
  5
3FFD
  8
0
 62
     0
 10
90.902361
 20
77.53185
 30
0.0
  0
SEQEND
  5
3FFE
  8
0
 62
     0
  0
POLYLINE
  5
39FA
  8
0
 62
     0
 66
     1
 10
0.0
 20
0.0
 30
0.0
  0
VERTEX
  5
3FFF
  8
0
 62
     0
 10
90.967739
 20
78.155894
 30
0.0
  0
VERTEX
  5
4000
  8
0
 62
     0
 10
90.960678
 20
78.087955
 30
0.0
  0
VERTEX
  5
4001
  8
0
 62
     0
 10
90.953266
 20
78.018959
 30
0.0
  0
VERTEX
  5
4002
  8
0
 62
     0
 10
90.945639
 20
77.948648
 30
0.0
  0
VERTEX
  5
4003
  8
0
 62
     0
 10
90.938366
 20
77.879147
 30
0.0
  0
VERTEX
  5
4004
  8
0
 62
     0
 10
90.924772
 20
77.746223
 30
0.0
  0
SEQEND
  5
4005
  8
0
 62
     0
  0
LINE
  5
39FB
  8
0
 62
     0
 10
90.981535
 20
78.29169
 30
0.0
 11
90.967739
 21
78.155894
 31
0.0
  0
POLYLINE
  5
39FC
  8
0
 62
     0
 66
     1
 10
0.0
 20
0.0
 30
0.0
  0
VERTEX
  5
4006
  8
0
 62
     0
 10
90.902361
 20
77.53185
 30
0.0
  0
VERTEX
  5
4007
  8
0
 62
     0
 10
90.894966
 20
77.457488
 30
0.0
  0
VERTEX
  5
4008
  8
0
 62
     0
 10
90.892869
 20
77.437055
 30
0.0
  0
SEQEND
  5
4009
  8
0
 62
     0
  0
LINE
  5
39FD
  8
0
 62
     0
 10
90.892869
 20
77.437056
 30
0.0
 11
90.89204
 21
77.284578
 31
0.0
  0
POLYLINE
  5
39FE
  8
0
 62
     0
 66
     1
 10
0.0
 20
0.0
 30
0.0
  0
VERTEX
  5
400A
  8
0
 62
     0
 10
90.947919
 20
78.294843
 30
0.0
  0
VERTEX
  5
400B
  8
0
 62
     0
 10
90.826147
 20
78.286101
 30
0.0
  0
VERTEX
  5
400C
  8
0
 62
     0
 10
90.728162
 20
78.261116
 30
0.0
  0
VERTEX
  5
400D
  8
0
 62
     0
 10
90.667337
 20
78.221919
 30
0.0
  0
VERTEX
  5
400E
  8
0
 62
     0
 10
90.647919
 20
78.170393
 30
0.0
  0
SEQEND
  5
400F
  8
0
 62
     0
  0
POLYLINE
  5
39FF
  8
0
 62
     0
 66
     1
 10
0.0
 20
0.0
 30
0.0
  0
VERTEX
  5
4010
  8
0
 62
     0
 10
90.947919
 20
78.294843
 30
0.0
  0
VERTEX
  5
4011
  8
0
 62
     0
 10
90.959145
 20
78.294494
 30
0.0
  0
VERTEX
  5
4012
  8
0
 62
     0
 10
90.970355
 20
78.293444
 30
0.0
  0
VERTEX
  5
4013
  8
0
 62
     0
 10
90.981536
 20
78.29169
 30
0.0
  0
SEQEND
  5
4014
  8
0
 62
     0
  0
POLYLINE
  5
3A00
  8
0
 62
     0
 66
     1
 10
0.0
 20
0.0
 30
0.0
  0
VERTEX
  5
4015
  8
0
 62
     0
 10
90.892869
 20
77.437056
 30
0.0
  0
VERTEX
  5
4016
  8
0
 62
     0
 10
90.767169
 20
77.491677
 30
0.0
  0
VERTEX
  5
4017
  8
0
 62
     0
 10
90.679381
 20
77.595751
 30
0.0
  0
VERTEX
  5
4018
  8
0
 62
     0
 10
90.647919
 20
77.727448
 30
0.0
  0
SEQEND
  5
4019
  8
0
 62
     0
  0
ARC
  5
3A01
  8
0
 62
     0
 10
92.847919
 20
81.252538
 30
0.0
 40
0.3
 50
180.0
 51
204.321269
  0
ARC
  5
3A02
  8
0
 62
     0
 10
92.847919
 20
81.252538
 30
0.0
 40
0.5
 50
180.0
 51
237.644123
  0
LINE
  5
3A03
  8
0
 62
     0
 10
92.143821
 20
80.543168
 30
0.0
 11
92.143581
 21
80.541532
 31
0.0
  0
POLYLINE
  5
3A04
  8
0
 62
     0
 66
     1
 10
0.0
 20
0.0
 30
0.0
  0
VERTEX
  5
401A
  8
0
 62
     0
 10
92.139944
 20
80.352538
 30
0.0
  0
VERTEX
  5
401B
  8
0
 62
     0
 10
92.141515
 20
80.475276
 30
0.0
  0
VERTEX
  5
401C
  8
0
 62
     0
 10
92.143581
 20
80.541532
 30
0.0
  0
SEQEND
  5
401D
  8
0
 62
     0
  0
LINE
  5
3A05
  8
0
 62
     0
 10
92.154278
 20
80.543438
 30
0.0
 11
92.147919
 21
81.343631
 31
0.0
  0
POLYLINE
  5
3A06
  8
0
 62
     0
 66
     1
 10
0.0
 20
0.0
 30
0.0
  0
VERTEX
  5
401E
  8
0
 62
     0
 10
92.531056
 20
80.488121
 30
0.0
  0
VERTEX
  5
401F
  8
0
 62
     0
 10
92.495723
 20
80.545783
 30
0.0
  0
VERTEX
  5
4020
  8
0
 62
     0
 10
92.435477
 20
80.689698
 30
0.0
  0
VERTEX
  5
4021
  8
0
 62
     0
 10
92.389284
 20
80.856013
 30
0.0
  0
VERTEX
  5
4022
  8
0
 62
     0
 10
92.35903
 20
81.043813
 30
0.0
  0
VERTEX
  5
4023
  8
0
 62
     0
 10
92.347919
 20
81.252538
 30
0.0
  0
SEQEND
  5
4024
  8
0
 62
     0
  0
LINE
  5
3A07
  8
0
 62
     0
 10
92.347919
 20
81.252538
 30
0.0
 11
92.547919
 21
81.252538
 31
0.0
  0
LINE
  5
3A08
  8
0
 62
     0
 10
92.143605
 20
80.541565
 30
0.0
 11
92.587154
 21
80.475788
 31
0.0
  0
LINE
  5
3A09
  8
0
 62
     0
 10
92.587078
 20
80.48013
 30
0.0
 11
92.14382
 21
80.543355
 31
0.0
  0
LINE
  5
3A0A
  8
0
 62
     0
 10
99.407919
 20
74.558575
 30
0.0
 11
99.407919
 21
68.682538
 31
0.0
  0
LINE
  5
3A0B
  8
0
 62
     0
 10
98.047919
 20
70.282538
 30
0.0
 11
98.047919
 21
74.605237
 31
0.0
  0
LINE
  5
3A0C
  8
0
 62
     0
 10
98.047919
 20
71.582538
 30
0.0
 11
99.407919
 21
71.582538
 31
0.0
  0
LINE
  5
3A0D
  8
0
 62
     0
 10
98.047919
 20
70.282538
 30
0.0
 11
99.407919
 21
70.282538
 31
0.0
  0
LINE
  5
3A0E
  8
0
 62
     0
 10
99.407919
 20
72.182538
 30
0.0
 11
98.047919
 21
72.182538
 31
0.0
  0
LINE
  5
3A0F
  8
0
 62
     0
 10
94.697935
 20
90.852538
 30
0.0
 11
98.171095
 21
90.852538
 31
0.0
  0
LINE
  5
3A10
  8
0
 62
     0
 10
90.933579
 20
91.53073
 30
0.0
 11
90.910035
 21
91.764163
 31
0.0
  0
ARC
  5
3A11
  8
0
 62
     0
 10
113.047919
 20
217.452538
 30
0.0
 40
127.987078
 50
260.056691
 51
261.752215
  0
LINE
  5
3A12
  8
0
 62
     0
 10
90.947919
 20
85.052838
 30
0.0
 11
90.947919
 21
91.387943
 31
0.0
  0
ARC
  5
3A13
  8
0
 62
     0
 10
91.647919
 20
84.790596
 30
0.0
 40
0.7
 50
214.07062
 51
267.0
  0
LINE
  5
3A14
  8
0
 62
     0
 10
91.595583
 20
83.791967
 30
0.0
 11
91.611284
 21
84.091555
 31
0.0
  0
LINE
  5
3A15
  8
0
 62
     0
 10
92.347919
 20
83.752538
 30
0.0
 11
91.595583
 21
83.791967
 31
0.0
  0
ARC
  5
3A16
  8
0
 62
     0
 10
91.647919
 20
84.790596
 30
0.0
 40
1.0
 50
212.112984
 51
267.0
  0
LINE
  5
3A17
  8
0
 62
     0
 10
90.800917
 20
84.259006
 30
0.0
 11
90.879533
 21
84.299758
 31
0.0
  0
POLYLINE
  5
3A18
  8
0
 62
     0
 66
     1
 10
0.0
 20
0.0
 30
0.0
  0
VERTEX
  5
4025
  8
0
 62
     0
 10
90.879533
 20
84.299758
 30
0.0
  0
VERTEX
  5
4026
  8
0
 62
     0
 10
90.966239
 20
84.344947
 30
0.0
  0
VERTEX
  5
4027
  8
0
 62
     0
 10
91.068076
 20
84.398446
 30
0.0
  0
SEQEND
  5
4028
  8
0
 62
     0
  0
POLYLINE
  5
3A19
  8
0
 62
     0
 66
     1
 10
0.0
 20
0.0
 30
0.0
  0
VERTEX
  5
4029
  8
0
 62
     0
 10
90.647903
 20
85.052897
 30
0.0
  0
VERTEX
  5
402A
  8
0
 62
     0
 10
90.682066
 20
84.668286
 30
0.0
  0
VERTEX
  5
402B
  8
0
 62
     0
 10
90.800917
 20
84.259006
 30
0.0
  0
SEQEND
  5
402C
  8
0
 62
     0
  0
POLYLINE
  5
3A1A
  8
0
 62
     0
 66
     1
 10
0.0
 20
0.0
 30
0.0
  0
VERTEX
  5
402D
  8
0
 62
     0
 10
91.068075
 20
84.398446
 30
0.0
  0
VERTEX
  5
402E
  8
0
 62
     0
 10
91.005703
 20
84.59118
 30
0.0
  0
VERTEX
  5
402F
  8
0
 62
     0
 10
90.963709
 20
84.809467
 30
0.0
  0
VERTEX
  5
4030
  8
0
 62
     0
 10
90.947919
 20
85.052838
 30
0.0
  0
SEQEND
  5
4031
  8
0
 62
     0
  0
LINE
  5
3A1B
  8
0
 62
     0
 10
90.647919
 20
85.052838
 30
0.0
 11
90.947919
 21
85.052838
 31
0.0
  0
POLYLINE
  5
3A1C
  8
0
 62
     0
 66
     1
 10
0.0
 20
0.0
 30
0.0
  0
VERTEX
  5
4032
  8
0
 62
     0
 10
92.369664
 20
83.819898
 30
0.0
  0
VERTEX
  5
4033
  8
0
 62
     0
 10
92.41894
 20
83.887561
 30
0.0
  0
VERTEX
  5
4034
  8
0
 62
     0
 10
92.481328
 20
83.963891
 30
0.0
  0
VERTEX
  5
4035
  8
0
 62
     0
 10
92.525361
 20
84.015851
 30
0.0
  0
SEQEND
  5
4036
  8
0
 62
     0
  0
LINE
  5
3A1D
  8
0
 62
     0
 10
92.347919
 20
83.769719
 30
0.0
 11
92.369664
 21
83.819898
 31
0.0
  0
LINE
  5
3A1E
  8
0
 62
     0
 10
91.611284
 20
84.091555
 30
0.0
 11
92.524876
 21
84.043676
 31
0.0
  0
LINE
  5
3A1F
  8
0
 62
     0
 10
90.947919
 20
91.387943
 30
0.0
 11
90.933579
 21
91.53073
 31
0.0
  0
LINE
  5
3A20
  8
0
 62
     0
 10
90.647919
 20
91.387943
 30
0.0
 11
90.947919
 21
91.387943
 31
0.0
  0
POLYLINE
  5
3A21
  8
0
 62
     0
 66
     1
 10
0.0
 20
0.0
 30
0.0
  0
VERTEX
  5
4037
  8
0
 62
     0
 10
95.583026
 20
88.829293
 30
0.0
  0
VERTEX
  5
4038
  8
0
 62
     0
 10
94.890394
 20
88.990379
 30
0.0
  0
VERTEX
  5
4039
  8
0
 62
     0
 10
94.201943
 20
89.152538
 30
0.0
  0
SEQEND
  5
403A
  8
0
 62
     0
  0
LINE
  5
3A22
  8
0
 62
     0
 10
94.697919
 20
89.152538
 30
0.0
 11
94.697919
 21
90.852538
 31
0.0
  0
POLYLINE
  5
3A23
  8
0
 62
     0
 66
     1
 10
0.0
 20
0.0
 30
0.0
  0
VERTEX
  5
403B
  8
0
 62
     0
 10
95.611894
 20
89.019829
 30
0.0
  0
VERTEX
  5
403C
  8
0
 62
     0
 10
95.613195
 20
89.000528
 30
0.0
  0
VERTEX
  5
403D
  8
0
 62
     0
 10
95.608262
 20
88.958251
 30
0.0
  0
VERTEX
  5
403E
  8
0
 62
     0
 10
95.597745
 20
88.898556
 30
0.0
  0
VERTEX
  5
403F
  8
0
 62
     0
 10
95.583026
 20
88.829293
 30
0.0
  0
SEQEND
  5
4040
  8
0
 62
     0
  0
LINE
  5
3A24
  8
0
 62
     0
 10
95.196189
 20
91.152538
 30
0.0
 11
95.447919
 21
90.852538
 31
0.0
  0
LINE
  5
3A25
  8
0
 62
     0
 10
95.19632
 20
91.152538
 30
0.0
 11
95.425206
 21
91.152538
 31
0.0
  0
POLYLINE
  5
3A26
  8
0
 62
     0
 66
     1
 10
0.0
 20
0.0
 30
0.0
  0
VERTEX
  5
4041
  8
0
 62
     0
 10
95.611895
 20
89.019831
 30
0.0
  0
VERTEX
  5
4042
  8
0
 62
     0
 10
95.326571
 20
89.086055
 30
0.0
  0
VERTEX
  5
4043
  8
0
 62
     0
 10
95.041845
 20
89.152538
 30
0.0
  0
SEQEND
  5
4044
  8
0
 62
     0
  0
LINE
  5
3A27
  8
0
 62
     0
 10
90.397919
 20
93.021965
 30
0.0
 11
90.397919
 21
100.845921
 31
0.0
  0
ARC
  5
3A28
  8
0
 62
     0
 10
91.647919
 20
92.73996
 30
0.0
 40
0.499999
 50
180.0
 51
260.450974
  0
ARC
  5
3A29
  8
0
 62
     0
 10
91.647919
 20
92.73996
 30
0.0
 40
1.0
 50
180.0
 51
260.450974
  0
ARC
  5
3A2A
  8
0
 62
     0
 10
113.047919
 20
217.452538
 30
0.0
 40
127.48725
 50
259.993528
 51
260.115532
  0
ARC
  5
3A2B
  8
0
 62
     0
 10
91.397919
 20
93.021965
 30
0.0
 40
1.0
 50
180.0
 51
220.782421
  0
LINE
  5
3A2C
  8
0
 62
     0
 10
91.564973
 20
92.246888
 30
0.0
 11
91.482027
 21
91.753816
 31
0.0
  0
LINE
  5
3A2D
  8
0
 62
     0
 10
90.895809
 20
91.904608
 30
0.0
 11
90.895736
 21
92.084754
 31
0.0
  0
LINE
  5
3A2E
  8
0
 62
     0
 10
90.910035
 20
91.764163
 30
0.0
 11
90.898006
 21
91.882956
 31
0.0
  0
LINE
  5
3A2F
  8
0
 62
     0
 10
90.898006
 20
91.882956
 30
0.0
 11
90.895809
 21
91.904608
 31
0.0
  0
POLYLINE
  5
3A30
  8
0
 62
     0
 66
     1
 10
0.0
 20
0.0
 30
0.0
  0
VERTEX
  5
4045
  8
0
 62
     0
 10
90.647919
 20
92.479848
 30
0.0
  0
VERTEX
  5
4046
  8
0
 62
     0
 10
90.679812
 20
92.345302
 30
0.0
  0
VERTEX
  5
4047
  8
0
 62
     0
 10
90.768705
 20
92.239362
 30
0.0
  0
VERTEX
  5
4048
  8
0
 62
     0
 10
90.791889
 20
92.229356
 30
0.0
  0
SEQEND
  5
4049
  8
0
 62
     0
  0
LINE
  5
3A31
  8
0
 62
     0
 10
90.647919
 20
92.199943
 30
0.0
 11
90.679827
 21
92.065355
 31
0.0
  0
LINE
  5
3A32
  8
0
 62
     0
 10
90.647919
 20
94.800456
 30
0.0
 11
90.397919
 21
94.800456
 31
0.0
  0
POLYLINE
  5
3A33
  8
0
 62
     0
 66
     1
 10
0.0
 20
0.0
 30
0.0
  0
VERTEX
  5
404A
  8
0
 62
     0
 10
90.679827
 20
92.065355
 30
0.0
  0
VERTEX
  5
404B
  8
0
 62
     0
 10
90.768763
 20
91.959397
 30
0.0
  0
VERTEX
  5
404C
  8
0
 62
     0
 10
90.895809
 20
91.904608
 30
0.0
  0
SEQEND
  5
404D
  8
0
 62
     0
  0
LINE
  5
3A34
  8
0
 62
     0
 10
91.147919
 20
92.73996
 30
0.0
 11
90.647919
 21
92.73996
 31
0.0
  0
LINE
  5
3A35
  8
0
 62
     0
 10
90.647919
 20
92.682886
 30
0.0
 11
90.651728
 21
92.682886
 31
0.0
  0
LINE
  5
3A36
  8
0
 62
     0
 10
90.647919
 20
100.845921
 30
0.0
 11
90.397919
 21
100.845921
 31
0.0
  0
POLYLINE
  5
3A37
  8
0
 62
     0
 66
     1
 10
0.0
 20
0.0
 30
0.0
  0
VERTEX
  5
404E
  8
0
 62
     0
 10
112.563522
 20
81.748715
 30
0.0
  0
VERTEX
  5
404F
  8
0
 62
     0
 10
112.604487
 20
81.836244
 30
0.0
  0
VERTEX
  5
4050
  8
0
 62
     0
 10
112.765175
 20
82.434667
 30
0.0
  0
VERTEX
  5
4051
  8
0
 62
     0
 10
112.81931
 20
83.052538
 30
0.0
  0
SEQEND
  5
4052
  8
0
 62
     0
  0
POLYLINE
  5
3A38
  8
0
 62
     0
 66
     1
 10
0.0
 20
0.0
 30
0.0
  0
VERTEX
  5
4053
  8
0
 62
     0
 10
112.567884
 20
81.733857
 30
0.0
  0
VERTEX
  5
4054
  8
0
 62
     0
 10
112.37798
 20
82.380698
 30
0.0
  0
VERTEX
  5
4055
  8
0
 62
     0
 10
112.313882
 20
83.052538
 30
0.0
  0
SEQEND
  5
4056
  8
0
 62
     0
  0
LINE
  5
3A39
  8
0
 62
     0
 10
109.753067
 20
74.743333
 30
0.0
 11
105.811185
 21
74.494637
 31
0.0
  0
LINE
  5
3A3A
  8
0
 62
     0
 10
105.811185
 20
74.494637
 30
0.0
 11
103.674517
 21
74.457366
 31
0.0
  0
POLYLINE
  5
3A3B
  8
0
 62
     0
 66
     1
 10
0.0
 20
0.0
 30
0.0
  0
VERTEX
  5
4057
  8
0
 62
     0
 10
103.282774
 20
74.454226
 30
0.0
  0
VERTEX
  5
4058
  8
0
 62
     0
 10
103.512845
 20
74.455927
 30
0.0
  0
VERTEX
  5
4059
  8
0
 62
     0
 10
103.703771
 20
74.457627
 30
0.0
  0
VERTEX
  5
405A
  8
0
 62
     0
 10
103.844093
 20
74.458882
 30
0.0
  0
VERTEX
  5
405B
  8
0
 62
     0
 10
103.922512
 20
74.45934
 30
0.0
  0
VERTEX
  5
405C
  8
0
 62
     0
 10
103.937701
 20
74.459136
 30
0.0
  0
SEQEND
  5
405D
  8
0
 62
     0
  0
LINE
  5
3A3C
  8
0
 62
     0
 10
102.495559
 20
74.452538
 30
0.0
 11
102.774271
 21
74.452538
 31
0.0
  0
LINE
  5
3A3D
  8
0
 62
     0
 10
102.774271
 20
74.452538
 30
0.0
 11
103.031555
 21
74.452991
 31
0.0
  0
LINE
  5
3A3E
  8
0
 62
     0
 10
103.031555
 20
74.452991
 30
0.0
 11
103.282774
 21
74.454226
 31
0.0
  0
LINE
  5
3A3F
  8
0
 62
     0
 10
109.407919
 20
74.747426
 30
0.0
 11
109.407919
 21
68.682538
 31
0.0
  0
LINE
  5
3A40
  8
0
 62
     0
 10
109.996036
 20
89.152538
 30
0.0
 11
110.816642
 21
89.152538
 31
0.0
  0
LINE
  5
3A41
  8
0
 62
     0
 10
109.997822
 20
88.967437
 30
0.0
 11
109.996036
 21
89.152538
 31
0.0
  0
POLYLINE
  5
3A42
  8
0
 62
     0
 66
     1
 10
0.0
 20
0.0
 30
0.0
  0
VERTEX
  5
405E
  8
0
 62
     0
 10
109.934934
 20
89.138776
 30
0.0
  0
VERTEX
  5
405F
  8
0
 62
     0
 10
109.968239
 20
89.098838
 30
0.0
  0
VERTEX
  5
4060
  8
0
 62
     0
 10
109.990083
 20
89.03816
 30
0.0
  0
VERTEX
  5
4061
  8
0
 62
     0
 10
109.997822
 20
88.967437
 30
0.0
  0
SEQEND
  5
4062
  8
0
 62
     0
  0
POLYLINE
  5
3A43
  8
0
 62
     0
 66
     1
 10
0.0
 20
0.0
 30
0.0
  0
VERTEX
  5
4063
  8
0
 62
     0
 10
109.334572
 20
89.019831
 30
0.0
  0
VERTEX
  5
4064
  8
0
 62
     0
 10
109.352638
 20
89.00053
 30
0.0
  0
VERTEX
  5
4065
  8
0
 62
     0
 10
109.373606
 20
88.958252
 30
0.0
  0
VERTEX
  5
4066
  8
0
 62
     0
 10
109.394719
 20
88.898556
 30
0.0
  0
VERTEX
  5
4067
  8
0
 62
     0
 10
109.4132
 20
88.829293
 30
0.0
  0
SEQEND
  5
4068
  8
0
 62
     0
  0
LINE
  5
3A44
  8
0
 62
     0
 10
109.894724
 20
89.152538
 30
0.0
 11
109.934934
 21
89.138776
 31
0.0
  0
POLYLINE
  5
3A45
  8
0
 62
     0
 66
     1
 10
0.0
 20
0.0
 30
0.0
  0
VERTEX
  5
4069
  8
0
 62
     0
 10
109.997822
 20
88.967437
 30
0.0
  0
VERTEX
  5
406A
  8
0
 62
     0
 10
109.701979
 20
88.897286
 30
0.0
  0
VERTEX
  5
406B
  8
0
 62
     0
 10
109.4132
 20
88.829293
 30
0.0
  0
SEQEND
  5
406C
  8
0
 62
     0
  0
POLYLINE
  5
3A46
  8
0
 62
     0
 66
     1
 10
0.0
 20
0.0
 30
0.0
  0
VERTEX
  5
406D
  8
0
 62
     0
 10
109.894724
 20
89.152538
 30
0.0
  0
VERTEX
  5
406E
  8
0
 62
     0
 10
109.611336
 20
89.085181
 30
0.0
  0
VERTEX
  5
406F
  8
0
 62
     0
 10
109.334572
 20
89.019831
 30
0.0
  0
SEQEND
  5
4070
  8
0
 62
     0
  0
LINE
  5
3A47
  8
0
 62
     0
 10
112.687226
 20
83.052538
 30
0.0
 11
112.751156
 21
83.72262
 31
0.0
  0
LINE
  5
3A48
  8
0
 62
     0
 10
112.313882
 20
83.052538
 30
0.0
 11
112.37798
 21
83.724379
 31
0.0
  0
POLYLINE
  5
3A49
  8
0
 62
     0
 66
     1
 10
0.0
 20
0.0
 30
0.0
  0
VERTEX
  5
4071
  8
0
 62
     0
 10
112.81931
 20
83.052538
 30
0.0
  0
VERTEX
  5
4072
  8
0
 62
     0
 10
112.765175
 20
83.670409
 30
0.0
  0
VERTEX
  5
4073
  8
0
 62
     0
 10
112.604487
 20
84.268833
 30
0.0
  0
VERTEX
  5
4074
  8
0
 62
     0
 10
112.563522
 20
84.356362
 30
0.0
  0
SEQEND
  5
4075
  8
0
 62
     0
  0
LINE
  5
3A4A
  8
0
 62
     0
 10
112.751156
 20
82.382457
 30
0.0
 11
112.687226
 21
83.052538
 31
0.0
  0
LINE
  5
3A4B
  8
0
 62
     0
 10
112.554575
 20
88.863133
 30
0.0
 11
110.816642
 21
89.187149
 31
0.0
  0
LINE
  5
3A4C
  8
0
 62
     0
 10
111.197919
 20
89.152538
 30
0.0
 11
111.197919
 21
90.027203
 31
0.0
  0
LINE
  5
3A4D
  8
0
 62
     0
 10
111.189985
 20
89.152538
 30
0.0
 11
111.189985
 21
90.027225
 31
0.0
  0
LINE
  5
3A4E
  8
0
 62
     0
 10
110.816642
 20
89.152538
 30
0.0
 11
110.816642
 21
90.028274
 31
0.0
  0
LINE
  5
3A4F
  8
0
 62
     0
 10
111.197919
 20
89.152538
 30
0.0
 11
111.526272
 21
89.152538
 31
0.0
  0
LINE
  5
3A50
  8
0
 62
     0
 10
95.547919
 20
130.152538
 30
0.0
 11
95.547919
 21
119.652538
 31
0.0
  0
LINE
  5
3A51
  8
0
 62
     0
 10
95.047919
 20
129.652538
 30
0.0
 11
95.047919
 21
120.152538
 31
0.0
  0
LINE
  5
3A52
  8
0
 62
     0
 10
92.047919
 20
120.152538
 30
0.0
 11
92.047919
 21
129.652538
 31
0.0
  0
LINE
  5
3A53
  8
0
 62
     0
 10
91.547919
 20
119.652538
 30
0.0
 11
91.547919
 21
130.152538
 31
0.0
  0
LINE
  5
3A54
  8
0
 62
     0
 10
90.647919
 20
120.452538
 30
0.0
 11
90.547919
 21
124.452538
 31
0.0
  0
LINE
  5
3A55
  8
0
 62
     0
 10
98.147919
 20
108.952538
 30
0.0
 11
95.547919
 21
108.952538
 31
0.0
  0
LINE
  5
3A56
  8
0
 62
     0
 10
98.147919
 20
106.752538
 30
0.0
 11
95.547919
 21
106.752538
 31
0.0
  0
LINE
  5
3A57
  8
0
 62
     0
 10
90.547919
 20
117.452538
 30
0.0
 11
91.147919
 21
105.452538
 31
0.0
  0
LINE
  5
3A58
  8
0
 62
     0
 10
95.547919
 20
108.952538
 30
0.0
 11
95.547919
 21
106.752538
 31
0.0
  0
LINE
  5
3A59
  8
0
 62
     0
 10
95.047919
 20
120.152538
 30
0.0
 11
92.047919
 21
120.152538
 31
0.0
  0
LINE
  5
3A5A
  8
0
 62
     0
 10
95.547919
 20
119.652538
 30
0.0
 11
91.547919
 21
119.652538
 31
0.0
  0
ARC
  5
3A5B
  8
0
 62
     0
 10
91.347919
 20
114.752538
 30
0.0
 40
0.8
 50
180.0
 51
207.517548
  0
LINE
  5
3A5C
  8
0
 62
     0
 10
90.547919
 20
115.452538
 30
0.0
 11
90.647919
 21
115.452538
 31
0.0
  0
LINE
  5
3A5D
  8
0
 62
     0
 10
90.547919
 20
114.752538
 30
0.0
 11
90.547919
 21
115.452538
 31
0.0
  0
LINE
  5
3A5E
  8
0
 62
     0
 10
91.547919
 20
119.652538
 30
0.0
 11
92.047919
 21
120.152538
 31
0.0
  0
LINE
  5
3A5F
  8
0
 62
     0
 10
90.547919
 20
120.452538
 30
0.0
 11
90.647919
 21
120.452538
 31
0.0
  0
LINE
  5
3A60
  8
0
 62
     0
 10
90.547919
 20
117.452538
 30
0.0
 11
90.647919
 21
117.452538
 31
0.0
  0
LINE
  5
3A61
  8
0
 62
     0
 10
90.647919
 20
117.452538
 30
0.0
 11
90.547919
 21
120.452538
 31
0.0
  0
LINE
  5
3A62
  8
0
 62
     0
 10
95.547919
 20
119.652538
 30
0.0
 11
95.047919
 21
120.152538
 31
0.0
  0
LINE
  5
3A63
  8
0
 62
     0
 10
98.147919
 20
108.952538
 30
0.0
 11
98.147919
 21
106.752538
 31
0.0
  0
LINE
  5
3A64
  8
0
 62
     0
 10
90.647919
 20
128.952538
 30
0.0
 11
90.547919
 21
134.452538
 31
0.0
  0
LINE
  5
3A65
  8
0
 62
     0
 10
91.547919
 20
130.152538
 30
0.0
 11
95.547919
 21
130.152538
 31
0.0
  0
LINE
  5
3A66
  8
0
 62
     0
 10
92.047919
 20
129.652538
 30
0.0
 11
95.047919
 21
129.652538
 31
0.0
  0
LINE
  5
3A67
  8
0
 62
     0
 10
92.247919
 20
129.652538
 30
0.0
 11
92.247919
 21
120.952538
 31
0.0
  0
LINE
  5
3A68
  8
0
 62
     0
 10
92.197919
 20
129.652538
 30
0.0
 11
92.197919
 21
120.952538
 31
0.0
  0
LINE
  5
3A69
  8
0
 62
     0
 10
90.647919
 20
124.452538
 30
0.0
 11
90.547919
 21
128.952538
 31
0.0
  0
LINE
  5
3A6A
  8
0
 62
     0
 10
90.547919
 20
124.452538
 30
0.0
 11
90.647919
 21
124.452538
 31
0.0
  0
LINE
  5
3A6B
  8
0
 62
     0
 10
92.197919
 20
124.332538
 30
0.0
 11
92.047919
 21
124.332538
 31
0.0
  0
LINE
  5
3A6C
  8
0
 62
     0
 10
92.197919
 20
123.952538
 30
0.0
 11
92.047919
 21
123.952538
 31
0.0
  0
LINE
  5
3A6D
  8
0
 62
     0
 10
92.247919
 20
120.952538
 30
0.0
 11
92.047919
 21
120.952538
 31
0.0
  0
LINE
  5
3A6E
  8
0
 62
     0
 10
91.547919
 20
130.152538
 30
0.0
 11
92.047919
 21
129.652538
 31
0.0
  0
LINE
  5
3A6F
  8
0
 62
     0
 10
90.547919
 20
128.952538
 30
0.0
 11
90.647919
 21
128.952538
 31
0.0
  0
LINE
  5
3A70
  8
0
 62
     0
 10
95.547919
 20
130.152538
 30
0.0
 11
95.047919
 21
129.652538
 31
0.0
  0
LINE
  5
3A71
  8
0
 62
     0
 10
93.547919
 20
138.652538
 30
0.0
 11
92.047919
 21
138.652538
 31
0.0
  0
LINE
  5
3A72
  8
0
 62
     0
 10
91.747919
 20
138.452538
 30
0.0
 11
93.247919
 21
138.452538
 31
0.0
  0
LINE
  5
3A73
  8
0
 62
     0
 10
91.747919
 20
136.670572
 30
0.0
 11
93.247919
 21
136.670572
 31
0.0
  0
LINE
  5
3A74
  8
0
 62
     0
 10
91.747919
 20
136.446966
 30
0.0
 11
93.247919
 21
136.446966
 31
0.0
  0
LINE
  5
3A75
  8
0
 62
     0
 10
93.247919
 20
135.228932
 30
0.0
 11
91.747919
 21
135.228932
 31
0.0
  0
LINE
  5
3A76
  8
0
 62
     0
 10
90.547919
 20
134.952538
 30
0.0
 11
93.547919
 21
134.952538
 31
0.0
  0
LINE
  5
3A77
  8
0
 62
     0
 10
91.747919
 20
134.952538
 30
0.0
 11
91.747919
 21
136.670572
 31
0.0
  0
LINE
  5
3A78
  8
0
 62
     0
 10
90.547919
 20
134.452538
 30
0.0
 11
90.647919
 21
134.452538
 31
0.0
  0
LINE
  5
3A79
  8
0
 62
     0
 10
90.647919
 20
134.952538
 30
0.0
 11
90.647919
 21
134.452538
 31
0.0
  0
LINE
  5
3A7A
  8
0
 62
     0
 10
92.247919
 20
138.652538
 30
0.0
 11
92.247919
 21
138.452538
 31
0.0
  0
LINE
  5
3A7B
  8
0
 62
     0
 10
92.197919
 20
138.652538
 30
0.0
 11
92.197919
 21
138.452538
 31
0.0
  0
LINE
  5
3A7C
  8
0
 62
     0
 10
92.147919
 20
138.652538
 30
0.0
 11
92.147919
 21
138.452538
 31
0.0
  0
LINE
  5
3A7D
  8
0
 62
     0
 10
93.547919
 20
134.952538
 30
0.0
 11
93.547919
 21
138.652538
 31
0.0
  0
LINE
  5
3A7E
  8
0
 62
     0
 10
93.247919
 20
138.452538
 30
0.0
 11
93.247919
 21
134.952538
 31
0.0
  0
LINE
  5
3A7F
  8
0
 62
     0
 10
93.547919
 20
135.352538
 30
0.0
 11
93.247919
 21
135.352538
 31
0.0
  0
LINE
  5
3A80
  8
0
 62
     0
 10
93.547919
 20
137.352538
 30
0.0
 11
93.247919
 21
137.352538
 31
0.0
  0
LINE
  5
3A81
  8
0
 62
     0
 10
111.322919
 20
105.152538
 30
0.0
 11
108.472919
 21
105.152538
 31
0.0
  0
LINE
  5
3A82
  8
0
 62
     0
 10
108.472919
 20
103.852538
 30
0.0
 11
111.322919
 21
103.852538
 31
0.0
  0
LINE
  5
3A83
  8
0
 62
     0
 10
108.472919
 20
105.152538
 30
0.0
 11
108.472919
 21
103.852538
 31
0.0
  0
LINE
  5
3A84
  8
0
 62
     0
 10
111.322919
 20
105.152538
 30
0.0
 11
111.322919
 21
103.852538
 31
0.0
  0
ARC
  5
3A85
  8
0
 62
     0
 10
113.397919
 20
101.802538
 30
0.0
 40
0.35
 50
180.0
 51
270.0
  0
LINE
  5
3A86
  8
0
 62
     0
 10
113.247919
 20
103.302538
 30
0.0
 11
113.547919
 21
103.602538
 31
0.0
  0
LINE
  5
3A87
  8
0
 62
     0
 10
113.547919
 20
103.602538
 30
0.0
 11
113.547919
 21
105.152538
 31
0.0
  0
LINE
  5
3A88
  8
0
 62
     0
 10
113.397919
 20
101.752538
 30
0.0
 11
113.397919
 21
101.452538
 31
0.0
  0
LINE
  5
3A89
  8
0
 62
     0
 10
113.362919
 20
105.152538
 30
0.0
 11
113.362919
 21
103.922538
 31
0.0
  0
LINE
  5
3A8A
  8
0
 62
     0
 10
113.362919
 20
103.922538
 30
0.0
 11
113.362919
 21
101.752538
 31
0.0
  0
LINE
  5
3A8B
  8
0
 62
     0
 10
113.347919
 20
104.873999
 30
0.0
 11
113.347919
 21
101.802538
 31
0.0
  0
LINE
  5
3A8C
  8
0
 62
     0
 10
113.247919
 20
103.302538
 30
0.0
 11
113.247919
 21
102.972538
 31
0.0
  0
LINE
  5
3A8D
  8
0
 62
     0
 10
113.067919
 20
103.922538
 30
0.0
 11
113.067919
 21
101.752538
 31
0.0
  0
LINE
  5
3A8E
  8
0
 62
     0
 10
113.047919
 20
104.873999
 30
0.0
 11
113.047919
 21
104.073999
 31
0.0
  0
LINE
  5
3A8F
  8
0
 62
     0
 10
113.047919
 20
104.073999
 30
0.0
 11
113.047919
 21
101.802538
 31
0.0
  0
LINE
  5
3A90
  8
0
 62
     0
 10
112.922919
 20
101.752538
 30
0.0
 11
112.922919
 21
101.452538
 31
0.0
  0
LINE
  5
3A91
  8
0
 62
     0
 10
112.867919
 20
103.922538
 30
0.0
 11
112.867919
 21
102.029667
 31
0.0
  0
LINE
  5
3A92
  8
0
 62
     0
 10
113.347919
 20
101.802538
 30
0.0
 11
113.351599
 21
101.783709
 31
0.0
  0
LINE
  5
3A93
  8
0
 62
     0
 10
113.027919
 20
101.752538
 30
0.0
 11
112.867919
 21
102.029667
 31
0.0
  0
LINE
  5
3A94
  8
0
 62
     0
 10
113.362598
 20
101.767148
 30
0.0
 11
113.351576
 21
101.783764
 31
0.0
  0
LINE
  5
3A95
  8
0
 62
     0
 10
113.379145
 20
101.756196
 30
0.0
 11
113.362529
 21
101.767218
 31
0.0
  0
LINE
  5
3A96
  8
0
 62
     0
 10
113.362919
 20
103.63675
 30
0.0
 11
112.867919
 21
103.922538
 31
0.0
  0
LINE
  5
3A97
  8
0
 62
     0
 10
113.347919
 20
104.873999
 30
0.0
 11
113.047919
 21
104.873999
 31
0.0
  0
LINE
  5
3A98
  8
0
 62
     0
 10
113.347919
 20
104.450814
 30
0.0
 11
113.047919
 21
104.450814
 31
0.0
  0
LINE
  5
3A99
  8
0
 62
     0
 10
113.347919
 20
104.373999
 30
0.0
 11
113.047919
 21
104.373999
 31
0.0
  0
LINE
  5
3A9A
  8
0
 62
     0
 10
113.347919
 20
104.073999
 30
0.0
 11
113.047919
 21
104.073999
 31
0.0
  0
LINE
  5
3A9B
  8
0
 62
     0
 10
113.067919
 20
103.922538
 30
0.0
 11
112.867919
 21
103.922538
 31
0.0
  0
LINE
  5
3A9C
  8
0
 62
     0
 10
113.362919
 20
103.922538
 30
0.0
 11
113.067919
 21
103.922538
 31
0.0
  0
LINE
  5
3A9D
  8
0
 62
     0
 10
113.397919
 20
101.752538
 30
0.0
 11
113.379089
 21
101.756218
 31
0.0
  0
LINE
  5
3A9E
  8
0
 62
     0
 10
113.347919
 20
103.700185
 30
0.0
 11
113.047919
 21
103.700185
 31
0.0
  0
LINE
  5
3A9F
  8
0
 62
     0
 10
112.867919
 20
102.972538
 30
0.0
 11
113.247919
 21
102.972538
 31
0.0
  0
LINE
  5
3AA0
  8
0
 62
     0
 10
113.347919
 20
101.802538
 30
0.0
 11
113.047919
 21
101.802538
 31
0.0
  0
LINE
  5
3AA1
  8
0
 62
     0
 10
113.035419
 20
101.752538
 30
0.0
 11
112.922919
 21
101.752538
 31
0.0
  0
LINE
  5
3AA2
  8
0
 62
     0
 10
111.197919
 20
108.052538
 30
0.0
 11
111.197919
 21
106.752538
 31
0.0
  0
LINE
  5
3AA3
  8
0
 62
     0
 10
110.932919
 20
108.052538
 30
0.0
 11
110.932919
 21
106.752538
 31
0.0
  0
LINE
  5
3AA4
  8
0
 62
     0
 10
113.047919
 20
177.152538
 30
0.0
 11
113.047919
 21
204.052538
 31
0.0
  0
LINE
  5
3AA5
  8
0
 62
     0
 10
108.297919
 20
177.152538
 30
0.0
 11
108.297919
 21
198.121284
 31
0.0
  0
LINE
  5
3AA6
  8
0
 62
     0
 10
107.047919
 20
157.136451
 30
0.0
 11
107.047919
 21
197.552538
 31
0.0
  0
LINE
  5
3AA7
  8
0
 62
     0
 10
105.547919
 20
157.241341
 30
0.0
 11
105.547919
 21
197.552538
 31
0.0
  0
LINE
  5
3AA8
  8
0
 62
     0
 10
104.297919
 20
198.121284
 30
0.0
 11
104.297919
 21
177.152538
 31
0.0
  0
LINE
  5
3AA9
  8
0
 62
     0
 10
94.797919
 20
177.152538
 30
0.0
 11
94.797919
 21
198.121284
 31
0.0
  0
LINE
  5
3AAA
  8
0
 62
     0
 10
93.597919
 20
181.752538
 30
0.0
 11
93.597919
 21
160.552538
 31
0.0
  0
LINE
  5
3AAB
  8
0
 62
     0
 10
92.397919
 20
170.452538
 30
0.0
 11
92.397919
 21
179.952538
 31
0.0
  0
LINE
  5
3AAC
  8
0
 62
     0
 10
91.597919
 20
160.552538
 30
0.0
 11
91.597919
 21
181.752538
 31
0.0
  0
LINE
  5
3AAD
  8
0
 62
     0
 10
90.947919
 20
157.391432
 30
0.0
 11
90.947919
 21
201.152538
 31
0.0
  0
LINE
  5
3AAE
  8
0
 62
     0
 10
90.647919
 20
157.391432
 30
0.0
 11
90.647919
 21
200.852538
 31
0.0
  0
ARC
  5
3AAF
  8
0
 62
     0
 10
113.047919
 20
280.992538
 30
0.0
 40
125.24
 50
261.59789
 51
266.016648
  0
LINE
  5
3AB0
  8
0
 62
     0
 10
104.297919
 20
177.152538
 30
0.0
 11
94.797919
 21
177.152538
 31
0.0
  0
LINE
  5
3AB1
  8
0
 62
     0
 10
94.397919
 20
172.952538
 30
0.0
 11
105.547919
 21
172.952538
 31
0.0
  0
LINE
  5
3AB2
  8
0
 62
     0
 10
94.397919
 20
171.952538
 30
0.0
 11
104.697919
 21
171.952538
 31
0.0
  0
LINE
  5
3AB3
  8
0
 62
     0
 10
96.547919
 20
171.652538
 30
0.0
 11
102.547919
 21
171.652538
 31
0.0
  0
LINE
  5
3AB4
  8
0
 62
     0
 10
94.397919
 20
170.352538
 30
0.0
 11
104.697919
 21
170.352538
 31
0.0
  0
POLYLINE
  5
3AB5
  8
0
 62
     0
 66
     1
 10
0.0
 20
0.0
 30
0.0
  0
VERTEX
  5
4076
  8
0
 62
     0
 10
94.747919
 20
166.652538
 30
0.0
  0
VERTEX
  5
4077
  8
0
 62
     0
 10
96.670439
 20
166.974098
 30
0.0
  0
VERTEX
  5
4078
  8
0
 62
     0
 10
98.589274
 20
167.132801
 30
0.0
  0
VERTEX
  5
4079
  8
0
 62
     0
 10
100.506653
 20
167.132797
 30
0.0
  0
VERTEX
  5
407A
  8
0
 62
     0
 10
102.425435
 20
166.974094
 30
0.0
  0
VERTEX
  5
407B
  8
0
 62
     0
 10
104.347919
 20
166.652538
 30
0.0
  0
SEQEND
  5
407C
  8
0
 62
     0
  0
LINE
  5
3AB6
  8
0
 62
     0
 10
94.747919
 20
167.252538
 30
0.0
 11
104.347919
 21
167.252538
 31
0.0
  0
LINE
  5
3AB7
  8
0
 62
     0
 10
94.747919
 20
167.252538
 30
0.0
 11
94.747919
 21
157.096754
 31
0.0
  0
ARC
  5
3AB8
  8
0
 62
     0
 10
92.247919
 20
143.352538
 30
0.0
 40
0.5
 50
180.0
 51
246.32505
  0
ARC
  5
3AB9
  8
0
 62
     0
 10
92.247919
 20
149.109368
 30
0.0
 40
0.2
 50
78.705216
 51
180.0
  0
ARC
  5
3ABA
  8
0
 62
     0
 10
91.947919
 20
149.303868
 30
0.0
 40
0.2
 50
78.922814
 51
180.0
  0
LINE
  5
3ABB
  8
0
 62
     0
 10
91.747919
 20
147.452538
 30
0.0
 11
92.047919
 21
147.452538
 31
0.0
  0
LINE
  5
3ABC
  8
0
 62
     0
 10
95.197919
 20
148.841166
 30
0.0
 11
95.197919
 21
148.919362
 31
0.0
  0
ARC
  5
3ABD
  8
0
 62
     0
 10
91.647919
 20
157.391432
 30
0.0
 40
0.700001
 50
180.0
 51
215.650244
  0
ARC
  5
3ABE
  8
0
 62
     0
 10
91.647919
 20
157.391432
 30
0.0
 40
1.0
 50
180.0
 51
260.177324
  0
LINE
  5
3ABF
  8
0
 62
     0
 10
90.547919
 20
158.852538
 30
0.0
 11
90.647919
 21
158.852538
 31
0.0
  0
LINE
  5
3AC0
  8
0
 62
     0
 10
90.947919
 20
157.391432
 30
0.0
 11
90.647919
 21
157.391432
 31
0.0
  0
POLYLINE
  5
3AC1
  8
0
 62
     0
 66
     1
 10
0.0
 20
0.0
 30
0.0
  0
VERTEX
  5
407D
  8
0
 62
     0
 10
91.079106
 20
156.983447
 30
0.0
  0
VERTEX
  5
407E
  8
0
 62
     0
 10
91.121196
 20
156.826443
 30
0.0
  0
VERTEX
  5
407F
  8
0
 62
     0
 10
91.18135
 20
156.67653
 30
0.0
  0
VERTEX
  5
4080
  8
0
 62
     0
 10
91.261552
 20
156.547325
 30
0.0
  0
VERTEX
  5
4081
  8
0
 62
     0
 10
91.361521
 20
156.453177
 30
0.0
  0
VERTEX
  5
4082
  8
0
 62
     0
 10
91.477319
 20
156.406091
 30
0.0
  0
SEQEND
  5
4083
  8
0
 62
     0
  0
LINE
  5
3AC2
  8
0
 62
     0
 10
91.079106
 20
156.983447
 30
0.0
 11
90.835329
 21
156.808596
 31
0.0
  0
LINE
  5
3AC3
  8
0
 62
     0
 10
96.192492
 20
148.601238
 30
0.0
 11
96.1932
 21
148.682401
 31
0.0
  0
LINE
  5
3AC4
  8
0
 62
     0
 10
100.337992
 20
148.021234
 30
0.0
 11
100.334975
 21
148.194098
 31
0.0
  0
LINE
  5
3AC5
  8
0
 62
     0
 10
94.397919
 20
160.552538
 30
0.0
 11
94.397919
 21
172.952538
 31
0.0
  0
LINE
  5
3AC6
  8
0
 62
     0
 10
91.597919
 20
169.252538
 30
0.0
 11
93.597919
 21
169.252538
 31
0.0
  0
LINE
  5
3AC7
  8
0
 62
     0
 10
93.347919
 20
169.052538
 30
0.0
 11
91.847919
 21
169.052538
 31
0.0
  0
LINE
  5
3AC8
  8
0
 62
     0
 10
93.347919
 20
166.252538
 30
0.0
 11
91.847919
 21
166.252538
 31
0.0
  0
LINE
  5
3AC9
  8
0
 62
     0
 10
93.347919
 20
165.752538
 30
0.0
 11
91.847919
 21
165.752538
 31
0.0
  0
LINE
  5
3ACA
  8
0
 62
     0
 10
91.597919
 20
165.552538
 30
0.0
 11
93.597919
 21
165.552538
 31
0.0
  0
LINE
  5
3ACB
  8
0
 62
     0
 10
91.597919
 20
161.552538
 30
0.0
 11
93.597919
 21
161.552538
 31
0.0
  0
LINE
  5
3ACC
  8
0
 62
     0
 10
90.647919
 20
160.552538
 30
0.0
 11
94.747919
 21
160.552538
 31
0.0
  0
LINE
  5
3ACD
  8
0
 62
     0
 10
91.847919
 20
160.552538
 30
0.0
 11
91.847919
 21
161.552538
 31
0.0
  0
LINE
  5
3ACE
  8
0
 62
     0
 10
93.047919
 20
169.052538
 30
0.0
 11
93.047919
 21
169.252538
 31
0.0
  0
LINE
  5
3ACF
  8
0
 62
     0
 10
92.397919
 20
169.052538
 30
0.0
 11
92.397919
 21
169.252538
 31
0.0
  0
LINE
  5
3AD0
  8
0
 62
     0
 10
91.847919
 20
165.552538
 30
0.0
 11
91.847919
 21
169.052538
 31
0.0
  0
LINE
  5
3AD1
  8
0
 62
     0
 10
93.347919
 20
160.552538
 30
0.0
 11
93.347919
 21
161.552538
 31
0.0
  0
LINE
  5
3AD2
  8
0
 62
     0
 10
94.747919
 20
162.654267
 30
0.0
 11
94.547919
 21
162.752538
 31
0.0
  0
LINE
  5
3AD3
  8
0
 62
     0
 10
94.547919
 20
162.752538
 30
0.0
 11
94.547919
 21
160.552538
 31
0.0
  0
LINE
  5
3AD4
  8
0
 62
     0
 10
93.347919
 20
165.552538
 30
0.0
 11
93.347919
 21
169.052538
 31
0.0
  0
LINE
  5
3AD5
  8
0
 62
     0
 10
92.397919
 20
176.552538
 30
0.0
 11
93.597919
 21
176.552538
 31
0.0
  0
LINE
  5
3AD6
  8
0
 62
     0
 10
93.247919
 20
171.552538
 30
0.0
 11
93.047919
 21
171.552538
 31
0.0
  0
LINE
  5
3AD7
  8
0
 62
     0
 10
93.047919
 20
170.952538
 30
0.0
 11
93.247919
 21
170.952538
 31
0.0
  0
LINE
  5
3AD8
  8
0
 62
     0
 10
91.597919
 20
170.452538
 30
0.0
 11
93.597919
 21
170.452538
 31
0.0
  0
LINE
  5
3AD9
  8
0
 62
     0
 10
93.047919
 20
170.452538
 30
0.0
 11
93.047919
 21
176.252538
 31
0.0
  0
LINE
  5
3ADA
  8
0
 62
     0
 10
93.047919
 20
176.252538
 30
0.0
 11
92.397919
 21
176.252538
 31
0.0
  0
LINE
  5
3ADB
  8
0
 62
     0
 10
93.247919
 20
170.552538
 30
0.0
 11
93.247919
 21
176.552538
 31
0.0
  0
LINE
  5
3ADC
  8
0
 62
     0
 10
94.397919
 20
170.552538
 30
0.0
 11
95.797919
 21
170.552538
 31
0.0
  0
LINE
  5
3ADD
  8
0
 62
     0
 10
93.247919
 20
170.552538
 30
0.0
 11
93.597919
 21
170.552538
 31
0.0
  0
LINE
  5
3ADE
  8
0
 62
     0
 10
95.797919
 20
170.552538
 30
0.0
 11
95.797919
 21
171.952538
 31
0.0
  0
LINE
  5
3ADF
  8
0
 62
     0
 10
94.647919
 20
170.352538
 30
0.0
 11
94.647919
 21
170.552538
 31
0.0
  0
LINE
  5
3AE0
  8
0
 62
     0
 10
96.547919
 20
170.352538
 30
0.0
 11
96.547919
 21
171.652538
 31
0.0
  0
LINE
  5
3AE1
  8
0
 62
     0
 10
97.547919
 20
171.652538
 30
0.0
 11
97.547919
 21
171.952538
 31
0.0
  0
LINE
  5
3AE2
  8
0
 62
     0
 10
101.547919
 20
171.652538
 30
0.0
 11
101.547919
 21
171.952538
 31
0.0
  0
LINE
  5
3AE3
  8
0
 62
     0
 10
108.247919
 20
155.844556
 30
0.0
 11
108.247919
 21
167.252538
 31
0.0
  0
LINE
  5
3AE4
  8
0
 62
     0
 10
108.097161
 20
162.728343
 30
0.0
 11
108.097161
 21
157.06308
 31
0.0
  0
LINE
  5
3AE5
  8
0
 62
     0
 10
107.897919
 20
157.077013
 30
0.0
 11
107.897919
 21
172.952538
 31
0.0
  0
LINE
  5
3AE6
  8
0
 62
     0
 10
106.897919
 20
176.952538
 30
0.0
 11
106.897919
 21
157.14694
 31
0.0
  0
LINE
  5
3AE7
  8
0
 62
     0
 10
105.697919
 20
157.230852
 30
0.0
 11
105.697919
 21
176.952538
 31
0.0
  0
LINE
  5
3AE8
  8
0
 62
     0
 10
104.697919
 20
157.300779
 30
0.0
 11
104.697919
 21
171.952538
 31
0.0
  0
LINE
  5
3AE9
  8
0
 62
     0
 10
104.547919
 20
162.752538
 30
0.0
 11
104.547919
 21
157.311268
 31
0.0
  0
LINE
  5
3AEA
  8
0
 62
     0
 10
104.347919
 20
156.055084
 30
0.0
 11
104.347919
 21
167.252538
 31
0.0
  0
LINE
  5
3AEB
  8
0
 62
     0
 10
107.897919
 20
157.252538
 30
0.0
 11
107.047919
 21
157.311976
 31
0.0
  0
LINE
  5
3AEC
  8
0
 62
     0
 10
104.347919
 20
157.325253
 30
0.0
 11
108.247919
 21
157.052538
 31
0.0
  0
LINE
  5
3AED
  8
0
 62
     0
 10
102.847919
 20
147.952658
 30
0.0
 11
102.847919
 21
147.770478
 31
0.0
  0
LINE
  5
3AEE
  8
0
 62
     0
 10
102.647919
 20
147.948252
 30
0.0
 11
102.647919
 21
147.783839
 31
0.0
  0
LINE
  5
3AEF
  8
0
 62
     0
 10
103.647919
 20
147.912448
 30
0.0
 11
103.647919
 21
147.717034
 31
0.0
  0
LINE
  5
3AF0
  8
0
 62
     0
 10
105.945571
 20
147.615851
 30
0.0
 11
105.942764
 21
147.562295
 31
0.0
  0
LINE
  5
3AF1
  8
0
 62
     0
 10
105.547919
 20
157.416866
 30
0.0
 11
104.697919
 21
157.476304
 31
0.0
  0
LINE
  5
3AF2
  8
0
 62
     0
 10
107.847919
 20
147.615851
 30
0.0
 11
107.847919
 21
147.408996
 31
0.0
  0
LINE
  5
3AF3
  8
0
 62
     0
 10
113.047919
 20
154.052538
 30
0.0
 11
113.047919
 21
154.592201
 31
0.0
  0
LINE
  5
3AF4
  8
0
 62
     0
 10
104.697919
 20
166.952538
 30
0.0
 11
105.547919
 21
166.952538
 31
0.0
  0
LINE
  5
3AF5
  8
0
 62
     0
 10
104.697919
 20
160.552538
 30
0.0
 11
104.547919
 21
160.552538
 31
0.0
  0
LINE
  5
3AF6
  8
0
 62
     0
 10
104.547919
 20
162.752538
 30
0.0
 11
104.347919
 21
162.654267
 31
0.0
  0
LINE
  5
3AF7
  8
0
 62
     0
 10
104.697919
 20
171.952538
 30
0.0
 11
105.547919
 21
172.665773
 31
0.0
  0
LINE
  5
3AF8
  8
0
 62
     0
 10
103.297919
 20
170.552538
 30
0.0
 11
104.697919
 21
170.552538
 31
0.0
  0
LINE
  5
3AF9
  8
0
 62
     0
 10
103.297919
 20
170.552538
 30
0.0
 11
103.297919
 21
171.952538
 31
0.0
  0
LINE
  5
3AFA
  8
0
 62
     0
 10
102.547919
 20
170.352538
 30
0.0
 11
102.547919
 21
171.652538
 31
0.0
  0
LINE
  5
3AFB
  8
0
 62
     0
 10
104.397919
 20
170.352538
 30
0.0
 11
104.397919
 21
170.552538
 31
0.0
  0
LINE
  5
3AFC
  8
0
 62
     0
 10
105.547919
 20
170.352538
 30
0.0
 11
105.697919
 21
170.352538
 31
0.0
  0
LINE
  5
3AFD
  8
0
 62
     0
 10
105.547919
 20
177.052538
 30
0.0
 11
107.047919
 21
177.052538
 31
0.0
  0
LINE
  5
3AFE
  8
0
 62
     0
 10
105.697919
 20
176.952538
 30
0.0
 11
107.047919
 21
176.952538
 31
0.0
  0
LINE
  5
3AFF
  8
0
 62
     0
 10
105.547919
 20
176.352538
 30
0.0
 11
105.697919
 21
176.352538
 31
0.0
  0
LINE
  5
3B00
  8
0
 62
     0
 10
105.547919
 20
175.952538
 30
0.0
 11
105.697919
 21
175.952538
 31
0.0
  0
LINE
  5
3B01
  8
0
 62
     0
 10
105.547919
 20
175.652538
 30
0.0
 11
105.697919
 21
175.652538
 31
0.0
  0
LINE
  5
3B02
  8
0
 62
     0
 10
113.047919
 20
167.252538
 30
0.0
 11
113.047919
 21
171.952538
 31
0.0
  0
LINE
  5
3B03
  8
0
 62
     0
 10
107.897919
 20
162.826242
 30
0.0
 11
108.247919
 21
162.654267
 31
0.0
  0
LINE
  5
3B04
  8
0
 62
     0
 10
109.297919
 20
170.552538
 30
0.0
 11
107.897919
 21
170.552538
 31
0.0
  0
LINE
  5
3B05
  8
0
 62
     0
 10
108.197919
 20
170.352538
 30
0.0
 11
108.197919
 21
170.552538
 31
0.0
  0
LINE
  5
3B06
  8
0
 62
     0
 10
110.047919
 20
170.352538
 30
0.0
 11
110.047919
 21
171.652538
 31
0.0
  0
LINE
  5
3B07
  8
0
 62
     0
 10
109.297919
 20
170.552538
 30
0.0
 11
109.297919
 21
171.952538
 31
0.0
  0
LINE
  5
3B08
  8
0
 62
     0
 10
111.047919
 20
171.652538
 30
0.0
 11
111.047919
 21
171.952538
 31
0.0
  0
LINE
  5
3B09
  8
0
 62
     0
 10
104.297919
 20
198.121284
 30
0.0
 11
94.797919
 21
198.121284
 31
0.0
  0
POLYLINE
  5
3B0A
  8
0
 62
     0
 66
     1
 10
0.0
 20
0.0
 30
0.0
  0
VERTEX
  5
4084
  8
0
 62
     0
 10
104.297919
 20
197.152538
 30
0.0
  0
VERTEX
  5
4085
  8
0
 62
     0
 10
101.155889
 20
197.000202
 30
0.0
  0
VERTEX
  5
4086
  8
0
 62
     0
 10
97.939948
 20
197.000202
 30
0.0
  0
VERTEX
  5
4087
  8
0
 62
     0
 10
94.797919
 20
197.152538
 30
0.0
  0
SEQEND
  5
4088
  8
0
 62
     0
  0
LINE
  5
3B0B
  8
0
 62
     0
 10
104.297919
 20
193.152538
 30
0.0
 11
94.797919
 21
193.152538
 31
0.0
  0
LINE
  5
3B0C
  8
0
 62
     0
 10
94.797919
 20
191.652538
 30
0.0
 11
104.297919
 21
191.652538
 31
0.0
  0
LINE
  5
3B0D
  8
0
 62
     0
 10
104.297919
 20
190.152538
 30
0.0
 11
94.797919
 21
190.152538
 31
0.0
  0
LINE
  5
3B0E
  8
0
 62
     0
 10
94.797919
 20
188.652538
 30
0.0
 11
104.297919
 21
188.652538
 31
0.0
  0
LINE
  5
3B0F
  8
0
 62
     0
 10
104.297919
 20
187.152538
 30
0.0
 11
94.797919
 21
187.152538
 31
0.0
  0
LINE
  5
3B10
  8
0
 62
     0
 10
94.797919
 20
185.652538
 30
0.0
 11
104.297919
 21
185.652538
 31
0.0
  0
LINE
  5
3B11
  8
0
 62
     0
 10
104.297919
 20
184.152538
 30
0.0
 11
94.797919
 21
184.152538
 31
0.0
  0
LINE
  5
3B12
  8
0
 62
     0
 10
94.797919
 20
182.652538
 30
0.0
 11
104.297919
 21
182.652538
 31
0.0
  0
LINE
  5
3B13
  8
0
 62
     0
 10
93.597919
 20
181.752538
 30
0.0
 11
91.597919
 21
181.752538
 31
0.0
  0
LINE
  5
3B14
  8
0
 62
     0
 10
93.597919
 20
179.952538
 30
0.0
 11
91.597919
 21
179.952538
 31
0.0
  0
LINE
  5
3B15
  8
0
 62
     0
 10
90.647919
 20
181.489183
 30
0.0
 11
90.547919
 21
181.489183
 31
0.0
  0
LINE
  5
3B16
  8
0
 62
     0
 10
90.647919
 20
180.501968
 30
0.0
 11
90.547919
 21
180.501968
 31
0.0
  0
LINE
  5
3B17
  8
0
 62
     0
 10
90.547919
 20
186.603454
 30
0.0
 11
90.647919
 21
186.603454
 31
0.0
  0
LINE
  5
3B18
  8
0
 62
     0
 10
96.047919
 20
190.152538
 30
0.0
 11
96.047919
 21
188.652538
 31
0.0
  0
LINE
  5
3B19
  8
0
 62
     0
 10
96.047919
 20
184.152538
 30
0.0
 11
96.047919
 21
182.652538
 31
0.0
  0
LINE
  5
3B1A
  8
0
 62
     0
 10
96.047919
 20
187.152538
 30
0.0
 11
96.047919
 21
185.652538
 31
0.0
  0
LINE
  5
3B1B
  8
0
 62
     0
 10
96.047919
 20
193.152538
 30
0.0
 11
96.047919
 21
191.652538
 31
0.0
  0
LINE
  5
3B1C
  8
0
 62
     0
 10
94.297919
 20
201.252538
 30
0.0
 11
101.797919
 21
201.252538
 31
0.0
  0
ARC
  5
3B1D
  8
0
 62
     0
 10
92.647919
 20
197.552538
 30
0.0
 40
3.9
 50
67.380135
 51
112.619865
  0
ARC
  5
3B1E
  8
0
 62
     0
 10
90.947919
 20
200.852538
 30
0.0
 40
0.3
 50
90.0
 51
180.0
  0
LINE
  5
3B1F
  8
0
 62
     0
 10
94.297919
 20
201.252538
 30
0.0
 11
94.297919
 21
201.152538
 31
0.0
  0
LINE
  5
3B20
  8
0
 62
     0
 10
101.797919
 20
201.252538
 30
0.0
 11
101.797919
 21
201.152538
 31
0.0
  0
LINE
  5
3B21
  8
0
 62
     0
 10
103.247919
 20
188.652538
 30
0.0
 11
103.247919
 21
190.152538
 31
0.0
  0
LINE
  5
3B22
  8
0
 62
     0
 10
103.047919
 20
188.652538
 30
0.0
 11
103.047919
 21
190.152538
 31
0.0
  0
LINE
  5
3B23
  8
0
 62
     0
 10
103.247919
 20
182.652538
 30
0.0
 11
103.247919
 21
184.152538
 31
0.0
  0
LINE
  5
3B24
  8
0
 62
     0
 10
103.047919
 20
182.652538
 30
0.0
 11
103.047919
 21
184.152538
 31
0.0
  0
LINE
  5
3B25
  8
0
 62
     0
 10
103.247919
 20
185.652538
 30
0.0
 11
103.247919
 21
187.152538
 31
0.0
  0
LINE
  5
3B26
  8
0
 62
     0
 10
103.047919
 20
185.652538
 30
0.0
 11
103.047919
 21
187.152538
 31
0.0
  0
LINE
  5
3B27
  8
0
 62
     0
 10
103.247919
 20
191.652538
 30
0.0
 11
103.247919
 21
193.152538
 31
0.0
  0
LINE
  5
3B28
  8
0
 62
     0
 10
103.047919
 20
191.652538
 30
0.0
 11
103.047919
 21
193.152538
 31
0.0
  0
LINE
  5
3B29
  8
0
 62
     0
 10
105.547919
 20
197.552538
 30
0.0
 11
107.047919
 21
197.552538
 31
0.0
  0
LINE
  5
3B2A
  8
0
 62
     0
 10
109.547919
 20
190.152538
 30
0.0
 11
109.547919
 21
188.652538
 31
0.0
  0
LINE
  5
3B2B
  8
0
 62
     0
 10
109.347919
 20
190.152538
 30
0.0
 11
109.347919
 21
188.652538
 31
0.0
  0
LINE
  5
3B2C
  8
0
 62
     0
 10
109.547919
 20
184.152538
 30
0.0
 11
109.547919
 21
182.652538
 31
0.0
  0
LINE
  5
3B2D
  8
0
 62
     0
 10
109.347919
 20
184.152538
 30
0.0
 11
109.347919
 21
182.652538
 31
0.0
  0
LINE
  5
3B2E
  8
0
 62
     0
 10
109.547919
 20
187.152538
 30
0.0
 11
109.547919
 21
185.652538
 31
0.0
  0
LINE
  5
3B2F
  8
0
 62
     0
 10
109.347919
 20
187.152538
 30
0.0
 11
109.347919
 21
185.652538
 31
0.0
  0
LINE
  5
3B30
  8
0
 62
     0
 10
109.547919
 20
193.152538
 30
0.0
 11
109.547919
 21
191.652538
 31
0.0
  0
LINE
  5
3B31
  8
0
 62
     0
 10
109.347919
 20
193.152538
 30
0.0
 11
109.347919
 21
191.652538
 31
0.0
  0
ARC
  5
3B32
  8
0
 62
     0
 10
103.897919
 20
197.552538
 30
0.0
 40
3.9
 50
67.380135
 51
112.619865
  0
LINE
  5
3B33
  8
0
 62
     0
 10
135.547919
 20
134.952538
 30
0.0
 11
135.547919
 21
186.603412
 31
0.0
  0
LINE
  5
3B34
  8
0
 62
     0
 10
135.047919
 20
134.952538
 30
0.0
 11
135.047919
 21
156.593817
 31
0.0
  0
LINE
  5
3B35
  8
0
 62
     0
 10
133.847919
 20
134.952538
 30
0.0
 11
133.847919
 21
149.206928
 31
0.0
  0
LINE
  5
3B36
  8
0
 62
     0
 10
133.547919
 20
149.010752
 30
0.0
 11
133.547919
 21
138.652538
 31
0.0
  0
LINE
  5
3B37
  8
0
 62
     0
 10
124.071919
 20
65.582538
 30
0.0
 11
123.921919
 21
62.082538
 31
0.0
  0
LINE
  5
3B38
  8
0
 62
     0
 10
116.771919
 20
65.582538
 30
0.0
 11
116.921919
 21
62.082538
 31
0.0
  0
LINE
  5
3B39
  8
0
 62
     0
 10
123.921919
 20
62.082538
 30
0.0
 11
116.921919
 21
62.082538
 31
0.0
  0
LINE
  5
3B3A
  8
0
 62
     0
 10
135.447919
 20
77.579285
 30
0.0
 11
135.447919
 21
115.452538
 31
0.0
  0
LINE
  5
3B3B
  8
0
 62
     0
 10
134.947919
 20
90.752538
 30
0.0
 11
134.947919
 21
105.452538
 31
0.0
  0
LINE
  5
3B3C
  8
0
 62
     0
 10
117.547919
 20
101.352538
 30
0.0
 11
117.547919
 21
97.552538
 31
0.0
  0
LINE
  5
3B3D
  8
0
 62
     0
 10
117.347919
 20
97.552538
 30
0.0
 11
117.347919
 21
101.352538
 31
0.0
  0
LINE
  5
3B3E
  8
0
 62
     0
 10
116.797919
 20
101.352538
 30
0.0
 11
116.797919
 21
97.552538
 31
0.0
  0
LINE
  5
3B3F
  8
0
 62
     0
 10
116.297919
 20
101.352538
 30
0.0
 11
116.297919
 21
97.552538
 31
0.0
  0
LINE
  5
3B40
  8
0
 62
     0
 10
115.747919
 20
101.352538
 30
0.0
 11
115.747919
 21
97.552538
 31
0.0
  0
LINE
  5
3B41
  8
0
 62
     0
 10
115.547919
 20
101.352538
 30
0.0
 11
115.547919
 21
97.552538
 31
0.0
  0
LINE
  5
3B42
  8
0
 62
     0
 10
134.261445
 20
94.252538
 30
0.0
 11
116.947919
 21
94.252538
 31
0.0
  0
LINE
  5
3B43
  8
0
 62
     0
 10
120.972919
 20
92.452538
 30
0.0
 11
130.872919
 21
92.452538
 31
0.0
  0
LINE
  5
3B44
  8
0
 62
     0
 10
120.972919
 20
91.041229
 30
0.0
 11
130.872919
 21
91.041229
 31
0.0
  0
LINE
  5
3B45
  8
0
 62
     0
 10
135.447919
 20
90.752538
 30
0.0
 11
116.947919
 21
90.752538
 31
0.0
  0
LINE
  5
3B46
  8
0
 62
     0
 10
134.897919
 20
90.002538
 30
0.0
 11
116.947919
 21
90.002538
 31
0.0
  0
POLYLINE
  5
3B47
  8
0
 62
     0
 66
     1
 10
0.0
 20
0.0
 30
0.0
  0
VERTEX
  5
4089
  8
0
 62
     0
 10
118.330009
 20
75.498373
 30
0.0
  0
VERTEX
  5
408A
  8
0
 62
     0
 10
123.153478
 20
75.785642
 30
0.0
  0
VERTEX
  5
408B
  8
0
 62
     0
 10
129.199343
 20
76.457247
 30
0.0
  0
VERTEX
  5
408C
  8
0
 62
     0
 10
135.202969
 20
77.437056
 30
0.0
  0
SEQEND
  5
408D
  8
0
 62
     0
  0
POLYLINE
  5
3B48
  8
0
 62
     0
 66
     1
 10
0.0
 20
0.0
 30
0.0
  0
VERTEX
  5
408E
  8
0
 62
     0
 10
121.777777
 20
78.705129
 30
0.0
  0
VERTEX
  5
408F
  8
0
 62
     0
 10
121.818849
 20
78.707675
 30
0.0
  0
VERTEX
  5
4090
  8
0
 62
     0
 10
125.096465
 20
78.99891
 30
0.0
  0
VERTEX
  5
4091
  8
0
 62
     0
 10
128.697628
 20
79.42592
 30
0.0
  0
VERTEX
  5
4092
  8
0
 62
     0
 10
132.656474
 20
80.02616
 30
0.0
  0
SEQEND
  5
4093
  8
0
 62
     0
  0
LINE
  5
3B49
  8
0
 62
     0
 10
121.771695
 20
78.356673
 30
0.0
 11
125.956954
 21
78.693629
 31
0.0
  0
POLYLINE
  5
3B4A
  8
0
 62
     0
 66
     1
 10
0.0
 20
0.0
 30
0.0
  0
VERTEX
  5
4094
  8
0
 62
     0
 10
121.577865
 20
76.653423
 30
0.0
  0
VERTEX
  5
4095
  8
0
 62
     0
 10
126.052448
 20
77.013399
 30
0.0
  0
VERTEX
  5
4096
  8
0
 62
     0
 10
132.937863
 20
77.975399
 30
0.0
  0
SEQEND
  5
4097
  8
0
 62
     0
  0
LINE
  5
3B4B
  8
0
 62
     0
 10
123.671102
 20
78.540153
 30
0.0
 11
128.415393
 21
79.064598
 31
0.0
  0
POLYLINE
  5
3B4C
  8
0
 62
     0
 66
     1
 10
0.0
 20
0.0
 30
0.0
  0
VERTEX
  5
4098
  8
0
 62
     0
 10
132.643814
 20
80.282654
 30
0.0
  0
VERTEX
  5
4099
  8
0
 62
     0
 10
127.172791
 20
79.488441
 30
0.0
  0
VERTEX
  5
409A
  8
0
 62
     0
 10
121.782281
 20
78.963129
 30
0.0
  0
SEQEND
  5
409B
  8
0
 62
     0
  0
POLYLINE
  5
3B4D
  8
0
 62
     0
 66
     1
 10
0.0
 20
0.0
 30
0.0
  0
VERTEX
  5
409C
  8
0
 62
     0
 10
118.828956
 20
83.051929
 30
0.0
  0
VERTEX
  5
409D
  8
0
 62
     0
 10
118.772186
 20
82.402489
 30
0.0
  0
VERTEX
  5
409E
  8
0
 62
     0
 10
118.586801
 20
81.74148
 30
0.0
  0
VERTEX
  5
409F
  8
0
 62
     0
 10
118.278829
 20
81.130035
 30
0.0
  0
VERTEX
  5
40A0
  8
0
 62
     0
 10
117.859628
 20
80.592651
 30
0.0
  0
VERTEX
  5
40A1
  8
0
 62
     0
 10
117.345389
 20
80.151008
 30
0.0
  0
VERTEX
  5
40A2
  8
0
 62
     0
 10
116.756133
 20
79.822678
 30
0.0
  0
VERTEX
  5
40A3
  8
0
 62
     0
 10
116.114902
 20
79.620586
 30
0.0
  0
VERTEX
  5
40A4
  8
0
 62
     0
 10
115.449002
 20
79.55255
 30
0.0
  0
SEQEND
  5
40A5
  8
0
 62
     0
  0
LINE
  5
3B4E
  8
0
 62
     0
 10
121.748449
 20
77.024946
 30
0.0
 11
121.94222
 21
88.126062
 31
0.0
  0
LINE
  5
3B4F
  8
0
 62
     0
 10
121.703793
 20
77.863674
 30
0.0
 11
121.881999
 21
88.12535
 31
0.0
  0
LINE
  5
3B50
  8
0
 62
     0
 10
121.573148
 20
76.381901
 30
0.0
 11
121.776753
 21
88.102595
 31
0.0
  0
LINE
  5
3B51
  8
0
 62
     0
 10
121.083171
 20
77.863674
 30
0.0
 11
121.256983
 21
88.12535
 31
0.0
  0
POLYLINE
  5
3B52
  8
0
 62
     0
 66
     1
 10
0.0
 20
0.0
 30
0.0
  0
VERTEX
  5
40A6
  8
0
 62
     0
 10
120.599336
 20
77.023009
 30
0.0
  0
VERTEX
  5
40A7
  8
0
 62
     0
 10
120.639035
 20
80.730414
 30
0.0
  0
VERTEX
  5
40A8
  8
0
 62
     0
 10
120.678471
 20
84.431496
 30
0.0
  0
VERTEX
  5
40A9
  8
0
 62
     0
 10
120.717646
 20
88.126254
 30
0.0
  0
SEQEND
  5
40AA
  8
0
 62
     0
  0
POLYLINE
  5
3B53
  8
0
 62
     0
 66
     1
 10
0.0
 20
0.0
 30
0.0
  0
VERTEX
  5
40AB
  8
0
 62
     0
 10
120.356357
 20
77.023043
 30
0.0
  0
VERTEX
  5
40AC
  8
0
 62
     0
 10
120.396196
 20
80.730978
 30
0.0
  0
VERTEX
  5
40AD
  8
0
 62
     0
 10
120.435773
 20
84.43262
 30
0.0
  0
VERTEX
  5
40AE
  8
0
 62
     0
 10
120.475089
 20
88.127936
 30
0.0
  0
SEQEND
  5
40AF
  8
0
 62
     0
  0
LINE
  5
3B54
  8
0
 62
     0
 10
118.537784
 20
81.644161
 30
0.0
 11
118.537784
 21
84.442852
 31
0.0
  0
POLYLINE
  5
3B55
  8
0
 62
     0
 66
     1
 10
0.0
 20
0.0
 30
0.0
  0
VERTEX
  5
40B0
  8
0
 62
     0
 10
119.33342
 20
75.711599
 30
0.0
  0
VERTEX
  5
40B1
  8
0
 62
     0
 10
119.504677
 20
75.946917
 30
0.0
  0
VERTEX
  5
40B2
  8
0
 62
     0
 10
119.678355
 20
76.184405
 30
0.0
  0
SEQEND
  5
40B3
  8
0
 62
     0
  0
LINE
  5
3B56
  8
0
 62
     0
 10
119.796783
 20
75.711599
 30
0.0
 11
119.33342
 21
75.711599
 31
0.0
  0
LINE
  5
3B57
  8
0
 62
     0
 10
116.647486
 20
75.911852
 30
0.0
 11
120.461821
 21
76.833111
 31
0.0
  0
POLYLINE
  5
3B58
  8
0
 62
     0
 66
     1
 10
0.0
 20
0.0
 30
0.0
  0
VERTEX
  5
40B4
  8
0
 62
     0
 10
117.608881
 20
76.070694
 30
0.0
  0
VERTEX
  5
40B5
  8
0
 62
     0
 10
118.556895
 20
76.304713
 30
0.0
  0
VERTEX
  5
40B6
  8
0
 62
     0
 10
119.578536
 20
76.567585
 30
0.0
  0
SEQEND
  5
40B7
  8
0
 62
     0
  0
LINE
  5
3B59
  8
0
 62
     0
 10
122.921919
 20
70.082538
 30
0.0
 11
117.921919
 21
70.082538
 31
0.0
  0
LINE
  5
3B5A
  8
0
 62
     0
 10
122.921919
 20
69.582538
 30
0.0
 11
117.921919
 21
69.582538
 31
0.0
  0
LINE
  5
3B5B
  8
0
 62
     0
 10
122.921919
 20
64.582538
 30
0.0
 11
117.921919
 21
64.582538
 31
0.0
  0
LINE
  5
3B5C
  8
0
 62
     0
 10
122.921919
 20
64.082538
 30
0.0
 11
117.921919
 21
64.082538
 31
0.0
  0
LINE
  5
3B5D
  8
0
 62
     0
 10
116.355162
 20
75.306871
 30
0.0
 11
116.651919
 21
68.382538
 31
0.0
  0
LINE
  5
3B5E
  8
0
 62
     0
 10
116.673347
 20
67.882538
 30
0.0
 11
116.75049
 21
66.082538
 31
0.0
  0
LINE
  5
3B5F
  8
0
 62
     0
 10
117.921919
 20
64.582538
 30
0.0
 11
117.921919
 21
64.082538
 31
0.0
  0
LINE
  5
3B60
  8
0
 62
     0
 10
117.762502
 20
65.582538
 30
0.0
 11
117.733167
 21
66.082538
 31
0.0
  0
LINE
  5
3B61
  8
0
 62
     0
 10
117.733167
 20
66.082538
 30
0.0
 11
116.75049
 21
66.082538
 31
0.0
  0
LINE
  5
3B62
  8
0
 62
     0
 10
117.762502
 20
65.582538
 30
0.0
 11
116.771919
 21
65.582538
 31
0.0
  0
LINE
  5
3B63
  8
0
 62
     0
 10
117.921919
 20
70.082538
 30
0.0
 11
117.921919
 21
69.582538
 31
0.0
  0
LINE
  5
3B64
  8
0
 62
     0
 10
117.628751
 20
67.882538
 30
0.0
 11
117.600058
 21
68.382538
 31
0.0
  0
LINE
  5
3B65
  8
0
 62
     0
 10
117.600058
 20
68.382538
 30
0.0
 11
116.651919
 21
68.382538
 31
0.0
  0
LINE
  5
3B66
  8
0
 62
     0
 10
117.628751
 20
67.882538
 30
0.0
 11
116.673347
 21
67.882538
 31
0.0
  0
POLYLINE
  5
3B67
  8
0
 62
     0
 66
     1
 10
0.0
 20
0.0
 30
0.0
  0
VERTEX
  5
40B8
  8
0
 62
     0
 10
114.673733
 20
75.403916
 30
0.0
  0
VERTEX
  5
40B9
  8
0
 62
     0
 10
117.081185
 20
75.423997
 30
0.0
  0
VERTEX
  5
40BA
  8
0
 62
     0
 10
117.852459
 20
75.469931
 30
0.0
  0
SEQEND
  5
40BB
  8
0
 62
     0
  0
LINE
  5
3B68
  8
0
 62
     0
 10
117.655348
 20
75.911854
 30
0.0
 11
113.70401
 21
75.215555
 31
0.0
  0
LINE
  5
3B69
  8
0
 62
     0
 10
115.448049
 20
79.552538
 30
0.0
 11
115.449001
 21
79.552538
 31
0.0
  0
POLYLINE
  5
3B6A
  8
0
 62
     0
 66
     1
 10
0.0
 20
0.0
 30
0.0
  0
VERTEX
  5
40BC
  8
0
 62
     0
 10
117.974488
 20
75.357021
 30
0.0
  0
VERTEX
  5
40BD
  8
0
 62
     0
 10
117.983585
 20
75.370269
 30
0.0
  0
VERTEX
  5
40BE
  8
0
 62
     0
 10
117.992825
 20
75.383671
 30
0.0
  0
VERTEX
  5
40BF
  8
0
 62
     0
 10
118.002209
 20
75.397226
 30
0.0
  0
SEQEND
  5
40C0
  8
0
 62
     0
  0
LINE
  5
3B6B
  8
0
 62
     0
 10
118.210579
 20
75.357021
 30
0.0
 11
117.974488
 21
75.357021
 31
0.0
  0
POLYLINE
  5
3B6C
  8
0
 62
     0
 66
     1
 10
0.0
 20
0.0
 30
0.0
  0
VERTEX
  5
40C1
  8
0
 62
     0
 10
116.824241
 20
75.858132
 30
0.0
  0
VERTEX
  5
40C2
  8
0
 62
     0
 10
116.835644
 20
75.865617
 30
0.0
  0
VERTEX
  5
40C3
  8
0
 62
     0
 10
116.859339
 20
75.875511
 30
0.0
  0
VERTEX
  5
40C4
  8
0
 62
     0
 10
116.895416
 20
75.887853
 30
0.0
  0
VERTEX
  5
40C5
  8
0
 62
     0
 10
116.943601
 20
75.90256
 30
0.0
  0
VERTEX
  5
40C6
  8
0
 62
     0
 10
117.004566
 20
75.919839
 30
0.0
  0
VERTEX
  5
40C7
  8
0
 62
     0
 10
117.077985
 20
75.939596
 30
0.0
  0
VERTEX
  5
40C8
  8
0
 62
     0
 10
117.161618
 20
75.961275
 30
0.0
  0
VERTEX
  5
40C9
  8
0
 62
     0
 10
117.255836
 20
75.985027
 30
0.0
  0
VERTEX
  5
40CA
  8
0
 62
     0
 10
117.361315
 20
76.011055
 30
0.0
  0
VERTEX
  5
40CB
  8
0
 62
     0
 10
117.478728
 20
76.039542
 30
0.0
  0
VERTEX
  5
40CC
  8
0
 62
     0
 10
117.608881
 20
76.070694
 30
0.0
  0
SEQEND
  5
40CD
  8
0
 62
     0
  0
LINE
  5
3B6D
  8
0
 62
     0
 10
117.707881
 20
75.640017
 30
0.0
 11
117.707881
 21
76.095132
 31
0.0
  0
POLYLINE
  5
3B6E
  8
0
 62
     0
 66
     1
 10
0.0
 20
0.0
 30
0.0
  0
VERTEX
  5
40CE
  8
0
 62
     0
 10
117.974488
 20
75.357021
 30
0.0
  0
VERTEX
  5
40CF
  8
0
 62
     0
 10
117.843822
 20
75.477923
 30
0.0
  0
VERTEX
  5
40D0
  8
0
 62
     0
 10
117.758715
 20
75.565859
 30
0.0
  0
VERTEX
  5
40D1
  8
0
 62
     0
 10
117.715615
 20
75.622037
 30
0.0
  0
VERTEX
  5
40D2
  8
0
 62
     0
 10
117.707867
 20
75.643125
 30
0.0
  0
SEQEND
  5
40D3
  8
0
 62
     0
  0
POLYLINE
  5
3B6F
  8
0
 62
     0
 66
     1
 10
0.0
 20
0.0
 30
0.0
  0
VERTEX
  5
40D4
  8
0
 62
     0
 10
117.707881
 20
75.9786
 30
0.0
  0
VERTEX
  5
40D5
  8
0
 62
     0
 10
117.615635
 20
75.961709
 30
0.0
  0
VERTEX
  5
40D6
  8
0
 62
     0
 10
117.493013
 20
75.939979
 30
0.0
  0
VERTEX
  5
40D7
  8
0
 62
     0
 10
117.376745
 20
75.920115
 30
0.0
  0
VERTEX
  5
40D8
  8
0
 62
     0
 10
117.270693
 20
75.90274
 30
0.0
  0
VERTEX
  5
40D9
  8
0
 62
     0
 10
117.176075
 20
75.887981
 30
0.0
  0
VERTEX
  5
40DA
  8
0
 62
     0
 10
117.091776
 20
75.875603
 30
0.0
  0
VERTEX
  5
40DB
  8
0
 62
     0
 10
117.018645
 20
75.865689
 30
0.0
  0
VERTEX
  5
40DC
  8
0
 62
     0
 10
116.956245
 20
75.858151
 30
0.0
  0
VERTEX
  5
40DD
  8
0
 62
     0
 10
116.90533
 20
75.853072
 30
0.0
  0
VERTEX
  5
40DE
  8
0
 62
     0
 10
116.866188
 20
75.850488
 30
0.0
  0
VERTEX
  5
40DF
  8
0
 62
     0
 10
116.839192
 20
75.850473
 30
0.0
  0
VERTEX
  5
40E0
  8
0
 62
     0
 10
116.825335
 20
75.85303
 30
0.0
  0
VERTEX
  5
40E1
  8
0
 62
     0
 10
116.824241
 20
75.858132
 30
0.0
  0
SEQEND
  5
40E2
  8
0
 62
     0
  0
LINE
  5
3B70
  8
0
 62
     0
 10
117.707881
 20
75.924127
 30
0.0
 11
117.655348
 21
75.911854
 31
0.0
  0
LINE
  5
3B71
  8
0
 62
     0
 10
118.244728
 20
75.397226
 30
0.0
 11
118.210579
 21
75.357021
 31
0.0
  0
POLYLINE
  5
3B72
  8
0
 62
     0
 66
     1
 10
0.0
 20
0.0
 30
0.0
  0
VERTEX
  5
40E3
  8
0
 62
     0
 10
118.480364
 20
75.67702
 30
0.0
  0
VERTEX
  5
40E4
  8
0
 62
     0
 10
118.425629
 20
75.611781
 30
0.0
  0
VERTEX
  5
40E5
  8
0
 62
     0
 10
118.244728
 20
75.397226
 30
0.0
  0
SEQEND
  5
40E6
  8
0
 62
     0
  0
POLYLINE
  5
3B73
  8
0
 62
     0
 66
     1
 10
0.0
 20
0.0
 30
0.0
  0
VERTEX
  5
40E7
  8
0
 62
     0
 10
119.230051
 20
75.798738
 30
0.0
  0
VERTEX
  5
40E8
  8
0
 62
     0
 10
119.205723
 20
75.769157
 30
0.0
  0
VERTEX
  5
40E9
  8
0
 62
     0
 10
119.011657
 20
75.53431
 30
0.0
  0
SEQEND
  5
40EA
  8
0
 62
     0
  0
POLYLINE
  5
3B74
  8
0
 62
     0
 66
     1
 10
0.0
 20
0.0
 30
0.0
  0
VERTEX
  5
40EB
  8
0
 62
     0
 10
118.645978
 20
75.53431
 30
0.0
  0
VERTEX
  5
40EC
  8
0
 62
     0
 10
118.813302
 20
75.769157
 30
0.0
  0
VERTEX
  5
40ED
  8
0
 62
     0
 10
118.98378
 20
76.007116
 30
0.0
  0
SEQEND
  5
40EE
  8
0
 62
     0
  0
POLYLINE
  5
3B75
  8
0
 62
     0
 66
     1
 10
0.0
 20
0.0
 30
0.0
  0
VERTEX
  5
40EF
  8
0
 62
     0
 10
118.002209
 20
75.397226
 30
0.0
  0
VERTEX
  5
40F0
  8
0
 62
     0
 10
118.151472
 20
75.611781
 30
0.0
  0
VERTEX
  5
40F1
  8
0
 62
     0
 10
118.304068
 20
75.829827
 30
0.0
  0
SEQEND
  5
40F2
  8
0
 62
     0
  0
LINE
  5
3B76
  8
0
 62
     0
 10
118.002209
 20
75.397226
 30
0.0
 11
118.002209
 21
76.167787
 31
0.0
  0
POLYLINE
  5
3B77
  8
0
 62
     0
 66
     1
 10
0.0
 20
0.0
 30
0.0
  0
VERTEX
  5
40F3
  8
0
 62
     0
 10
118.304068
 20
75.829827
 30
0.0
  0
VERTEX
  5
40F4
  8
0
 62
     0
 10
118.473051
 20
75.683323
 30
0.0
  0
VERTEX
  5
40F5
  8
0
 62
     0
 10
118.645978
 20
75.53431
 30
0.0
  0
SEQEND
  5
40F6
  8
0
 62
     0
  0
POLYLINE
  5
3B78
  8
0
 62
     0
 66
     1
 10
0.0
 20
0.0
 30
0.0
  0
VERTEX
  5
40F7
  8
0
 62
     0
 10
118.98378
 20
76.007116
 30
0.0
  0
VERTEX
  5
40F8
  8
0
 62
     0
 10
119.157047
 20
75.86028
 30
0.0
  0
VERTEX
  5
40F9
  8
0
 62
     0
 10
119.33342
 20
75.711599
 30
0.0
  0
SEQEND
  5
40FA
  8
0
 62
     0
  0
LINE
  5
3B79
  8
0
 62
     0
 10
119.011657
 20
75.53431
 30
0.0
 11
118.645978
 21
75.53431
 31
0.0
  0
LINE
  5
3B7A
  8
0
 62
     0
 10
124.510457
 20
75.815108
 30
0.0
 11
124.191919
 21
68.382538
 31
0.0
  0
LINE
  5
3B7B
  8
0
 62
     0
 10
124.17049
 20
67.882538
 30
0.0
 11
124.093347
 21
66.082538
 31
0.0
  0
LINE
  5
3B7C
  8
0
 62
     0
 10
124.093347
 20
66.082538
 30
0.0
 11
123.110671
 21
66.082538
 31
0.0
  0
LINE
  5
3B7D
  8
0
 62
     0
 10
124.071919
 20
65.582538
 30
0.0
 11
123.081336
 21
65.582538
 31
0.0
  0
LINE
  5
3B7E
  8
0
 62
     0
 10
123.110671
 20
66.082538
 30
0.0
 11
123.081336
 21
65.582538
 31
0.0
  0
LINE
  5
3B7F
  8
0
 62
     0
 10
122.921919
 20
64.082538
 30
0.0
 11
122.921919
 21
64.582538
 31
0.0
  0
LINE
  5
3B80
  8
0
 62
     0
 10
124.191919
 20
68.382538
 30
0.0
 11
123.24378
 21
68.382538
 31
0.0
  0
LINE
  5
3B81
  8
0
 62
     0
 10
124.17049
 20
67.882538
 30
0.0
 11
123.215087
 21
67.882538
 31
0.0
  0
LINE
  5
3B82
  8
0
 62
     0
 10
123.24378
 20
68.382538
 30
0.0
 11
123.215087
 21
67.882538
 31
0.0
  0
LINE
  5
3B83
  8
0
 62
     0
 10
122.921919
 20
69.582538
 30
0.0
 11
122.921919
 21
70.082538
 31
0.0
  0
LINE
  5
3B84
  8
0
 62
     0
 10
121.608224
 20
78.401041
 30
0.0
 11
123.671102
 21
78.540153
 31
0.0
  0
POLYLINE
  5
3B85
  8
0
 62
     0
 66
     1
 10
0.0
 20
0.0
 30
0.0
  0
VERTEX
  5
40FB
  8
0
 62
     0
 10
121.598623
 20
76.833112
 30
0.0
  0
VERTEX
  5
40FC
  8
0
 62
     0
 10
121.657791
 20
76.859237
 30
0.0
  0
VERTEX
  5
40FD
  8
0
 62
     0
 10
121.705513
 20
76.902864
 30
0.0
  0
VERTEX
  5
40FE
  8
0
 62
     0
 10
121.736795
 20
76.959427
 30
0.0
  0
VERTEX
  5
40FF
  8
0
 62
     0
 10
121.747931
 20
77.012892
 30
0.0
  0
SEQEND
  5
4100
  8
0
 62
     0
  0
POLYLINE
  5
3B86
  8
0
 62
     0
 66
     1
 10
0.0
 20
0.0
 30
0.0
  0
VERTEX
  5
4101
  8
0
 62
     0
 10
121.590688
 20
76.859191
 30
0.0
  0
VERTEX
  5
4102
  8
0
 62
     0
 10
121.647347
 20
76.884666
 30
0.0
  0
VERTEX
  5
4103
  8
0
 62
     0
 10
121.695379
 20
76.930382
 30
0.0
  0
VERTEX
  5
4104
  8
0
 62
     0
 10
121.72489
 20
76.988165
 30
0.0
  0
VERTEX
  5
4105
  8
0
 62
     0
 10
121.734556
 20
77.054932
 30
0.0
  0
SEQEND
  5
4106
  8
0
 62
     0
  0
POLYLINE
  5
3B87
  8
0
 62
     0
 66
     1
 10
0.0
 20
0.0
 30
0.0
  0
VERTEX
  5
4107
  8
0
 62
     0
 10
120.461817
 20
76.833112
 30
0.0
  0
VERTEX
  5
4108
  8
0
 62
     0
 10
120.517174
 20
76.85939
 30
0.0
  0
VERTEX
  5
4109
  8
0
 62
     0
 10
120.561751
 20
76.903892
 30
0.0
  0
VERTEX
  5
410A
  8
0
 62
     0
 10
120.589819
 20
76.960401
 30
0.0
  0
VERTEX
  5
410B
  8
0
 62
     0
 10
120.599336
 20
77.023009
 30
0.0
  0
SEQEND
  5
410C
  8
0
 62
     0
  0
POLYLINE
  5
3B88
  8
0
 62
     0
 66
     1
 10
0.0
 20
0.0
 30
0.0
  0
VERTEX
  5
410D
  8
0
 62
     0
 10
120.853265
 20
77.054932
 30
0.0
  0
VERTEX
  5
410E
  8
0
 62
     0
 10
120.823421
 20
76.988165
 30
0.0
  0
VERTEX
  5
410F
  8
0
 62
     0
 10
120.778918
 20
76.930382
 30
0.0
  0
VERTEX
  5
4110
  8
0
 62
     0
 10
120.721972
 20
76.884666
 30
0.0
  0
VERTEX
  5
4111
  8
0
 62
     0
 10
120.663979
 20
76.859191
 30
0.0
  0
SEQEND
  5
4112
  8
0
 62
     0
  0
POLYLINE
  5
3B89
  8
0
 62
     0
 66
     1
 10
0.0
 20
0.0
 30
0.0
  0
VERTEX
  5
4113
  8
0
 62
     0
 10
121.74205
 20
76.976527
 30
0.0
  0
VERTEX
  5
4114
  8
0
 62
     0
 10
121.728299
 20
76.939125
 30
0.0
  0
VERTEX
  5
4115
  8
0
 62
     0
 10
121.707505
 20
76.905324
 30
0.0
  0
VERTEX
  5
4116
  8
0
 62
     0
 10
121.682861
 20
76.87845
 30
0.0
  0
VERTEX
  5
4117
  8
0
 62
     0
 10
121.652791
 20
76.855908
 30
0.0
  0
VERTEX
  5
4118
  8
0
 62
     0
 10
121.624746
 20
76.841647
 30
0.0
  0
VERTEX
  5
4119
  8
0
 62
     0
 10
121.599378
 20
76.833107
 30
0.0
  0
SEQEND
  5
411A
  8
0
 62
     0
  0
LINE
  5
3B8A
  8
0
 62
     0
 10
120.988036
 20
76.381901
 30
0.0
 11
121.00847
 21
77.589617
 31
0.0
  0
POLYLINE
  5
3B8B
  8
0
 62
     0
 66
     1
 10
0.0
 20
0.0
 30
0.0
  0
VERTEX
  5
411B
  8
0
 62
     0
 10
120.356356
 20
77.023009
 30
0.0
  0
VERTEX
  5
411C
  8
0
 62
     0
 10
120.3795
 20
76.949337
 30
0.0
  0
VERTEX
  5
411D
  8
0
 62
     0
 10
120.407832
 20
76.886846
 30
0.0
  0
VERTEX
  5
411E
  8
0
 62
     0
 10
120.436766
 20
76.845994
 30
0.0
  0
VERTEX
  5
411F
  8
0
 62
     0
 10
120.461817
 20
76.833112
 30
0.0
  0
SEQEND
  5
4120
  8
0
 62
     0
  0
POLYLINE
  5
3B8C
  8
0
 62
     0
 66
     1
 10
0.0
 20
0.0
 30
0.0
  0
VERTEX
  5
4121
  8
0
 62
     0
 10
120.749532
 20
76.066177
 30
0.0
  0
VERTEX
  5
4122
  8
0
 62
     0
 10
120.868495
 20
76.223879
 30
0.0
  0
VERTEX
  5
4123
  8
0
 62
     0
 10
120.988036
 20
76.381901
 30
0.0
  0
SEQEND
  5
4124
  8
0
 62
     0
  0
LINE
  5
3B8D
  8
0
 62
     0
 10
121.325806
 20
76.066177
 30
0.0
 11
120.749532
 21
76.066177
 31
0.0
  0
LINE
  5
3B8E
  8
0
 62
     0
 10
119.978027
 20
75.935064
 30
0.0
 11
119.796783
 21
75.711599
 31
0.0
  0
LINE
  5
3B8F
  8
0
 62
     0
 10
120.724826
 20
76.08587
 30
0.0
 11
120.56781
 21
75.888888
 31
0.0
  0
POLYLINE
  5
3B90
  8
0
 62
     0
 66
     1
 10
0.0
 20
0.0
 30
0.0
  0
VERTEX
  5
4125
  8
0
 62
     0
 10
120.03496
 20
75.888888
 30
0.0
  0
VERTEX
  5
4126
  8
0
 62
     0
 10
120.20979
 20
76.124596
 30
0.0
  0
VERTEX
  5
4127
  8
0
 62
     0
 10
120.386436
 20
76.361694
 30
0.0
  0
SEQEND
  5
4128
  8
0
 62
     0
  0
POLYLINE
  5
3B91
  8
0
 62
     0
 66
     1
 10
0.0
 20
0.0
 30
0.0
  0
VERTEX
  5
4129
  8
0
 62
     0
 10
119.678355
 20
76.184405
 30
0.0
  0
VERTEX
  5
412A
  8
0
 62
     0
 10
119.855474
 20
76.037277
 30
0.0
  0
VERTEX
  5
412B
  8
0
 62
     0
 10
120.03496
 20
75.888888
 30
0.0
  0
SEQEND
  5
412C
  8
0
 62
     0
  0
POLYLINE
  5
3B92
  8
0
 62
     0
 66
     1
 10
0.0
 20
0.0
 30
0.0
  0
VERTEX
  5
412D
  8
0
 62
     0
 10
120.386436
 20
76.361694
 30
0.0
  0
VERTEX
  5
412E
  8
0
 62
     0
 10
120.56713
 20
76.214304
 30
0.0
  0
VERTEX
  5
412F
  8
0
 62
     0
 10
120.749532
 20
76.066177
 30
0.0
  0
SEQEND
  5
4130
  8
0
 62
     0
  0
LINE
  5
3B93
  8
0
 62
     0
 10
120.56781
 20
75.888888
 30
0.0
 11
120.03496
 21
75.888888
 31
0.0
  0
POLYLINE
  5
3B94
  8
0
 62
     0
 66
     1
 10
0.0
 20
0.0
 30
0.0
  0
VERTEX
  5
4131
  8
0
 62
     0
 10
120.663978
 20
76.859194
 30
0.0
  0
VERTEX
  5
4132
  8
0
 62
     0
 10
120.565352
 20
76.846805
 30
0.0
  0
VERTEX
  5
4133
  8
0
 62
     0
 10
120.461821
 20
76.833111
 30
0.0
  0
SEQEND
  5
4134
  8
0
 62
     0
  0
LINE
  5
3B95
  8
0
 62
     0
 10
119.578536
 20
76.567585
 30
0.0
 11
120.663978
 21
76.859194
 31
0.0
  0
POLYLINE
  5
3B96
  8
0
 62
     0
 66
     1
 10
0.0
 20
0.0
 30
0.0
  0
VERTEX
  5
4135
  8
0
 62
     0
 10
120.988036
 20
76.381901
 30
0.0
  0
VERTEX
  5
4136
  8
0
 62
     0
 10
121.254822
 20
76.474975
 30
0.0
  0
VERTEX
  5
4137
  8
0
 62
     0
 10
121.449588
 20
76.474975
 30
0.0
  0
VERTEX
  5
4138
  8
0
 62
     0
 10
121.573148
 20
76.381901
 30
0.0
  0
SEQEND
  5
4139
  8
0
 62
     0
  0
POLYLINE
  5
3B97
  8
0
 62
     0
 66
     1
 10
0.0
 20
0.0
 30
0.0
  0
VERTEX
  5
413A
  8
0
 62
     0
 10
121.573148
 20
76.381901
 30
0.0
  0
VERTEX
  5
413B
  8
0
 62
     0
 10
121.44952
 20
76.223879
 30
0.0
  0
VERTEX
  5
413C
  8
0
 62
     0
 10
121.325806
 20
76.066177
 30
0.0
  0
SEQEND
  5
413D
  8
0
 62
     0
  0
POLYLINE
  5
3B98
  8
0
 62
     0
 66
     1
 10
0.0
 20
0.0
 30
0.0
  0
VERTEX
  5
413E
  8
0
 62
     0
 10
121.598614
 20
76.833111
 30
0.0
  0
VERTEX
  5
413F
  8
0
 62
     0
 10
121.597191
 20
76.846805
 30
0.0
  0
VERTEX
  5
4140
  8
0
 62
     0
 10
121.590688
 20
76.859194
 30
0.0
  0
SEQEND
  5
4141
  8
0
 62
     0
  0
LINE
  5
3B99
  8
0
 62
     0
 10
121.599378
 20
76.833107
 30
0.0
 11
121.598623
 21
76.833112
 31
0.0
  0
LINE
  5
3B9A
  8
0
 62
     0
 10
121.580913
 20
76.828874
 30
0.0
 11
121.599203
 21
76.833062
 31
0.0
  0
LINE
  5
3B9B
  8
0
 62
     0
 10
121.598614
 20
76.833111
 30
0.0
 11
121.580915
 21
76.828976
 31
0.0
  0
LINE
  5
3B9C
  8
0
 62
     0
 10
121.590688
 20
76.859194
 30
0.0
 11
121.581399
 21
76.856846
 31
0.0
  0
POLYLINE
  5
3B9D
  8
0
 62
     0
 66
     1
 10
0.0
 20
0.0
 30
0.0
  0
VERTEX
  5
4142
  8
0
 62
     0
 10
120.853275
 20
77.054932
 30
0.0
  0
VERTEX
  5
4143
  8
0
 62
     0
 10
120.933119
 20
77.324567
 30
0.0
  0
VERTEX
  5
4144
  8
0
 62
     0
 10
121.009756
 20
77.594141
 30
0.0
  0
VERTEX
  5
4145
  8
0
 62
     0
 10
121.083171
 20
77.863674
 30
0.0
  0
SEQEND
  5
4146
  8
0
 62
     0
  0
POLYLINE
  5
3B9E
  8
0
 62
     0
 66
     1
 10
0.0
 20
0.0
 30
0.0
  0
VERTEX
  5
4147
  8
0
 62
     0
 10
120.356356
 20
77.023009
 30
0.0
  0
VERTEX
  5
4148
  8
0
 62
     0
 10
120.430542
 20
77.022062
 30
0.0
  0
VERTEX
  5
4149
  8
0
 62
     0
 10
120.502097
 20
77.021732
 30
0.0
  0
VERTEX
  5
414A
  8
0
 62
     0
 10
120.561091
 20
77.022062
 30
0.0
  0
VERTEX
  5
414B
  8
0
 62
     0
 10
120.599336
 20
77.023009
 30
0.0
  0
SEQEND
  5
414C
  8
0
 62
     0
  0
POLYLINE
  5
3B9F
  8
0
 62
     0
 66
     1
 10
0.0
 20
0.0
 30
0.0
  0
VERTEX
  5
414D
  8
0
 62
     0
 10
120.853275
 20
77.054932
 30
0.0
  0
VERTEX
  5
414E
  8
0
 62
     0
 10
120.730159
 20
77.039992
 30
0.0
  0
VERTEX
  5
414F
  8
0
 62
     0
 10
120.599336
 20
77.023009
 30
0.0
  0
SEQEND
  5
4150
  8
0
 62
     0
  0
LINE
  5
3BA0
  8
0
 62
     0
 10
121.747931
 20
77.012892
 30
0.0
 11
121.74205
 21
76.976527
 31
0.0
  0
LINE
  5
3BA1
  8
0
 62
     0
 10
121.747931
 20
77.012892
 30
0.0
 11
121.747939
 21
77.013016
 31
0.0
  0
LINE
  5
3BA2
  8
0
 62
     0
 10
121.747939
 20
77.013016
 30
0.0
 11
121.748451
 21
77.025021
 31
0.0
  0
LINE
  5
3BA3
  8
0
 62
     0
 10
121.748914
 20
77.054683
 30
0.0
 11
121.748363
 21
77.023009
 31
0.0
  0
POLYLINE
  5
3BA4
  8
0
 62
     0
 66
     1
 10
0.0
 20
0.0
 30
0.0
  0
VERTEX
  5
4151
  8
0
 62
     0
 10
121.734566
 20
77.054932
 30
0.0
  0
VERTEX
  5
4152
  8
0
 62
     0
 10
121.727698
 20
77.324567
 30
0.0
  0
VERTEX
  5
4153
  8
0
 62
     0
 10
121.71744
 20
77.594141
 30
0.0
  0
VERTEX
  5
4154
  8
0
 62
     0
 10
121.703793
 20
77.863674
 30
0.0
  0
SEQEND
  5
4155
  8
0
 62
     0
  0
LINE
  5
3BA5
  8
0
 62
     0
 10
121.748451
 20
77.025049
 30
0.0
 11
121.745532
 21
77.039992
 31
0.0
  0
LINE
  5
3BA6
  8
0
 62
     0
 10
121.745532
 20
77.039992
 30
0.0
 11
121.734566
 21
77.054932
 31
0.0
  0
LINE
  5
3BA7
  8
0
 62
     0
 10
121.703793
 20
77.863674
 30
0.0
 11
121.598408
 21
77.836025
 31
0.0
  0
LINE
  5
3BA8
  8
0
 62
     0
 10
120.972919
 20
93.752538
 30
0.0
 11
119.072919
 21
93.752538
 31
0.0
  0
LINE
  5
3BA9
  8
0
 62
     0
 10
119.072919
 20
93.213923
 30
0.0
 11
120.972919
 21
93.213923
 31
0.0
  0
POLYLINE
  5
3BAA
  8
0
 62
     0
 66
     1
 10
0.0
 20
0.0
 30
0.0
  0
VERTEX
  5
4156
  8
0
 62
     0
 10
118.917668
 20
88.202211
 30
0.0
  0
VERTEX
  5
4157
  8
0
 62
     0
 10
119.895916
 20
88.161613
 30
0.0
  0
VERTEX
  5
4158
  8
0
 62
     0
 10
120.888975
 20
88.135388
 30
0.0
  0
SEQEND
  5
4159
  8
0
 62
     0
  0
LINE
  5
3BAB
  8
0
 62
     0
 10
118.313213
 20
88.263941
 30
0.0
 11
121.257861
 21
88.147563
 31
0.0
  0
POLYLINE
  5
3BAC
  8
0
 62
     0
 66
     1
 10
0.0
 20
0.0
 30
0.0
  0
VERTEX
  5
415A
  8
0
 62
     0
 10
120.475149
 20
88.133601
 30
0.0
  0
VERTEX
  5
415B
  8
0
 62
     0
 10
120.305876
 20
88.135388
 30
0.0
  0
VERTEX
  5
415C
  8
0
 62
     0
 10
119.397063
 20
88.161613
 30
0.0
  0
VERTEX
  5
415D
  8
0
 62
     0
 10
118.544325
 20
88.202211
 30
0.0
  0
SEQEND
  5
415E
  8
0
 62
     0
  0
LINE
  5
3BAD
  8
0
 62
     0
 10
119.072919
 20
90.752538
 30
0.0
 11
119.072919
 21
93.752513
 31
0.0
  0
LINE
  5
3BAE
  8
0
 62
     0
 10
116.947919
 20
90.002538
 30
0.0
 11
116.947919
 21
94.252538
 31
0.0
  0
POLYLINE
  5
3BAF
  8
0
 62
     0
 66
     1
 10
0.0
 20
0.0
 30
0.0
  0
VERTEX
  5
415F
  8
0
 62
     0
 10
115.425955
 20
86.552527
 30
0.0
  0
VERTEX
  5
4160
  8
0
 62
     0
 10
116.098857
 20
86.483249
 30
0.0
  0
VERTEX
  5
4161
  8
0
 62
     0
 10
116.740765
 20
86.280078
 30
0.0
  0
VERTEX
  5
4162
  8
0
 62
     0
 10
117.330994
 20
85.95111
 30
0.0
  0
VERTEX
  5
4163
  8
0
 62
     0
 10
117.846761
 20
85.509356
 30
0.0
  0
VERTEX
  5
4164
  8
0
 62
     0
 10
118.268211
 20
84.972321
 30
0.0
  0
VERTEX
  5
4165
  8
0
 62
     0
 10
118.579199
 20
84.361508
 30
0.0
  0
VERTEX
  5
4166
  8
0
 62
     0
 10
118.76828
 20
83.701128
 30
0.0
  0
VERTEX
  5
4167
  8
0
 62
     0
 10
118.828957
 20
83.051929
 30
0.0
  0
SEQEND
  5
4168
  8
0
 62
     0
  0
LINE
  5
3BB0
  8
0
 62
     0
 10
115.012652
 20
86.469117
 30
0.0
 11
115.56594
 21
86.538115
 31
0.0
  0
LINE
  5
3BB1
  8
0
 62
     0
 10
115.425954
 20
86.552538
 30
0.0
 11
115.425613
 21
86.552538
 31
0.0
  0
LINE
  5
3BB2
  8
0
 62
     0
 10
116.369156
 20
88.367425
 30
0.0
 11
114.655657
 21
88.553586
 31
0.0
  0
LINE
  5
3BB3
  8
0
 62
     0
 10
116.947919
 20
91.041229
 30
0.0
 11
119.072919
 21
91.041229
 31
0.0
  0
LINE
  5
3BB4
  8
0
 62
     0
 10
118.917668
 20
88.184436
 30
0.0
 11
118.917668
 21
88.202211
 31
0.0
  0
LINE
  5
3BB5
  8
0
 62
     0
 10
116.797919
 20
98.602538
 30
0.0
 11
116.297919
 21
98.602538
 31
0.0
  0
LINE
  5
3BB6
  8
0
 62
     0
 10
116.297919
 20
97.552538
 30
0.0
 11
115.547919
 21
97.552538
 31
0.0
  0
LINE
  5
3BB7
  8
0
 62
     0
 10
116.947919
 20
92.452538
 30
0.0
 11
119.072919
 21
92.452538
 31
0.0
  0
LINE
  5
3BB8
  8
0
 62
     0
 10
117.547919
 20
97.552538
 30
0.0
 11
116.797919
 21
97.552538
 31
0.0
  0
LINE
  5
3BB9
  8
0
 62
     0
 10
120.972919
 20
90.752538
 30
0.0
 11
120.972919
 21
93.752513
 31
0.0
  0
LINE
  5
3BBA
  8
0
 62
     0
 10
122.5608
 20
83.765419
 30
0.0
 11
121.866105
 21
83.765419
 31
0.0
  0
LINE
  5
3BBB
  8
0
 62
     0
 10
122.54801
 20
83.75263
 30
0.0
 11
122.047919
 21
83.75263
 31
0.0
  0
LINE
  5
3BBC
  8
0
 62
     0
 10
121.86588
 20
83.752538
 30
0.0
 11
122.54801
 21
83.752538
 31
0.0
  0
LINE
  5
3BBD
  8
0
 62
     0
 10
122.547934
 20
82.752538
 30
0.0
 11
121.848425
 21
82.752538
 31
0.0
  0
LINE
  5
3BBE
  8
0
 62
     0
 10
122.547926
 20
82.652538
 30
0.0
 11
121.846679
 21
82.652538
 31
0.0
  0
LINE
  5
3BBF
  8
0
 62
     0
 10
121.844934
 20
82.552538
 30
0.0
 11
122.547919
 21
82.552538
 31
0.0
  0
LINE
  5
3BC0
  8
0
 62
     0
 10
121.844709
 20
82.539657
 30
0.0
 11
122.5608
 21
82.539657
 31
0.0
  0
LINE
  5
3BC1
  8
0
 62
     0
 10
122.043555
 20
83.252519
 30
0.0
 11
121.85387
 21
83.064482
 31
0.0
  0
LINE
  5
3BC2
  8
0
 62
     0
 10
122.043555
 20
83.252519
 30
0.0
 11
122.047919
 21
83.752538
 31
0.0
  0
LINE
  5
3BC3
  8
0
 62
     0
 10
122.043555
 20
83.252519
 30
0.0
 11
121.857152
 21
83.252501
 31
0.0
  0
LINE
  5
3BC4
  8
0
 62
     0
 10
120.888975
 20
88.135388
 30
0.0
 11
121.881999
 21
88.12535
 31
0.0
  0
POLYLINE
  5
3BC5
  8
0
 62
     0
 66
     1
 10
0.0
 20
0.0
 30
0.0
  0
VERTEX
  5
4169
  8
0
 62
     0
 10
120.717646
 20
88.126254
 30
0.0
  0
VERTEX
  5
416A
  8
0
 62
     0
 10
120.914224
 20
88.125763
 30
0.0
  0
VERTEX
  5
416B
  8
0
 62
     0
 10
121.094065
 20
88.125486
 30
0.0
  0
VERTEX
  5
416C
  8
0
 62
     0
 10
121.256983
 20
88.12535
 30
0.0
  0
SEQEND
  5
416D
  8
0
 62
     0
  0
POLYLINE
  5
3BC6
  8
0
 62
     0
 66
     1
 10
0.0
 20
0.0
 30
0.0
  0
VERTEX
  5
416E
  8
0
 62
     0
 10
120.475089
 20
88.127936
 30
0.0
  0
VERTEX
  5
416F
  8
0
 62
     0
 10
120.548855
 20
88.127273
 30
0.0
  0
VERTEX
  5
4170
  8
0
 62
     0
 10
120.620113
 20
88.126756
 30
0.0
  0
VERTEX
  5
4171
  8
0
 62
     0
 10
120.679075
 20
88.126418
 30
0.0
  0
VERTEX
  5
4172
  8
0
 62
     0
 10
120.717646
 20
88.126254
 30
0.0
  0
SEQEND
  5
4173
  8
0
 62
     0
  0
POLYLINE
  5
3BC7
  8
0
 62
     0
 66
     1
 10
0.0
 20
0.0
 30
0.0
  0
VERTEX
  5
4174
  8
0
 62
     0
 10
121.256978
 20
88.10258
 30
0.0
  0
VERTEX
  5
4175
  8
0
 62
     0
 10
121.453445
 20
88.102539
 30
0.0
  0
VERTEX
  5
4176
  8
0
 62
     0
 10
121.650506
 20
88.102539
 30
0.0
  0
VERTEX
  5
4177
  8
0
 62
     0
 10
121.776753
 20
88.102595
 30
0.0
  0
SEQEND
  5
4178
  8
0
 62
     0
  0
POLYLINE
  5
3BC8
  8
0
 62
     0
 66
     1
 10
0.0
 20
0.0
 30
0.0
  0
VERTEX
  5
4179
  8
0
 62
     0
 10
121.881999
 20
88.12535
 30
0.0
  0
VERTEX
  5
417A
  8
0
 62
     0
 10
121.919316
 20
88.125486
 30
0.0
  0
VERTEX
  5
417B
  8
0
 62
     0
 10
121.938943
 20
88.125763
 30
0.0
  0
SEQEND
  5
417C
  8
0
 62
     0
  0
LINE
  5
3BC9
  8
0
 62
     0
 10
121.938943
 20
88.125763
 30
0.0
 11
121.942219
 21
88.126031
 31
0.0
  0
LINE
  5
3BCA
  8
0
 62
     0
 10
122.5608
 20
83.765419
 30
0.0
 11
122.54801
 21
83.75263
 31
0.0
  0
LINE
  5
3BCB
  8
0
 62
     0
 10
122.547919
 20
82.552538
 30
0.0
 11
122.54801
 21
83.75263
 31
0.0
  0
LINE
  5
3BCC
  8
0
 62
     0
 10
122.5608
 20
82.539657
 30
0.0
 11
122.5608
 21
83.765419
 31
0.0
  0
LINE
  5
3BCD
  8
0
 62
     0
 10
122.5608
 20
82.539657
 30
0.0
 11
122.547919
 21
82.552538
 31
0.0
  0
LINE
  5
3BCE
  8
0
 62
     0
 10
133.979558
 20
81.873182
 30
0.0
 11
133.96989
 21
80.352538
 31
0.0
  0
LINE
  5
3BCF
  8
0
 62
     0
 10
135.147919
 20
78.294843
 30
0.0
 11
135.147919
 21
84.079977
 31
0.0
  0
LINE
  5
3BD0
  8
0
 62
     0
 10
133.947919
 20
83.76302
 30
0.0
 11
133.947919
 21
81.343631
 31
0.0
  0
LINE
  5
3BD1
  8
0
 62
     0
 10
133.747919
 20
80.514252
 30
0.0
 11
133.747919
 21
83.769736
 31
0.0
  0
LINE
  5
3BD2
  8
0
 62
     0
 10
133.547919
 20
81.252538
 30
0.0
 11
133.547919
 21
84.042469
 31
0.0
  0
ARC
  5
3BD3
  8
0
 62
     0
 10
113.047919
 20
217.452538
 30
0.0
 40
142.0
 50
277.325087
 51
278.207366
  0
LINE
  5
3BD4
  8
0
 62
     0
 10
125.956954
 20
78.693629
 30
0.0
 11
132.655469
 21
79.622415
 31
0.0
  0
LINE
  5
3BD5
  8
0
 62
     0
 10
128.415393
 20
79.064598
 30
0.0
 11
132.653551
 21
79.698152
 31
0.0
  0
POLYLINE
  5
3BD6
  8
0
 62
     0
 66
     1
 10
0.0
 20
0.0
 30
0.0
  0
VERTEX
  5
417D
  8
0
 62
     0
 10
129.647919
 20
79.075559
 30
0.0
  0
VERTEX
  5
417E
  8
0
 62
     0
 10
129.608344
 20
78.952822
 30
0.0
  0
VERTEX
  5
417F
  8
0
 62
     0
 10
129.493469
 20
78.824606
 30
0.0
  0
VERTEX
  5
4180
  8
0
 62
     0
 10
129.31236
 20
78.703263
 30
0.0
  0
VERTEX
  5
4181
  8
0
 62
     0
 10
129.078664
 20
78.60152
 30
0.0
  0
VERTEX
  5
4182
  8
0
 62
     0
 10
128.806536
 20
78.529824
 30
0.0
  0
VERTEX
  5
4183
  8
0
 62
     0
 10
128.521337
 20
78.497605
 30
0.0
  0
VERTEX
  5
4184
  8
0
 62
     0
 10
128.242329
 20
78.507761
 30
0.0
  0
VERTEX
  5
4185
  8
0
 62
     0
 10
127.999306
 20
78.557381
 30
0.0
  0
VERTEX
  5
4186
  8
0
 62
     0
 10
127.80881
 20
78.639358
 30
0.0
  0
VERTEX
  5
4187
  8
0
 62
     0
 10
127.688823
 20
78.742334
 30
0.0
  0
VERTEX
  5
4188
  8
0
 62
     0
 10
127.647919
 20
78.855185
 30
0.0
  0
SEQEND
  5
4189
  8
0
 62
     0
  0
LINE
  5
3BD7
  8
0
 62
     0
 10
132.947919
 20
80.352538
 30
0.0
 11
135.147919
 21
80.352538
 31
0.0
  0
LINE
  5
3BD8
  8
0
 62
     0
 10
132.947919
 20
80.052538
 30
0.0
 11
135.447919
 21
80.052538
 31
0.0
  0
POLYLINE
  5
3BD9
  8
0
 62
     0
 66
     1
 10
0.0
 20
0.0
 30
0.0
  0
VERTEX
  5
418A
  8
0
 62
     0
 10
135.114304
 20
78.29169
 30
0.0
  0
VERTEX
  5
418B
  8
0
 62
     0
 10
134.39302
 20
78.157824
 30
0.0
  0
VERTEX
  5
418C
  8
0
 62
     0
 10
133.670876
 20
78.028401
 30
0.0
  0
VERTEX
  5
418D
  8
0
 62
     0
 10
132.947919
 20
77.903429
 30
0.0
  0
SEQEND
  5
418E
  8
0
 62
     0
  0
ARC
  5
3BDA
  8
0
 62
     0
 10
133.247919
 20
77.401798
 30
0.0
 40
0.5
 50
278.207366
 51
311.357837
  0
ARC
  5
3BDB
  8
0
 62
     0
 10
133.247919
 20
81.252538
 30
0.0
 40
0.299999
 50
270.0
 51
0.0
  0
ARC
  5
3BDC
  8
0
 62
     0
 10
133.247919
 20
81.252538
 30
0.0
 40
0.5
 50
270.0
 51
0.0
  0
ARC
  5
3BDD
  8
0
 62
     0
 10
132.638913
 20
79.721035
 30
0.0
 40
0.1
 50
279.529587
 51
359.5
  0
POLYLINE
  5
3BDE
  8
0
 62
     0
 66
     1
 10
0.0
 20
0.0
 30
0.0
  0
VERTEX
  5
418F
  8
0
 62
     0
 10
132.653551
 20
79.698152
 30
0.0
  0
VERTEX
  5
4190
  8
0
 62
     0
 10
132.69718
 20
79.712728
 30
0.0
  0
VERTEX
  5
4191
  8
0
 62
     0
 10
132.728081
 20
79.74257
 30
0.0
  0
VERTEX
  5
4192
  8
0
 62
     0
 10
132.739441
 20
79.781099
 30
0.0
  0
SEQEND
  5
4193
  8
0
 62
     0
  0
POLYLINE
  5
3BDF
  8
0
 62
     0
 66
     1
 10
0.0
 20
0.0
 30
0.0
  0
VERTEX
  5
4194
  8
0
 62
     0
 10
132.656471
 20
80.026183
 30
0.0
  0
VERTEX
  5
4195
  8
0
 62
     0
 10
132.70007
 20
80.040768
 30
0.0
  0
VERTEX
  5
4196
  8
0
 62
     0
 10
132.730948
 20
80.070599
 30
0.0
  0
VERTEX
  5
4197
  8
0
 62
     0
 10
132.742304
 20
80.109107
 30
0.0
  0
SEQEND
  5
4198
  8
0
 62
     0
  0
POLYLINE
  5
3BE0
  8
0
 62
     0
 66
     1
 10
0.0
 20
0.0
 30
0.0
  0
VERTEX
  5
4199
  8
0
 62
     0
 10
133.747919
 20
81.252538
 30
0.0
  0
VERTEX
  5
419A
  8
0
 62
     0
 10
133.736807
 20
81.043813
 30
0.0
  0
VERTEX
  5
419B
  8
0
 62
     0
 10
133.706554
 20
80.856013
 30
0.0
  0
VERTEX
  5
419C
  8
0
 62
     0
 10
133.660361
 20
80.689698
 30
0.0
  0
VERTEX
  5
419D
  8
0
 62
     0
 10
133.600115
 20
80.545783
 30
0.0
  0
VERTEX
  5
419E
  8
0
 62
     0
 10
133.564794
 20
80.48814
 30
0.0
  0
SEQEND
  5
419F
  8
0
 62
     0
  0
LINE
  5
3BE1
  8
0
 62
     0
 10
132.655497
 20
79.916771
 30
0.0
 11
132.656474
 21
80.02616
 31
0.0
  0
LINE
  5
3BE2
  8
0
 62
     0
 10
132.653551
 20
79.698152
 30
0.0
 11
132.655497
 21
79.916771
 31
0.0
  0
LINE
  5
3BE3
  8
0
 62
     0
 10
132.738909
 20
79.720171
 30
0.0
 11
132.748153
 21
80.779323
 31
0.0
  0
LINE
  5
3BE4
  8
0
 62
     0
 10
132.643814
 20
80.282654
 30
0.0
 11
132.64966
 21
80.952538
 31
0.0
  0
LINE
  5
3BE5
  8
0
 62
     0
 10
133.941559
 20
80.543438
 30
0.0
 11
133.947919
 21
81.343631
 31
0.0
  0
LINE
  5
3BE6
  8
0
 62
     0
 10
133.248685
 20
80.443066
 30
0.0
 11
133.248202
 21
80.607654
 31
0.0
  0
LINE
  5
3BE7
  8
0
 62
     0
 10
133.247919
 20
80.952538
 30
0.0
 11
133.247919
 21
80.752538
 31
0.0
  0
LINE
  5
3BE8
  8
0
 62
     0
 10
132.947919
 20
77.903429
 30
0.0
 11
132.947919
 21
80.352538
 31
0.0
  0
POLYLINE
  5
3BE9
  8
0
 62
     0
 66
     1
 10
0.0
 20
0.0
 30
0.0
  0
VERTEX
  5
41A0
  8
0
 62
     0
 10
133.248202
 20
80.607654
 30
0.0
  0
VERTEX
  5
41A1
  8
0
 62
     0
 10
133.247871
 20
80.714903
 30
0.0
  0
VERTEX
  5
41A2
  8
0
 62
     0
 10
133.247919
 20
80.752538
 30
0.0
  0
SEQEND
  5
41A3
  8
0
 62
     0
  0
LINE
  5
3BEA
  8
0
 62
     0
 10
132.655468
 20
79.622415
 30
0.0
 11
132.65355
 21
79.698152
 31
0.0
  0
POLYLINE
  5
3BEB
  8
0
 62
     0
 66
     1
 10
0.0
 20
0.0
 30
0.0
  0
VERTEX
  5
41A4
  8
0
 62
     0
 10
133.952256
 20
80.541532
 30
0.0
  0
VERTEX
  5
41A5
  8
0
 62
     0
 10
133.954323
 20
80.475276
 30
0.0
  0
VERTEX
  5
41A6
  8
0
 62
     0
 10
133.955893
 20
80.352538
 30
0.0
  0
SEQEND
  5
41A7
  8
0
 62
     0
  0
LINE
  5
3BEC
  8
0
 62
     0
 10
132.656471
 20
80.026183
 30
0.0
 11
132.643814
 21
80.282654
 31
0.0
  0
LINE
  5
3BED
  8
0
 62
     0
 10
133.952256
 20
80.541532
 30
0.0
 11
133.952017
 21
80.543299
 31
0.0
  0
POLYLINE
  5
3BEE
  8
0
 62
     0
 66
     1
 10
0.0
 20
0.0
 30
0.0
  0
VERTEX
  5
41A8
  8
0
 62
     0
 10
132.64966
 20
80.952538
 30
0.0
  0
VERTEX
  5
41A9
  8
0
 62
     0
 10
132.693238
 20
80.889294
 30
0.0
  0
VERTEX
  5
41AA
  8
0
 62
     0
 10
132.730471
 20
80.82915
 30
0.0
  0
VERTEX
  5
41AB
  8
0
 62
     0
 10
132.748153
 20
80.779333
 30
0.0
  0
SEQEND
  5
41AC
  8
0
 62
     0
  0
LINE
  5
3BEF
  8
0
 62
     0
 10
132.643814
 20
80.282654
 30
0.0
 11
132.743811
 21
80.281782
 31
0.0
  0
LINE
  5
3BF0
  8
0
 62
     0
 10
133.547919
 20
81.252538
 30
0.0
 11
133.747919
 21
81.252538
 31
0.0
  0
LINE
  5
3BF1
  8
0
 62
     0
 10
132.64966
 20
80.952538
 30
0.0
 11
133.247919
 21
80.952538
 31
0.0
  0
LINE
  5
3BF2
  8
0
 62
     0
 10
132.747919
 20
80.752538
 30
0.0
 11
133.247919
 21
80.752538
 31
0.0
  0
LINE
  5
3BF3
  8
0
 62
     0
 10
133.952018
 20
80.543355
 30
0.0
 11
132.744591
 21
80.371187
 31
0.0
  0
LINE
  5
3BF4
  8
0
 62
     0
 10
132.744515
 20
80.362449
 30
0.0
 11
133.952235
 21
80.54152
 31
0.0
  0
ARC
  5
3BF5
  8
0
 62
     0
 10
135.147919
 20
80.052538
 30
0.0
 40
0.3
 50
0.0
 51
90.0
  0
ARC
  5
3BF6
  8
0
 62
     0
 10
135.147919
 20
77.579328
 30
0.0
 40
0.3
 50
280.7347
 51
0.0
  0
POLYLINE
  5
3BF7
  8
0
 62
     0
 66
     1
 10
0.0
 20
0.0
 30
0.0
  0
VERTEX
  5
41AD
  8
0
 62
     0
 10
135.447919
 20
77.727448
 30
0.0
  0
VERTEX
  5
41AE
  8
0
 62
     0
 10
135.416456
 20
77.595751
 30
0.0
  0
VERTEX
  5
41AF
  8
0
 62
     0
 10
135.328669
 20
77.491677
 30
0.0
  0
VERTEX
  5
41B0
  8
0
 62
     0
 10
135.202969
 20
77.437056
 30
0.0
  0
SEQEND
  5
41B1
  8
0
 62
     0
  0
LINE
  5
3BF8
  8
0
 62
     0
 10
135.202969
 20
77.437056
 30
0.0
 11
135.203798
 21
77.284578
 31
0.0
  0
POLYLINE
  5
3BF9
  8
0
 62
     0
 66
     1
 10
0.0
 20
0.0
 30
0.0
  0
VERTEX
  5
41B2
  8
0
 62
     0
 10
135.114304
 20
78.29169
 30
0.0
  0
VERTEX
  5
41B3
  8
0
 62
     0
 10
135.121141
 20
78.224429
 30
0.0
  0
VERTEX
  5
41B4
  8
0
 62
     0
 10
135.128504
 20
78.151923
 30
0.0
  0
VERTEX
  5
41B5
  8
0
 62
     0
 10
135.136415
 20
78.076192
 30
0.0
  0
VERTEX
  5
41B6
  8
0
 62
     0
 10
135.145133
 20
77.995393
 30
0.0
  0
VERTEX
  5
41B7
  8
0
 62
     0
 10
135.15405
 20
77.912206
 30
0.0
  0
VERTEX
  5
41B8
  8
0
 62
     0
 10
135.162363
 20
77.83141
 30
0.0
  0
VERTEX
  5
41B9
  8
0
 62
     0
 10
135.169905
 20
77.757525
 30
0.0
  0
VERTEX
  5
41BA
  8
0
 62
     0
 10
135.176768
 20
77.691363
 30
0.0
  0
VERTEX
  5
41BB
  8
0
 62
     0
 10
135.183161
 20
77.631399
 30
0.0
  0
VERTEX
  5
41BC
  8
0
 62
     0
 10
135.188746
 20
77.578585
 30
0.0
  0
VERTEX
  5
41BD
  8
0
 62
     0
 10
135.193451
 20
77.532104
 30
0.0
  0
VERTEX
  5
41BE
  8
0
 62
     0
 10
135.200805
 20
77.458156
 30
0.0
  0
SEQEND
  5
41BF
  8
0
 62
     0
  0
LINE
  5
3BFA
  8
0
 62
     0
 10
135.200805
 20
77.458156
 30
0.0
 11
135.202969
 21
77.437055
 31
0.0
  0
POLYLINE
  5
3BFB
  8
0
 62
     0
 66
     1
 10
0.0
 20
0.0
 30
0.0
  0
VERTEX
  5
41C0
  8
0
 62
     0
 10
135.147919
 20
78.294843
 30
0.0
  0
VERTEX
  5
41C1
  8
0
 62
     0
 10
135.26969
 20
78.286101
 30
0.0
  0
VERTEX
  5
41C2
  8
0
 62
     0
 10
135.367675
 20
78.261116
 30
0.0
  0
VERTEX
  5
41C3
  8
0
 62
     0
 10
135.4285
 20
78.221919
 30
0.0
  0
VERTEX
  5
41C4
  8
0
 62
     0
 10
135.447919
 20
78.170393
 30
0.0
  0
SEQEND
  5
41C5
  8
0
 62
     0
  0
POLYLINE
  5
3BFC
  8
0
 62
     0
 66
     1
 10
0.0
 20
0.0
 30
0.0
  0
VERTEX
  5
41C6
  8
0
 62
     0
 10
135.147919
 20
78.294843
 30
0.0
  0
VERTEX
  5
41C7
  8
0
 62
     0
 10
135.136694
 20
78.294493
 30
0.0
  0
VERTEX
  5
41C8
  8
0
 62
     0
 10
135.125484
 20
78.293443
 30
0.0
  0
VERTEX
  5
41C9
  8
0
 62
     0
 10
135.114304
 20
78.29169
 30
0.0
  0
SEQEND
  5
41CA
  8
0
 62
     0
  0
LINE
  5
3BFD
  8
0
 62
     0
 10
132.772919
 20
93.752538
 30
0.0
 11
130.872919
 21
93.752538
 31
0.0
  0
LINE
  5
3BFE
  8
0
 62
     0
 10
130.872919
 20
93.213923
 30
0.0
 11
132.772919
 21
93.213923
 31
0.0
  0
LINE
  5
3BFF
  8
0
 62
     0
 10
130.872919
 20
90.752538
 30
0.0
 11
130.872919
 21
93.752513
 31
0.0
  0
LINE
  5
3C00
  8
0
 62
     0
 10
134.261445
 20
94.252538
 30
0.0
 11
134.246173
 21
90.752538
 31
0.0
  0
LINE
  5
3C01
  8
0
 62
     0
 10
132.772919
 20
90.752538
 30
0.0
 11
132.772919
 21
93.752513
 31
0.0
  0
LINE
  5
3C02
  8
0
 62
     0
 10
132.772919
 20
91.041229
 30
0.0
 11
134.247433
 21
91.041229
 31
0.0
  0
LINE
  5
3C03
  8
0
 62
     0
 10
133.547919
 20
84.042469
 30
0.0
 11
134.484554
 21
84.091555
 31
0.0
  0
LINE
  5
3C04
  8
0
 62
     0
 10
134.500255
 20
83.791967
 30
0.0
 11
133.747919
 21
83.752538
 31
0.0
  0
POLYLINE
  5
3C05
  8
0
 62
     0
 66
     1
 10
0.0
 20
0.0
 30
0.0
  0
VERTEX
  5
41CB
  8
0
 62
     0
 10
133.990016
 20
83.765226
 30
0.0
  0
VERTEX
  5
41CC
  8
0
 62
     0
 10
133.988329
 20
83.421464
 30
0.0
  0
VERTEX
  5
41CD
  8
0
 62
     0
 10
133.979558
 20
81.873182
 30
0.0
  0
SEQEND
  5
41CE
  8
0
 62
     0
  0
POLYLINE
  5
3C06
  8
0
 62
     0
 66
     1
 10
0.0
 20
0.0
 30
0.0
  0
VERTEX
  5
41CF
  8
0
 62
     0
 10
133.547919
 20
84.042469
 30
0.0
  0
VERTEX
  5
41D0
  8
0
 62
     0
 10
133.61451
 20
83.963891
 30
0.0
  0
VERTEX
  5
41D1
  8
0
 62
     0
 10
133.676897
 20
83.887561
 30
0.0
  0
VERTEX
  5
41D2
  8
0
 62
     0
 10
133.726174
 20
83.819898
 30
0.0
  0
VERTEX
  5
41D3
  8
0
 62
     0
 10
133.747919
 20
83.769719
 30
0.0
  0
SEQEND
  5
41D4
  8
0
 62
     0
  0
LINE
  5
3C07
  8
0
 62
     0
 10
135.14792
 20
85.052614
 30
0.0
 11
135.147919
 21
90.752538
 31
0.0
  0
ARC
  5
3C08
  8
0
 62
     0
 10
134.447919
 20
84.790596
 30
0.0
 40
0.7
 50
273.0
 51
325.958458
  0
ARC
  5
3C09
  8
0
 62
     0
 10
134.447919
 20
84.790596
 30
0.0
 40
1.0
 50
273.0
 51
327.916062
  0
POLYLINE
  5
3C0A
  8
0
 62
     0
 66
     1
 10
0.0
 20
0.0
 30
0.0
  0
VERTEX
  5
41D5
  8
0
 62
     0
 10
135.027963
 20
84.398739
 30
0.0
  0
VERTEX
  5
41D6
  8
0
 62
     0
 10
135.0894
 20
84.588088
 30
0.0
  0
VERTEX
  5
41D7
  8
0
 62
     0
 10
135.131685
 20
84.805842
 30
0.0
  0
VERTEX
  5
41D8
  8
0
 62
     0
 10
135.14792
 20
85.052614
 30
0.0
  0
SEQEND
  5
41D9
  8
0
 62
     0
  0
POLYLINE
  5
3C0B
  8
0
 62
     0
 66
     1
 10
0.0
 20
0.0
 30
0.0
  0
VERTEX
  5
41DA
  8
0
 62
     0
 10
135.29519
 20
84.259435
 30
0.0
  0
VERTEX
  5
41DB
  8
0
 62
     0
 10
135.413894
 20
84.668771
 30
0.0
  0
VERTEX
  5
41DC
  8
0
 62
     0
 10
135.447932
 20
85.052615
 30
0.0
  0
SEQEND
  5
41DD
  8
0
 62
     0
  0
LINE
  5
3C0C
  8
0
 62
     0
 10
134.500255
 20
83.791967
 30
0.0
 11
134.484554
 21
84.091555
 31
0.0
  0
POLYLINE
  5
3C0D
  8
0
 62
     0
 66
     1
 10
0.0
 20
0.0
 30
0.0
  0
VERTEX
  5
41DE
  8
0
 62
     0
 10
135.29519
 20
84.259435
 30
0.0
  0
VERTEX
  5
41DF
  8
0
 62
     0
 10
135.216559
 20
84.300155
 30
0.0
  0
VERTEX
  5
41E0
  8
0
 62
     0
 10
135.129831
 20
84.345301
 30
0.0
  0
VERTEX
  5
41E1
  8
0
 62
     0
 10
135.027965
 20
84.398746
 30
0.0
  0
SEQEND
  5
41E2
  8
0
 62
     0
  0
LINE
  5
3C0E
  8
0
 62
     0
 10
135.14792
 20
85.052614
 30
0.0
 11
135.447919
 21
85.052615
 31
0.0
  0
LINE
  5
3C0F
  8
0
 62
     0
 10
134.897919
 20
90.002538
 30
0.0
 11
134.897919
 21
90.752538
 31
0.0
  0
LINE
  5
3C10
  8
0
 62
     0
 10
132.772919
 20
92.452538
 30
0.0
 11
134.253591
 21
92.452538
 31
0.0
  0
LINE
  5
3C11
  8
0
 62
     0
 10
135.697919
 20
93.021965
 30
0.0
 11
135.697919
 21
100.845921
 31
0.0
  0
ARC
  5
3C12
  8
0
 62
     0
 10
134.697919
 20
93.021965
 30
0.0
 40
1.0
 50
319.217579
 51
0.0
  0
LINE
  5
3C13
  8
0
 62
     0
 10
135.447919
 20
94.800456
 30
0.0
 11
135.697919
 21
94.800456
 31
0.0
  0
LINE
  5
3C14
  8
0
 62
     0
 10
135.447919
 20
100.845921
 30
0.0
 11
135.697919
 21
100.845921
 31
0.0
  0
LINE
  5
3C15
  8
0
 62
     0
 10
119.512919
 20
105.231968
 30
0.0
 11
118.662919
 21
105.231968
 31
0.0
  0
LINE
  5
3C16
  8
0
 62
     0
 10
119.512919
 20
105.197377
 30
0.0
 11
118.662919
 21
105.197377
 31
0.0
  0
LINE
  5
3C17
  8
0
 62
     0
 10
119.732919
 20
105.152538
 30
0.0
 11
119.362919
 21
105.152538
 31
0.0
  0
LINE
  5
3C18
  8
0
 62
     0
 10
119.512919
 20
104.976165
 30
0.0
 11
118.662919
 21
104.976165
 31
0.0
  0
LINE
  5
3C19
  8
0
 62
     0
 10
119.512919
 20
104.933109
 30
0.0
 11
118.662919
 21
104.933109
 31
0.0
  0
LINE
  5
3C1A
  8
0
 62
     0
 10
119.512919
 20
104.898519
 30
0.0
 11
118.662919
 21
104.898519
 31
0.0
  0
LINE
  5
3C1B
  8
0
 62
     0
 10
119.732919
 20
104.527538
 30
0.0
 11
119.337919
 21
104.527538
 31
0.0
  0
LINE
  5
3C1C
  8
0
 62
     0
 10
113.582919
 20
104.502538
 30
0.0
 11
119.512919
 21
104.502538
 31
0.0
  0
LINE
  5
3C1D
  8
0
 62
     0
 10
119.512919
 20
104.424893
 30
0.0
 11
118.662919
 21
104.424893
 31
0.0
  0
LINE
  5
3C1E
  8
0
 62
     0
 10
113.582919
 20
104.202538
 30
0.0
 11
119.512919
 21
104.202538
 31
0.0
  0
LINE
  5
3C1F
  8
0
 62
     0
 10
119.732919
 20
101.852538
 30
0.0
 11
118.748701
 21
101.852538
 31
0.0
  0
LINE
  5
3C20
  8
0
 62
     0
 10
120.172919
 20
101.452538
 30
0.0
 11
118.647919
 21
101.452538
 31
0.0
  0
LINE
  5
3C21
  8
0
 62
     0
 10
116.122919
 20
105.231968
 30
0.0
 11
116.972919
 21
105.231968
 31
0.0
  0
LINE
  5
3C22
  8
0
 62
     0
 10
116.122919
 20
105.197377
 30
0.0
 11
116.972919
 21
105.197377
 31
0.0
  0
LINE
  5
3C23
  8
0
 62
     0
 10
116.847919
 20
105.152538
 30
0.0
 11
116.097919
 21
105.152538
 31
0.0
  0
LINE
  5
3C24
  8
0
 62
     0
 10
118.857919
 20
105.082538
 30
0.0
 11
114.237919
 21
105.082538
 31
0.0
  0
LINE
  5
3C25
  8
0
 62
     0
 10
116.847919
 20
105.052538
 30
0.0
 11
116.097919
 21
105.052538
 31
0.0
  0
LINE
  5
3C26
  8
0
 62
     0
 10
116.147919
 20
104.982538
 30
0.0
 11
116.947919
 21
104.982538
 31
0.0
  0
LINE
  5
3C27
  8
0
 62
     0
 10
116.972919
 20
104.976165
 30
0.0
 11
116.122919
 21
104.976165
 31
0.0
  0
LINE
  5
3C28
  8
0
 62
     0
 10
116.122919
 20
104.933109
 30
0.0
 11
116.972919
 21
104.933109
 31
0.0
  0
LINE
  5
3C29
  8
0
 62
     0
 10
116.122919
 20
104.898519
 30
0.0
 11
116.972919
 21
104.898519
 31
0.0
  0
LINE
  5
3C2A
  8
0
 62
     0
 10
116.509617
 20
104.551484
 30
0.0
 11
116.586221
 21
104.551484
 31
0.0
  0
LINE
  5
3C2B
  8
0
 62
     0
 10
116.997919
 20
104.527538
 30
0.0
 11
116.097919
 21
104.527538
 31
0.0
  0
LINE
  5
3C2C
  8
0
 62
     0
 10
116.972919
 20
104.424893
 30
0.0
 11
116.122919
 21
104.424893
 31
0.0
  0
LINE
  5
3C2D
  8
0
 62
     0
 10
116.097919
 20
104.227538
 30
0.0
 11
116.997919
 21
104.227538
 31
0.0
  0
LINE
  5
3C2E
  8
0
 62
     0
 10
117.947919
 20
101.852538
 30
0.0
 11
115.147919
 21
101.852538
 31
0.0
  0
LINE
  5
3C2F
  8
0
 62
     0
 10
118.647919
 20
101.452538
 30
0.0
 11
114.447919
 21
101.452538
 31
0.0
  0
LINE
  5
3C30
  8
0
 62
     0
 10
114.447919
 20
101.352538
 30
0.0
 11
118.647919
 21
101.352538
 31
0.0
  0
LINE
  5
3C31
  8
0
 62
     0
 10
116.097919
 20
105.152538
 30
0.0
 11
114.332916
 21
105.152538
 31
0.0
  0
LINE
  5
3C32
  8
0
 62
     0
 10
114.589862
 20
104.982538
 30
0.0
 11
115.388284
 21
104.982538
 31
0.0
  0
LINE
  5
3C33
  8
0
 62
     0
 10
116.097919
 20
104.527538
 30
0.0
 11
114.807919
 21
104.527538
 31
0.0
  0
LINE
  5
3C34
  8
0
 62
     0
 10
114.807919
 20
104.202538
 30
0.0
 11
114.807919
 21
104.527538
 31
0.0
  0
LINE
  5
3C35
  8
0
 62
     0
 10
114.807919
 20
104.202538
 30
0.0
 11
114.807919
 21
101.752538
 31
0.0
  0
LINE
  5
3C36
  8
0
 62
     0
 10
114.432919
 20
105.231968
 30
0.0
 11
114.432919
 21
104.202538
 31
0.0
  0
LINE
  5
3C37
  8
0
 62
     0
 10
114.347137
 20
101.852538
 30
0.0
 11
114.347137
 21
101.752538
 31
0.0
  0
LINE
  5
3C38
  8
0
 62
     0
 10
113.757919
 20
104.527538
 30
0.0
 11
113.757919
 21
104.227538
 31
0.0
  0
LINE
  5
3C39
  8
0
 62
     0
 10
113.582919
 20
104.502538
 30
0.0
 11
113.582919
 21
105.231968
 31
0.0
  0
LINE
  5
3C3A
  8
0
 62
     0
 10
113.582919
 20
104.202538
 30
0.0
 11
113.582919
 21
104.502538
 31
0.0
  0
LINE
  5
3C3B
  8
0
 62
     0
 10
114.432919
 20
105.231968
 30
0.0
 11
113.582919
 21
105.231968
 31
0.0
  0
LINE
  5
3C3C
  8
0
 62
     0
 10
114.432919
 20
105.197377
 30
0.0
 11
113.582919
 21
105.197377
 31
0.0
  0
LINE
  5
3C3D
  8
0
 62
     0
 10
113.732919
 20
105.152538
 30
0.0
 11
114.332916
 21
105.152538
 31
0.0
  0
LINE
  5
3C3E
  8
0
 62
     0
 10
114.432919
 20
104.976165
 30
0.0
 11
113.582919
 21
104.976165
 31
0.0
  0
LINE
  5
3C3F
  8
0
 62
     0
 10
114.432919
 20
104.933109
 30
0.0
 11
113.582919
 21
104.933109
 31
0.0
  0
LINE
  5
3C40
  8
0
 62
     0
 10
114.432919
 20
104.916827
 30
0.0
 11
113.582919
 21
104.916827
 31
0.0
  0
LINE
  5
3C41
  8
0
 62
     0
 10
114.432919
 20
104.898519
 30
0.0
 11
113.582919
 21
104.898519
 31
0.0
  0
LINE
  5
3C42
  8
0
 62
     0
 10
113.582919
 20
104.695614
 30
0.0
 11
114.432919
 21
104.695614
 31
0.0
  0
LINE
  5
3C43
  8
0
 62
     0
 10
114.950771
 20
104.551484
 30
0.0
 11
115.027375
 21
104.551484
 31
0.0
  0
LINE
  5
3C44
  8
0
 62
     0
 10
114.807919
 20
104.527538
 30
0.0
 11
113.757919
 21
104.527538
 31
0.0
  0
LINE
  5
3C45
  8
0
 62
     0
 10
114.432919
 20
104.424893
 30
0.0
 11
113.582919
 21
104.424893
 31
0.0
  0
LINE
  5
3C46
  8
0
 62
     0
 10
114.807919
 20
104.227538
 30
0.0
 11
113.757919
 21
104.227538
 31
0.0
  0
LINE
  5
3C47
  8
0
 62
     0
 10
116.122919
 20
104.202538
 30
0.0
 11
116.122919
 21
105.231968
 31
0.0
  0
LINE
  5
3C48
  8
0
 62
     0
 10
116.097919
 20
101.752538
 30
0.0
 11
116.097919
 21
101.452538
 31
0.0
  0
LINE
  5
3C49
  8
0
 62
     0
 10
116.097919
 20
104.527538
 30
0.0
 11
116.097919
 21
104.202538
 31
0.0
  0
LINE
  5
3C4A
  8
0
 62
     0
 10
115.597919
 20
101.452538
 30
0.0
 11
115.597919
 21
101.752538
 31
0.0
  0
LINE
  5
3C4B
  8
0
 62
     0
 10
115.547919
 20
105.152538
 30
0.0
 11
115.547919
 21
104.527538
 31
0.0
  0
LINE
  5
3C4C
  8
0
 62
     0
 10
115.147919
 20
104.527538
 30
0.0
 11
115.147919
 21
101.752538
 31
0.0
  0
LINE
  5
3C4D
  8
0
 62
     0
 10
114.297919
 20
108.052538
 30
0.0
 11
114.297919
 21
106.752538
 31
0.0
  0
LINE
  5
3C4E
  8
0
 62
     0
 10
113.782919
 20
108.052538
 30
0.0
 11
113.782919
 21
106.752538
 31
0.0
  0
LINE
  5
3C4F
  8
0
 62
     0
 10
114.297919
 20
108.052538
 30
0.0
 11
113.782919
 21
108.052538
 31
0.0
  0
LINE
  5
3C50
  8
0
 62
     0
 10
114.297919
 20
106.752538
 30
0.0
 11
113.782919
 21
106.752538
 31
0.0
  0
LINE
  5
3C51
  8
0
 62
     0
 10
118.552919
 20
105.152538
 30
0.0
 11
116.847919
 21
105.152538
 31
0.0
  0
LINE
  5
3C52
  8
0
 62
     0
 10
117.707554
 20
104.982538
 30
0.0
 11
118.505975
 21
104.982538
 31
0.0
  0
LINE
  5
3C53
  8
0
 62
     0
 10
118.287919
 20
104.527538
 30
0.0
 11
116.997919
 21
104.527538
 31
0.0
  0
LINE
  5
3C54
  8
0
 62
     0
 10
117.947919
 20
104.527538
 30
0.0
 11
117.947919
 21
101.752538
 31
0.0
  0
LINE
  5
3C55
  8
0
 62
     0
 10
117.547919
 20
105.152538
 30
0.0
 11
117.547919
 21
104.527538
 31
0.0
  0
LINE
  5
3C56
  8
0
 62
     0
 10
117.497919
 20
101.752538
 30
0.0
 11
117.497919
 21
101.452538
 31
0.0
  0
LINE
  5
3C57
  8
0
 62
     0
 10
116.997919
 20
104.202538
 30
0.0
 11
116.997919
 21
104.527538
 31
0.0
  0
LINE
  5
3C58
  8
0
 62
     0
 10
116.997919
 20
101.752538
 30
0.0
 11
116.997919
 21
101.452538
 31
0.0
  0
LINE
  5
3C59
  8
0
 62
     0
 10
116.997919
 20
105.152538
 30
0.0
 11
116.997919
 21
105.052538
 31
0.0
  0
LINE
  5
3C5A
  8
0
 62
     0
 10
116.972919
 20
105.231968
 30
0.0
 11
116.972919
 21
104.202538
 31
0.0
  0
LINE
  5
3C5B
  8
0
 62
     0
 10
116.847919
 20
105.152538
 30
0.0
 11
116.847919
 21
105.052538
 31
0.0
  0
LINE
  5
3C5C
  8
0
 62
     0
 10
116.647919
 20
105.152538
 30
0.0
 11
116.647919
 21
105.052538
 31
0.0
  0
LINE
  5
3C5D
  8
0
 62
     0
 10
116.847919
 20
105.052538
 30
0.0
 11
116.997919
 21
105.052538
 31
0.0
  0
LINE
  5
3C5E
  8
0
 62
     0
 10
119.337919
 20
104.527538
 30
0.0
 11
119.337919
 21
104.227538
 31
0.0
  0
LINE
  5
3C5F
  8
0
 62
     0
 10
118.748701
 20
101.852538
 30
0.0
 11
118.748701
 21
101.752538
 31
0.0
  0
LINE
  5
3C60
  8
0
 62
     0
 10
118.662919
 20
105.231968
 30
0.0
 11
118.662919
 21
104.202538
 31
0.0
  0
LINE
  5
3C61
  8
0
 62
     0
 10
118.287919
 20
104.527538
 30
0.0
 11
118.287919
 21
104.202538
 31
0.0
  0
LINE
  5
3C62
  8
0
 62
     0
 10
119.362919
 20
105.152538
 30
0.0
 11
118.552919
 21
105.152538
 31
0.0
  0
LINE
  5
3C63
  8
0
 62
     0
 10
118.068462
 20
104.551484
 30
0.0
 11
118.145067
 21
104.551484
 31
0.0
  0
LINE
  5
3C64
  8
0
 62
     0
 10
119.337919
 20
104.527538
 30
0.0
 11
118.287919
 21
104.527538
 31
0.0
  0
LINE
  5
3C65
  8
0
 62
     0
 10
119.337919
 20
104.227538
 30
0.0
 11
118.287919
 21
104.227538
 31
0.0
  0
ARC
  5
3C66
  8
0
 62
     0
 10
119.697919
 20
101.802538
 30
0.0
 40
0.35
 50
270.0
 51
0.0
  0
LINE
  5
3C67
  8
0
 62
     0
 10
119.732919
 20
103.63675
 30
0.0
 11
120.227919
 21
103.922538
 31
0.0
  0
LINE
  5
3C68
  8
0
 62
     0
 10
119.733309
 20
101.767218
 30
0.0
 11
119.716693
 21
101.756196
 31
0.0
  0
LINE
  5
3C69
  8
0
 62
     0
 10
119.744261
 20
101.783764
 30
0.0
 11
119.733239
 21
101.767148
 31
0.0
  0
LINE
  5
3C6A
  8
0
 62
     0
 10
120.227919
 20
102.029667
 30
0.0
 11
120.067919
 21
101.752538
 31
0.0
  0
LINE
  5
3C6B
  8
0
 62
     0
 10
119.747919
 20
101.802538
 30
0.0
 11
119.744239
 21
101.783709
 31
0.0
  0
LINE
  5
3C6C
  8
0
 62
     0
 10
120.227919
 20
103.922538
 30
0.0
 11
120.227919
 21
102.029667
 31
0.0
  0
LINE
  5
3C6D
  8
0
 62
     0
 10
120.172919
 20
101.752538
 30
0.0
 11
120.172919
 21
101.452538
 31
0.0
  0
LINE
  5
3C6E
  8
0
 62
     0
 10
120.047919
 20
104.873999
 30
0.0
 11
120.047919
 21
104.073999
 31
0.0
  0
LINE
  5
3C6F
  8
0
 62
     0
 10
120.047919
 20
104.073999
 30
0.0
 11
120.047919
 21
101.802538
 31
0.0
  0
LINE
  5
3C70
  8
0
 62
     0
 10
120.027919
 20
103.922538
 30
0.0
 11
120.027919
 21
101.752538
 31
0.0
  0
LINE
  5
3C71
  8
0
 62
     0
 10
119.847919
 20
103.302538
 30
0.0
 11
119.847919
 21
102.972538
 31
0.0
  0
LINE
  5
3C72
  8
0
 62
     0
 10
119.747919
 20
104.873999
 30
0.0
 11
119.747919
 21
101.802538
 31
0.0
  0
LINE
  5
3C73
  8
0
 62
     0
 10
119.732919
 20
103.922538
 30
0.0
 11
119.732919
 21
105.152538
 31
0.0
  0
LINE
  5
3C74
  8
0
 62
     0
 10
119.732919
 20
103.922538
 30
0.0
 11
119.732919
 21
101.752538
 31
0.0
  0
LINE
  5
3C75
  8
0
 62
     0
 10
119.697919
 20
101.752538
 30
0.0
 11
119.697919
 21
101.452538
 31
0.0
  0
LINE
  5
3C76
  8
0
 62
     0
 10
119.547919
 20
103.602538
 30
0.0
 11
119.547919
 21
105.152538
 31
0.0
  0
LINE
  5
3C77
  8
0
 62
     0
 10
119.512919
 20
104.502538
 30
0.0
 11
119.512919
 21
105.231968
 31
0.0
  0
LINE
  5
3C78
  8
0
 62
     0
 10
119.512919
 20
104.202538
 30
0.0
 11
119.512919
 21
104.502538
 31
0.0
  0
LINE
  5
3C79
  8
0
 62
     0
 10
119.847919
 20
103.302538
 30
0.0
 11
119.547919
 21
103.602538
 31
0.0
  0
LINE
  5
3C7A
  8
0
 62
     0
 10
120.047919
 20
104.873999
 30
0.0
 11
119.747919
 21
104.873999
 31
0.0
  0
LINE
  5
3C7B
  8
0
 62
     0
 10
120.047919
 20
104.450814
 30
0.0
 11
119.747919
 21
104.450814
 31
0.0
  0
LINE
  5
3C7C
  8
0
 62
     0
 10
120.047919
 20
104.373999
 30
0.0
 11
119.747919
 21
104.373999
 31
0.0
  0
LINE
  5
3C7D
  8
0
 62
     0
 10
120.047919
 20
104.073999
 30
0.0
 11
119.747919
 21
104.073999
 31
0.0
  0
LINE
  5
3C7E
  8
0
 62
     0
 10
120.227919
 20
103.922538
 30
0.0
 11
120.027919
 21
103.922538
 31
0.0
  0
LINE
  5
3C7F
  8
0
 62
     0
 10
120.027919
 20
103.922538
 30
0.0
 11
119.732919
 21
103.922538
 31
0.0
  0
LINE
  5
3C80
  8
0
 62
     0
 10
119.747919
 20
103.700185
 30
0.0
 11
120.047919
 21
103.700185
 31
0.0
  0
LINE
  5
3C81
  8
0
 62
     0
 10
120.227919
 20
102.972538
 30
0.0
 11
119.847919
 21
102.972538
 31
0.0
  0
LINE
  5
3C82
  8
0
 62
     0
 10
120.047919
 20
101.802538
 30
0.0
 11
119.747919
 21
101.802538
 31
0.0
  0
LINE
  5
3C83
  8
0
 62
     0
 10
120.060419
 20
101.752538
 30
0.0
 11
120.172919
 21
101.752538
 31
0.0
  0
LINE
  5
3C84
  8
0
 62
     0
 10
119.697919
 20
101.752538
 30
0.0
 11
119.716748
 21
101.756218
 31
0.0
  0
LINE
  5
3C85
  8
0
 62
     0
 10
135.447919
 20
120.452538
 30
0.0
 11
135.547919
 21
124.452538
 31
0.0
  0
LINE
  5
3C86
  8
0
 62
     0
 10
128.147919
 20
105.152538
 30
0.0
 11
129.147919
 21
105.152538
 31
0.0
  0
LINE
  5
3C87
  8
0
 62
     0
 10
127.414023
 20
105.052538
 30
0.0
 11
128.367919
 21
105.052538
 31
0.0
  0
LINE
  5
3C88
  8
0
 62
     0
 10
129.147919
 20
105.002538
 30
0.0
 11
128.147919
 21
105.002538
 31
0.0
  0
LINE
  5
3C89
  8
0
 62
     0
 10
130.317919
 20
103.912538
 30
0.0
 11
126.967919
 21
103.912538
 31
0.0
  0
LINE
  5
3C8A
  8
0
 62
     0
 10
129.747919
 20
103.652538
 30
0.0
 11
127.547919
 21
103.652538
 31
0.0
  0
LINE
  5
3C8B
  8
0
 62
     0
 10
129.122076
 20
103.602538
 30
0.0
 11
128.177919
 21
103.602538
 31
0.0
  0
LINE
  5
3C8C
  8
0
 62
     0
 10
129.122076
 20
103.552538
 30
0.0
 11
128.177919
 21
103.552538
 31
0.0
  0
LINE
  5
3C8D
  8
0
 62
     0
 10
129.597919
 20
103.502538
 30
0.0
 11
127.697919
 21
103.502538
 31
0.0
  0
LINE
  5
3C8E
  8
0
 62
     0
 10
129.597919
 20
102.902538
 30
0.0
 11
127.697919
 21
102.902538
 31
0.0
  0
LINE
  5
3C8F
  8
0
 62
     0
 10
129.497917
 20
102.802538
 30
0.0
 11
127.79792
 21
102.802538
 31
0.0
  0
ARC
  5
3C90
  8
0
 62
     0
 10
126.967919
 20
104.245381
 30
0.0
 40
0.2
 50
180.0
 51
225.0
  0
ARC
  5
3C91
  8
0
 62
     0
 10
126.947919
 20
103.652538
 30
0.0
 40
0.1
 50
180.0
 51
270.0
  0
LINE
  5
3C92
  8
0
 62
     0
 10
126.943024
 20
104.923441
 30
0.0
 11
126.847919
 21
104.892538
 31
0.0
  0
LINE
  5
3C93
  8
0
 62
     0
 10
126.912121
 20
105.018546
 30
0.0
 11
126.817016
 21
104.987643
 31
0.0
  0
LINE
  5
3C94
  8
0
 62
     0
 10
126.941886
 20
104.936747
 30
0.0
 11
126.847919
 21
104.902538
 31
0.0
  0
LINE
  5
3C95
  8
0
 62
     0
 10
126.911479
 20
105.020271
 30
0.0
 11
126.817512
 21
104.986063
 31
0.0
  0
LINE
  5
3C96
  8
0
 62
     0
 10
128.147919
 20
104.402538
 30
0.0
 11
128.147919
 21
105.152538
 31
0.0
  0
LINE
  5
3C97
  8
0
 62
     0
 10
127.414023
 20
105.152538
 30
0.0
 11
127.414023
 21
105.052538
 31
0.0
  0
LINE
  5
3C98
  8
0
 62
     0
 10
127.077919
 20
103.652538
 30
0.0
 11
127.077919
 21
103.912538
 31
0.0
  0
LINE
  5
3C99
  8
0
 62
     0
 10
126.967919
 20
103.912538
 30
0.0
 11
126.967919
 21
105.152538
 31
0.0
  0
LINE
  5
3C9A
  8
0
 62
     0
 10
126.967919
 20
103.912538
 30
0.0
 11
126.967919
 21
103.832538
 31
0.0
  0
LINE
  5
3C9B
  8
0
 62
     0
 10
126.952919
 20
103.912538
 30
0.0
 11
126.952919
 21
103.652538
 31
0.0
  0
LINE
  5
3C9C
  8
0
 62
     0
 10
126.947919
 20
104.652538
 30
0.0
 11
126.947919
 21
104.902539
 31
0.0
  0
LINE
  5
3C9D
  8
0
 62
     0
 10
126.947919
 20
104.652538
 30
0.0
 11
126.947919
 21
103.552538
 31
0.0
  0
LINE
  5
3C9E
  8
0
 62
     0
 10
126.847919
 20
104.652538
 30
0.0
 11
126.847919
 21
104.902538
 31
0.0
  0
LINE
  5
3C9F
  8
0
 62
     0
 10
126.847919
 20
104.652538
 30
0.0
 11
126.847919
 21
103.652538
 31
0.0
  0
LINE
  5
3CA0
  8
0
 62
     0
 10
126.822919
 20
103.652538
 30
0.0
 11
126.822919
 21
103.912538
 31
0.0
  0
LINE
  5
3CA1
  8
0
 62
     0
 10
126.767919
 20
104.652538
 30
0.0
 11
126.767919
 21
104.245381
 31
0.0
  0
POLYLINE
  5
3CA2
  8
0
 62
     0
 66
     1
 10
0.0
 20
0.0
 30
0.0
  0
VERTEX
  5
41E3
  8
0
 62
     0
 10
126.941886
 20
104.936747
 30
0.0
  0
VERTEX
  5
41E4
  8
0
 62
     0
 10
126.945217
 20
104.925625
 30
0.0
  0
VERTEX
  5
41E5
  8
0
 62
     0
 10
126.947245
 20
104.914126
 30
0.0
  0
VERTEX
  5
41E6
  8
0
 62
     0
 10
126.947919
 20
104.902538
 30
0.0
  0
SEQEND
  5
41E7
  8
0
 62
     0
  0
LINE
  5
3CA3
  8
0
 62
     0
 10
126.943024
 20
104.923441
 30
0.0
 11
126.912121
 21
105.018546
 31
0.0
  0
LINE
  5
3CA4
  8
0
 62
     0
 10
126.817016
 20
104.987643
 30
0.0
 11
126.847919
 21
104.892538
 31
0.0
  0
LINE
  5
3CA5
  8
0
 62
     0
 10
126.941886
 20
104.936747
 30
0.0
 11
126.911479
 21
105.020271
 31
0.0
  0
LINE
  5
3CA6
  8
0
 62
     0
 10
126.817512
 20
104.986063
 30
0.0
 11
126.847919
 21
104.902538
 31
0.0
  0
LINE
  5
3CA7
  8
0
 62
     0
 10
126.967919
 20
103.962538
 30
0.0
 11
126.826497
 21
104.10396
 31
0.0
  0
LINE
  5
3CA8
  8
0
 62
     0
 10
126.967919
 20
105.152538
 30
0.0
 11
128.147919
 21
105.152538
 31
0.0
  0
LINE
  5
3CA9
  8
0
 62
     0
 10
126.847919
 20
104.902539
 30
0.0
 11
126.947919
 21
104.902539
 31
0.0
  0
LINE
  5
3CAA
  8
0
 62
     0
 10
126.947919
 20
104.892537
 30
0.0
 11
126.847919
 21
104.892537
 31
0.0
  0
LINE
  5
3CAB
  8
0
 62
     0
 10
126.947919
 20
104.882538
 30
0.0
 11
126.847919
 21
104.882538
 31
0.0
  0
LINE
  5
3CAC
  8
0
 62
     0
 10
126.967919
 20
104.652538
 30
0.0
 11
126.767919
 21
104.652538
 31
0.0
  0
LINE
  5
3CAD
  8
0
 62
     0
 10
126.947919
 20
104.602538
 30
0.0
 11
126.847919
 21
104.602538
 31
0.0
  0
LINE
  5
3CAE
  8
0
 62
     0
 10
126.947919
 20
103.912538
 30
0.0
 11
126.822919
 21
103.912538
 31
0.0
  0
LINE
  5
3CAF
  8
0
 62
     0
 10
126.967919
 20
103.912538
 30
0.0
 11
126.952919
 21
103.912538
 31
0.0
  0
LINE
  5
3CB0
  8
0
 62
     0
 10
126.952919
 20
103.912538
 30
0.0
 11
126.947923
 21
103.912538
 31
0.0
  0
LINE
  5
3CB1
  8
0
 62
     0
 10
126.952919
 20
103.652538
 30
0.0
 11
127.547919
 21
103.652538
 31
0.0
  0
LINE
  5
3CB2
  8
0
 62
     0
 10
126.947919
 20
103.652538
 30
0.0
 11
126.822919
 21
103.652538
 31
0.0
  0
LINE
  5
3CB3
  8
0
 62
     0
 10
126.952919
 20
103.652538
 30
0.0
 11
126.947923
 21
103.652538
 31
0.0
  0
LINE
  5
3CB4
  8
0
 62
     0
 10
128.177919
 20
103.552538
 30
0.0
 11
126.947919
 21
103.552538
 31
0.0
  0
LINE
  5
3CB5
  8
0
 62
     0
 10
129.147919
 20
105.152538
 30
0.0
 11
130.317919
 21
105.152538
 31
0.0
  0
LINE
  5
3CB6
  8
0
 62
     0
 10
128.920873
 20
105.052538
 30
0.0
 11
129.881815
 21
105.052538
 31
0.0
  0
LINE
  5
3CB7
  8
0
 62
     0
 10
130.347919
 20
103.552538
 30
0.0
 11
129.122076
 21
103.552538
 31
0.0
  0
LINE
  5
3CB8
  8
0
 62
     0
 10
129.347919
 20
105.152538
 30
0.0
 11
129.347919
 21
103.912538
 31
0.0
  0
LINE
  5
3CB9
  8
0
 62
     0
 10
129.147919
 20
104.402538
 30
0.0
 11
129.147919
 21
105.152538
 31
0.0
  0
LINE
  5
3CBA
  8
0
 62
     0
 10
129.147919
 20
103.652538
 30
0.0
 11
129.147919
 21
103.552538
 31
0.0
  0
LINE
  5
3CBB
  8
0
 62
     0
 10
128.920873
 20
105.102538
 30
0.0
 11
128.920873
 21
105.052538
 31
0.0
  0
LINE
  5
3CBC
  8
0
 62
     0
 10
128.83793
 20
105.052538
 30
0.0
 11
128.83793
 21
105.102538
 31
0.0
  0
LINE
  5
3CBD
  8
0
 62
     0
 10
128.782634
 20
105.102538
 30
0.0
 11
128.782634
 21
105.052538
 31
0.0
  0
LINE
  5
3CBE
  8
0
 62
     0
 10
128.76881
 20
105.052538
 30
0.0
 11
128.76881
 21
105.102538
 31
0.0
  0
LINE
  5
3CBF
  8
0
 62
     0
 10
128.747919
 20
103.652538
 30
0.0
 11
128.747919
 21
103.552538
 31
0.0
  0
LINE
  5
3CC0
  8
0
 62
     0
 10
128.699691
 20
105.102538
 30
0.0
 11
128.699691
 21
105.052538
 31
0.0
  0
LINE
  5
3CC1
  8
0
 62
     0
 10
128.644396
 20
105.102538
 30
0.0
 11
128.644396
 21
105.052538
 31
0.0
  0
LINE
  5
3CC2
  8
0
 62
     0
 10
128.5891
 20
105.052538
 30
0.0
 11
128.5891
 21
105.102538
 31
0.0
  0
LINE
  5
3CC3
  8
0
 62
     0
 10
128.519981
 20
105.102538
 30
0.0
 11
128.519981
 21
105.052538
 31
0.0
  0
LINE
  5
3CC4
  8
0
 62
     0
 10
128.506157
 20
105.102538
 30
0.0
 11
128.506157
 21
105.052538
 31
0.0
  0
LINE
  5
3CC5
  8
0
 62
     0
 10
128.450862
 20
105.102538
 30
0.0
 11
128.450862
 21
105.052538
 31
0.0
  0
LINE
  5
3CC6
  8
0
 62
     0
 10
128.367919
 20
105.052538
 30
0.0
 11
128.367919
 21
105.102538
 31
0.0
  0
LINE
  5
3CC7
  8
0
 62
     0
 10
128.450862
 20
105.102538
 30
0.0
 11
128.83793
 21
105.102538
 31
0.0
  0
LINE
  5
3CC8
  8
0
 62
     0
 10
128.83793
 20
105.102538
 30
0.0
 11
128.920873
 21
105.102538
 31
0.0
  0
LINE
  5
3CC9
  8
0
 62
     0
 10
128.367919
 20
105.102538
 30
0.0
 11
128.450862
 21
105.102538
 31
0.0
  0
LINE
  5
3CCA
  8
0
 62
     0
 10
128.450862
 20
105.052538
 30
0.0
 11
128.83793
 21
105.052538
 31
0.0
  0
LINE
  5
3CCB
  8
0
 62
     0
 10
128.450862
 20
105.052538
 30
0.0
 11
128.367919
 21
105.052538
 31
0.0
  0
LINE
  5
3CCC
  8
0
 62
     0
 10
128.920873
 20
105.052538
 30
0.0
 11
128.83793
 21
105.052538
 31
0.0
  0
ARC
  5
3CCD
  8
0
 62
     0
 10
130.317919
 20
104.255381
 30
0.0
 40
0.2
 50
315.0
 51
0.0
  0
ARC
  5
3CCE
  8
0
 62
     0
 10
130.347919
 20
103.652538
 30
0.0
 40
0.1
 50
270.0
 51
0.0
  0
LINE
  5
3CCF
  8
0
 62
     0
 10
130.45934
 20
104.11396
 30
0.0
 11
130.317919
 21
103.972538
 31
0.0
  0
LINE
  5
3CD0
  8
0
 62
     0
 10
130.480805
 20
104.983921
 30
0.0
 11
130.447919
 21
104.902538
 31
0.0
  0
LINE
  5
3CD1
  8
0
 62
     0
 10
130.388089
 20
105.021387
 30
0.0
 11
130.355203
 21
104.940005
 31
0.0
  0
LINE
  5
3CD2
  8
0
 62
     0
 10
130.351187
 20
104.927894
 30
0.0
 11
130.355203
 21
104.940005
 31
0.0
  0
POLYLINE
  5
3CD3
  8
0
 62
     0
 66
     1
 10
0.0
 20
0.0
 30
0.0
  0
VERTEX
  5
41E8
  8
0
 62
     0
 10
130.355203
 20
104.940005
 30
0.0
  0
VERTEX
  5
41E9
  8
0
 62
     0
 10
130.351186
 20
104.92789
 30
0.0
  0
VERTEX
  5
41EA
  8
0
 62
     0
 10
130.348733
 20
104.915274
 30
0.0
  0
VERTEX
  5
41EB
  8
0
 62
     0
 10
130.347919
 20
104.902538
 30
0.0
  0
SEQEND
  5
41EC
  8
0
 62
     0
  0
LINE
  5
3CD4
  8
0
 62
     0
 10
130.347919
 20
104.902538
 30
0.0
 11
130.348734
 21
104.915278
 31
0.0
  0
LINE
  5
3CD5
  8
0
 62
     0
 10
130.517919
 20
104.652538
 30
0.0
 11
130.517919
 21
104.255381
 31
0.0
  0
LINE
  5
3CD6
  8
0
 62
     0
 10
130.472919
 20
103.912538
 30
0.0
 11
130.472919
 21
103.652538
 31
0.0
  0
LINE
  5
3CD7
  8
0
 62
     0
 10
130.447919
 20
104.652538
 30
0.0
 11
130.447919
 21
104.902538
 31
0.0
  0
LINE
  5
3CD8
  8
0
 62
     0
 10
130.447919
 20
104.652538
 30
0.0
 11
130.447919
 21
103.652538
 31
0.0
  0
LINE
  5
3CD9
  8
0
 62
     0
 10
130.347919
 20
104.652538
 30
0.0
 11
130.347919
 21
104.902539
 31
0.0
  0
LINE
  5
3CDA
  8
0
 62
     0
 10
130.347919
 20
103.652538
 30
0.0
 11
130.347919
 21
103.552538
 31
0.0
  0
LINE
  5
3CDB
  8
0
 62
     0
 10
130.347919
 20
104.652538
 30
0.0
 11
130.347919
 21
103.652538
 31
0.0
  0
LINE
  5
3CDC
  8
0
 62
     0
 10
130.342919
 20
103.912538
 30
0.0
 11
130.342919
 21
103.652538
 31
0.0
  0
LINE
  5
3CDD
  8
0
 62
     0
 10
130.317919
 20
103.912538
 30
0.0
 11
130.317919
 21
103.832538
 31
0.0
  0
LINE
  5
3CDE
  8
0
 62
     0
 10
130.317919
 20
105.152538
 30
0.0
 11
130.317919
 21
103.912538
 31
0.0
  0
LINE
  5
3CDF
  8
0
 62
     0
 10
130.217919
 20
103.652538
 30
0.0
 11
130.217919
 21
103.912538
 31
0.0
  0
LINE
  5
3CE0
  8
0
 62
     0
 10
130.147919
 20
103.652538
 30
0.0
 11
130.147919
 21
103.552538
 31
0.0
  0
LINE
  5
3CE1
  8
0
 62
     0
 10
129.947919
 20
103.912538
 30
0.0
 11
129.947919
 21
105.152538
 31
0.0
  0
LINE
  5
3CE2
  8
0
 62
     0
 10
129.881815
 20
105.052538
 30
0.0
 11
129.881815
 21
105.152538
 31
0.0
  0
LINE
  5
3CE3
  8
0
 62
     0
 10
129.747919
 20
103.652538
 30
0.0
 11
129.747919
 21
103.552538
 31
0.0
  0
LINE
  5
3CE4
  8
0
 62
     0
 10
130.480805
 20
104.983921
 30
0.0
 11
130.388089
 21
105.021387
 31
0.0
  0
LINE
  5
3CE5
  8
0
 62
     0
 10
130.447919
 20
104.902538
 30
0.0
 11
130.355203
 21
104.940005
 31
0.0
  0
LINE
  5
3CE6
  8
0
 62
     0
 10
130.447919
 20
104.902539
 30
0.0
 11
130.347919
 21
104.902539
 31
0.0
  0
LINE
  5
3CE7
  8
0
 62
     0
 10
130.447919
 20
104.882538
 30
0.0
 11
130.347919
 21
104.882538
 31
0.0
  0
LINE
  5
3CE8
  8
0
 62
     0
 10
130.517919
 20
104.652538
 30
0.0
 11
130.317919
 21
104.652538
 31
0.0
  0
LINE
  5
3CE9
  8
0
 62
     0
 10
130.347919
 20
104.602538
 30
0.0
 11
130.447919
 21
104.602538
 31
0.0
  0
LINE
  5
3CEA
  8
0
 62
     0
 10
130.347919
 20
103.912538
 30
0.0
 11
130.472919
 21
103.912538
 31
0.0
  0
LINE
  5
3CEB
  8
0
 62
     0
 10
130.317919
 20
103.912538
 30
0.0
 11
130.342919
 21
103.912538
 31
0.0
  0
LINE
  5
3CEC
  8
0
 62
     0
 10
130.347915
 20
103.912538
 30
0.0
 11
130.342919
 21
103.912538
 31
0.0
  0
LINE
  5
3CED
  8
0
 62
     0
 10
130.447919
 20
103.652538
 30
0.0
 11
130.472919
 21
103.652538
 31
0.0
  0
LINE
  5
3CEE
  8
0
 62
     0
 10
130.342919
 20
103.652538
 30
0.0
 11
129.747919
 21
103.652538
 31
0.0
  0
LINE
  5
3CEF
  8
0
 62
     0
 10
130.447919
 20
103.652538
 30
0.0
 11
130.342919
 21
103.652538
 31
0.0
  0
LINE
  5
3CF0
  8
0
 62
     0
 10
134.947919
 20
105.452538
 30
0.0
 11
135.547919
 21
117.452538
 31
0.0
  0
ARC
  5
3CF1
  8
0
 62
     0
 10
134.747919
 20
114.752538
 30
0.0
 40
0.8
 50
332.482452
 51
0.0
  0
LINE
  5
3CF2
  8
0
 62
     0
 10
135.547919
 20
115.452538
 30
0.0
 11
135.547919
 21
114.752538
 31
0.0
  0
LINE
  5
3CF3
  8
0
 62
     0
 10
135.547919
 20
115.452538
 30
0.0
 11
135.447919
 21
115.452538
 31
0.0
  0
LINE
  5
3CF4
  8
0
 62
     0
 10
135.447919
 20
117.452538
 30
0.0
 11
135.547919
 21
120.452538
 31
0.0
  0
LINE
  5
3CF5
  8
0
 62
     0
 10
135.547919
 20
120.452538
 30
0.0
 11
135.447919
 21
120.452538
 31
0.0
  0
LINE
  5
3CF6
  8
0
 62
     0
 10
135.547919
 20
117.452538
 30
0.0
 11
135.447919
 21
117.452538
 31
0.0
  0
LINE
  5
3CF7
  8
0
 62
     0
 10
135.447919
 20
128.952538
 30
0.0
 11
135.547919
 21
134.452538
 31
0.0
  0
LINE
  5
3CF8
  8
0
 62
     0
 10
135.447919
 20
124.452538
 30
0.0
 11
135.547919
 21
128.952538
 31
0.0
  0
LINE
  5
3CF9
  8
0
 62
     0
 10
135.547919
 20
124.452538
 30
0.0
 11
135.447919
 21
124.452538
 31
0.0
  0
LINE
  5
3CFA
  8
0
 62
     0
 10
135.547919
 20
128.952538
 30
0.0
 11
135.447919
 21
128.952538
 31
0.0
  0
LINE
  5
3CFB
  8
0
 62
     0
 10
133.847919
 20
135.952538
 30
0.0
 11
134.347919
 21
134.952538
 31
0.0
  0
LINE
  5
3CFC
  8
0
 62
     0
 10
132.047919
 20
134.952538
 30
0.0
 11
135.547919
 21
134.952538
 31
0.0
  0
POLYLINE
  5
3CFD
  8
0
 62
     0
 66
     1
 10
0.0
 20
0.0
 30
0.0
  0
VERTEX
  5
41ED
  8
0
 62
     0
 10
132.422086
 20
135.752538
 30
0.0
  0
VERTEX
  5
41EE
  8
0
 62
     0
 10
132.420118
 20
135.676246
 30
0.0
  0
VERTEX
  5
41EF
  8
0
 62
     0
 10
132.414162
 20
135.601597
 30
0.0
  0
VERTEX
  5
41F0
  8
0
 62
     0
 10
132.404497
 20
135.53298
 30
0.0
  0
VERTEX
  5
41F1
  8
0
 62
     0
 10
132.39131
 20
135.472014
 30
0.0
  0
VERTEX
  5
41F2
  8
0
 62
     0
 10
132.375083
 20
135.421536
 30
0.0
  0
VERTEX
  5
41F3
  8
0
 62
     0
 10
132.356609
 20
135.38406
 30
0.0
  0
VERTEX
  5
41F4
  8
0
 62
     0
 10
132.336213
 20
135.360522
 30
0.0
  0
VERTEX
  5
41F5
  8
0
 62
     0
 10
132.314906
 20
135.352538
 30
0.0
  0
SEQEND
  5
41F6
  8
0
 62
     0
  0
LINE
  5
3CFE
  8
0
 62
     0
 10
132.047919
 20
138.652538
 30
0.0
 11
132.047919
 21
134.952538
 31
0.0
  0
LINE
  5
3CFF
  8
0
 62
     0
 10
132.047919
 20
135.352538
 30
0.0
 11
133.847919
 21
135.352538
 31
0.0
  0
LINE
  5
3D00
  8
0
 62
     0
 10
133.547919
 20
138.652538
 30
0.0
 11
132.047919
 21
138.652538
 31
0.0
  0
LINE
  5
3D01
  8
0
 62
     0
 10
132.047919
 20
137.352538
 30
0.0
 11
133.847919
 21
137.352538
 31
0.0
  0
LINE
  5
3D02
  8
0
 62
     0
 10
132.422086
 20
135.752538
 30
0.0
 11
132.422086
 21
136.952538
 31
0.0
  0
POLYLINE
  5
3D03
  8
0
 62
     0
 66
     1
 10
0.0
 20
0.0
 30
0.0
  0
VERTEX
  5
41F7
  8
0
 62
     0
 10
132.314906
 20
137.352538
 30
0.0
  0
VERTEX
  5
41F8
  8
0
 62
     0
 10
132.336213
 20
137.344555
 30
0.0
  0
VERTEX
  5
41F9
  8
0
 62
     0
 10
132.356609
 20
137.321017
 30
0.0
  0
VERTEX
  5
41FA
  8
0
 62
     0
 10
132.375083
 20
137.283541
 30
0.0
  0
VERTEX
  5
41FB
  8
0
 62
     0
 10
132.39131
 20
137.233063
 30
0.0
  0
VERTEX
  5
41FC
  8
0
 62
     0
 10
132.404497
 20
137.172097
 30
0.0
  0
VERTEX
  5
41FD
  8
0
 62
     0
 10
132.414162
 20
137.10348
 30
0.0
  0
VERTEX
  5
41FE
  8
0
 62
     0
 10
132.420118
 20
137.028831
 30
0.0
  0
VERTEX
  5
41FF
  8
0
 62
     0
 10
132.422086
 20
136.952538
 30
0.0
  0
SEQEND
  5
4200
  8
0
 62
     0
  0
LINE
  5
3D04
  8
0
 62
     0
 10
132.047919
 20
136.952538
 30
0.0
 11
132.422086
 21
136.952538
 31
0.0
  0
LINE
  5
3D05
  8
0
 62
     0
 10
132.422086
 20
135.752538
 30
0.0
 11
132.047919
 21
135.752538
 31
0.0
  0
LINE
  5
3D06
  8
0
 62
     0
 10
133.547919
 20
140.245396
 30
0.0
 11
133.847919
 21
138.959681
 31
0.0
  0
LINE
  5
3D07
  8
0
 62
     0
 10
134.125618
 20
135.39714
 30
0.0
 11
134.121738
 21
134.952538
 31
0.0
  0
LINE
  5
3D08
  8
0
 62
     0
 10
135.447919
 20
134.952538
 30
0.0
 11
135.447919
 21
134.452538
 31
0.0
  0
LINE
  5
3D09
  8
0
 62
     0
 10
135.547919
 20
134.452538
 30
0.0
 11
135.447919
 21
134.452538
 31
0.0
  0
LINE
  5
3D0A
  8
0
 62
     0
 10
135.447919
 20
157.391432
 30
0.0
 11
135.447919
 21
200.852538
 31
0.0
  0
LINE
  5
3D0B
  8
0
 62
     0
 10
135.147919
 20
157.391432
 30
0.0
 11
135.147919
 21
201.152538
 31
0.0
  0
LINE
  5
3D0C
  8
0
 62
     0
 10
134.497919
 20
181.752538
 30
0.0
 11
134.497919
 21
160.552538
 31
0.0
  0
LINE
  5
3D0D
  8
0
 62
     0
 10
133.697919
 20
179.952538
 30
0.0
 11
133.697919
 21
170.452538
 31
0.0
  0
LINE
  5
3D0E
  8
0
 62
     0
 10
132.497919
 20
160.552538
 30
0.0
 11
132.497919
 21
181.752538
 31
0.0
  0
LINE
  5
3D0F
  8
0
 62
     0
 10
131.297919
 20
196.252538
 30
0.0
 11
131.297919
 21
177.152538
 31
0.0
  0
LINE
  5
3D10
  8
0
 62
     0
 10
121.797919
 20
177.152538
 30
0.0
 11
121.797919
 21
196.252538
 31
0.0
  0
LINE
  5
3D11
  8
0
 62
     0
 10
120.547919
 20
157.241341
 30
0.0
 11
120.547919
 21
197.552538
 31
0.0
  0
LINE
  5
3D12
  8
0
 62
     0
 10
119.047919
 20
157.136451
 30
0.0
 11
119.047919
 21
197.552538
 31
0.0
  0
LINE
  5
3D13
  8
0
 62
     0
 10
117.797919
 20
198.121284
 30
0.0
 11
117.797919
 21
177.152538
 31
0.0
  0
ARC
  5
3D14
  8
0
 62
     0
 10
113.047919
 20
280.992538
 30
0.0
 40
125.24
 50
273.983352
 51
278.40211
  0
LINE
  5
3D15
  8
0
 62
     0
 10
131.297919
 20
177.152538
 30
0.0
 11
121.797919
 21
177.152538
 31
0.0
  0
LINE
  5
3D16
  8
0
 62
     0
 10
121.397919
 20
172.952538
 30
0.0
 11
132.497919
 21
172.952538
 31
0.0
  0
LINE
  5
3D17
  8
0
 62
     0
 10
121.397919
 20
171.952538
 30
0.0
 11
131.697919
 21
171.952538
 31
0.0
  0
LINE
  5
3D18
  8
0
 62
     0
 10
123.547919
 20
171.652538
 30
0.0
 11
129.547919
 21
171.652538
 31
0.0
  0
LINE
  5
3D19
  8
0
 62
     0
 10
121.397919
 20
170.352538
 30
0.0
 11
131.697919
 21
170.352538
 31
0.0
  0
LINE
  5
3D1A
  8
0
 62
     0
 10
121.747919
 20
167.252538
 30
0.0
 11
131.347919
 21
167.252538
 31
0.0
  0
POLYLINE
  5
3D1B
  8
0
 62
     0
 66
     1
 10
0.0
 20
0.0
 30
0.0
  0
VERTEX
  5
4201
  8
0
 62
     0
 10
121.747919
 20
166.652538
 30
0.0
  0
VERTEX
  5
4202
  8
0
 62
     0
 10
123.670439
 20
166.974098
 30
0.0
  0
VERTEX
  5
4203
  8
0
 62
     0
 10
125.589274
 20
167.132801
 30
0.0
  0
VERTEX
  5
4204
  8
0
 62
     0
 10
127.506653
 20
167.132797
 30
0.0
  0
VERTEX
  5
4205
  8
0
 62
     0
 10
129.425435
 20
166.974094
 30
0.0
  0
VERTEX
  5
4206
  8
0
 62
     0
 10
131.347919
 20
166.652538
 30
0.0
  0
SEQEND
  5
4207
  8
0
 62
     0
  0
LINE
  5
3D1C
  8
0
 62
     0
 10
121.747919
 20
156.055084
 30
0.0
 11
121.747919
 21
167.252538
 31
0.0
  0
LINE
  5
3D1D
  8
0
 62
     0
 10
121.597161
 20
162.728343
 30
0.0
 11
121.597161
 21
157.314711
 31
0.0
  0
LINE
  5
3D1E
  8
0
 62
     0
 10
121.397919
 20
157.300779
 30
0.0
 11
121.397919
 21
172.952538
 31
0.0
  0
LINE
  5
3D1F
  8
0
 62
     0
 10
120.397919
 20
176.952538
 30
0.0
 11
120.397919
 21
157.230852
 31
0.0
  0
LINE
  5
3D20
  8
0
 62
     0
 10
119.197919
 20
176.952538
 30
0.0
 11
119.197919
 21
157.14694
 31
0.0
  0
LINE
  5
3D21
  8
0
 62
     0
 10
118.197919
 20
157.077013
 30
0.0
 11
118.197919
 21
171.952538
 31
0.0
  0
LINE
  5
3D22
  8
0
 62
     0
 10
118.047919
 20
162.752538
 30
0.0
 11
118.047919
 21
157.066524
 31
0.0
  0
LINE
  5
3D23
  8
0
 62
     0
 10
117.847919
 20
155.844556
 30
0.0
 11
117.847919
 21
167.252538
 31
0.0
  0
LINE
  5
3D24
  8
0
 62
     0
 10
117.847919
 20
157.052538
 30
0.0
 11
121.747919
 21
157.325253
 31
0.0
  0
LINE
  5
3D25
  8
0
 62
     0
 10
115.047919
 20
147.55564
 30
0.0
 11
115.047919
 21
147.327816
 31
0.0
  0
LINE
  5
3D26
  8
0
 62
     0
 10
119.047919
 20
157.311976
 30
0.0
 11
118.197919
 21
157.252538
 31
0.0
  0
LINE
  5
3D27
  8
0
 62
     0
 10
120.788578
 20
147.615851
 30
0.0
 11
120.92033
 21
147.615851
 31
0.0
  0
LINE
  5
3D28
  8
0
 62
     0
 10
121.397919
 20
157.476304
 30
0.0
 11
120.547919
 21
157.416866
 31
0.0
  0
LINE
  5
3D29
  8
0
 62
     0
 10
120.547919
 20
177.052538
 30
0.0
 11
119.047919
 21
177.052538
 31
0.0
  0
LINE
  5
3D2A
  8
0
 62
     0
 10
119.197919
 20
176.952538
 30
0.0
 11
120.547919
 21
176.952538
 31
0.0
  0
LINE
  5
3D2B
  8
0
 62
     0
 10
118.047919
 20
162.752538
 30
0.0
 11
117.847919
 21
162.654267
 31
0.0
  0
LINE
  5
3D2C
  8
0
 62
     0
 10
118.197919
 20
160.552538
 30
0.0
 11
118.047919
 21
160.552538
 31
0.0
  0
LINE
  5
3D2D
  8
0
 62
     0
 10
118.197919
 20
166.952538
 30
0.0
 11
119.047919
 21
166.952538
 31
0.0
  0
LINE
  5
3D2E
  8
0
 62
     0
 10
116.047919
 20
170.352538
 30
0.0
 11
116.047919
 21
171.652538
 31
0.0
  0
LINE
  5
3D2F
  8
0
 62
     0
 10
115.047919
 20
171.652538
 30
0.0
 11
115.047919
 21
171.952538
 31
0.0
  0
LINE
  5
3D30
  8
0
 62
     0
 10
116.797919
 20
170.552538
 30
0.0
 11
118.197919
 21
170.552538
 31
0.0
  0
LINE
  5
3D31
  8
0
 62
     0
 10
117.897919
 20
170.352538
 30
0.0
 11
117.897919
 21
170.552538
 31
0.0
  0
LINE
  5
3D32
  8
0
 62
     0
 10
116.797919
 20
170.552538
 30
0.0
 11
116.797919
 21
171.952538
 31
0.0
  0
LINE
  5
3D33
  8
0
 62
     0
 10
119.047919
 20
170.352538
 30
0.0
 11
119.197919
 21
170.352538
 31
0.0
  0
LINE
  5
3D34
  8
0
 62
     0
 10
118.197919
 20
171.952538
 30
0.0
 11
119.047919
 21
172.665773
 31
0.0
  0
LINE
  5
3D35
  8
0
 62
     0
 10
119.047919
 20
176.352538
 30
0.0
 11
119.197919
 21
176.352538
 31
0.0
  0
LINE
  5
3D36
  8
0
 62
     0
 10
119.047919
 20
175.952538
 30
0.0
 11
119.197919
 21
175.952538
 31
0.0
  0
LINE
  5
3D37
  8
0
 62
     0
 10
119.047919
 20
175.652538
 30
0.0
 11
119.197919
 21
175.652538
 31
0.0
  0
LINE
  5
3D38
  8
0
 62
     0
 10
121.397919
 20
162.826242
 30
0.0
 11
121.747919
 21
162.654267
 31
0.0
  0
LINE
  5
3D39
  8
0
 62
     0
 10
122.797919
 20
170.552538
 30
0.0
 11
121.397919
 21
170.552538
 31
0.0
  0
LINE
  5
3D3A
  8
0
 62
     0
 10
121.697919
 20
170.352538
 30
0.0
 11
121.697919
 21
170.552538
 31
0.0
  0
LINE
  5
3D3B
  8
0
 62
     0
 10
123.547919
 20
170.352538
 30
0.0
 11
123.547919
 21
171.652538
 31
0.0
  0
LINE
  5
3D3C
  8
0
 62
     0
 10
122.797919
 20
170.552538
 30
0.0
 11
122.797919
 21
171.952538
 31
0.0
  0
LINE
  5
3D3D
  8
0
 62
     0
 10
124.547919
 20
171.652538
 30
0.0
 11
124.547919
 21
171.952538
 31
0.0
  0
LINE
  5
3D3E
  8
0
 62
     0
 10
131.347919
 20
167.252538
 30
0.0
 11
131.347919
 21
157.096745
 31
0.0
  0
LINE
  5
3D3F
  8
0
 62
     0
 10
133.847919
 20
145.102538
 30
0.0
 11
133.547919
 21
145.102538
 31
0.0
  0
LINE
  5
3D40
  8
0
 62
     0
 10
133.847919
 20
144.602538
 30
0.0
 11
133.547919
 21
144.602538
 31
0.0
  0
ARC
  5
3D41
  8
0
 62
     0
 10
130.833512
 20
148.993109
 30
0.0
 40
0.5
 50
348.816451
 51
359.5
  0
ARC
  5
3D42
  8
0
 62
     0
 10
133.347919
 20
149.010752
 30
0.0
 40
0.2
 50
0.0
 51
101.019833
  0
ARC
  5
3D43
  8
0
 62
     0
 10
133.647919
 20
149.206928
 30
0.0
 40
0.2
 50
0.0
 51
100.810826
  0
ARC
  5
3D44
  8
0
 62
     0
 10
134.447919
 20
157.391432
 30
0.0
 40
1.0
 50
279.822676
 51
0.0
  0
ARC
  5
3D45
  8
0
 62
     0
 10
134.447919
 20
157.391432
 30
0.0
 40
0.700001
 50
324.349756
 51
0.0
  0
LINE
  5
3D46
  8
0
 62
     0
 10
135.016732
 20
156.983447
 30
0.0
 11
135.260509
 21
156.808596
 31
0.0
  0
LINE
  5
3D47
  8
0
 62
     0
 10
135.447919
 20
158.852538
 30
0.0
 11
135.547919
 21
158.852538
 31
0.0
  0
LINE
  5
3D48
  8
0
 62
     0
 10
135.147919
 20
157.391432
 30
0.0
 11
135.447919
 21
157.391432
 31
0.0
  0
POLYLINE
  5
3D49
  8
0
 62
     0
 66
     1
 10
0.0
 20
0.0
 30
0.0
  0
VERTEX
  5
4208
  8
0
 62
     0
 10
134.618518
 20
156.406091
 30
0.0
  0
VERTEX
  5
4209
  8
0
 62
     0
 10
134.73433
 20
156.453187
 30
0.0
  0
VERTEX
  5
420A
  8
0
 62
     0
 10
134.834317
 20
156.547365
 30
0.0
  0
VERTEX
  5
420B
  8
0
 62
     0
 10
134.914482
 20
156.676519
 30
0.0
  0
VERTEX
  5
420C
  8
0
 62
     0
 10
134.974673
 20
156.826536
 30
0.0
  0
VERTEX
  5
420D
  8
0
 62
     0
 10
135.016732
 20
156.983447
 30
0.0
  0
SEQEND
  5
420E
  8
0
 62
     0
  0
LINE
  5
3D4A
  8
0
 62
     0
 10
130.297919
 20
170.552538
 30
0.0
 11
131.697919
 21
170.552538
 31
0.0
  0
LINE
  5
3D4B
  8
0
 62
     0
 10
129.547919
 20
170.352538
 30
0.0
 11
129.547919
 21
171.652538
 31
0.0
  0
LINE
  5
3D4C
  8
0
 62
     0
 10
128.547919
 20
171.652538
 30
0.0
 11
128.547919
 21
171.952538
 31
0.0
  0
LINE
  5
3D4D
  8
0
 62
     0
 10
130.297919
 20
170.552538
 30
0.0
 11
130.297919
 21
171.952538
 31
0.0
  0
LINE
  5
3D4E
  8
0
 62
     0
 10
131.697919
 20
160.552538
 30
0.0
 11
131.697919
 21
171.952538
 31
0.0
  0
LINE
  5
3D4F
  8
0
 62
     0
 10
134.497919
 20
169.252538
 30
0.0
 11
132.497919
 21
169.252538
 31
0.0
  0
LINE
  5
3D50
  8
0
 62
     0
 10
134.247919
 20
169.052538
 30
0.0
 11
132.747919
 21
169.052538
 31
0.0
  0
LINE
  5
3D51
  8
0
 62
     0
 10
134.247919
 20
166.252538
 30
0.0
 11
132.747919
 21
166.252538
 31
0.0
  0
LINE
  5
3D52
  8
0
 62
     0
 10
134.247919
 20
165.752538
 30
0.0
 11
132.747919
 21
165.752538
 31
0.0
  0
LINE
  5
3D53
  8
0
 62
     0
 10
132.497919
 20
165.552538
 30
0.0
 11
134.497919
 21
165.552538
 31
0.0
  0
LINE
  5
3D54
  8
0
 62
     0
 10
132.497919
 20
161.552538
 30
0.0
 11
134.497919
 21
161.552538
 31
0.0
  0
LINE
  5
3D55
  8
0
 62
     0
 10
131.347919
 20
160.552538
 30
0.0
 11
135.447919
 21
160.552538
 31
0.0
  0
LINE
  5
3D56
  8
0
 62
     0
 10
131.547919
 20
162.752538
 30
0.0
 11
131.547919
 21
160.552538
 31
0.0
  0
LINE
  5
3D57
  8
0
 62
     0
 10
131.547919
 20
162.752538
 30
0.0
 11
131.347919
 21
162.654267
 31
0.0
  0
LINE
  5
3D58
  8
0
 62
     0
 10
132.747919
 20
160.552538
 30
0.0
 11
132.747919
 21
161.552538
 31
0.0
  0
LINE
  5
3D59
  8
0
 62
     0
 10
131.697919
 20
166.952538
 30
0.0
 11
132.497919
 21
166.952538
 31
0.0
  0
LINE
  5
3D5A
  8
0
 62
     0
 10
133.697919
 20
169.252538
 30
0.0
 11
133.697919
 21
169.052538
 31
0.0
  0
LINE
  5
3D5B
  8
0
 62
     0
 10
133.047919
 20
169.252538
 30
0.0
 11
133.047919
 21
169.052538
 31
0.0
  0
LINE
  5
3D5C
  8
0
 62
     0
 10
132.747919
 20
165.552538
 30
0.0
 11
132.747919
 21
169.052538
 31
0.0
  0
LINE
  5
3D5D
  8
0
 62
     0
 10
134.247919
 20
160.552538
 30
0.0
 11
134.247919
 21
161.552538
 31
0.0
  0
LINE
  5
3D5E
  8
0
 62
     0
 10
134.247919
 20
165.552538
 30
0.0
 11
134.247919
 21
169.052538
 31
0.0
  0
LINE
  5
3D5F
  8
0
 62
     0
 10
134.497919
 20
170.452538
 30
0.0
 11
132.497919
 21
170.452538
 31
0.0
  0
LINE
  5
3D60
  8
0
 62
     0
 10
133.047919
 20
176.252538
 30
0.0
 11
133.047919
 21
170.452538
 31
0.0
  0
LINE
  5
3D61
  8
0
 62
     0
 10
132.847919
 20
176.552538
 30
0.0
 11
132.847919
 21
170.552538
 31
0.0
  0
LINE
  5
3D62
  8
0
 62
     0
 10
132.847919
 20
170.552538
 30
0.0
 11
132.497919
 21
170.552538
 31
0.0
  0
LINE
  5
3D63
  8
0
 62
     0
 10
131.447919
 20
170.552538
 30
0.0
 11
131.447919
 21
170.352538
 31
0.0
  0
LINE
  5
3D64
  8
0
 62
     0
 10
131.697919
 20
171.952538
 30
0.0
 11
132.497919
 21
172.623818
 31
0.0
  0
LINE
  5
3D65
  8
0
 62
     0
 10
133.047919
 20
171.552538
 30
0.0
 11
132.847919
 21
171.552538
 31
0.0
  0
LINE
  5
3D66
  8
0
 62
     0
 10
132.847919
 20
170.952538
 30
0.0
 11
133.047919
 21
170.952538
 31
0.0
  0
LINE
  5
3D67
  8
0
 62
     0
 10
132.497919
 20
176.552538
 30
0.0
 11
133.697919
 21
176.552538
 31
0.0
  0
LINE
  5
3D68
  8
0
 62
     0
 10
133.697919
 20
176.252538
 30
0.0
 11
133.047919
 21
176.252538
 31
0.0
  0
LINE
  5
3D69
  8
0
 62
     0
 10
131.797919
 20
201.252538
 30
0.0
 11
124.297919
 21
201.252538
 31
0.0
  0
LINE
  5
3D6A
  8
0
 62
     0
 10
121.797919
 20
196.252538
 30
0.0
 11
133.397919
 21
196.252538
 31
0.0
  0
LINE
  5
3D6B
  8
0
 62
     0
 10
131.297919
 20
193.152538
 30
0.0
 11
121.797919
 21
193.152538
 31
0.0
  0
LINE
  5
3D6C
  8
0
 62
     0
 10
121.797919
 20
191.652538
 30
0.0
 11
131.297919
 21
191.652538
 31
0.0
  0
LINE
  5
3D6D
  8
0
 62
     0
 10
131.297919
 20
190.152538
 30
0.0
 11
121.797919
 21
190.152538
 31
0.0
  0
LINE
  5
3D6E
  8
0
 62
     0
 10
121.797919
 20
188.652538
 30
0.0
 11
131.297919
 21
188.652538
 31
0.0
  0
LINE
  5
3D6F
  8
0
 62
     0
 10
131.297919
 20
187.152538
 30
0.0
 11
121.797919
 21
187.152538
 31
0.0
  0
LINE
  5
3D70
  8
0
 62
     0
 10
121.797919
 20
185.652538
 30
0.0
 11
131.297919
 21
185.652538
 31
0.0
  0
LINE
  5
3D71
  8
0
 62
     0
 10
131.297919
 20
184.152538
 30
0.0
 11
121.797919
 21
184.152538
 31
0.0
  0
LINE
  5
3D72
  8
0
 62
     0
 10
121.797919
 20
182.652538
 30
0.0
 11
131.297919
 21
182.652538
 31
0.0
  0
ARC
  5
3D73
  8
0
 62
     0
 10
123.697919
 20
199.252538
 30
0.0
 40
0.5
 50
270.0
 51
0.0
  0
LINE
  5
3D74
  8
0
 62
     0
 10
124.297919
 20
201.252538
 30
0.0
 11
124.297919
 21
198.552538
 31
0.0
  0
LINE
  5
3D75
  8
0
 62
     0
 10
119.047919
 20
197.552538
 30
0.0
 11
120.547919
 21
197.552538
 31
0.0
  0
LINE
  5
3D76
  8
0
 62
     0
 10
116.747919
 20
190.152538
 30
0.0
 11
116.747919
 21
188.652538
 31
0.0
  0
LINE
  5
3D77
  8
0
 62
     0
 10
116.547919
 20
188.652538
 30
0.0
 11
116.547919
 21
190.152538
 31
0.0
  0
LINE
  5
3D78
  8
0
 62
     0
 10
116.747919
 20
184.152538
 30
0.0
 11
116.747919
 21
182.652538
 31
0.0
  0
LINE
  5
3D79
  8
0
 62
     0
 10
116.547919
 20
182.652538
 30
0.0
 11
116.547919
 21
184.152538
 31
0.0
  0
LINE
  5
3D7A
  8
0
 62
     0
 10
116.747919
 20
187.152538
 30
0.0
 11
116.747919
 21
185.652538
 31
0.0
  0
LINE
  5
3D7B
  8
0
 62
     0
 10
116.547919
 20
185.652538
 30
0.0
 11
116.547919
 21
187.152538
 31
0.0
  0
LINE
  5
3D7C
  8
0
 62
     0
 10
116.747919
 20
193.152538
 30
0.0
 11
116.747919
 21
191.652538
 31
0.0
  0
LINE
  5
3D7D
  8
0
 62
     0
 10
116.547919
 20
191.652538
 30
0.0
 11
116.547919
 21
193.152538
 31
0.0
  0
LINE
  5
3D7E
  8
0
 62
     0
 10
123.047919
 20
190.152538
 30
0.0
 11
123.047919
 21
188.652538
 31
0.0
  0
LINE
  5
3D7F
  8
0
 62
     0
 10
122.847919
 20
190.152538
 30
0.0
 11
122.847919
 21
188.652538
 31
0.0
  0
LINE
  5
3D80
  8
0
 62
     0
 10
123.047919
 20
184.152538
 30
0.0
 11
123.047919
 21
182.652538
 31
0.0
  0
LINE
  5
3D81
  8
0
 62
     0
 10
122.847919
 20
184.152538
 30
0.0
 11
122.847919
 21
182.652538
 31
0.0
  0
LINE
  5
3D82
  8
0
 62
     0
 10
123.047919
 20
187.152538
 30
0.0
 11
123.047919
 21
185.652538
 31
0.0
  0
LINE
  5
3D83
  8
0
 62
     0
 10
122.847919
 20
187.152538
 30
0.0
 11
122.847919
 21
185.652538
 31
0.0
  0
ARC
  5
3D84
  8
0
 62
     0
 10
125.047919
 20
192.952538
 30
0.0
 40
2.0
 50
174.260799
 51
180.0
  0
LINE
  5
3D85
  8
0
 62
     0
 10
123.047919
 20
192.952538
 30
0.0
 11
123.047919
 21
191.652538
 31
0.0
  0
LINE
  5
3D86
  8
0
 62
     0
 10
122.847919
 20
193.152538
 30
0.0
 11
122.847919
 21
191.652538
 31
0.0
  0
LINE
  5
3D87
  8
0
 62
     0
 10
122.697919
 20
198.552538
 30
0.0
 11
124.297919
 21
198.552538
 31
0.0
  0
LINE
  5
3D88
  8
0
 62
     0
 10
123.697919
 20
198.752538
 30
0.0
 11
122.697919
 21
198.752538
 31
0.0
  0
LINE
  5
3D89
  8
0
 62
     0
 10
122.847919
 20
196.252538
 30
0.0
 11
122.847919
 21
198.552538
 31
0.0
  0
LINE
  5
3D8A
  8
0
 62
     0
 10
122.697919
 20
198.752538
 30
0.0
 11
122.697919
 21
196.252538
 31
0.0
  0
ARC
  5
3D8B
  8
0
 62
     0
 10
122.197919
 20
197.552538
 30
0.0
 40
3.9
 50
67.380135
 51
112.619865
  0
LINE
  5
3D8C
  8
0
 62
     0
 10
124.197919
 20
201.152538
 30
0.0
 11
124.197919
 21
199.252538
 31
0.0
  0
ARC
  5
3D8D
  8
0
 62
     0
 10
132.397919
 20
199.252538
 30
0.0
 40
0.5
 50
180.0
 51
270.0
  0
LINE
  5
3D8E
  8
0
 62
     0
 10
131.797919
 20
198.552538
 30
0.0
 11
131.797919
 21
201.252538
 31
0.0
  0
LINE
  5
3D8F
  8
0
 62
     0
 10
130.047919
 20
190.152538
 30
0.0
 11
130.047919
 21
188.652538
 31
0.0
  0
LINE
  5
3D90
  8
0
 62
     0
 10
130.047919
 20
184.152538
 30
0.0
 11
130.047919
 21
182.652538
 31
0.0
  0
LINE
  5
3D91
  8
0
 62
     0
 10
130.047919
 20
187.152538
 30
0.0
 11
130.047919
 21
185.652538
 31
0.0
  0
ARC
  5
3D92
  8
0
 62
     0
 10
128.047919
 20
192.952538
 30
0.0
 40
2.0
 50
0.0
 51
5.827235
  0
LINE
  5
3D93
  8
0
 62
     0
 10
130.712273
 20
192.952538
 30
0.0
 11
130.047919
 21
192.952538
 31
0.0
  0
LINE
  5
3D94
  8
0
 62
     0
 10
130.684673
 20
193.152538
 30
0.0
 11
130.712273
 21
192.952538
 31
0.0
  0
LINE
  5
3D95
  8
0
 62
     0
 10
130.047919
 20
192.952538
 30
0.0
 11
130.047919
 21
191.652538
 31
0.0
  0
LINE
  5
3D96
  8
0
 62
     0
 10
130.711826
 20
193.152538
 30
0.0
 11
130.712273
 21
192.952538
 31
0.0
  0
LINE
  5
3D97
  8
0
 62
     0
 10
134.497919
 20
181.752538
 30
0.0
 11
132.497919
 21
181.752538
 31
0.0
  0
LINE
  5
3D98
  8
0
 62
     0
 10
134.497919
 20
179.952538
 30
0.0
 11
132.497919
 21
179.952538
 31
0.0
  0
LINE
  5
3D99
  8
0
 62
     0
 10
135.447919
 20
181.489183
 30
0.0
 11
135.547919
 21
181.489183
 31
0.0
  0
LINE
  5
3D9A
  8
0
 62
     0
 10
135.447919
 20
180.501968
 30
0.0
 11
135.547919
 21
180.501968
 31
0.0
  0
LINE
  5
3D9B
  8
0
 62
     0
 10
135.547919
 20
186.603454
 30
0.0
 11
135.447919
 21
186.603454
 31
0.0
  0
LINE
  5
3D9C
  8
0
 62
     0
 10
133.397919
 20
198.752538
 30
0.0
 11
132.397919
 21
198.752538
 31
0.0
  0
LINE
  5
3D9D
  8
0
 62
     0
 10
131.797919
 20
198.552538
 30
0.0
 11
133.397919
 21
198.552538
 31
0.0
  0
LINE
  5
3D9E
  8
0
 62
     0
 10
133.397919
 20
196.252538
 30
0.0
 11
133.397919
 21
198.752538
 31
0.0
  0
LINE
  5
3D9F
  8
0
 62
     0
 10
133.247919
 20
196.252538
 30
0.0
 11
133.247919
 21
198.552538
 31
0.0
  0
ARC
  5
3DA0
  8
0
 62
     0
 10
133.447919
 20
197.552538
 30
0.0
 40
3.9
 50
67.380135
 51
112.619865
  0
LINE
  5
3DA1
  8
0
 62
     0
 10
135.147919
 20
201.152538
 30
0.0
 11
131.797919
 21
201.152538
 31
0.0
  0
LINE
  5
3DA2
  8
0
 62
     0
 10
135.447919
 20
200.852538
 30
0.0
 11
131.897919
 21
200.852538
 31
0.0
  0
LINE
  5
3DA3
  8
0
 62
     0
 10
131.897919
 20
199.252538
 30
0.0
 11
131.897919
 21
201.152538
 31
0.0
  0
ARC
  5
3DA4
  8
0
 62
     0
 10
135.147919
 20
200.852538
 30
0.0
 40
0.3
 50
0.0
 51
90.0
  0
ENDSEC
  0
EOF
