  0
SECTION
  2
HEADER
  9
$ACADVER
  1
AC1012
  9
$DWGCODEPAGE
  3
ANSI_1252
  9
$INSBASE
 10
0.0
 20
0.0
 30
0.0
  9
$EXTMIN
 10
3.151563
 20
2.168407
 30
-0.001526
  9
$EXTMAX
 10
108.162124
 20
135.682576
 30
0.0
  9
$LIMMIN
 10
19.077216
 20
43.616976
  9
$LIMMAX
 10
194.084622
 20
146.65737
  9
$ORTHOMODE
 70
     0
  9
$REGENMODE
 70
     1
  9
$FILLMODE
 70
     1
  9
$QTEXTMODE
 70
     0
  9
$MIRRTEXT
 70
     1
  9
$DRAGMODE
 70
     2
  9
$LTSCALE
 40
10.0
  9
$OSMODE
 70
    37
  9
$ATTMODE
 70
     1
  9
$TEXTSIZE
 40
0.2
  9
$TRACEWID
 40
0.05
  9
$TEXTSTYLE
  7
STANDARD
  9
$CLAYER
  8
ALPHA
  9
$CELTYPE
  6
CONTINUOUS
  9
$CECOLOR
 62
   256
  9
$CELTSCALE
 40
1.0
  9
$DELOBJ
 70
     1
  9
$DISPSILH
 70
     0
  9
$DIMSCALE
 40
1.0
  9
$DIMASZ
 40
0.18
  9
$DIMEXO
 40
0.0625
  9
$DIMDLI
 40
0.38
  9
$DIMRND
 40
0.0
  9
$DIMDLE
 40
0.0
  9
$DIMEXE
 40
0.18
  9
$DIMTP
 40
0.0
  9
$DIMTM
 40
0.0
  9
$DIMTXT
 40
0.18
  9
$DIMCEN
 40
0.09
  9
$DIMTSZ
 40
0.0
  9
$DIMTOL
 70
     0
  9
$DIMLIM
 70
     0
  9
$DIMTIH
 70
     1
  9
$DIMTOH
 70
     1
  9
$DIMSE1
 70
     0
  9
$DIMSE2
 70
     0
  9
$DIMTAD
 70
     0
  9
$DIMZIN
 70
     0
  9
$DIMBLK
  1

  9
$DIMASO
 70
     1
  9
$DIMSHO
 70
     1
  9
$DIMPOST
  1

  9
$DIMAPOST
  1

  9
$DIMALT
 70
     0
  9
$DIMALTD
 70
     2
  9
$DIMALTF
 40
25.4
  9
$DIMLFAC
 40
1.0
  9
$DIMTOFL
 70
     0
  9
$DIMTVP
 40
0.0
  9
$DIMTIX
 70
     0
  9
$DIMSOXD
 70
     0
  9
$DIMSAH
 70
     0
  9
$DIMBLK1
  1

  9
$DIMBLK2
  1

  9
$DIMSTYLE
  2
STANDARD
  9
$DIMCLRD
 70
     0
  9
$DIMCLRE
 70
     0
  9
$DIMCLRT
 70
     0
  9
$DIMTFAC
 40
1.0
  9
$DIMGAP
 40
0.09
  9
$DIMJUST
 70
     0
  9
$DIMSD1
 70
     0
  9
$DIMSD2
 70
     0
  9
$DIMTOLJ
 70
     1
  9
$DIMTZIN
 70
     0
  9
$DIMALTZ
 70
     0
  9
$DIMALTTZ
 70
     0
  9
$DIMFIT
 70
     3
  9
$DIMUPT
 70
     0
  9
$DIMUNIT
 70
     2
  9
$DIMDEC
 70
     4
  9
$DIMTDEC
 70
     4
  9
$DIMALTU
 70
     2
  9
$DIMALTTD
 70
     2
  9
$DIMTXSTY
  7
STANDARD
  9
$DIMAUNIT
 70
     0
  9
$LUNITS
 70
     2
  9
$LUPREC
 70
     4
  9
$SKETCHINC
 40
0.1
  9
$FILLETRAD
 40
0.0
  9
$AUNITS
 70
     0
  9
$AUPREC
 70
     0
  9
$MENU
  1
acad
  9
$ELEVATION
 40
0.0
  9
$PELEVATION
 40
0.0
  9
$THICKNESS
 40
0.0
  9
$LIMCHECK
 70
     0
  9
$BLIPMODE
 70
     0
  9
$CHAMFERA
 40
0.0
  9
$CHAMFERB
 40
0.0
  9
$CHAMFERC
 40
0.0
  9
$CHAMFERD
 40
0.0
  9
$SKPOLY
 70
     0
  9
$TDCREATE
 40
2453634.413430799
  9
$TDUPDATE
 40
2453893.725149270
  9
$TDINDWG
 40
1.8209279398
  9
$TDUSRTIMER
 40
1.8209268519
  9
$USRTIMER
 70
     1
  9
$ANGBASE
 50
0.0
  9
$ANGDIR
 70
     0
  9
$PDMODE
 70
     0
  9
$PDSIZE
 40
0.0
  9
$PLINEWID
 40
0.0
  9
$COORDS
 70
     1
  9
$SPLFRAME
 70
     0
  9
$SPLINETYPE
 70
     6
  9
$SPLINESEGS
 70
     8
  9
$ATTDIA
 70
     0
  9
$ATTREQ
 70
     1
  9
$HANDLING
 70
     1
  9
$HANDSEED
  5
12A80
  9
$SURFTAB1
 70
     6
  9
$SURFTAB2
 70
     6
  9
$SURFTYPE
 70
     6
  9
$SURFU
 70
     6
  9
$SURFV
 70
     6
  9
$UCSNAME
  2

  9
$UCSORG
 10
0.0
 20
0.0
 30
0.0
  9
$UCSXDIR
 10
1.0
 20
0.0
 30
0.0
  9
$UCSYDIR
 10
0.0
 20
1.0
 30
0.0
  9
$PUCSNAME
  2

  9
$PUCSORG
 10
0.0
 20
0.0
 30
0.0
  9
$PUCSXDIR
 10
1.0
 20
0.0
 30
0.0
  9
$PUCSYDIR
 10
0.0
 20
1.0
 30
0.0
  9
$USERI1
 70
     0
  9
$USERI2
 70
     0
  9
$USERI3
 70
     0
  9
$USERI4
 70
     0
  9
$USERI5
 70
     0
  9
$USERR1
 40
0.0
  9
$USERR2
 40
0.0
  9
$USERR3
 40
0.0
  9
$USERR4
 40
0.0
  9
$USERR5
 40
0.0
  9
$WORLDVIEW
 70
     1
  9
$SHADEDGE
 70
     3
  9
$SHADEDIF
 70
    70
  9
$TILEMODE
 70
     1
  9
$MAXACTVP
 70
    16
  9
$PINSBASE
 10
0.0
 20
0.0
 30
0.0
  9
$PLIMCHECK
 70
     0
  9
$PEXTMIN
 10
1.000000E+20
 20
1.000000E+20
 30
1.000000E+20
  9
$PEXTMAX
 10
-1.000000E+20
 20
-1.000000E+20
 30
-1.000000E+20
  9
$PLIMMIN
 10
0.0
 20
0.0
  9
$PLIMMAX
 10
12.0
 20
9.0
  9
$UNITMODE
 70
     0
  9
$VISRETAIN
 70
     0
  9
$PLINEGEN
 70
     1
  9
$PSLTSCALE
 70
     0
  9
$TREEDEPTH
 70
  3020
  9
$PICKSTYLE
 70
     0
  9
$CMLSTYLE
  2
STANDARD
  9
$CMLJUST
 70
     0
  9
$CMLSCALE
 40
1.0
  9
$SAVEIMAGES
 70
     0
  0
ENDSEC
  0
SECTION
  2
CLASSES
  0
CLASS
  1
LWPOLYLINE
  2
AcDbPolyline
  3
"AutoCAD"
 90
    32768
280
     0
281
     1
  0
CLASS
  1
IMAGE
  2
AcDbRasterImage
  3
ISM
 90
    32895
280
     0
281
     1
  0
CLASS
  1
OLE2FRAME
  2
AcDbOle2Frame
  3
""
 90
    32768
280
     0
281
     1
  0
CLASS
  1
HATCH
  2
AcDbHatch
  3
"ACAD_SEDONA"
 90
    32768
280
     0
281
     1
  0
CLASS
  1
DICTIONARYVAR
  2
AcDbDictionaryVar
  3
"AutoCAD"
 90
    32768
280
     0
281
     0
  0
CLASS
  1
RASTERVARIABLES
  2
AcDbRasterVariables
  3
ISM
 90
    32768
280
     0
281
     0
  0
CLASS
  1
IMAGEDEF
  2
AcDbRasterImageDef
  3
ISM
 90
    32768
280
     0
281
     0
  0
CLASS
  1
IMAGEDEF_REACTOR
  2
AcDbRasterImageDefReactor
  3
ISM
 90
    32769
280
     0
281
     0
  0
CLASS
  1
SPATIAL_FILTER
  2
AcDbSpatialFilter
  3
"Acad"
 90
    32768
280
     0
281
     0
  0
CLASS
  1
XRECORD
  2
AcDbXrecord
  3
"<Built In>"
 90
    32768
280
     0
281
     0
  0
CLASS
  1
SORTENTSTABLE
  2
AcDbSortentsTable
  3
"AutoCAD"
 90
    32768
280
     0
281
     0
  0
CLASS
  1
LAYER_INDEX
  2
AcDbLayerIndex
  3
"Acad"
 90
    32768
280
     0
281
     0
  0
CLASS
  1
SPATIAL_INDEX
  2
AcDbSpatialIndex
  3
"Acad"
 90
    32768
280
     0
281
     0
  0
CLASS
  1
OBJECT_PTR
  2
CAseDLPNTableRecord
  3
ASE-LPNTableRecord
 90
    32769
280
     0
281
     0
  0
CLASS
  1
LAYOUT
  2
AcDbLayout
  3
AutoCAD 2000
 90
    32768
280
     0
281
     0
  0
CLASS
  1
PLOTSETTINGS
  2
AcDbPlotSettings
  3
AutoCAD 2000
 90
    32768
280
     0
281
     0
  0
CLASS
  1
ACDBDICTIONARYWDFLT
  2
AcDbDictionaryWithDefault
  3
AutoCAD 2000
 90
    32768
280
     0
281
     0
  0
CLASS
  1
ACDBPLACEHOLDER
  2
AcDbPlaceHolder
  3
AutoCAD 2000
 90
    32768
280
     0
281
     0
  0
CLASS
  1
VBA_PROJECT
  2
AcDbVbaProject
  3
acad
 90
    32768
280
     0
281
     0
  0
CLASS
  1
WIPEOUT
  2
AcDbWipeout
  3
WipeOut|AutoCAD Express Tool|expresstools@autodesk.com
 90
    32895
280
     0
281
     1
  0
CLASS
  1
WIPEOUTVARIABLES
  2
AcDbWipeoutVariables
  3
WipeOut|AutoCAD Express Tool|expresstools@autodesk.com
 90
    32768
280
     0
281
     0
  0
CLASS
  1
RTEXT
  2
RText
  3
RText|AutoCAD Express Tool|expresstools@autodesk.com
 90
    32768
280
     0
281
     1
  0
CLASS
  1
ARCALIGNEDTEXT
  2
AcDbArcAlignedText
  3
ATEXT|AutoCAD Express Tool|expresstools@autodesk.com
 90
    32768
280
     0
281
     1
  0
CLASS
  1
TABLESTYLE
  2
AcDbTableStyle
  3
ObjectDBX Classes
 90
    34815
280
     0
281
     0
  0
CLASS
  1
ACAD_PROXY_OBJECT_WRAPPER
  2
AcDbProxyObjectWrapper
  3
AutoCAD 2000
 90
    32768
280
     0
281
     0
  0
CLASS
  1
LONG_TRANSACTION
  2
AcDbLongTransaction
  3
AutoCAD 2000
 90
    32768
280
     0
281
     0
  0
CLASS
  1
LWPOLYLINE
  2
AcDbPolyline
  3
"AutoCAD"
 90
    32768
280
     0
281
     1
  0
CLASS
  1
HATCH
  2
AcDbHatch
  3
"ACAD_SEDONA"
 90
    32768
280
     0
281
     1
  0
CLASS
  1
XRECORD
  2
AcDbXrecord
  3
"<Built In>"
 90
    32768
280
     0
281
     0
  0
ENDSEC
  0
SECTION
  2
TABLES
  0
TABLE
  2
VPORT
  5
7
100
AcDbSymbolTable
 70
     2
  0
VPORT
  5
12A7F
100
AcDbSymbolTableRecord
100
AcDbViewportTableRecord
  2
*ACTIVE
 70
     0
 10
0.0
 20
0.0
 11
1.0
 21
1.0
 12
55.656843
 22
68.925491
 13
0.0
 23
0.0
 14
1.0
 24
1.0
 15
0.0
 25
0.0
 16
0.0
 26
0.0
 36
1.0
 17
0.0
 27
0.0
 37
0.0
 40
134.902532
 41
1.673611
 42
50.0
 43
0.0
 44
0.0
 50
0.0
 51
0.0
 71
     0
 72
   100
 73
     1
 74
     2
 75
     0
 76
     0
 77
     0
 78
     0
  0
ENDTAB
  0
TABLE
  2
LTYPE
  5
4
100
AcDbSymbolTable
 70
     2
  0
LTYPE
  5
11
102
{ACAD_XDICTIONARY
360
12A24
102
}
100
AcDbSymbolTableRecord
100
AcDbLinetypeTableRecord
  2
BYBLOCK
 70
     0
  3

 72
    65
 73
     0
 40
0.0
  0
LTYPE
  5
12
102
{ACAD_XDICTIONARY
360
12A26
102
}
100
AcDbSymbolTableRecord
100
AcDbLinetypeTableRecord
  2
BYLAYER
 70
     0
  3

 72
    65
 73
     0
 40
0.0
  0
LTYPE
  5
13
102
{ACAD_XDICTIONARY
360
12A28
102
}
100
AcDbSymbolTableRecord
100
AcDbLinetypeTableRecord
  2
CONTINUOUS
 70
     0
  3
Solid line
 72
    65
 73
     0
 40
0.0
  0
LTYPE
  5
725
100
AcDbSymbolTableRecord
100
AcDbLinetypeTableRecord
  2
AXES2
 70
     0
  3
___ _ ___ _ ___ _ ___ _ ___ _ ___ _ ___ _ ___ _
 72
    65
 73
     4
 40
1.125
 49
0.75
 74
     0
 49
-0.125
 74
     0
 49
0.125
 74
     0
 49
-0.125
 74
     0
  0
ENDTAB
  0
TABLE
  2
LAYER
  5
2
102
{ACAD_XDICTIONARY
360
26F0
102
}
100
AcDbSymbolTable
 70
     5
  0
LAYER
  5
14
100
AcDbSymbolTableRecord
100
AcDbLayerTableRecord
  2
0
 70
     0
 62
     7
  6
CONTINUOUS
  0
LAYER
  5
6EC
102
{ACAD_XDICTIONARY
360
12A22
102
}
100
AcDbSymbolTableRecord
100
AcDbLayerTableRecord
  2
DEFPOINTS
 70
     0
 62
     7
  6
CONTINUOUS
  0
LAYER
  5
727
100
AcDbSymbolTableRecord
100
AcDbLayerTableRecord
  2
COTATION1
 70
     0
 62
     2
  6
CONTINUOUS
  0
LAYER
  5
728
100
AcDbSymbolTableRecord
100
AcDbLayerTableRecord
  2
AXE
 70
     0
 62
    80
  6
AXES2
  0
LAYER
  5
729
100
AcDbSymbolTableRecord
100
AcDbLayerTableRecord
  2
ALPHA
 70
     0
 62
   254
  6
CONTINUOUS
  0
ENDTAB
  0
TABLE
  2
STYLE
  5
3
100
AcDbSymbolTable
 70
     2
  0
STYLE
  5
17
102
{ACAD_XDICTIONARY
360
12A2E
102
}
100
AcDbSymbolTableRecord
100
AcDbTextStyleTableRecord
  2
STANDARD
 70
     0
 40
0.0
 41
1.0
 50
0.0
 71
     0
 42
0.0
  3
txt
  4

  0
STYLE
  5
72B
100
AcDbSymbolTableRecord
100
AcDbTextStyleTableRecord
  2
ROMANS
 70
     0
 40
0.0
 41
1.0
 50
0.0
 71
     0
 42
6.0
  3
romans
  4

  0
ENDTAB
  0
TABLE
  2
VIEW
  5
5
100
AcDbSymbolTable
 70
     0
  0
ENDTAB
  0
TABLE
  2
UCS
  5
6
100
AcDbSymbolTable
 70
     0
  0
ENDTAB
  0
TABLE
  2
APPID
  5
8
100
AcDbSymbolTable
 70
     4
  0
APPID
  5
16
100
AcDbSymbolTableRecord
100
AcDbRegAppTableRecord
  2
ACAD
 70
     0
  0
APPID
  5
26EF
102
{ACAD_XDICTIONARY
360
12A2A
102
}
100
AcDbSymbolTableRecord
100
AcDbRegAppTableRecord
  2
ACAECLAYERSTANDARD
 70
     0
  0
APPID
  5
320E
100
AcDbSymbolTableRecord
100
AcDbRegAppTableRecord
  2
DCO15
 70
     0
  0
APPID
  5
3569
102
{ACAD_XDICTIONARY
360
12A2C
102
}
100
AcDbSymbolTableRecord
100
AcDbRegAppTableRecord
  2
ACAD_EXEMPT_FROM_CAD_STAND
 70
     0
  0
ENDTAB
  0
TABLE
  2
DIMSTYLE
  5
9
100
AcDbSymbolTable
 70
     2
  0
DIMSTYLE
105
18
102
{ACAD_XDICTIONARY
360
12A20
102
}
100
AcDbSymbolTableRecord
100
AcDbDimStyleTableRecord
  2
STANDARD
 70
     0
  3

  4

  5

  6

  7

 40
1.0
 41
0.18
 42
0.0625
 43
0.38
 44
0.18
 45
0.0
 46
0.0
 47
0.0
 48
0.0
140
0.18
141
0.09
142
0.0
143
25.4
144
1.0
145
0.0
146
1.0
147
0.09
 71
     0
 72
     0
 73
     1
 74
     1
 75
     0
 76
     0
 77
     0
 78
     0
170
     0
171
     2
172
     0
173
     0
174
     0
175
     0
176
     0
177
     0
178
     0
270
     2
271
     4
272
     4
273
     2
274
     2
340
17
275
     0
280
     0
281
     0
282
     0
283
     1
284
     0
285
     0
286
     0
287
     3
288
     0
  0
DIMSTYLE
105
72C
102
{ACAD_XDICTIONARY
360
12A5E
102
}
102
{ACAD_REACTORS
330
11CC3
330
11E0E
330
11E37
330
12638
330
12639
330
1263A
330
1263B
102
}
100
AcDbSymbolTableRecord
100
AcDbDimStyleTableRecord
  2
SC_DEFAUT
 70
     0
  3

  4

  5
OPEN30
  6

  7

 40
1.0
 41
5.0
 42
2.0
 43
0.38
 44
2.5
 45
0.0
 46
0.0
 47
0.0
 48
0.0
140
2.5
141
0.0
142
0.0
143
25.4
144
1.0
145
0.0
146
1.0
147
2.0
 71
     0
 72
     0
 73
     1
 74
     1
 75
     0
 76
     0
 77
     1
 78
    12
170
     0
171
     2
172
     0
173
     0
174
     0
175
     0
176
     0
177
     0
178
     0
270
     2
271
     1
272
     1
273
     2
274
     2
340
72B
275
     0
280
     0
281
     0
282
     0
283
     1
284
    12
285
    12
286
    12
287
     5
288
     0
  0
ENDTAB
  0
TABLE
  2
BLOCK_RECORD
  5
1
100
AcDbSymbolTable
 70
     9
  0
BLOCK_RECORD
  5
A
102
{ACAD_XDICTIONARY
360
7D7
102
}
100
AcDbSymbolTableRecord
100
AcDbBlockTableRecord
  2
*MODEL_SPACE
  0
BLOCK_RECORD
  5
B
102
{ACAD_XDICTIONARY
360
12A54
102
}
100
AcDbSymbolTableRecord
100
AcDbBlockTableRecord
  2
*PAPER_SPACE
  0
BLOCK_RECORD
  5
6FA
100
AcDbSymbolTableRecord
100
AcDbBlockTableRecord
  2
_OPEN30
  0
BLOCK_RECORD
  5
11CC7
100
AcDbSymbolTableRecord
100
AcDbBlockTableRecord
  2
*D1
  0
BLOCK_RECORD
  5
11E0F
100
AcDbSymbolTableRecord
100
AcDbBlockTableRecord
  2
*D2
  0
BLOCK_RECORD
  5
11E38
100
AcDbSymbolTableRecord
100
AcDbBlockTableRecord
  2
*D3
  0
BLOCK_RECORD
  5
11E99
102
{ACAD_XDICTIONARY
360
12A1E
102
}
100
AcDbSymbolTableRecord
100
AcDbBlockTableRecord
  2
_DOTSMALL
  0
BLOCK_RECORD
  5
1263C
100
AcDbSymbolTableRecord
100
AcDbBlockTableRecord
  2
*D5
  0
BLOCK_RECORD
  5
12649
100
AcDbSymbolTableRecord
100
AcDbBlockTableRecord
  2
*D6
  0
BLOCK_RECORD
  5
12656
100
AcDbSymbolTableRecord
100
AcDbBlockTableRecord
  2
*D7
  0
BLOCK_RECORD
  5
12663
100
AcDbSymbolTableRecord
100
AcDbBlockTableRecord
  2
*D8
  0
ENDTAB
  0
ENDSEC
  0
SECTION
  2
BLOCKS
  0
BLOCK
  5
D
100
AcDbEntity
  8
0
100
AcDbBlockBegin
  2
*MODEL_SPACE
 70
     0
 10
0.0
 20
0.0
 30
0.0
  3
*MODEL_SPACE
  1

  0
ENDBLK
  5
E
100
AcDbEntity
  8
0
100
AcDbBlockEnd
  0
BLOCK
  5
F
100
AcDbEntity
 67
     1
  8
0
100
AcDbBlockBegin
  2
*PAPER_SPACE
 70
     0
 10
0.0
 20
0.0
 30
0.0
  3
*PAPER_SPACE
  1

  0
ENDBLK
  5
10
100
AcDbEntity
 67
     1
  8
0
100
AcDbBlockEnd
  0
BLOCK
  5
6FB
100
AcDbEntity
  8
0
100
AcDbBlockBegin
  2
_OPEN30
 70
     0
 10
0.0
 20
0.0
 30
0.0
  3
_OPEN30
  1

  0
LINE
  5
6FC
100
AcDbEntity
  8
COTATION1
 62
     0
100
AcDbLine
 10
-1.0
 20
0.267949
 30
0.0
 11
0.0
 21
0.0
 31
0.0
1001
ACAD
1000
RTLwPs
1070
   158
  0
LINE
  5
6FD
100
AcDbEntity
  8
COTATION1
 62
     0
100
AcDbLine
 10
0.0
 20
0.0
 30
0.0
 11
-1.0
 21
-0.267949
 31
0.0
1001
ACAD
1000
RTLwPs
1070
   158
  0
LINE
  5
6FE
100
AcDbEntity
  8
COTATION1
 62
     0
100
AcDbLine
 10
0.0
 20
0.0
 30
0.0
 11
-1.0
 21
0.0
 31
0.0
1001
ACAD
1000
RTLwPs
1070
   158
  0
ENDBLK
  5
6FF
100
AcDbEntity
  8
0
100
AcDbBlockEnd
  0
BLOCK
  5
11CD1
100
AcDbEntity
  8
0
100
AcDbBlockBegin
  2
*D1
 70
     1
 10
0.0
 20
0.0
 30
0.0
  3
*D1
  1

1001
ACAD
1000
RTLwPs
1070
   128
  0
LINE
  5
129BE
100
AcDbEntity
  8
COTATION1
 62
     0
100
AcDbLine
 10
93.157389
 20
108.172816
 30
0.0
 11
93.157389
 21
133.672816
 31
0.0
1001
ACAD
1000
RTLwPs
1070
   158
  0
LINE
  5
129BF
100
AcDbEntity
  8
COTATION1
 62
     0
100
AcDbLine
 10
30.157389
 20
108.172816
 30
0.0
 11
30.157389
 21
133.672816
 31
0.0
1001
ACAD
1000
RTLwPs
1070
   158
  0
LINE
  5
129C0
100
AcDbEntity
  8
COTATION1
 62
     0
100
AcDbLine
 10
88.157389
 20
131.172816
 30
0.0
 11
35.157389
 21
131.172816
 31
0.0
1001
ACAD
1000
RTLwPs
1070
   158
  0
INSERT
  5
129C1
100
AcDbEntity
  8
COTATION1
 62
     0
100
AcDbBlockReference
  2
_OPEN30
 10
93.157389
 20
131.172816
 30
0.0
 41
5.0
 42
5.0
 43
5.0
1001
ACAD
1000
RTLwPs
1070
   158
  0
INSERT
  5
129C2
100
AcDbEntity
  8
COTATION1
 62
     0
100
AcDbBlockReference
  2
_OPEN30
 10
30.157389
 20
131.172816
 30
0.0
 41
5.0
 42
5.0
 43
5.0
 50
180.0
1001
ACAD
1000
RTLwPs
1070
   158
  0
MTEXT
  5
129C3
100
AcDbEntity
  8
COTATION1
 62
     0
100
AcDbMText
 10
61.657389
 20
134.422816
 30
0.0
 40
2.5
 41
0.0
 71
     5
 72
     1
  1
\A1;63
  7
ROMANS
1001
ACAD
1000
MTEXTBEGIN
1070
    73
1070
     1
1070
    44
1040
1.0
1070
    74
1070
     0
1000
MTEXTEND
1000
MTEXTBEGIN
1070
    73
1070
     1
1070
    44
1040
1.0
1070
    74
1070
     0
1000
MTEXTEND
  0
POINT
  5
129C4
100
AcDbEntity
  8
DEFPOINTS
 62
     0
100
AcDbPoint
 10
93.157389
 20
106.172816
 30
0.0
1001
ACAD
1000
RTLwPs
1070
   128
  0
POINT
  5
129C5
100
AcDbEntity
  8
DEFPOINTS
 62
     0
100
AcDbPoint
 10
30.157389
 20
106.172816
 30
0.0
1001
ACAD
1000
RTLwPs
1070
   128
  0
POINT
  5
129C6
100
AcDbEntity
  8
DEFPOINTS
 62
     0
100
AcDbPoint
 10
30.157389
 20
131.172816
 30
0.0
1001
ACAD
1000
RTLwPs
1070
   128
  0
ENDBLK
  5
11CD2
100
AcDbEntity
  8
0
100
AcDbBlockEnd
1001
ACAD
1000
RTLwPs
1070
   128
  0
BLOCK
  5
11E19
100
AcDbEntity
  8
0
100
AcDbBlockBegin
  2
*D2
 70
     1
 10
0.0
 20
0.0
 30
0.0
  3
*D2
  1

1001
ACAD
1000
RTLwPs
1070
   128
  0
LINE
  5
12A62
100
AcDbEntity
  8
COTATION1
 62
     0
100
AcDbLine
 10
39.407389
 20
108.172816
 30
0.0
 11
39.407389
 21
123.672816
 31
0.0
  0
LINE
  5
12A63
100
AcDbEntity
  8
COTATION1
 62
     0
100
AcDbLine
 10
30.157389
 20
108.172816
 30
0.0
 11
30.157389
 21
123.672816
 31
0.0
  0
LINE
  5
12A64
100
AcDbEntity
  8
COTATION1
 62
     0
100
AcDbLine
 10
39.407389
 20
121.172816
 30
0.0
 11
35.157389
 21
121.172816
 31
0.0
  0
MTEXT
  5
12A65
100
AcDbEntity
  8
COTATION1
 62
     0
100
AcDbMText
 10
34.810127
 20
124.422816
 30
0.0
 40
2.5
 41
0.0
 71
     5
 72
     1
  1
\A1;9.3
  7
ROMANS
  0
INSERT
  5
12A66
100
AcDbEntity
  8
COTATION1
 62
     0
100
AcDbBlockReference
  2
_DOTSMALL
 10
39.407389
 20
121.172816
 30
0.0
 41
5.0
 42
5.0
 43
5.0
  0
INSERT
  5
12A67
100
AcDbEntity
  8
COTATION1
 62
     0
100
AcDbBlockReference
  2
_OPEN30
 10
30.157389
 20
121.172816
 30
0.0
 41
5.0
 42
5.0
 43
5.0
 50
180.0
  0
POINT
  5
12A68
100
AcDbEntity
  8
DEFPOINTS
 62
     0
100
AcDbPoint
 10
39.407389
 20
106.172816
 30
0.0
  0
POINT
  5
12A69
100
AcDbEntity
  8
DEFPOINTS
 62
     0
100
AcDbPoint
 10
30.157389
 20
106.172816
 30
0.0
  0
POINT
  5
12A6A
100
AcDbEntity
  8
DEFPOINTS
 62
     0
100
AcDbPoint
 10
30.157389
 20
121.172816
 30
0.0
  0
ENDBLK
  5
11E1A
100
AcDbEntity
  8
0
100
AcDbBlockEnd
1001
ACAD
1000
RTLwPs
1070
   128
  0
BLOCK
  5
11E43
100
AcDbEntity
  8
0
100
AcDbBlockBegin
  2
*D3
 70
     1
 10
0.0
 20
0.0
 30
0.0
  3
*D3
  1

1001
ACAD
1000
RTLwPs
1070
   128
  0
LINE
  5
12A6B
100
AcDbEntity
  8
COTATION1
 62
     0
100
AcDbLine
 10
48.657389
 20
108.172816
 30
0.0
 11
48.657389
 21
123.672816
 31
0.0
  0
LINE
  5
12A6C
100
AcDbEntity
  8
COTATION1
 62
     0
100
AcDbLine
 10
39.407389
 20
108.172816
 30
0.0
 11
39.407389
 21
123.672816
 31
0.0
  0
LINE
  5
12A6D
100
AcDbEntity
  8
COTATION1
 62
     0
100
AcDbLine
 10
43.657389
 20
121.172816
 30
0.0
 11
39.407389
 21
121.172816
 31
0.0
  0
MTEXT
  5
12A6E
100
AcDbEntity
  8
COTATION1
 62
     0
100
AcDbMText
 10
43.931683
 20
124.422816
 30
0.0
 40
2.5
 41
0.0
 71
     5
 72
     1
  1
\A1;9.3
  7
ROMANS
  0
INSERT
  5
12A6F
100
AcDbEntity
  8
COTATION1
 62
     0
100
AcDbBlockReference
  2
_OPEN30
 10
48.657389
 20
121.172816
 30
0.0
 41
5.0
 42
5.0
 43
5.0
  0
INSERT
  5
12A70
100
AcDbEntity
  8
COTATION1
 62
     0
100
AcDbBlockReference
  2
_DOTSMALL
 10
39.407389
 20
121.172816
 30
0.0
 41
5.0
 42
5.0
 43
5.0
 50
180.0
  0
POINT
  5
12A71
100
AcDbEntity
  8
DEFPOINTS
 62
     0
100
AcDbPoint
 10
48.657389
 20
106.172816
 30
0.0
  0
POINT
  5
12A72
100
AcDbEntity
  8
DEFPOINTS
 62
     0
100
AcDbPoint
 10
39.407389
 20
106.172816
 30
0.0
  0
POINT
  5
12A73
100
AcDbEntity
  8
DEFPOINTS
 62
     0
100
AcDbPoint
 10
39.407389
 20
121.172816
 30
0.0
  0
ENDBLK
  5
11E44
100
AcDbEntity
  8
0
100
AcDbBlockEnd
1001
ACAD
1000
RTLwPs
1070
   128
  0
BLOCK
  5
11E9B
100
AcDbEntity
  8
0
100
AcDbBlockBegin
  2
_DOTSMALL
 70
     0
 10
0.0
 20
0.0
 30
0.0
  3
_DOTSMALL
  1

1001
ACAD
1000
RTLwPs
1070
   128
  0
POLYLINE
  5
11E9A
100
AcDbEntity
  8
0
  6
BYBLOCK
 62
     0
100
AcDb2dPolyline
 66
     1
 10
0.0
 20
0.0
 30
0.0
 70
     1
 40
0.5
 41
0.5
1001
ACAD
1000
RTLwPs
1070
   128
  0
VERTEX
  5
12A7C
100
AcDbEntity
  8
0
  6
BYBLOCK
 62
     0
100
AcDbVertex
100
AcDb2dVertex
 10
-0.0625
 20
0.0
 30
0.0
 42
1.0
  0
VERTEX
  5
12A7D
100
AcDbEntity
  8
0
  6
BYBLOCK
 62
     0
100
AcDbVertex
100
AcDb2dVertex
 10
0.0625
 20
0.0
 30
0.0
 42
1.0
  0
SEQEND
  5
12A7E
100
AcDbEntity
  8
0
  6
BYBLOCK
 62
     0
  0
ENDBLK
  5
11E9C
100
AcDbEntity
  8
0
100
AcDbBlockEnd
1001
ACAD
1000
RTLwPs
1070
   128
  0
BLOCK
  5
12647
100
AcDbEntity
  8
0
100
AcDbBlockBegin
  2
*D5
 70
     1
 10
0.0
 20
0.0
 30
0.0
  3
*D5
  1

1001
ACAD
1000
RTLwPs
1070
   128
  0
LINE
  5
129D9
100
AcDbEntity
  8
COTATION1
 62
     0
100
AcDbLine
 10
28.657389
 20
84.172816
 30
0.0
 11
13.157389
 21
84.172816
 31
0.0
1001
ACAD
1000
RTLwPs
1070
   158
  0
LINE
  5
129DA
100
AcDbEntity
  8
COTATION1
 62
     0
100
AcDbLine
 10
28.657389
 20
39.172816
 30
0.0
 11
13.157389
 21
39.172816
 31
0.0
1001
ACAD
1000
RTLwPs
1070
   158
  0
LINE
  5
129DB
100
AcDbEntity
  8
COTATION1
 62
     0
100
AcDbLine
 10
15.657389
 20
79.172816
 30
0.0
 11
15.657389
 21
64.922816
 31
0.0
1001
ACAD
1000
RTLwPs
1070
   158
  0
LINE
  5
129DC
100
AcDbEntity
  8
COTATION1
 62
     0
100
AcDbLine
 10
15.657389
 20
44.172816
 30
0.0
 11
15.657389
 21
58.422816
 31
0.0
1001
ACAD
1000
RTLwPs
1070
   158
  0
INSERT
  5
129DD
100
AcDbEntity
  8
COTATION1
 62
     0
100
AcDbBlockReference
  2
_OPEN30
 10
15.657389
 20
84.172816
 30
0.0
 41
5.0
 42
5.0
 43
5.0
 50
90.0
1001
ACAD
1000
RTLwPs
1070
   158
  0
INSERT
  5
129DE
100
AcDbEntity
  8
COTATION1
 62
     0
100
AcDbBlockReference
  2
_OPEN30
 10
15.657389
 20
39.172816
 30
0.0
 41
5.0
 42
5.0
 43
5.0
 50
270.0
1001
ACAD
1000
RTLwPs
1070
   158
  0
MTEXT
  5
129DF
100
AcDbEntity
  8
COTATION1
 62
     0
100
AcDbMText
 10
15.657389
 20
61.672816
 30
0.0
 40
2.5
 41
0.0
 71
     5
 72
     1
  1
\A1;45
  7
ROMANS
1001
ACAD
1000
MTEXTBEGIN
1070
    73
1070
     1
1070
    44
1040
1.0
1070
    74
1070
     0
1000
MTEXTEND
1000
MTEXTBEGIN
1070
    73
1070
     1
1070
    44
1040
1.0
1070
    74
1070
     0
1000
MTEXTEND
  0
POINT
  5
129E0
100
AcDbEntity
  8
DEFPOINTS
 62
     0
100
AcDbPoint
 10
30.657389
 20
84.172816
 30
0.0
1001
ACAD
1000
RTLwPs
1070
   128
  0
POINT
  5
129E1
100
AcDbEntity
  8
DEFPOINTS
 62
     0
100
AcDbPoint
 10
30.657389
 20
39.172816
 30
0.0
1001
ACAD
1000
RTLwPs
1070
   128
  0
POINT
  5
129E2
100
AcDbEntity
  8
DEFPOINTS
 62
     0
100
AcDbPoint
 10
15.657389
 20
39.172816
 30
0.0
1001
ACAD
1000
RTLwPs
1070
   128
  0
ENDBLK
  5
12648
100
AcDbEntity
  8
0
100
AcDbBlockEnd
1001
ACAD
1000
RTLwPs
1070
   128
  0
BLOCK
  5
12654
100
AcDbEntity
  8
0
100
AcDbBlockBegin
  2
*D6
 70
     1
 10
0.0
 20
0.0
 30
0.0
  3
*D6
  1

1001
ACAD
1000
RTLwPs
1070
   128
  0
LINE
  5
129E3
100
AcDbEntity
  8
COTATION1
 62
     0
100
AcDbLine
 10
28.657389
 20
106.172816
 30
0.0
 11
13.157389
 21
106.172816
 31
0.0
1001
ACAD
1000
RTLwPs
1070
   158
  0
LINE
  5
129E4
100
AcDbEntity
  8
COTATION1
 62
     0
100
AcDbLine
 10
28.657389
 20
84.172816
 30
0.0
 11
13.157389
 21
84.172816
 31
0.0
1001
ACAD
1000
RTLwPs
1070
   158
  0
LINE
  5
129E5
100
AcDbEntity
  8
COTATION1
 62
     0
100
AcDbLine
 10
15.657389
 20
101.172816
 30
0.0
 11
15.657389
 21
98.422816
 31
0.0
1001
ACAD
1000
RTLwPs
1070
   158
  0
LINE
  5
129E6
100
AcDbEntity
  8
COTATION1
 62
     0
100
AcDbLine
 10
15.657389
 20
89.172816
 30
0.0
 11
15.657389
 21
91.922816
 31
0.0
1001
ACAD
1000
RTLwPs
1070
   158
  0
INSERT
  5
129E7
100
AcDbEntity
  8
COTATION1
 62
     0
100
AcDbBlockReference
  2
_OPEN30
 10
15.657389
 20
106.172816
 30
0.0
 41
5.0
 42
5.0
 43
5.0
 50
90.0
1001
ACAD
1000
RTLwPs
1070
   158
  0
INSERT
  5
129E8
100
AcDbEntity
  8
COTATION1
 62
     0
100
AcDbBlockReference
  2
_OPEN30
 10
15.657389
 20
84.172816
 30
0.0
 41
5.0
 42
5.0
 43
5.0
 50
270.0
1001
ACAD
1000
RTLwPs
1070
   158
  0
MTEXT
  5
129E9
100
AcDbEntity
  8
COTATION1
 62
     0
100
AcDbMText
 10
15.657389
 20
95.172816
 30
0.0
 40
2.5
 41
0.0
 71
     5
 72
     1
  1
\A1;=
  7
ROMANS
1001
ACAD
1000
MTEXTBEGIN
1070
    73
1070
     1
1070
    44
1040
1.0
1070
    74
1070
     0
1000
MTEXTEND
1000
MTEXTBEGIN
1070
    73
1070
     1
1070
    44
1040
1.0
1070
    74
1070
     0
1000
MTEXTEND
  0
POINT
  5
129EA
100
AcDbEntity
  8
DEFPOINTS
 62
     0
100
AcDbPoint
 10
30.657389
 20
106.172816
 30
0.0
1001
ACAD
1000
RTLwPs
1070
   128
  0
POINT
  5
129EB
100
AcDbEntity
  8
DEFPOINTS
 62
     0
100
AcDbPoint
 10
30.657389
 20
84.172816
 30
0.0
1001
ACAD
1000
RTLwPs
1070
   128
  0
POINT
  5
129EC
100
AcDbEntity
  8
DEFPOINTS
 62
     0
100
AcDbPoint
 10
15.657389
 20
84.172816
 30
0.0
1001
ACAD
1000
RTLwPs
1070
   128
  0
ENDBLK
  5
12655
100
AcDbEntity
  8
0
100
AcDbBlockEnd
1001
ACAD
1000
RTLwPs
1070
   128
  0
BLOCK
  5
12661
100
AcDbEntity
  8
0
100
AcDbBlockBegin
  2
*D7
 70
     1
 10
0.0
 20
0.0
 30
0.0
  3
*D7
  1

1001
ACAD
1000
RTLwPs
1070
   128
  0
LINE
  5
129ED
100
AcDbEntity
  8
COTATION1
 62
     0
100
AcDbLine
 10
28.657389
 20
39.172816
 30
0.0
 11
13.157389
 21
39.172816
 31
0.0
1001
ACAD
1000
RTLwPs
1070
   158
  0
LINE
  5
129EE
100
AcDbEntity
  8
COTATION1
 62
     0
100
AcDbLine
 10
28.657389
 20
17.172816
 30
0.0
 11
13.157389
 21
17.172816
 31
0.0
1001
ACAD
1000
RTLwPs
1070
   158
  0
LINE
  5
129EF
100
AcDbEntity
  8
COTATION1
 62
     0
100
AcDbLine
 10
15.657389
 20
34.172816
 30
0.0
 11
15.657389
 21
31.422816
 31
0.0
1001
ACAD
1000
RTLwPs
1070
   158
  0
LINE
  5
129F0
100
AcDbEntity
  8
COTATION1
 62
     0
100
AcDbLine
 10
15.657389
 20
22.172816
 30
0.0
 11
15.657389
 21
24.922816
 31
0.0
1001
ACAD
1000
RTLwPs
1070
   158
  0
INSERT
  5
129F1
100
AcDbEntity
  8
COTATION1
 62
     0
100
AcDbBlockReference
  2
_OPEN30
 10
15.657389
 20
39.172816
 30
0.0
 41
5.0
 42
5.0
 43
5.0
 50
90.0
1001
ACAD
1000
RTLwPs
1070
   158
  0
INSERT
  5
129F2
100
AcDbEntity
  8
COTATION1
 62
     0
100
AcDbBlockReference
  2
_OPEN30
 10
15.657389
 20
17.172816
 30
0.0
 41
5.0
 42
5.0
 43
5.0
 50
270.0
1001
ACAD
1000
RTLwPs
1070
   158
  0
MTEXT
  5
129F3
100
AcDbEntity
  8
COTATION1
 62
     0
100
AcDbMText
 10
15.657389
 20
28.172816
 30
0.0
 40
2.5
 41
0.0
 71
     5
 72
     1
  1
\A1;=
  7
ROMANS
1001
ACAD
1000
MTEXTBEGIN
1070
    73
1070
     1
1070
    44
1040
1.0
1070
    74
1070
     0
1000
MTEXTEND
1000
MTEXTBEGIN
1070
    73
1070
     1
1070
    44
1040
1.0
1070
    74
1070
     0
1000
MTEXTEND
  0
POINT
  5
129F4
100
AcDbEntity
  8
DEFPOINTS
 62
     0
100
AcDbPoint
 10
30.657389
 20
39.172816
 30
0.0
1001
ACAD
1000
RTLwPs
1070
   128
  0
POINT
  5
129F5
100
AcDbEntity
  8
DEFPOINTS
 62
     0
100
AcDbPoint
 10
30.657389
 20
17.172816
 30
0.0
1001
ACAD
1000
RTLwPs
1070
   128
  0
POINT
  5
129F6
100
AcDbEntity
  8
DEFPOINTS
 62
     0
100
AcDbPoint
 10
15.657389
 20
17.172816
 30
0.0
1001
ACAD
1000
RTLwPs
1070
   128
  0
ENDBLK
  5
12662
100
AcDbEntity
  8
0
100
AcDbBlockEnd
1001
ACAD
1000
RTLwPs
1070
   128
  0
BLOCK
  5
1266E
100
AcDbEntity
  8
0
100
AcDbBlockBegin
  2
*D8
 70
     1
 10
0.0
 20
0.0
 30
0.0
  3
*D8
  1

1001
ACAD
1000
RTLwPs
1070
   128
  0
LINE
  5
129F7
100
AcDbEntity
  8
COTATION1
 62
     0
100
AcDbLine
 10
27.907389
 20
106.172816
 30
0.0
 11
3.157389
 21
106.172816
 31
0.0
1001
ACAD
1000
RTLwPs
1070
   158
  0
LINE
  5
129F8
100
AcDbEntity
  8
COTATION1
 62
     0
100
AcDbLine
 10
27.907389
 20
17.172816
 30
0.0
 11
3.157389
 21
17.172816
 31
0.0
1001
ACAD
1000
RTLwPs
1070
   158
  0
LINE
  5
129F9
100
AcDbEntity
  8
COTATION1
 62
     0
100
AcDbLine
 10
5.657389
 20
101.172816
 30
0.0
 11
5.657389
 21
64.922816
 31
0.0
1001
ACAD
1000
RTLwPs
1070
   158
  0
LINE
  5
129FA
100
AcDbEntity
  8
COTATION1
 62
     0
100
AcDbLine
 10
5.657389
 20
22.172816
 30
0.0
 11
5.657389
 21
58.422816
 31
0.0
1001
ACAD
1000
RTLwPs
1070
   158
  0
INSERT
  5
129FB
100
AcDbEntity
  8
COTATION1
 62
     0
100
AcDbBlockReference
  2
_OPEN30
 10
5.657389
 20
106.172816
 30
0.0
 41
5.0
 42
5.0
 43
5.0
 50
90.0
1001
ACAD
1000
RTLwPs
1070
   158
  0
INSERT
  5
129FC
100
AcDbEntity
  8
COTATION1
 62
     0
100
AcDbBlockReference
  2
_OPEN30
 10
5.657389
 20
17.172816
 30
0.0
 41
5.0
 42
5.0
 43
5.0
 50
270.0
1001
ACAD
1000
RTLwPs
1070
   158
  0
MTEXT
  5
129FD
100
AcDbEntity
  8
COTATION1
 62
     0
100
AcDbMText
 10
5.657389
 20
61.672816
 30
0.0
 40
2.5
 41
0.0
 71
     5
 72
     1
  1
\A1;89
  7
ROMANS
1001
ACAD
1000
MTEXTBEGIN
1070
    73
1070
     1
1070
    44
1040
1.0
1070
    74
1070
     0
1000
MTEXTEND
1000
MTEXTBEGIN
1070
    73
1070
     1
1070
    44
1040
1.0
1070
    74
1070
     0
1000
MTEXTEND
  0
POINT
  5
129FE
100
AcDbEntity
  8
DEFPOINTS
 62
     0
100
AcDbPoint
 10
29.907389
 20
106.172816
 30
0.0
1001
ACAD
1000
RTLwPs
1070
   128
  0
POINT
  5
129FF
100
AcDbEntity
  8
DEFPOINTS
 62
     0
100
AcDbPoint
 10
29.907389
 20
17.172816
 30
0.0
1001
ACAD
1000
RTLwPs
1070
   128
  0
POINT
  5
12A00
100
AcDbEntity
  8
DEFPOINTS
 62
     0
100
AcDbPoint
 10
5.657389
 20
17.172816
 30
0.0
1001
ACAD
1000
RTLwPs
1070
   128
  0
ENDBLK
  5
1266F
100
AcDbEntity
  8
0
100
AcDbBlockEnd
1001
ACAD
1000
RTLwPs
1070
   128
  0
ENDSEC
  0
SECTION
  2
ENTITIES
  0
LINE
  5
11CA3
100
AcDbEntity
  8
ALPHA
  6
CONTINUOUS
100
AcDbLine
 10
48.657389
 20
106.172816
 30
0.0
 11
48.657389
 21
17.172816
 31
0.0
1001
ACAD
1000
RTLwPs
1070
   128
  0
LINE
  5
11CA6
100
AcDbEntity
  8
AXE
100
AcDbLine
 10
78.157389
 20
82.172816
 30
0.0
 11
78.157389
 21
61.672816
 31
0.0
  0
LINE
  5
11CA7
100
AcDbEntity
  8
AXE
100
AcDbLine
 10
74.157389
 20
78.672816
 30
0.0
 11
74.157389
 21
61.672816
 31
0.0
  0
LINE
  5
11CA8
100
AcDbEntity
  8
AXE
100
AcDbLine
 10
62.157389
 20
78.672816
 30
0.0
 11
62.157389
 21
61.672816
 31
0.0
  0
LINE
  5
11CA9
100
AcDbEntity
  8
AXE
100
AcDbLine
 10
74.157389
 20
61.672816
 30
0.0
 11
62.157389
 21
61.672816
 31
0.0
  0
LINE
  5
11CAA
100
AcDbEntity
  8
AXE
100
AcDbLine
 10
74.157389
 20
78.672816
 30
0.0
 11
62.157389
 21
78.672816
 31
0.0
  0
LINE
  5
11CAB
100
AcDbEntity
  8
AXE
100
AcDbLine
 10
74.157389
 20
76.672816
 30
0.0
 11
62.157389
 21
76.672816
 31
0.0
  0
LINE
  5
11CAC
100
AcDbEntity
  8
AXE
100
AcDbLine
 10
74.157389
 20
63.672816
 30
0.0
 11
62.157389
 21
63.672816
 31
0.0
  0
LINE
  5
11CB1
100
AcDbEntity
  8
AXE
100
AcDbLine
 10
90.907389
 20
41.672816
 30
0.0
 11
70.907389
 21
41.672816
 31
0.0
  0
LINE
  5
11CB2
100
AcDbEntity
  8
AXE
100
AcDbLine
 10
90.907389
 20
49.672816
 30
0.0
 11
70.907389
 21
49.672816
 31
0.0
  0
CIRCLE
  5
11CB3
100
AcDbEntity
  8
AXE
100
AcDbCircle
 10
70.907389
 20
95.172816
 30
0.0
 40
3.5
  0
LINE
  5
11CB4
100
AcDbEntity
  8
AXE
100
AcDbLine
 10
70.907389
 20
111.172816
 30
0.0
 11
70.907389
 21
2.172816
 31
0.0
  0
CIRCLE
  5
11CB5
100
AcDbEntity
  8
AXE
100
AcDbCircle
 10
57.657389
 20
95.172816
 30
0.0
 40
3.5
  0
CIRCLE
  5
11CB6
100
AcDbEntity
  8
AXE
100
AcDbCircle
 10
84.157389
 20
95.172816
 30
0.0
 40
3.5
  0
CIRCLE
  5
11CB7
100
AcDbEntity
  8
AXE
100
AcDbCircle
 10
70.907389
 20
28.172816
 30
0.0
 40
3.5
  0
CIRCLE
  5
11CB8
100
AcDbEntity
  8
AXE
100
AcDbCircle
 10
57.657389
 20
28.172816
 30
0.0
 40
3.5
  0
CIRCLE
  5
11CB9
100
AcDbEntity
  8
AXE
100
AcDbCircle
 10
84.157389
 20
28.172816
 30
0.0
 40
3.5
  0
CIRCLE
  5
11CBA
100
AcDbEntity
  8
AXE
100
AcDbCircle
 10
55.407389
 20
73.172816
 30
0.0
 40
4.0
  0
LINE
  5
11CBB
100
AcDbEntity
  8
AXE
100
AcDbLine
 10
90.907389
 20
49.672816
 30
0.0
 11
90.907389
 21
41.672816
 31
0.0
  0
LINE
  5
11CBC
100
AcDbEntity
  8
AXE
100
AcDbLine
 10
70.907389
 20
49.672816
 30
0.0
 11
70.907389
 21
41.672816
 31
0.0
  0
LINE
  5
11CBD
100
AcDbEntity
  8
AXE
100
AcDbLine
 10
108.157389
 20
61.672816
 30
0.0
 11
25.657389
 21
61.672816
 31
0.0
  0
TEXT
  5
11CBE
100
AcDbEntity
  8
AXE
100
AcDbText
 10
101.641517
 20
62.677085
 30
0.0
 40
8.0
  1
X
  7
ROMANS
 72
     2
 11
108.117707
 21
62.677085
 31
0.0
100
AcDbText
  0
LINE
  5
11CBF
100
AcDbEntity
  8
AXE
100
AcDbLine
 10
53.639622
 20
74.940583
 30
0.0
 11
57.175156
 21
71.405049
 31
0.0
  0
LINE
  5
11CC0
100
AcDbEntity
  8
AXE
100
AcDbLine
 10
57.175156
 20
74.940583
 30
0.0
 11
53.639622
 21
71.405049
 31
0.0
  0
TEXT
  5
11CC2
100
AcDbEntity
  8
AXE
100
AcDbText
 10
63.431199
 20
2.172816
 30
0.0
 40
8.0
  1
Y
  7
ROMANS
 72
     2
 11
69.907389
 21
2.172816
 31
0.0
100
AcDbText
  0
DIMENSION
  5
11CC3
100
AcDbEntity
  8
COTATION1
100
AcDbDimension
  2
*D1
 10
30.157389
 20
131.172816
 30
0.0
 11
61.657389
 21
134.422816
 31
0.0
 70
    32
  3
SC_DEFAUT
100
AcDbAlignedDimension
 13
93.157389
 23
106.172816
 33
0.0
 14
30.157389
 24
106.172816
 34
0.0
100
AcDbRotatedDimension
  0
LINE
  5
11D49
100
AcDbEntity
  8
ALPHA
  6
CONTINUOUS
100
AcDbLine
 10
48.657389
 20
94.172816
 30
0.0
 11
39.407389
 21
94.172816
 31
0.0
1001
ACAD
1000
RTLwPs
1070
   128
  0
CIRCLE
  5
11D4B
100
AcDbEntity
  8
ALPHA
  6
CONTINUOUS
100
AcDbCircle
 10
44.032389
 20
99.172816
 30
0.0
 40
3.0
1001
ACAD
1000
RTLwPs
1070
   128
  0
CIRCLE
  5
11D4D
100
AcDbEntity
  8
ALPHA
  6
CONTINUOUS
100
AcDbCircle
 10
44.032389
 20
89.172816
 30
0.0
 40
3.0
1001
ACAD
1000
RTLwPs
1070
   128
  0
LINE
  5
11DEE
100
AcDbEntity
  8
ALPHA
  6
CONTINUOUS
100
AcDbLine
 10
39.407389
 20
106.172816
 30
0.0
 11
39.407389
 21
17.172816
 31
0.0
1001
ACAD
1000
RTLwPs
1070
   128
  0
LINE
  5
11DF0
100
AcDbEntity
  8
ALPHA
  6
CONTINUOUS
100
AcDbLine
 10
48.657389
 20
29.172816
 30
0.0
 11
39.407389
 21
29.172816
 31
0.0
1001
ACAD
1000
RTLwPs
1070
   128
  0
CIRCLE
  5
11DF1
100
AcDbEntity
  8
ALPHA
  6
CONTINUOUS
100
AcDbCircle
 10
44.032389
 20
24.172816
 30
0.0
 40
3.0
1001
ACAD
1000
RTLwPs
1070
   128
  0
CIRCLE
  5
11DF2
100
AcDbEntity
  8
ALPHA
  6
CONTINUOUS
100
AcDbCircle
 10
44.032389
 20
34.172816
 30
0.0
 40
3.0
1001
ACAD
1000
RTLwPs
1070
   128
  0
LINE
  5
11DF3
100
AcDbEntity
  8
ALPHA
  6
CONTINUOUS
100
AcDbLine
 10
30.157389
 20
106.172816
 30
0.0
 11
30.157389
 21
17.172816
 31
0.0
1001
ACAD
1000
RTLwPs
1070
   128
  0
LINE
  5
11DF4
100
AcDbEntity
  8
ALPHA
  6
CONTINUOUS
100
AcDbLine
 10
39.407389
 20
94.172816
 30
0.0
 11
30.157389
 21
94.172816
 31
0.0
1001
ACAD
1000
RTLwPs
1070
   128
  0
CIRCLE
  5
11DF5
100
AcDbEntity
  8
ALPHA
  6
CONTINUOUS
100
AcDbCircle
 10
34.782389
 20
99.172816
 30
0.0
 40
3.0
1001
ACAD
1000
RTLwPs
1070
   128
  0
CIRCLE
  5
11DF6
100
AcDbEntity
  8
ALPHA
  6
CONTINUOUS
100
AcDbCircle
 10
34.782389
 20
89.172816
 30
0.0
 40
3.0
1001
ACAD
1000
RTLwPs
1070
   128
  0
LINE
  5
11DF7
100
AcDbEntity
  8
ALPHA
  6
CONTINUOUS
100
AcDbLine
 10
39.407389
 20
29.172816
 30
0.0
 11
30.157389
 21
29.172816
 31
0.0
1001
ACAD
1000
RTLwPs
1070
   128
  0
CIRCLE
  5
11DF8
100
AcDbEntity
  8
ALPHA
  6
CONTINUOUS
100
AcDbCircle
 10
34.782389
 20
24.172816
 30
0.0
 40
3.0
1001
ACAD
1000
RTLwPs
1070
   128
  0
CIRCLE
  5
11DF9
100
AcDbEntity
  8
ALPHA
  6
CONTINUOUS
100
AcDbCircle
 10
34.782389
 20
34.172816
 30
0.0
 40
3.0
1001
ACAD
1000
RTLwPs
1070
   128
  0
LINE
  5
11E04
100
AcDbEntity
  8
AXE
100
AcDbLine
 10
93.157389
 20
106.172816
 30
0.0
 11
93.157389
 21
17.172816
 31
0.0
  0
DIMENSION
  5
11E0E
100
AcDbEntity
  8
COTATION1
100
AcDbDimension
  2
*D2
 10
30.157389
 20
121.172816
 30
0.0
 11
34.810127
 21
124.422816
 31
0.0
 70
   160
  3
SC_DEFAUT
100
AcDbAlignedDimension
 13
39.407389
 23
106.172816
 33
0.0
 14
30.157389
 24
106.172816
 34
0.0
100
AcDbRotatedDimension
1001
ACAD
1000
DSTYLE
1002
{
1070
     6
1000
DOTSMALL
1070
     5
1000

1070
   173
1070
     1
1070
     7
1000
OPEN30
1002
}
  0
DIMENSION
  5
11E37
100
AcDbEntity
  8
COTATION1
100
AcDbDimension
  2
*D3
 10
39.407389
 20
121.172816
 30
0.0
 11
43.931683
 21
124.422816
 31
0.0
 70
   160
  3
SC_DEFAUT
100
AcDbAlignedDimension
 13
48.657389
 23
106.172816
 33
0.0
 14
39.407389
 24
106.172816
 34
0.0
100
AcDbRotatedDimension
1001
ACAD
1000
DSTYLE
1002
{
1070
     7
1000
DOTSMALL
1070
     5
1000

1070
   173
1070
     1
1070
     6
1000
OPEN30
1002
}
  0
LINE
  5
11EC1
100
AcDbEntity
  8
ALPHA
  6
CONTINUOUS
100
AcDbLine
 10
48.657389
 20
106.172816
 30
0.0
 11
30.157389
 21
106.172816
 31
0.0
1001
ACAD
1000
RTLwPs
1070
   128
  0
LINE
  5
11EC2
100
AcDbEntity
  8
AXE
100
AcDbLine
 10
93.157389
 20
106.172816
 30
0.0
 11
48.657389
 21
106.172816
 31
0.0
  0
LINE
  5
11EC3
100
AcDbEntity
  8
ALPHA
  6
CONTINUOUS
100
AcDbLine
 10
48.657389
 20
84.172816
 30
0.0
 11
30.157389
 21
84.172816
 31
0.0
1001
ACAD
1000
RTLwPs
1070
   128
  0
LINE
  5
11EC4
100
AcDbEntity
  8
AXE
100
AcDbLine
 10
93.157389
 20
84.172816
 30
0.0
 11
48.657389
 21
84.172816
 31
0.0
  0
LINE
  5
11EC5
100
AcDbEntity
  8
ALPHA
  6
CONTINUOUS
100
AcDbLine
 10
48.657389
 20
39.172816
 30
0.0
 11
30.157389
 21
39.172816
 31
0.0
1001
ACAD
1000
RTLwPs
1070
   128
  0
LINE
  5
11EC6
100
AcDbEntity
  8
ALPHA
  6
CONTINUOUS
100
AcDbLine
 10
48.657389
 20
17.172816
 30
0.0
 11
30.157389
 21
17.172816
 31
0.0
1001
ACAD
1000
RTLwPs
1070
   128
  0
LINE
  5
11EC7
100
AcDbEntity
  8
AXE
100
AcDbLine
 10
93.157389
 20
39.422816
 30
0.0
 11
48.657389
 21
39.422816
 31
0.0
  0
LINE
  5
11EC8
100
AcDbEntity
  8
AXE
100
AcDbLine
 10
93.157389
 20
17.172816
 30
0.0
 11
48.657389
 21
17.172816
 31
0.0
  0
LINE
  5
11FB3
100
AcDbEntity
  8
AXE
100
AcDbLine
 10
90.157389
 20
82.172816
 30
0.0
 11
90.157389
 21
61.672816
 31
0.0
  0
LINE
  5
11FB4
100
AcDbEntity
  8
AXE
100
AcDbLine
 10
90.157389
 20
82.172816
 30
0.0
 11
78.157389
 21
82.172816
 31
0.0
  0
LINE
  5
11FB5
100
AcDbEntity
  8
AXE
100
AcDbLine
 10
90.157389
 20
61.672816
 30
0.0
 11
78.157389
 21
61.672816
 31
0.0
  0
LINE
  5
11FB6
100
AcDbEntity
  8
AXE
100
AcDbLine
 10
90.157389
 20
68.479996
 30
0.0
 11
78.157389
 21
68.479996
 31
0.0
  0
DIMENSION
  5
12638
100
AcDbEntity
  8
COTATION1
100
AcDbDimension
  2
*D5
 10
15.657389
 20
39.172816
 30
0.0
 11
15.657389
 21
61.672816
 31
0.0
 70
    32
  3
SC_DEFAUT
100
AcDbAlignedDimension
 13
30.657389
 23
84.172816
 33
0.0
 14
30.657389
 24
39.172816
 34
0.0
 50
90.0
100
AcDbRotatedDimension
  0
DIMENSION
  5
12639
100
AcDbEntity
  8
COTATION1
100
AcDbDimension
  2
*D6
 10
15.657389
 20
84.172816
 30
0.0
 11
15.657389
 21
95.172816
 31
0.0
 70
    32
  1
=
  3
SC_DEFAUT
100
AcDbAlignedDimension
 13
30.657389
 23
106.172816
 33
0.0
 14
30.657389
 24
84.172816
 34
0.0
 50
90.0
100
AcDbRotatedDimension
  0
DIMENSION
  5
1263A
100
AcDbEntity
  8
COTATION1
100
AcDbDimension
  2
*D7
 10
15.657389
 20
17.172816
 30
0.0
 11
15.657389
 21
28.172816
 31
0.0
 70
    32
  1
=
  3
SC_DEFAUT
100
AcDbAlignedDimension
 13
30.657389
 23
39.172816
 33
0.0
 14
30.657389
 24
17.172816
 34
0.0
 50
90.0
100
AcDbRotatedDimension
  0
DIMENSION
  5
1263B
100
AcDbEntity
  8
COTATION1
100
AcDbDimension
  2
*D8
 10
5.657389
 20
17.172816
 30
0.0
 11
5.657389
 21
61.672816
 31
0.0
 70
    32
  3
SC_DEFAUT
100
AcDbAlignedDimension
 13
29.907389
 23
106.172816
 33
0.0
 14
29.907389
 24
17.172816
 34
0.0
 50
90.0
100
AcDbRotatedDimension
  0
ENDSEC
  0
SECTION
  2
OBJECTS
  0
DICTIONARY
  5
19
102
{ACAD_XDICTIONARY
360
12A56
102
}
100
AcDbDictionary
  3
ACAD_COLOR
350
6DB
  3
ACAD_GROUP
350
1A
  3
ACAD_LAYOUT
350
1E
  3
ACAD_MATERIAL
350
6DA
  3
ACAD_MLINESTYLE
350
1B
  3
ACAD_PLOTSETTINGS
350
22
  3
ACAD_PLOTSTYLENAME
350
1F
  3
ACAD_TABLESTYLE
350
6DC
  3
ACAD_WIPEOUT_VARS
350
23
  3
ACDBHEADERROUNDTRIPXREC
350
12A32
  3
ACDBVARIABLEDICTIONARY
350
7DA
  3
ASE_INDEX_DICTIONARY
350
3571
  0
DICTIONARY
  5
12A24
100
AcDbDictionary
  3
ACAD_XREC_ROUNDTRIP
360
12A25
  0
DICTIONARY
  5
12A26
100
AcDbDictionary
  3
ACAD_XREC_ROUNDTRIP
360
12A27
  0
DICTIONARY
  5
12A28
100
AcDbDictionary
  3
ACAD_XREC_ROUNDTRIP
360
12A29
  0
DICTIONARY
  5
26F0
100
AcDbDictionary
  3
ACAD_LAYERFILTERS
360
26F2
  3
ACAD_LAYERSTATES
360
3474
  3
ACLYDICTIONARY
360
26F1
  0
DICTIONARY
  5
12A22
100
AcDbDictionary
  3
ACAD_XREC_ROUNDTRIP
360
12A23
  0
DICTIONARY
  5
12A2E
100
AcDbDictionary
  3
ACAD_XREC_ROUNDTRIP
360
12A2F
  0
DICTIONARY
  5
12A2A
100
AcDbDictionary
  3
ACAD_XREC_ROUNDTRIP
360
12A2B
  0
DICTIONARY
  5
12A2C
100
AcDbDictionary
  3
ACAD_XREC_ROUNDTRIP
360
12A2D
  0
DICTIONARY
  5
12A20
100
AcDbDictionary
  3
ACAD_XREC_ROUNDTRIP
360
12A21
  0
DICTIONARY
  5
12A5E
100
AcDbDictionary
  3
ACAD_XREC_ROUNDTRIP
360
12A5F
  0
DICTIONARY
  5
7D7
100
AcDbDictionary
  3
ACAD_LAYOUTSELFREF
360
12A53
  3
ACAD_SORTENTS
360
7D8
  0
DICTIONARY
  5
12A54
100
AcDbDictionary
  3
ACAD_LAYOUTSELFREF
360
12A55
  0
DICTIONARY
  5
12A1E
100
AcDbDictionary
  3
ACAD_XREC_ROUNDTRIP
360
12A1F
  0
DICTIONARY
  5
12A56
100
AcDbDictionary
  3
ACAD_XREC_ROUNDTRIP
360
12A57
  0
DICTIONARY
  5
6DB
102
{ACAD_REACTORS
330
19
102
}
100
AcDbDictionary
  0
DICTIONARY
  5
1A
102
{ACAD_REACTORS
330
19
102
}
100
AcDbDictionary
  0
DICTIONARY
  5
1E
102
{ACAD_XDICTIONARY
360
12A5A
102
}
102
{ACAD_REACTORS
330
19
102
}
100
AcDbDictionary
  3
LAYOUT1
350
21
  3
MODEL
350
20
  0
DICTIONARY
  5
6DA
102
{ACAD_REACTORS
330
19
102
}
100
AcDbDictionary
  0
DICTIONARY
  5
1B
102
{ACAD_XDICTIONARY
360
12A58
102
}
102
{ACAD_REACTORS
330
19
102
}
100
AcDbDictionary
  3
STANDARD
350
1C
  0
DICTIONARY
  5
22
102
{ACAD_REACTORS
330
19
102
}
100
AcDbDictionary
  0
ACAD_ZOMBIE_OBJECT
  5
1F
102
{ACAD_REACTORS
330
19
102
}
100
AcDbZombieObject
 90
      499
 91
      517
 93
       86
310
405010041939BDC9B585B0
350
1D
340
1D
 94
        0
  0
DICTIONARY
  5
6DC
102
{ACAD_XDICTIONARY
360
12A5C
102
}
102
{ACAD_REACTORS
330
19
102
}
100
AcDbDictionary
  3
STANDARD
350
6DD
  0
ACAD_ZOMBIE_OBJECT
  5
23
102
{ACAD_REACTORS
330
19
102
}
100
AcDbZombieObject
 90
      499
 91
      521
 93
       10
310
4055
 94
        0
  0
DICTIONARY
  5
12A32
102
{ACAD_REACTORS
330
19
102
}
100
AcDbDictionary
  3
CEPSNTYPE
350
12A3C
  3
DIMSTYLEDATA
350
12A40
  3
FINGERPRINTGUID
350
12A3D
  3
HYPERLINKBASE
350
12A35
  3
INSUNITS
350
12A3B
  3
LAYOUTDICT
350
12A37
  3
LWETCUNION
350
12A3A
  3
PLOTSETDICT
350
12A38
  3
PLOTSTYLNAMDICT
350
12A39
  3
PSVPSCALE
350
12A3F
  3
PUCSBASE
350
12A43
  3
PUCSORGBACK
350
12A49
  3
PUCSORGBOTTOM
350
12A45
  3
PUCSORGFRONT
350
12A48
  3
PUCSORGLEFT
350
12A46
  3
PUCSORGRIGHT
350
12A47
  3
PUCSORGTOP
350
12A44
  3
PUCSORTHOREF
350
12A41
  3
PUCSORTHOVIEW
350
12A42
  3
STYLESHEET
350
12A36
  3
TSTACKALIGN
350
12A33
  3
TSTACKSIZE
350
12A34
  3
UCSBASE
350
12A4C
  3
UCSORGBACK
350
12A52
  3
UCSORGBOTTOM
350
12A4E
  3
UCSORGFRONT
350
12A51
  3
UCSORGLEFT
350
12A4F
  3
UCSORGRIGHT
350
12A50
  3
UCSORGTOP
350
12A4D
  3
UCSORTHOREF
350
12A4A
  3
UCSORTHOVIEW
350
12A4B
  3
VERSIONGUID
350
12A3E
  0
DICTIONARY
  5
7DA
102
{ACAD_REACTORS
330
19
102
}
100
AcDbDictionary
  3
CTABLESTYLE
350
7DB
  3
DIMASSOC
350
1A71
  3
PROJECTNAME
350
1A72
  0
DICTIONARY
  5
3571
102
{ACAD_XDICTIONARY
360
12A60
102
}
102
{ACAD_REACTORS
330
19
102
}
100
AcDbDictionary
  3
ASEBLOCKHIERARCHYINDEXRECORD
350
3572
1001
DCO15
1040
1558939622.437
  0
XRECORD
  5
12A25
102
{ACAD_REACTORS
330
12A24
102
}
100
AcDbXrecord
102
EXTNAMES
  1
BYBLOCK
  2
ByBlock
  0
XRECORD
  5
12A27
102
{ACAD_REACTORS
330
12A26
102
}
100
AcDbXrecord
102
EXTNAMES
  1
BYLAYER
  2
ByLayer
  0
XRECORD
  5
12A29
102
{ACAD_REACTORS
330
12A28
102
}
100
AcDbXrecord
102
EXTNAMES
  1
CONTINUOUS
  2
Continuous
  0
DICTIONARY
  5
26F2
102
{ACAD_REACTORS
330
26F0
102
}
100
AcDbDictionary
  0
DICTIONARY
  5
3474
102
{ACAD_REACTORS
330
26F0
102
}
100
AcDbDictionary
  0
DICTIONARY
  5
26F1
102
{ACAD_REACTORS
330
26F0
102
}
100
AcDbDictionary
1001
ACAD
1000
<All
  0
XRECORD
  5
12A23
102
{ACAD_REACTORS
330
12A22
102
}
100
AcDbXrecord
102
EXTNAMES
  1
DEFPOINTS
  2
Defpoints
102
PLOTBIT
280
     0
  0
XRECORD
  5
12A2F
102
{ACAD_REACTORS
330
12A2E
102
}
100
AcDbXrecord
102
EXTNAMES
  1
STANDARD
  2
Standard
  0
XRECORD
  5
12A2B
102
{ACAD_REACTORS
330
12A2A
102
}
100
AcDbXrecord
102
EXTNAMES
  1
ACAECLAYERSTANDARD
  2
AcAecLayerStandard
  0
XRECORD
  5
12A2D
102
{ACAD_REACTORS
330
12A2C
102
}
100
AcDbXrecord
102
EXTNAMES
  1
ACAD_EXEMPT_FROM_CAD_STAND
  2
ACAD_EXEMPT_FROM_CAD_STANDARDS
  0
XRECORD
  5
12A21
102
{ACAD_REACTORS
330
12A20
102
}
100
AcDbXrecord
102
EXTNAMES
  1
STANDARD
  2
Standard
  0
XRECORD
  5
12A5F
102
{ACAD_REACTORS
330
12A5E
102
}
100
AcDbXrecord
102
ACADR14ROUNDTRIP
1000
DSTYLE
1002
{
1070
   279
 70
     2
1070
   341
340
6FA
1070
   342
340
6FA
1002
}
  0
XRECORD
  5
12A53
102
{ACAD_REACTORS
330
7D7
102
}
100
AcDbXrecord
340
A
  0
SORTENTSTABLE
  5
7D8
102
{ACAD_REACTORS
330
7D7
102
}
100
AcDbSortentsTable
330
A
331
11CB3
  5
11D4A
331
11CAB
  5
11D21
331
11CA7
  5
11CC3
331
11CA3
  5
11CBF
331
11CC2
  5
11E4F
331
11EC7
  5
11F07
331
11DF9
  5
11F02
331
11DF5
  5
11EFE
331
11EC3
  5
11D23
331
11DF1
  5
11EC8
331
1263A
  5
1263A
331
11FB6
  5
12030
331
11CBE
  5
11E04
331
11CBA
  5
11DF7
331
11CB6
  5
11DF0
331
11CB2
  5
11D28
331
11D4D
  5
11EC6
331
11CAA
  5
11CC6
331
11D49
  5
11EC3
331
11E04
  5
11CC1
331
11CA6
  5
11CC2
331
11E37
  5
11F04
331
11EC6
  5
11CBE
331
11DF8
  5
11F01
331
11EC2
  5
11F05
331
11DF4
  5
11EFB
331
11DF0
  5
11EC7
331
12639
  5
12639
331
11FB5
  5
1202F
331
11CBD
  5
11E03
331
11CB9
  5
11DF6
331
11CB5
  5
11D4E
331
11CB1
  5
11D27
331
11CA9
  5
11CC5
331
11EC5
  5
11D24
331
11DF7
  5
11F00
331
11CC0
  5
11E37
331
11EC1
  5
11CBD
331
11DF3
  5
11EF9
331
11E0E
  5
11F03
331
12638
  5
12638
331
11FB4
  5
1202E
331
11CBC
  5
11DF9
331
11CB8
  5
11DF2
331
11CB4
  5
11D4C
331
11D4B
  5
11EC5
331
11CAC
  5
11D22
331
11CA8
  5
11CC4
331
11CC3
  5
11EC1
331
11EC8
  5
11F08
331
11EC4
  5
11F06
331
11DF6
  5
11EFF
331
11DF2
  5
11EF7
331
1263B
  5
1263B
331
11CBF
  5
11E0E
331
11FB3
  5
1202D
331
11CBB
  5
11DF8
331
11DEE
  5
11CC0
331
11CB7
  5
11DF1
  0
XRECORD
  5
12A55
102
{ACAD_REACTORS
330
12A54
102
}
100
AcDbXrecord
340
B
  0
XRECORD
  5
12A1F
102
{ACAD_REACTORS
330
12A1E
102
}
100
AcDbXrecord
102
EXTNAMES
  1
_DOTSMALL
  2
_DotSmall
  0
XRECORD
  5
12A57
102
{ACAD_REACTORS
330
12A56
102
}
100
AcDbXrecord
102
EXTNAMES
  1
ACDBVARIABLEDICTIONARY
  2
AcDbVariableDictionary
  0
DICTIONARY
  5
12A5A
100
AcDbDictionary
  3
ACAD_XREC_ROUNDTRIP
360
12A5B
  0
ACAD_ZOMBIE_OBJECT
  5
21
102
{ACAD_XDICTIONARY
360
12A17
102
}
102
{ACAD_REACTORS
330
1E
102
}
100
AcDbZombieObject
 90
      499
 91
      515
 93
      812
310
AAAAAAAAAA5A69074C61796F757431406A800000000000000000000000000000000000000000000A1000000000000008902A6A6A10232D5E076BC5510408CB5781DAF154410232D5E076BC5510408CB5781DAF15C410232D5E076BC5710408CB5781DAF15C40
330
B
330
0
340
0
340
0
 94
        0
  0
ACAD_ZOMBIE_OBJECT
  5
20
102
{ACAD_XDICTIONARY
360
12A15
102
}
102
{ACAD_REACTORS
330
1E
102
}
100
AcDbZombieObject
 90
      499
 91
      515
 93
      420
310
A00012AAAAAAAA5A69054D6F64656CAA80000000000000000000000000000000000000000000000000000000000000002AAAAAAAA8
330
A
330
0
340
0
340
0
 94
        0
  0
DICTIONARY
  5
12A58
100
AcDbDictionary
  3
ACAD_XREC_ROUNDTRIP
360
12A59
  0
MLINESTYLE
  5
1C
102
{ACAD_REACTORS
330
1B
102
}
100
AcDbMlineStyle
  2
STANDARD
 70
     0
  3

 62
     0
 51
90.0
 52
90.0
 71
     2
 49
0.5
 62
   256
  6
BYLAYER
 49
-0.5
 62
   256
  6
BYLAYER
  0
ACAD_ZOMBIE_OBJECT
  5
1D
102
{ACAD_REACTORS
330
1F
102
}
100
AcDbZombieObject
 90
      499
 91
      518
 93
        0
 94
        0
  0
DICTIONARY
  5
12A5C
100
AcDbDictionary
  3
ACAD_XREC_ROUNDTRIP
360
12A5D
  0
ACAD_ZOMBIE_OBJECT
  5
6DD
102
{ACAD_REACTORS
330
6DC
102
}
100
AcDbZombieObject
 90
      499
 91
      525
 93
     1841
310
4214DD185B99185C9928000000000000F83F0000000000003E0FC00000000000004901028000000C1008070000C3001FDFF8000000C1003FBFF000000182007F7FE00000030400FEFFC00000060801FDFF8000000C1003FBFF000000182000000000000000C2020B0000001820100E000186003FBFF000000182007F7FE000
310
00030400FEFFC00000060801FDFF8000000C1003FBFF000000182007F7FE0000003040000000000000012404160000003040201C00030C007F7FE00000030400FEFFC00000060801FDFF8000000C1003FBFF000000182007F7FE00000030400FEFFC000000608075
340
17
340
17
340
17
 94
        0
1001
ACAD
1000
AcadProxyRoundTripData
1071
      524
1071
   393239
1070
     0
  0
XRECORD
  5
12A3C
102
{ACAD_REACTORS
330
12A32
102
}
100
AcDbXrecord
 90
        0
  0
XRECORD
  5
12A40
102
{ACAD_REACTORS
330
12A32
102
}
100
AcDbXrecord
1000
DSTYLE
1002
{
1070
   278
 70
     0
1070
   371
 70
     0
1070
   372
 70
     0
1002
}
  0
XRECORD
  5
12A3D
102
{ACAD_REACTORS
330
12A32
102
}
100
AcDbXrecord
  1

  0
XRECORD
  5
12A35
102
{ACAD_REACTORS
330
12A32
102
}
100
AcDbXrecord
  1

  0
XRECORD
  5
12A3B
102
{ACAD_REACTORS
330
12A32
102
}
100
AcDbXrecord
 90
        0
  0
XRECORD
  5
12A37
102
{ACAD_REACTORS
330
12A32
102
}
100
AcDbXrecord
340
1E
  0
XRECORD
  5
12A3A
102
{ACAD_REACTORS
330
12A32
102
}
100
AcDbXrecord
 90
    10752
  0
XRECORD
  5
12A38
102
{ACAD_REACTORS
330
12A32
102
}
100
AcDbXrecord
340
22
  0
XRECORD
  5
12A39
102
{ACAD_REACTORS
330
12A32
102
}
100
AcDbXrecord
340
1F
  0
XRECORD
  5
12A3F
102
{ACAD_REACTORS
330
12A32
102
}
100
AcDbXrecord
 40
0.0
  0
XRECORD
  5
12A43
102
{ACAD_REACTORS
330
12A32
102
}
100
AcDbXrecord
340
0
  0
XRECORD
  5
12A49
102
{ACAD_REACTORS
330
12A32
102
}
100
AcDbXrecord
 10
0.0
 20
0.0
 30
0.0
  0
XRECORD
  5
12A45
102
{ACAD_REACTORS
330
12A32
102
}
100
AcDbXrecord
 10
0.0
 20
0.0
 30
0.0
  0
XRECORD
  5
12A48
102
{ACAD_REACTORS
330
12A32
102
}
100
AcDbXrecord
 10
0.0
 20
0.0
 30
0.0
  0
XRECORD
  5
12A46
102
{ACAD_REACTORS
330
12A32
102
}
100
AcDbXrecord
 10
0.0
 20
0.0
 30
0.0
  0
XRECORD
  5
12A47
102
{ACAD_REACTORS
330
12A32
102
}
100
AcDbXrecord
 10
0.0
 20
0.0
 30
0.0
  0
XRECORD
  5
12A44
102
{ACAD_REACTORS
330
12A32
102
}
100
AcDbXrecord
 10
0.0
 20
0.0
 30
0.0
  0
XRECORD
  5
12A41
102
{ACAD_REACTORS
330
12A32
102
}
100
AcDbXrecord
340
0
  0
XRECORD
  5
12A42
102
{ACAD_REACTORS
330
12A32
102
}
100
AcDbXrecord
 70
     0
  0
XRECORD
  5
12A36
102
{ACAD_REACTORS
330
12A32
102
}
100
AcDbXrecord
  1

  0
XRECORD
  5
12A33
102
{ACAD_REACTORS
330
12A32
102
}
100
AcDbXrecord
 90
        1
  0
XRECORD
  5
12A34
102
{ACAD_REACTORS
330
12A32
102
}
100
AcDbXrecord
 90
       70
  0
XRECORD
  5
12A4C
102
{ACAD_REACTORS
330
12A32
102
}
100
AcDbXrecord
340
0
  0
XRECORD
  5
12A52
102
{ACAD_REACTORS
330
12A32
102
}
100
AcDbXrecord
 10
0.0
 20
0.0
 30
0.0
  0
XRECORD
  5
12A4E
102
{ACAD_REACTORS
330
12A32
102
}
100
AcDbXrecord
 10
0.0
 20
0.0
 30
0.0
  0
XRECORD
  5
12A51
102
{ACAD_REACTORS
330
12A32
102
}
100
AcDbXrecord
 10
0.0
 20
0.0
 30
0.0
  0
XRECORD
  5
12A4F
102
{ACAD_REACTORS
330
12A32
102
}
100
AcDbXrecord
 10
0.0
 20
0.0
 30
0.0
  0
XRECORD
  5
12A50
102
{ACAD_REACTORS
330
12A32
102
}
100
AcDbXrecord
 10
0.0
 20
0.0
 30
0.0
  0
XRECORD
  5
12A4D
102
{ACAD_REACTORS
330
12A32
102
}
100
AcDbXrecord
 10
0.0
 20
0.0
 30
0.0
  0
XRECORD
  5
12A4A
102
{ACAD_REACTORS
330
12A32
102
}
100
AcDbXrecord
340
0
  0
XRECORD
  5
12A4B
102
{ACAD_REACTORS
330
12A32
102
}
100
AcDbXrecord
 70
     0
  0
XRECORD
  5
12A3E
102
{ACAD_REACTORS
330
12A32
102
}
100
AcDbXrecord
  1
{7C96F10A-2363-43AB-82FF-204FDEDF5E8A}
  0
DICTIONARYVAR
  5
7DB
102
{ACAD_REACTORS
330
7DA
102
}
100
DictionaryVariables
280
     0
  1
STANDARD
  0
DICTIONARYVAR
  5
1A71
102
{ACAD_REACTORS
330
7DA
102
}
100
DictionaryVariables
280
     0
  1
1
  0
DICTIONARYVAR
  5
1A72
102
{ACAD_REACTORS
330
7DA
102
}
100
DictionaryVariables
280
     0
  1

  0
DICTIONARY
  5
12A60
100
AcDbDictionary
  3
ACAD_XREC_ROUNDTRIP
360
12A61
  0
XRECORD
  5
3572
102
{ACAD_REACTORS
330
3571
102
}
100
AcDbXrecord
330
0
330
0
330
0
330
0
330
0
330
0
330
0
330
0
330
0
330
0
330
0
330
0
330
0
330
0
330
0
330
0
330
0
330
0
330
0
330
0
330
0
330
0
330
0
330
0
330
0
330
0
330
0
330
0
330
0
330
0
330
0
  0
XRECORD
  5
12A5B
102
{ACAD_REACTORS
330
12A5A
102
}
100
AcDbXrecord
102
EXTNAMES
  1
LAYOUT1
  2
Layout1
  1
MODEL
  2
Model
  0
DICTIONARY
  5
12A17
100
AcDbDictionary
  3
ACAD_XREC_ROUNDTRIP
360
12A18
  0
DICTIONARY
  5
12A15
100
AcDbDictionary
  3
ACAD_XREC_ROUNDTRIP
360
12A16
  0
XRECORD
  5
12A59
102
{ACAD_REACTORS
330
12A58
102
}
100
AcDbXrecord
102
EXTNAMES
  1
STANDARD
  2
Standard
  0
XRECORD
  5
12A5D
102
{ACAD_REACTORS
330
12A5C
102
}
100
AcDbXrecord
102
EXTNAMES
  1
STANDARD
  2
Standard
  0
XRECORD
  5
12A61
102
{ACAD_REACTORS
330
12A60
102
}
100
AcDbXrecord
102
EXTNAMES
  1
ASEBLOCKHIERARCHYINDEXRECORD
  2
ASEBlockHierarchyIndexRecord
  0
XRECORD
  5
12A18
102
{ACAD_REACTORS
330
12A17
102
}
100
AcDbXrecord
102
SHADEPLOT
 70
     0
102
SHADEPLOTRESLEVEL
 70
     2
102
SHADEPLOTCUSTOMDPI
 70
   300
  0
XRECORD
  5
12A16
102
{ACAD_REACTORS
330
12A15
102
}
100
AcDbXrecord
102
SHADEPLOT
 70
     0
102
SHADEPLOTRESLEVEL
 70
     2
102
SHADEPLOTCUSTOMDPI
 70
   300
  0
ENDSEC
  0
EOF
