  0
SECTION
  2
HEADER
  9
$ACADVER
  1
AC1014
  9
$ACADMAINTVER
 70
     0
  9
$DWGCODEPAGE
  3
ANSI_1252
  9
$INSBASE
 10
0.0
 20
0.0
 30
0.0
  9
$EXTMIN
 10
73.947605
 20
59.480627
 30
0.0
  9
$EXTMAX
 10
139.097461
 20
289.434625
 30
0.0
  9
$LIMMIN
 10
0.0
 20
0.0
  9
$LIMMAX
 10
297.0
 20
210.0
  9
$ORTHOMODE
 70
     0
  9
$REGENMODE
 70
     1
  9
$FILLMODE
 70
     1
  9
$QTEXTMODE
 70
     0
  9
$MIRRTEXT
 70
     1
  9
$DRAGMODE
 70
     2
  9
$LTSCALE
 40
1.0
  9
$OSMODE
 70
     0
  9
$ATTMODE
 70
     1
  9
$TEXTSIZE
 40
3.5
  9
$TRACEWID
 40
0.05
  9
$TEXTSTYLE
  7
ROMANS
  9
$CLAYER
  8
0
  9
$CELTYPE
  6
BYLAYER
  9
$CECOLOR
 62
   256
  9
$CELTSCALE
 40
1.0
  9
$DELOBJ
 70
     1
  9
$DISPSILH
 70
     0
  9
$DIMSCALE
 40
1.0
  9
$DIMASZ
 40
3.0
  9
$DIMEXO
 40
0.0625
  9
$DIMDLI
 40
0.38
  9
$DIMRND
 40
0.01
  9
$DIMDLE
 40
0.0
  9
$DIMEXE
 40
0.18
  9
$DIMTP
 40
0.0
  9
$DIMTM
 40
0.0
  9
$DIMTXT
 40
2.5
  9
$DIMCEN
 40
0.09
  9
$DIMTSZ
 40
0.0
  9
$DIMTOL
 70
     0
  9
$DIMLIM
 70
     0
  9
$DIMTIH
 70
     0
  9
$DIMTOH
 70
     0
  9
$DIMSE1
 70
     0
  9
$DIMSE2
 70
     0
  9
$DIMTAD
 70
     1
  9
$DIMZIN
 70
    12
  9
$DIMBLK
  1

  9
$DIMASO
 70
     1
  9
$DIMSHO
 70
     1
  9
$DIMPOST
  1

  9
$DIMAPOST
  1

  9
$DIMALT
 70
     0
  9
$DIMALTD
 70
     2
  9
$DIMALTF
 40
25.4
  9
$DIMLFAC
 40
1.0
  9
$DIMTOFL
 70
     1
  9
$DIMTVP
 40
0.0
  9
$DIMTIX
 70
     0
  9
$DIMSOXD
 70
     0
  9
$DIMSAH
 70
     0
  9
$DIMBLK1
  1

  9
$DIMBLK2
  1

  9
$DIMSTYLE
  2
SC_STAND
  9
$DIMCLRD
 70
     0
  9
$DIMCLRE
 70
     0
  9
$DIMCLRT
 70
     0
  9
$DIMTFAC
 40
1.0
  9
$DIMGAP
 40
1.0
  9
$DIMJUST
 70
     0
  9
$DIMSD1
 70
     0
  9
$DIMSD2
 70
     0
  9
$DIMTOLJ
 70
     1
  9
$DIMTZIN
 70
    12
  9
$DIMALTZ
 70
    12
  9
$DIMALTTZ
 70
    12
  9
$DIMFIT
 70
     5
  9
$DIMUPT
 70
     0
  9
$DIMUNIT
 70
     2
  9
$DIMDEC
 70
     4
  9
$DIMTDEC
 70
     4
  9
$DIMALTU
 70
     2
  9
$DIMALTTD
 70
     2
  9
$DIMTXSTY
  7
ROMANS
  9
$DIMAUNIT
 70
     0
  9
$LUNITS
 70
     2
  9
$LUPREC
 70
     4
  9
$SKETCHINC
 40
0.1
  9
$FILLETRAD
 40
10.0
  9
$AUNITS
 70
     0
  9
$AUPREC
 70
     0
  9
$MENU
  1
acad
  9
$ELEVATION
 40
0.0
  9
$PELEVATION
 40
0.0
  9
$THICKNESS
 40
0.0
  9
$LIMCHECK
 70
     0
  9
$BLIPMODE
 70
     1
  9
$CHAMFERA
 40
10.0
  9
$CHAMFERB
 40
10.0
  9
$CHAMFERC
 40
0.0
  9
$CHAMFERD
 40
0.0
  9
$SKPOLY
 70
     0
  9
$TDCREATE
 40
2450653.478976273
  9
$TDUPDATE
 40
2451387.895802280
  9
$TDINDWG
 40
0.0000465394
  9
$TDUSRTIMER
 40
0.0000465394
  9
$USRTIMER
 70
     1
  9
$ANGBASE
 50
0.0
  9
$ANGDIR
 70
     0
  9
$PDMODE
 70
     0
  9
$PDSIZE
 40
0.0
  9
$PLINEWID
 40
0.0
  9
$COORDS
 70
     1
  9
$SPLFRAME
 70
     0
  9
$SPLINETYPE
 70
     6
  9
$SPLINESEGS
 70
     8
  9
$ATTDIA
 70
     0
  9
$ATTREQ
 70
     1
  9
$HANDLING
 70
     1
  9
$HANDSEED
  5
230
  9
$SURFTAB1
 70
     6
  9
$SURFTAB2
 70
     6
  9
$SURFTYPE
 70
     6
  9
$SURFU
 70
     6
  9
$SURFV
 70
     6
  9
$UCSNAME
  2

  9
$UCSORG
 10
0.0
 20
0.0
 30
0.0
  9
$UCSXDIR
 10
1.0
 20
0.0
 30
0.0
  9
$UCSYDIR
 10
0.0
 20
1.0
 30
0.0
  9
$PUCSNAME
  2

  9
$PUCSORG
 10
0.0
 20
0.0
 30
0.0
  9
$PUCSXDIR
 10
1.0
 20
0.0
 30
0.0
  9
$PUCSYDIR
 10
0.0
 20
1.0
 30
0.0
  9
$USERI1
 70
     0
  9
$USERI2
 70
     0
  9
$USERI3
 70
     0
  9
$USERI4
 70
     0
  9
$USERI5
 70
     0
  9
$USERR1
 40
0.0
  9
$USERR2
 40
0.0
  9
$USERR3
 40
0.0
  9
$USERR4
 40
0.0
  9
$USERR5
 40
0.0
  9
$WORLDVIEW
 70
     1
  9
$SHADEDGE
 70
     3
  9
$SHADEDIF
 70
    70
  9
$TILEMODE
 70
     1
  9
$MAXACTVP
 70
    16
  9
$PINSBASE
 10
0.0
 20
0.0
 30
0.0
  9
$PLIMCHECK
 70
     0
  9
$PEXTMIN
 10
1.000000E+20
 20
1.000000E+20
 30
1.000000E+20
  9
$PEXTMAX
 10
-1.000000E+20
 20
-1.000000E+20
 30
-1.000000E+20
  9
$PLIMMIN
 10
0.0
 20
0.0
  9
$PLIMMAX
 10
12.0
 20
9.0
  9
$UNITMODE
 70
     0
  9
$VISRETAIN
 70
     0
  9
$PLINEGEN
 70
     0
  9
$PSLTSCALE
 70
     1
  9
$TREEDEPTH
 70
  3020
  9
$PICKSTYLE
 70
     1
  9
$CMLSTYLE
  2
STANDARD
  9
$CMLJUST
 70
     0
  9
$CMLSCALE
 40
1.0
  9
$PROXYGRAPHICS
 70
     1
  9
$MEASUREMENT
 70
     0
  0
ENDSEC
  0
SECTION
  2
CLASSES
  0
CLASS
  1
DICTIONARYVAR
  2
AcDbDictionaryVar
  3
"AutoCAD"
 90
        0
280
     0
281
     0
  0
CLASS
  1
LWPOLYLINE
  2
AcDbPolyline
  3
"AutoCAD"
 90
        0
280
     0
281
     1
  0
ENDSEC
  0
SECTION
  2
TABLES
  0
TABLE
  2
VPORT
  5
1D2
100
AcDbSymbolTable
 70
     1
  0
VPORT
  5
22B
100
AcDbSymbolTableRecord
100
AcDbViewportTableRecord
  2
*ACTIVE
 70
     0
 10
0.0
 20
0.0
 11
1.0
 21
1.0
 12
299.577395
 22
194.503178
 13
0.0
 23
0.0
 14
1.0
 24
1.0
 15
0.0
 25
0.0
 16
0.0
 26
0.0
 36
1.0
 17
0.0
 27
0.0
 37
0.0
 40
270.045103
 41
1.671053
 42
50.0
 43
0.0
 44
0.0
 50
0.0
 51
0.0
 71
     0
 72
   100
 73
     1
 74
     1
 75
     0
 76
     0
 77
     0
 78
     0
  0
ENDTAB
  0
TABLE
  2
LTYPE
  5
1CF
100
AcDbSymbolTable
 70
    23
  0
LTYPE
  5
1DB
100
AcDbSymbolTableRecord
100
AcDbLinetypeTableRecord
  2
BYBLOCK
 70
     0
  3

 72
    65
 73
     0
 40
0.0
  0
LTYPE
  5
1DC
100
AcDbSymbolTableRecord
100
AcDbLinetypeTableRecord
  2
BYLAYER
 70
     0
  3

 72
    65
 73
     0
 40
0.0
  0
LTYPE
  5
1DD
100
AcDbSymbolTableRecord
100
AcDbLinetypeTableRecord
  2
CONTINUOUS
 70
     0
  3
Solid line
 72
    65
 73
     0
 40
0.0
  0
LTYPE
  5
1F2
100
AcDbSymbolTableRecord
100
AcDbLinetypeTableRecord
  2
AXES
 70
     0
  3
____ _ ____ _ ____ _ ____ _ ____ _ ____ _ ____ 
 72
    65
 73
     4
 40
2.0
 49
1.25
 74
     0
 49
-0.25
 74
     0
 49
0.25
 74
     0
 49
-0.25
 74
     0
  0
LTYPE
  5
1F3
100
AcDbSymbolTableRecord
100
AcDbLinetypeTableRecord
  2
AXES2
 70
     0
  3
___ _ ___ _ ___ _ ___ _ ___ _ ___ _ ___ _ ___ _
 72
    65
 73
     4
 40
1.125
 49
0.75
 74
     0
 49
-0.125
 74
     0
 49
0.125
 74
     0
 49
-0.125
 74
     0
  0
LTYPE
  5
1F4
100
AcDbSymbolTableRecord
100
AcDbLinetypeTableRecord
  2
AXESX2
 70
     0
  3
________  __  ________  __  ________  __  _____
 72
    65
 73
     4
 40
4.0
 49
2.5
 74
     0
 49
-0.5
 74
     0
 49
0.5
 74
     0
 49
-0.5
 74
     0
  0
LTYPE
  5
1F5
100
AcDbSymbolTableRecord
100
AcDbLinetypeTableRecord
  2
TIRETPT
 70
     0
  3
__ . __ . __ . __ . __ . __ . __ . __ . __ . __
 72
    65
 73
     4
 40
1.0
 49
0.5
 74
     0
 49
-0.25
 74
     0
 49
0.0
 74
     0
 49
-0.25
 74
     0
  0
LTYPE
  5
1F6
100
AcDbSymbolTableRecord
100
AcDbLinetypeTableRecord
  2
TIRETPT2
 70
     0
  3
_._._._._._._._._._._._._._._._._._._._._._._._
 72
    65
 73
     4
 40
0.5
 49
0.25
 74
     0
 49
-0.125
 74
     0
 49
0.0
 74
     0
 49
-0.125
 74
     0
  0
LTYPE
  5
1F7
100
AcDbSymbolTableRecord
100
AcDbLinetypeTableRecord
  2
TIRETPTX2
 70
     0
  3
____  .  ____  .  ____  .  ____  .  ____  .  __
 72
    65
 73
     4
 40
2.0
 49
1.0
 74
     0
 49
-0.5
 74
     0
 49
0.0
 74
     0
 49
-0.5
 74
     0
  0
LTYPE
  5
1F8
100
AcDbSymbolTableRecord
100
AcDbLinetypeTableRecord
  2
DISCONTINU
 70
     0
  3
__ __ __ __ __ __ __ __ __ __ __ __ __ __ __ __
 72
    65
 73
     2
 40
0.75
 49
0.5
 74
     0
 49
-0.25
 74
     0
  0
LTYPE
  5
1F9
100
AcDbSymbolTableRecord
100
AcDbLinetypeTableRecord
  2
DISCONTINU2
 70
     0
  3
_ _ _ _ _ _ _ _ _ _ _ _ _ _ _ _ _ _ _ _ _ _ _ _
 72
    65
 73
     2
 40
0.375
 49
0.25
 74
     0
 49
-0.125
 74
     0
  0
LTYPE
  5
1FA
100
AcDbSymbolTableRecord
100
AcDbLinetypeTableRecord
  2
DISCONTINUX2
 70
     0
  3
____  ____  ____  ____  ____  ____  ____  ____ 
 72
    65
 73
     2
 40
1.5
 49
1.0
 74
     0
 49
-0.5
 74
     0
  0
LTYPE
  5
1FB
100
AcDbSymbolTableRecord
100
AcDbLinetypeTableRecord
  2
DIVISE
 70
     0
  3
____ . . ____ . . ____ . . ____ . . ____ . . __
 72
    65
 73
     6
 40
1.25
 49
0.5
 74
     0
 49
-0.25
 74
     0
 49
0.0
 74
     0
 49
-0.25
 74
     0
 49
0.0
 74
     0
 49
-0.25
 74
     0
  0
LTYPE
  5
1FC
100
AcDbSymbolTableRecord
100
AcDbLinetypeTableRecord
  2
DIVISE2
 70
     0
  3
__..__..__..__..__..__..__..__..__..__..__..__.
 72
    65
 73
     6
 40
0.625
 49
0.25
 74
     0
 49
-0.125
 74
     0
 49
0.0
 74
     0
 49
-0.125
 74
     0
 49
0.0
 74
     0
 49
-0.125
 74
     0
  0
LTYPE
  5
1FD
100
AcDbSymbolTableRecord
100
AcDbLinetypeTableRecord
  2
DIVISEX2
 70
     0
  3
________  .  .  ________  .  .  ________  .  . 
 72
    65
 73
     6
 40
2.5
 49
1.0
 74
     0
 49
-0.5
 74
     0
 49
0.0
 74
     0
 49
-0.5
 74
     0
 49
0.0
 74
     0
 49
-0.5
 74
     0
  0
LTYPE
  5
1FE
100
AcDbSymbolTableRecord
100
AcDbLinetypeTableRecord
  2
POINTILLE
 70
     0
  3
. . . . . . . . . . . . . . . . . . . . . . . .
 72
    65
 73
     2
 40
0.25
 49
0.0
 74
     0
 49
-0.25
 74
     0
  0
LTYPE
  5
1FF
100
AcDbSymbolTableRecord
100
AcDbLinetypeTableRecord
  2
POINTILLE2
 70
     0
  3
...............................................
 72
    65
 73
     2
 40
0.125
 49
0.0
 74
     0
 49
-0.125
 74
     0
  0
LTYPE
  5
200
100
AcDbSymbolTableRecord
100
AcDbLinetypeTableRecord
  2
POINTILLEX2
 70
     0
  3
.  .  .  .  .  .  .  .  .  .  .  .  .  .  .  . 
 72
    65
 73
     2
 40
0.5
 49
0.0
 74
     0
 49
-0.5
 74
     0
  0
LTYPE
  5
201
100
AcDbSymbolTableRecord
100
AcDbLinetypeTableRecord
  2
CACHE
 70
     0
  3
__ __ __ __ __ __ __ __ __ __ __ __ __ __ __ __
 72
    65
 73
     2
 40
0.375
 49
0.25
 74
     0
 49
-0.125
 74
     0
  0
LTYPE
  5
202
100
AcDbSymbolTableRecord
100
AcDbLinetypeTableRecord
  2
CACHE2
 70
     0
  3
_ _ _ _ _ _ _ _ _ _ _ _ _ _ _ _ _ _ _ _ _ _ _ _
 72
    65
 73
     2
 40
0.1875
 49
0.125
 74
     0
 49
-0.0625
 74
     0
  0
LTYPE
  5
203
100
AcDbSymbolTableRecord
100
AcDbLinetypeTableRecord
  2
CACHEX2
 70
     0
  3
____ ____ ____ ____ ____ ____ ____ ____ ____ __
 72
    65
 73
     2
 40
0.75
 49
0.5
 74
     0
 49
-0.25
 74
     0
  0
LTYPE
  5
204
100
AcDbSymbolTableRecord
100
AcDbLinetypeTableRecord
  2
FANTOME
 70
     0
  3
______  __  __  ______  __  __  ______  __  __ 
 72
    65
 73
     6
 40
2.5
 49
1.25
 74
     0
 49
-0.25
 74
     0
 49
0.25
 74
     0
 49
-0.25
 74
     0
 49
0.25
 74
     0
 49
-0.25
 74
     0
  0
LTYPE
  5
205
100
AcDbSymbolTableRecord
100
AcDbLinetypeTableRecord
  2
FANTOME2
 70
     0
  3
___ _ _ ___ _ _ ___ _ _ ___ _ _ ___ _ _ ___ _ _
 72
    65
 73
     6
 40
1.25
 49
0.625
 74
     0
 49
-0.125
 74
     0
 49
0.125
 74
     0
 49
-0.125
 74
     0
 49
0.125
 74
     0
 49
-0.125
 74
     0
  0
LTYPE
  5
206
100
AcDbSymbolTableRecord
100
AcDbLinetypeTableRecord
  2
FANTOMEX2
 70
     0
  3
____________    ____    ____    ____________   
 72
    65
 73
     6
 40
5.0
 49
2.5
 74
     0
 49
-0.5
 74
     0
 49
0.5
 74
     0
 49
-0.5
 74
     0
 49
0.5
 74
     0
 49
-0.5
 74
     0
  0
LTYPE
  5
207
100
AcDbSymbolTableRecord
100
AcDbLinetypeTableRecord
  2
0
 70
     0
  3
MEDUSA PEN 0
 72
    65
 73
     0
 40
0.0
  0
ENDTAB
  0
TABLE
  2
LAYER
  5
1CC
100
AcDbSymbolTable
 70
    21
  0
LAYER
  5
1D8
100
AcDbSymbolTableRecord
100
AcDbLayerTableRecord
  2
0
 70
     0
 62
     7
  6
CONTINUOUS
  0
LAYER
  5
20E
100
AcDbSymbolTableRecord
100
AcDbLayerTableRecord
  2
COTATION1
 70
     0
 62
     2
  6
CONTINUOUS
  0
LAYER
  5
20F
100
AcDbSymbolTableRecord
100
AcDbLayerTableRecord
  2
ALPHA
 70
     0
 62
   255
  6
CONTINUOUS
  0
LAYER
  5
210
100
AcDbSymbolTableRecord
100
AcDbLayerTableRecord
  2
DEFPOINTS
 70
     0
 62
     7
  6
CONTINUOUS
  0
LAYER
  5
211
100
AcDbSymbolTableRecord
100
AcDbLayerTableRecord
  2
AXE
 70
     0
 62
    80
  6
AXES2
  0
LAYER
  5
212
100
AcDbSymbolTableRecord
100
AcDbLayerTableRecord
  2
CONSTRUCTION
 70
     0
 62
     6
  6
CONTINUOUS
  0
LAYER
  5
213
100
AcDbSymbolTableRecord
100
AcDbLayerTableRecord
  2
HACHURES
 70
     0
 62
     9
  6
CONTINUOUS
  0
LAYER
  5
214
100
AcDbSymbolTableRecord
100
AcDbLayerTableRecord
  2
FMULT
 70
     0
 62
     6
  6
CONTINUOUS
  0
LAYER
  5
215
100
AcDbSymbolTableRecord
100
AcDbLayerTableRecord
  2
TEXTE
 70
     0
 62
   131
  6
CONTINUOUS
  0
LAYER
  5
216
100
AcDbSymbolTableRecord
100
AcDbLayerTableRecord
  2
FDP_CARTOUCHE
 70
     0
 62
     4
  6
CONTINUOUS
  0
LAYER
  5
217
100
AcDbSymbolTableRecord
100
AcDbLayerTableRecord
  2
FDP_TEXTES
 70
     0
 62
     5
  6
CONTINUOUS
  0
LAYER
  5
218
100
AcDbSymbolTableRecord
100
AcDbLayerTableRecord
  2
FDP_LOGO_MG
 70
     0
 62
    30
  6
CONTINUOUS
  0
LAYER
  5
219
100
AcDbSymbolTableRecord
100
AcDbLayerTableRecord
  2
FDP_LOGO_SCH
 70
     0
 62
     3
  6
CONTINUOUS
  0
LAYER
  5
21A
100
AcDbSymbolTableRecord
100
AcDbLayerTableRecord
  2
FDP_FDP
 70
     0
 62
     5
  6
CONTINUOUS
  0
LAYER
  5
21B
100
AcDbSymbolTableRecord
100
AcDbLayerTableRecord
  2
COTATION2
 70
     0
 62
     2
  6
CONTINUOUS
  0
LAYER
  5
21C
100
AcDbSymbolTableRecord
100
AcDbLayerTableRecord
  2
COTATION3
 70
     0
 62
     2
  6
CONTINUOUS
  0
LAYER
  5
21D
100
AcDbSymbolTableRecord
100
AcDbLayerTableRecord
  2
COTATION4
 70
     0
 62
     2
  6
CONTINUOUS
  0
LAYER
  5
21E
100
AcDbSymbolTableRecord
100
AcDbLayerTableRecord
  2
ASHADE
 70
     0
 62
     7
  6
CONTINUOUS
  0
LAYER
  5
21F
100
AcDbSymbolTableRecord
100
AcDbLayerTableRecord
  2
POINTILLE_COURT
 70
     0
 62
    40
  6
CACHE2
  0
LAYER
  5
220
100
AcDbSymbolTableRecord
100
AcDbLayerTableRecord
  2
POINTILLE_MOYEN
 70
     0
 62
   140
  6
CACHE
  0
LAYER
  5
221
100
AcDbSymbolTableRecord
100
AcDbLayerTableRecord
  2
POINTILLE_LONG
 70
     0
 62
   240
  6
CACHEX2
  0
ENDTAB
  0
TABLE
  2
STYLE
  5
1CD
100
AcDbSymbolTable
 70
     4
  0
STYLE
  5
1D9
100
AcDbSymbolTableRecord
100
AcDbTextStyleTableRecord
  2
STANDARD
 70
     0
 40
0.0
 41
1.0
 50
0.0
 71
     0
 42
3.5
  3
txt
  4

  0
STYLE
  5
1EF
100
AcDbSymbolTableRecord
100
AcDbTextStyleTableRecord
  2
ROMANS
 70
     0
 40
0.0
 41
1.0
 50
0.0
 71
     0
 42
2.9
  3
romans.shx
  4

  0
STYLE
  5
1F0
100
AcDbSymbolTableRecord
100
AcDbTextStyleTableRecord
  2
INFOCAR
 70
     0
 40
0.0
 41
1.34
 50
0.0
 71
     0
 42
2.0
  3
ROMANS.SHX
  4

  0
STYLE
  5
1F1
100
AcDbSymbolTableRecord
100
AcDbTextStyleTableRecord
  2
CARTOUCHE
 70
     0
 40
0.0
 41
1.0
 50
0.0
 71
     0
 42
0.2
  3
ROMANS.SHX
  4

  0
ENDTAB
  0
TABLE
  2
VIEW
  5
1D0
100
AcDbSymbolTable
 70
     0
  0
ENDTAB
  0
TABLE
  2
UCS
  5
1D1
100
AcDbSymbolTable
 70
     0
  0
ENDTAB
  0
TABLE
  2
APPID
  5
1D3
100
AcDbSymbolTable
 70
     3
  0
APPID
  5
1DA
100
AcDbSymbolTableRecord
100
AcDbRegAppTableRecord
  2
ACAD
 70
     0
  0
APPID
  5
20A
100
AcDbSymbolTableRecord
100
AcDbRegAppTableRecord
  2
AVE_RENDER
 70
     0
  0
APPID
  5
20B
100
AcDbSymbolTableRecord
100
AcDbRegAppTableRecord
  2
AVE_MATERIAL
 70
     0
  0
ENDTAB
  0
TABLE
  2
DIMSTYLE
  5
1D4
100
AcDbSymbolTable
 70
     2
  0
DIMSTYLE
105
20C
100
AcDbSymbolTableRecord
100
AcDbDimStyleTableRecord
  2
STANDARD
 70
     0
  3

  4

  5

  6

  7

 40
1.0
 41
0.18
 42
0.0625
 43
0.38
 44
0.18
 45
0.0
 46
0.0
 47
0.0
 48
0.0
140
0.18
141
0.09
142
0.0
143
25.4
144
1.0
145
0.0
146
1.0
147
0.09
 71
     0
 72
     0
 73
     1
 74
     1
 75
     0
 76
     0
 77
     0
 78
     0
170
     0
171
     2
172
     0
173
     0
174
     0
175
     0
176
     0
177
     0
178
     0
270
     2
271
     4
272
     4
273
     2
274
     2
340
1EF
275
     0
280
     0
281
     0
282
     0
283
     1
284
    12
285
    12
286
    12
287
     5
288
     0
  0
DIMSTYLE
105
20D
102
{ACAD_REACTORS
330
3
330
18
102
}
100
AcDbSymbolTableRecord
100
AcDbDimStyleTableRecord
  2
SC_STAND
 70
     0
  3

  4

  5

  6

  7

 40
1.0
 41
3.0
 42
0.0625
 43
0.38
 44
0.18
 45
0.01
 46
0.0
 47
0.0
 48
0.0
140
2.5
141
0.09
142
0.0
143
25.4
144
1.0
145
0.0
146
1.0
147
1.0
 71
     0
 72
     0
 73
     0
 74
     0
 75
     0
 76
     0
 77
     1
 78
    12
170
     0
171
     2
172
     1
173
     0
174
     0
175
     0
176
     0
177
     0
178
     0
270
     2
271
     4
272
     4
273
     2
274
     2
340
1EF
275
     0
280
     0
281
     0
282
     0
283
     1
284
    12
285
    12
286
    12
287
     5
288
     0
  0
ENDTAB
  0
TABLE
  2
BLOCK_RECORD
  5
1CB
100
AcDbSymbolTable
 70
     7
  0
BLOCK_RECORD
  5
1E1
100
AcDbSymbolTableRecord
100
AcDbBlockTableRecord
  2
*MODEL_SPACE
  0
BLOCK_RECORD
  5
1DE
100
AcDbSymbolTableRecord
100
AcDbBlockTableRecord
  2
*PAPER_SPACE
  0
BLOCK_RECORD
  5
1E6
100
AcDbSymbolTableRecord
100
AcDbBlockTableRecord
  2
AVE_RENDER
  0
BLOCK_RECORD
  5
1E7
100
AcDbSymbolTableRecord
100
AcDbBlockTableRecord
  2
AVE_GLOBAL
  0
BLOCK_RECORD
  5
1E8
100
AcDbSymbolTableRecord
100
AcDbBlockTableRecord
  2
SCH_ISO
  0
BLOCK_RECORD
  5
1ED
100
AcDbSymbolTableRecord
100
AcDbBlockTableRecord
  2
*D5
  0
BLOCK_RECORD
  5
1EE
100
AcDbSymbolTableRecord
100
AcDbBlockTableRecord
  2
*D6
  0
ENDTAB
  0
ENDSEC
  0
SECTION
  2
BLOCKS
  0
BLOCK
  5
224
100
AcDbEntity
  8
0
100
AcDbBlockBegin
  2
*MODEL_SPACE
 70
     0
 10
0.0
 20
0.0
 30
0.0
  3
*MODEL_SPACE
  1

  0
ENDBLK
  5
225
100
AcDbEntity
  8
0
100
AcDbBlockEnd
  0
BLOCK
  5
222
100
AcDbEntity
 67
     1
  8
0
100
AcDbBlockBegin
  2
*PAPER_SPACE
 70
     0
 10
0.0
 20
0.0
 30
0.0
  3
*PAPER_SPACE
  1

  0
ENDBLK
  5
223
100
AcDbEntity
 67
     1
  8
0
100
AcDbBlockEnd
  0
BLOCK
  5
12C
100
AcDbEntity
  8
0
100
AcDbBlockBegin
  2
AVE_RENDER
 70
     0
 10
0.0
 20
0.0
 30
0.0
  3
AVE_RENDER
  1
AVE_RENDER
  0
ENDBLK
  5
12D
100
AcDbEntity
  8
0
100
AcDbBlockEnd
  0
BLOCK
  5
12F
100
AcDbEntity
  8
0
100
AcDbBlockBegin
  2
AVE_GLOBAL
 70
     0
 10
0.0
 20
0.0
 30
0.0
  3
AVE_GLOBAL
  1
AVE_GLOBAL
  0
ENDBLK
  5
130
100
AcDbEntity
  8
0
100
AcDbBlockEnd
  0
BLOCK
  5
166
100
AcDbEntity
  8
0
100
AcDbBlockBegin
  2
SCH_ISO
 70
     0
 10
0.0
 20
0.0
 30
0.0
  3
SCH_ISO
  1

  0
INSERT
  5
15D
100
AcDbEntity
  8
ASHADE
 62
     1
100
AcDbBlockReference
  2
AVE_RENDER
 10
0.0
 20
0.0
 30
0.0
1001
AVE_RENDER
1002
{
1070
     6
1000
Pref
1070
    50
1070
    20
1070
     1
1070
     0
1000

1070
    10
1070
     1
1070
    30
1040
25.4
1070
     1
1040
0.3
1040
0.7
1040
0.0
1040
10.0
1010
-1.0
1020
-1.0
1030
-1.0
1040
0.3
1070
    49
1070
     0
1070
     0
1010
1.0
1020
1.0
1030
1.0
1040
45.0
1070
     1
1070
     0
1000
WCS
1040
0.0
1002
}
  0
INSERT
  5
15E
100
AcDbEntity
  8
ASHADE
 62
     3
100
AcDbBlockReference
  2
AVE_RENDER
 10
0.0
 20
0.0
 30
0.0
1001
AVE_RENDER
1002
{
1070
     0
1000
Full Opt
1070
     0
1070
     1
1070
     1
1070
     1
1070
     0
1070
     0
1070
     0
1070
     1
1070
     1
1040
0.0001
1040
0.0001
1002
}
  0
INSERT
  5
15F
100
AcDbEntity
  8
ASHADE
 62
     4
100
AcDbBlockReference
  2
AVE_RENDER
 10
0.0
 20
0.0
 30
0.0
1001
AVE_RENDER
1002
{
1070
     0
1000
Quick Opt
1070
     0
1070
     1
1070
     1
1070
     1
1070
     0
1070
     0
1070
     1
1002
}
  0
INSERT
  5
160
100
AcDbEntity
  8
ASHADE
 62
     5
100
AcDbBlockReference
  2
AVE_RENDER
 10
0.0
 20
0.0
 30
0.0
1001
AVE_RENDER
1002
{
1070
     1
1000
Scanl Opt
1070
     2
1070
     0
1070
     2
1040
2.0
1040
4.0
1070
     0
1070
     1
1070
     0
1040
0.03
1002
}
  0
INSERT
  5
161
100
AcDbEntity
  8
ASHADE
 62
     6
100
AcDbBlockReference
  2
AVE_RENDER
 10
0.0
 20
0.0
 30
0.0
1001
AVE_RENDER
1002
{
1070
     2
1000
Raytr Opt
1070
     2
1070
     0
1070
     2
1040
2.0
1040
4.0
1070
     0
1070
     1
1070
     1
1040
0.03
1070
     3
1040
0.03
1002
}
  0
INSERT
  5
162
100
AcDbEntity
  8
ASHADE
 62
     7
100
AcDbBlockReference
  2
AVE_RENDER
 10
0.0
 20
0.0
 30
0.0
1001
AVE_RENDER
1002
{
1070
     0
1000
RFile Opt
1070
     5
1070
   640
1070
   480
1070
 10000
1070
     3
1070
    32
1070
    24
1070
     0
1070
     0
1070
     0
1070
     1
1070
     0
1070
     0
1070
     0
1002
}
  0
INSERT
  5
163
100
AcDbEntity
  8
ASHADE
 62
     8
100
AcDbBlockReference
  2
AVE_RENDER
 10
0.0
 20
0.0
 30
0.0
1001
AVE_RENDER
1002
{
1070
     0
1000
Fog Opt
1070
     0
1070
     0
1040
0.0
1040
1.0
1040
0.0
1040
1.0
1010
0.5
1020
0.5
1030
0.5
1002
}
  0
INSERT
  5
164
100
AcDbEntity
  8
ASHADE
 62
     9
100
AcDbBlockReference
  2
AVE_RENDER
 10
0.0
 20
0.0
 30
0.0
1001
AVE_RENDER
1002
{
1070
     0
1000
BG Opt
1070
     0
1070
     1
1010
0.0
1020
0.0
1030
0.0
1010
1.0
1020
0.0
1030
0.0
1010
0.0
1020
1.0
1030
0.0
1010
0.0
1020
0.0
1030
1.0
1040
0.5
1040
0.33
1040
0.0
1000

1070
     1
1000

1070
     1
1070
     1
1040
1.0
1040
1.0
1040
0.0
1040
0.0
1070
     0
1002
}
  0
INSERT
  5
165
100
AcDbEntity
  8
ASHADE
 62
     1
100
AcDbBlockReference
  2
AVE_GLOBAL
 10
0.0
 20
0.0
 30
0.0
1001
AVE_MATERIAL
1002
{
1000
*GLOBAL*
1000
1
1000
Finition globale.
1002
{
1002
}
1002
{
1070
    63
1002
{
1002
{
1010
-1.0
1020
-1.0
1030
-1.0
1002
}
1040
0.1
1000

1040
0.0
1002
{
1002
}
1040
0.0
1002
{
1002
}
1040
0.0
1002
}
1002
{
1002
{
1010
-1.0
1020
-1.0
1030
-1.0
1002
}
1040
0.7
1000

1040
0.0
1002
{
1002
}
1040
0.0
1002
{
1002
}
1040
0.0
1002
}
1002
{
1002
{
1010
-1.0
1020
-1.0
1030
-1.0
1002
}
1040
0.2
1000

1040
0.0
1002
{
1002
}
1040
0.0
1002
{
1002
}
1040
0.0
1002
}
1002
{
1070
     0
1002
{
1070
     1
1002
{
1040
1.0
1040
1.0
1000

1040
0.0
1002
{
1002
}
1040
0.0
1002
{
1002
}
1040
0.0
1002
}
1002
}
1040
1.0
1040
0.0
1040
0.0
1002
}
1002
{
1040
1.0
1040
1.0
1000

1040
0.0
1002
{
1002
}
1040
0.0
1002
{
1002
}
1040
0.0
1002
}
1002
{
1040
0.5
1040
1.0
1000

1040
0.0
1002
{
1002
}
1040
0.0
1002
{
1002
}
1040
0.0
1002
}
1002
{
1070
     0
1040
0.0
1002
{
1002
}
1040
1.0
1002
{
1002
}
1040
0.0
1002
}
1002
{
1040
0.0
1002
{
1002
{
1010
0.0
1020
0.0
1030
0.0
1002
}
1040
1.0
1000

1040
0.0
1002
{
1002
}
1040
0.0
1002
{
1002
}
1040
0.0
1002
}
1002
}
1002
{
1002
{
1070
     1
1002
{
1040
0.0
1040
1.0
1000

1040
0.0
1002
{
1002
}
1040
0.0
1002
{
1002
}
1040
0.0
1002
}
1002
}
1040
0.0
1002
{
1002
}
1010
1.0
1020
0.0
1030
0.0
1010
0.0
1020
1.0
1030
0.0
1010
0.0
1020
0.0
1030
1.0
1070
     0
1002
}
1002
{
1002
{
1040
1.0
1040
1.0
1002
{
1070
     1
1002
{
1040
1.0
1040
1.0
1000

1040
0.0
1002
{
1002
}
1040
0.0
1002
{
1002
}
1040
0.0
1002
}
1002
}
1002
}
1070
     0
1040
0.0
1002
{
1002
}
1002
}
1002
{
1002
}
1002
}
1002
{
1071
        3
1070
     3
1070
     0
1002
{
1070
     2
1070
     0
1070
     0
1040
0.0
1002
}
1070
     0
1070
     2
1002
{
1002
}
1002
}
1002
{
1040
8030.0
1040
190.300003
1040
0.305
1040
228.0
1040
545.0
1040
14.0
1040
17.4
1040
0.456
1002
}
1002
}
  0
ENDBLK
  5
167
100
AcDbEntity
  8
0
100
AcDbBlockEnd
  0
BLOCK
  5
1B5
100
AcDbEntity
  8
0
100
AcDbBlockBegin
  2
*D5
 70
     1
 10
0.0
 20
0.0
 30
0.0
  3
*D5
  1
AVE_GLOBAL
  0
LINE
  5
1B6
100
AcDbEntity
  8
0
  6
BYBLOCK
 62
     0
100
AcDbLine
 10
118.747605
 20
87.172125
 30
0.0
 11
118.747605
 21
59.800627
 31
0.0
  0
LINE
  5
1B7
100
AcDbEntity
  8
0
  6
BYBLOCK
 62
     0
100
AcDbLine
 10
73.947605
 20
93.722125
 30
0.0
 11
73.947605
 21
59.800627
 31
0.0
  0
LINE
  5
1B8
100
AcDbEntity
  8
0
  6
BYBLOCK
 62
     0
100
AcDbLine
 10
115.747605
 20
59.980627
 30
0.0
 11
76.947605
 21
59.980627
 31
0.0
  0
SOLID
  5
1B9
100
AcDbEntity
  8
0
  6
BYBLOCK
 62
     0
100
AcDbTrace
 10
115.747605
 20
60.480627
 30
0.0
 11
115.747605
 21
59.480627
 31
0.0
 12
118.747605
 22
59.980627
 32
0.0
 13
118.747605
 23
59.980627
 33
0.0
  0
SOLID
  5
1BA
100
AcDbEntity
  8
0
  6
BYBLOCK
 62
     0
100
AcDbTrace
 10
76.947605
 20
60.480627
 30
0.0
 11
76.947605
 21
59.480627
 31
0.0
 12
73.947605
 22
59.980627
 32
0.0
 13
73.947605
 23
59.980627
 33
0.0
  0
TEXT
  5
1BB
100
AcDbEntity
  8
0
  6
BYBLOCK
 62
     0
100
AcDbText
 10
92.180938
 20
61.230627
 30
0.0
 40
2.5
  1
44.8
  7
ROMANS
 72
     1
 11
96.347605
 21
62.480627
 31
0.0
100
AcDbText
 73
     2
  0
POINT
  5
1BC
100
AcDbEntity
  8
DEFPOINTS
  6
BYBLOCK
 62
     0
100
AcDbPoint
 10
118.747605
 20
87.234625
 30
0.0
  0
POINT
  5
1BD
100
AcDbEntity
  8
DEFPOINTS
  6
BYBLOCK
 62
     0
100
AcDbPoint
 10
73.947605
 20
93.784625
 30
0.0
  0
POINT
  5
1BE
100
AcDbEntity
  8
DEFPOINTS
  6
BYBLOCK
 62
     0
100
AcDbPoint
 10
73.947605
 20
59.980627
 30
0.0
  0
ENDBLK
  5
1BF
100
AcDbEntity
  8
0
100
AcDbBlockEnd
  0
BLOCK
  5
1C0
100
AcDbEntity
  8
0
100
AcDbBlockBegin
  2
*D6
 70
     1
 10
0.0
 20
0.0
 30
0.0
  3
*D6
  1
AVE_GLOBAL
  0
LINE
  5
1C1
100
AcDbEntity
  8
0
  6
BYBLOCK
 62
     0
100
AcDbLine
 10
114.810075
 20
80.734625
 30
0.0
 11
138.777461
 21
80.734625
 31
0.0
  0
LINE
  5
1C2
100
AcDbEntity
  8
0
  6
BYBLOCK
 62
     0
100
AcDbLine
 10
117.710105
 20
195.434625
 30
0.0
 11
138.777461
 21
195.434625
 31
0.0
  0
LINE
  5
1C3
100
AcDbEntity
  8
0
  6
BYBLOCK
 62
     0
100
AcDbLine
 10
138.597461
 20
83.734625
 30
0.0
 11
138.597461
 21
192.434625
 31
0.0
  0
SOLID
  5
1C4
100
AcDbEntity
  8
0
  6
BYBLOCK
 62
     0
100
AcDbTrace
 10
138.097461
 20
83.734625
 30
0.0
 11
139.097461
 21
83.734625
 31
0.0
 12
138.597461
 22
80.734625
 32
0.0
 13
138.597461
 23
80.734625
 33
0.0
  0
SOLID
  5
1C5
100
AcDbEntity
  8
0
  6
BYBLOCK
 62
     0
100
AcDbTrace
 10
138.097461
 20
192.434625
 30
0.0
 11
139.097461
 21
192.434625
 31
0.0
 12
138.597461
 22
195.434625
 32
0.0
 13
138.597461
 23
195.434625
 33
0.0
  0
TEXT
  5
1C6
100
AcDbEntity
  8
0
  6
BYBLOCK
 62
     0
100
AcDbText
 10
137.347461
 20
132.548911
 30
0.0
 40
2.5
  1
114.7
 50
90.0
  7
ROMANS
 72
     1
 11
136.097461
 21
138.084625
 31
0.0
100
AcDbText
 73
     2
  0
POINT
  5
1C7
100
AcDbEntity
  8
DEFPOINTS
  6
BYBLOCK
 62
     0
100
AcDbPoint
 10
114.747575
 20
80.734625
 30
0.0
  0
POINT
  5
1C8
100
AcDbEntity
  8
DEFPOINTS
  6
BYBLOCK
 62
     0
100
AcDbPoint
 10
117.647605
 20
195.434625
 30
0.0
  0
POINT
  5
1C9
100
AcDbEntity
  8
DEFPOINTS
  6
BYBLOCK
 62
     0
100
AcDbPoint
 10
138.597461
 20
195.434625
 30
0.0
  0
ENDBLK
  5
1CA
100
AcDbEntity
  8
0
100
AcDbBlockEnd
  0
ENDSEC
  0
SECTION
  2
ENTITIES
  0
DIMENSION
  5
3
100
AcDbEntity
  8
COTATION1
100
AcDbDimension
  2
*D6
 10
138.597461
 20
195.434625
 30
0.0
 11
136.097461
 21
138.084625
 31
0.0
  3
SC_STAND
100
AcDbAlignedDimension
 13
114.747575
 23
80.734625
 33
0.0
 14
117.647605
 24
195.434625
 34
0.0
 50
90.0
100
AcDbRotatedDimension
  0
DIMENSION
  5
18
100
AcDbEntity
  8
COTATION1
100
AcDbDimension
  2
*D5
 10
73.947605
 20
59.980627
 30
0.0
 11
96.347605
 21
62.480627
 31
0.0
  3
SC_STAND
100
AcDbAlignedDimension
 13
118.747605
 23
87.234625
 33
0.0
 14
73.947605
 24
93.784625
 34
0.0
100
AcDbRotatedDimension
  0
ARC
  5
25
100
AcDbEntity
  8
ALPHA
100
AcDbCircle
 10
78.347605
 20
82.734625
 30
0.0
 40
0.5
100
AcDbArc
 50
180.0
 51
270.0
  0
ARC
  5
27
100
AcDbEntity
  8
ALPHA
100
AcDbCircle
 10
78.347605
 20
158.234625
 30
0.0
 40
0.5
100
AcDbArc
 50
90.0
 51
180.0
  0
CIRCLE
  5
28
100
AcDbEntity
  8
ALPHA
100
AcDbCircle
 10
108.597605
 20
167.184625
 30
0.0
 40
0.975
  0
CIRCLE
  5
29
100
AcDbEntity
  8
ALPHA
100
AcDbCircle
 10
90.547605
 20
167.184625
 30
0.0
 40
0.975
  0
ARC
  5
2A
100
AcDbEntity
  8
ALPHA
100
AcDbCircle
 10
85.847605
 20
194.934625
 30
0.0
 40
0.5
100
AcDbArc
 50
90.0
 51
180.0
  0
ARC
  5
2B
100
AcDbEntity
  8
ALPHA
100
AcDbCircle
 10
117.647605
 20
194.934625
 30
0.0
 40
0.5
100
AcDbArc
 50
0.0
 51
90.0
  0
ARC
  5
2C
100
AcDbEntity
  8
ALPHA
100
AcDbCircle
 10
101.847605
 20
179.034625
 30
0.0
 40
14.2
100
AcDbArc
 50
166.547149
 51
166.753755
  0
ARC
  5
2D
100
AcDbEntity
  8
ALPHA
100
AcDbCircle
 10
77.547605
 20
145.484625
 30
0.0
 40
0.5
100
AcDbArc
 50
270.0
 51
0.0
  0
ARC
  5
2E
100
AcDbEntity
  8
ALPHA
100
AcDbCircle
 10
77.547605
 20
98.884625
 30
0.0
 40
0.5
100
AcDbArc
 50
0.0
 51
90.0
  0
ARC
  5
2F
100
AcDbEntity
  8
ALPHA
100
AcDbCircle
 10
74.947605
 20
85.291732
 30
0.0
 40
0.5
100
AcDbArc
 50
180.0
 51
225.0
  0
ARC
  5
30
100
AcDbEntity
  8
ALPHA
100
AcDbCircle
 10
74.947605
 20
99.884625
 30
0.0
 40
0.5
100
AcDbArc
 50
180.0
 51
270.0
  0
ARC
  5
31
100
AcDbEntity
  8
ALPHA
100
AcDbCircle
 10
74.947605
 20
144.484625
 30
0.0
 40
0.5
100
AcDbArc
 50
90.0
 51
180.0
  0
ARC
  5
32
100
AcDbEntity
  8
ALPHA
100
AcDbCircle
 10
74.947605
 20
155.577518
 30
0.0
 40
0.5
100
AcDbArc
 50
135.0
 51
180.0
  0
ARC
  5
33
100
AcDbEntity
  8
ALPHA
100
AcDbCircle
 10
78.547605
 20
86.084625
 30
0.0
 40
0.5
100
AcDbArc
 50
180.0
 51
270.0
  0
ARC
  5
34
100
AcDbEntity
  8
ALPHA
100
AcDbCircle
 10
78.547605
 20
98.684625
 30
0.0
 40
0.5
100
AcDbArc
 50
180.0
 51
270.0
  0
ARC
  5
35
100
AcDbEntity
  8
ALPHA
100
AcDbCircle
 10
78.547605
 20
145.684625
 30
0.0
 40
0.5
100
AcDbArc
 50
90.0
 51
180.0
  0
ARC
  5
36
100
AcDbEntity
  8
ALPHA
100
AcDbCircle
 10
78.547605
 20
150.684625
 30
0.0
 40
0.5
100
AcDbArc
 50
90.0
 51
180.0
  0
ARC
  5
37
100
AcDbEntity
  8
ALPHA
100
AcDbCircle
 10
114.547605
 20
82.034625
 30
0.0
 40
0.2
100
AcDbArc
 50
0.0
 51
90.0
  0
ARC
  5
38
100
AcDbEntity
  8
ALPHA
100
AcDbCircle
 10
90.947605
 20
82.034625
 30
0.0
 40
0.2
100
AcDbArc
 50
90.0
 51
180.0
  0
CIRCLE
  5
39
100
AcDbEntity
  8
ALPHA
100
AcDbCircle
 10
108.597605
 20
167.184625
 30
0.0
 40
0.775
  0
CIRCLE
  5
3A
100
AcDbEntity
  8
ALPHA
100
AcDbCircle
 10
90.547605
 20
167.184625
 30
0.0
 40
0.775
  0
LINE
  5
3B
100
AcDbEntity
  8
ALPHA
100
AcDbLine
 10
113.447605
 20
289.434625
 30
0.0
 11
110.947605
 21
289.434625
 31
0.0
  0
LINE
  5
3C
100
AcDbEntity
  8
ALPHA
100
AcDbLine
 10
113.447605
 20
288.434625
 30
0.0
 11
110.947605
 21
288.434625
 31
0.0
  0
LINE
  5
3D
100
AcDbEntity
  8
ALPHA
100
AcDbLine
 10
110.947605
 20
242.034625
 30
0.0
 11
113.447605
 21
242.034625
 31
0.0
  0
LINE
  5
3E
100
AcDbEntity
  8
ALPHA
100
AcDbLine
 10
113.447605
 20
241.034625
 30
0.0
 11
110.947605
 21
241.034625
 31
0.0
  0
LINE
  5
3F
100
AcDbEntity
  8
ALPHA
100
AcDbLine
 10
113.447605
 20
240.034625
 30
0.0
 11
110.947605
 21
240.034625
 31
0.0
  0
LINE
  5
40
100
AcDbEntity
  8
ALPHA
100
AcDbLine
 10
113.447605
 20
209.934625
 30
0.0
 11
110.947605
 21
209.934625
 31
0.0
  0
LINE
  5
41
100
AcDbEntity
  8
ALPHA
100
AcDbLine
 10
113.447605
 20
207.934625
 30
0.0
 11
110.947605
 21
207.934625
 31
0.0
  0
LINE
  5
42
100
AcDbEntity
  8
ALPHA
100
AcDbLine
 10
74.594051
 20
84.938178
 30
0.0
 11
74.947605
 21
85.291732
 31
0.0
  0
LINE
  5
43
100
AcDbEntity
  8
ALPHA
100
AcDbLine
 10
117.647605
 20
195.434625
 30
0.0
 11
85.847605
 21
195.434625
 31
0.0
  0
LINE
  5
44
100
AcDbEntity
  8
ALPHA
100
AcDbLine
 10
85.347605
 20
194.934625
 30
0.0
 11
118.147605
 21
194.934625
 31
0.0
  0
LINE
  5
45
100
AcDbEntity
  8
ALPHA
100
AcDbLine
 10
88.447605
 20
192.534625
 30
0.0
 11
118.147605
 21
192.534625
 31
0.0
  0
LINE
  5
46
100
AcDbEntity
  8
ALPHA
100
AcDbLine
 10
92.847605
 20
187.284625
 30
0.0
 11
88.447605
 21
187.284625
 31
0.0
  0
LINE
  5
47
100
AcDbEntity
  8
ALPHA
100
AcDbLine
 10
92.847605
 20
187.234625
 30
0.0
 11
88.447605
 21
187.234625
 31
0.0
  0
LINE
  5
48
100
AcDbEntity
  8
ALPHA
100
AcDbLine
 10
85.347605
 20
182.334625
 30
0.0
 11
92.847605
 21
182.334625
 31
0.0
  0
LINE
  5
49
100
AcDbEntity
  8
ALPHA
100
AcDbLine
 10
85.347605
 20
182.284625
 30
0.0
 11
92.847605
 21
182.284625
 31
0.0
  0
LINE
  5
4A
100
AcDbEntity
  8
ALPHA
100
AcDbLine
 10
118.747605
 20
99.534625
 30
0.0
 11
118.747605
 21
113.234307
 31
0.0
  0
LINE
  5
4B
100
AcDbEntity
  8
ALPHA
100
AcDbLine
 10
118.747605
 20
87.234625
 30
0.0
 11
118.747605
 21
97.234625
 31
0.0
  0
LINE
  5
4C
100
AcDbEntity
  8
ALPHA
100
AcDbLine
 10
118.747605
 20
157.234337
 30
0.0
 11
118.747605
 21
147.234915
 31
0.0
  0
LINE
  5
4D
100
AcDbEntity
  8
ALPHA
100
AcDbLine
 10
118.647605
 20
119.234625
 30
0.0
 11
118.647605
 21
100.234625
 31
0.0
  0
LINE
  5
4E
100
AcDbEntity
  8
ALPHA
100
AcDbLine
 10
118.647605
 20
121.958307
 30
0.0
 11
118.647605
 21
119.984625
 31
0.0
  0
LINE
  5
4F
100
AcDbEntity
  8
ALPHA
100
AcDbLine
 10
118.647605
 20
124.370588
 30
0.0
 11
118.647605
 21
122.396906
 31
0.0
  0
LINE
  5
50
100
AcDbEntity
  8
ALPHA
100
AcDbLine
 10
118.647605
 20
144.234625
 30
0.0
 11
118.647605
 21
125.234625
 31
0.0
  0
LINE
  5
51
100
AcDbEntity
  8
ALPHA
100
AcDbLine
 10
118.347605
 20
82.234625
 30
0.0
 11
118.347605
 21
167.184625
 31
0.0
  0
LINE
  5
52
100
AcDbEntity
  8
ALPHA
100
AcDbLine
 10
118.147605
 20
192.534625
 30
0.0
 11
118.147605
 21
194.934625
 31
0.0
  0
LINE
  5
53
100
AcDbEntity
  8
ALPHA
100
AcDbLine
 10
117.647605
 20
192.534625
 30
0.0
 11
117.647605
 21
195.434625
 31
0.0
  0
LINE
  5
54
100
AcDbEntity
  8
ALPHA
100
AcDbLine
 10
118.126379
 20
192.534625
 30
0.0
 11
118.347605
 21
167.184625
 31
0.0
  0
LINE
  5
55
100
AcDbEntity
  8
ALPHA
100
AcDbLine
 10
117.377674
 20
163.734625
 30
0.0
 11
117.126341
 21
192.534625
 31
0.0
  0
LINE
  5
56
100
AcDbEntity
  8
ALPHA
100
AcDbLine
 10
114.747605
 20
80.734625
 30
0.0
 11
114.747605
 21
82.034625
 31
0.0
  0
LINE
  5
57
100
AcDbEntity
  8
ALPHA
100
AcDbLine
 10
113.447605
 20
207.934625
 30
0.0
 11
113.447605
 21
289.434625
 31
0.0
  0
LINE
  5
58
100
AcDbEntity
  8
ALPHA
100
AcDbLine
 10
110.947605
 20
207.934625
 30
0.0
 11
110.947605
 21
289.434625
 31
0.0
  0
LINE
  5
59
100
AcDbEntity
  8
ALPHA
100
AcDbLine
 10
85.347605
 20
163.734625
 30
0.0
 11
118.347605
 21
163.734625
 31
0.0
  0
LINE
  5
5A
100
AcDbEntity
  8
ALPHA
100
AcDbLine
 10
85.347605
 20
162.234625
 30
0.0
 11
118.347605
 21
162.234625
 31
0.0
  0
LINE
  5
5B
100
AcDbEntity
  8
ALPHA
100
AcDbLine
 10
78.347605
 20
158.734625
 30
0.0
 11
85.347605
 21
158.734625
 31
0.0
  0
LINE
  5
5C
100
AcDbEntity
  8
ALPHA
100
AcDbLine
 10
77.247605
 20
158.584625
 30
0.0
 11
77.991677
 21
158.584625
 31
0.0
  0
LINE
  5
5D
100
AcDbEntity
  8
ALPHA
100
AcDbLine
 10
77.847605
 20
157.234625
 30
0.0
 11
85.347605
 21
157.234625
 31
0.0
  0
LINE
  5
5E
100
AcDbEntity
  8
ALPHA
100
AcDbLine
 10
118.747605
 20
157.234625
 30
0.0
 11
118.347605
 21
157.234625
 31
0.0
  0
LINE
  5
5F
100
AcDbEntity
  8
ALPHA
100
AcDbLine
 10
74.447605
 20
155.577518
 30
0.0
 11
74.947605
 21
155.577518
 31
0.0
  0
LWPOLYLINE
  5
60
100
AcDbEntity
  8
ALPHA
100
AcDbPolyline
 90
        5
 70
     0
 43
0.0
 10
77.547605
 20
150.684625
 10
77.760856
 20
150.888777
 10
77.977294
 20
151.05055
 10
78.198898
 20
151.151519
 10
78.41363
 20
151.184625
  0
LINE
  5
67
100
AcDbEntity
  8
ALPHA
100
AcDbLine
 10
92.847605
 20
182.284625
 30
0.0
 11
92.847605
 21
187.284625
 31
0.0
  0
LINE
  5
68
100
AcDbEntity
  8
ALPHA
100
AcDbLine
 10
90.747605
 20
80.734625
 30
0.0
 11
90.747605
 21
82.034625
 31
0.0
  0
LINE
  5
69
100
AcDbEntity
  8
ALPHA
100
AcDbLine
 10
77.847605
 20
151.734625
 30
0.0
 11
81.747605
 21
151.734625
 31
0.0
  0
LINE
  5
6A
100
AcDbEntity
  8
ALPHA
100
AcDbLine
 10
81.747605
 20
151.684625
 30
0.0
 11
80.247605
 21
151.684625
 31
0.0
  0
LINE
  5
6B
100
AcDbEntity
  8
ALPHA
100
AcDbLine
 10
81.747605
 20
151.234625
 30
0.0
 11
85.347605
 21
151.234625
 31
0.0
  0
LINE
  5
6C
100
AcDbEntity
  8
ALPHA
100
AcDbLine
 10
78.41363
 20
151.184625
 30
0.0
 11
80.247605
 21
151.184625
 31
0.0
  0
LINE
  5
6D
100
AcDbEntity
  8
ALPHA
100
AcDbLine
 10
81.747605
 20
150.884625
 30
0.0
 11
80.247605
 21
150.884625
 31
0.0
  0
LINE
  5
6E
100
AcDbEntity
  8
ALPHA
100
AcDbLine
 10
80.247605
 20
150.73008
 30
0.0
 11
78.547605
 21
150.73008
 31
0.0
  0
LINE
  5
6F
100
AcDbEntity
  8
ALPHA
100
AcDbLine
 10
77.547605
 20
150.684625
 30
0.0
 11
78.047605
 21
150.684625
 31
0.0
  0
LINE
  5
70
100
AcDbEntity
  8
ALPHA
100
AcDbLine
 10
118.747605
 20
147.234625
 30
0.0
 11
118.347605
 21
147.234625
 31
0.0
  0
LINE
  5
71
100
AcDbEntity
  8
ALPHA
100
AcDbLine
 10
81.747605
 20
146.234625
 30
0.0
 11
85.347605
 21
146.234625
 31
0.0
  0
LINE
  5
72
100
AcDbEntity
  8
ALPHA
100
AcDbLine
 10
80.247605
 20
146.184625
 30
0.0
 11
78.547605
 21
146.184625
 31
0.0
  0
LINE
  5
73
100
AcDbEntity
  8
ALPHA
100
AcDbLine
 10
81.747605
 20
145.884625
 30
0.0
 11
80.247605
 21
145.884625
 31
0.0
  0
LINE
  5
74
100
AcDbEntity
  8
ALPHA
100
AcDbLine
 10
81.747605
 20
145.734625
 30
0.0
 11
85.347605
 21
145.734625
 31
0.0
  0
LINE
  5
75
100
AcDbEntity
  8
ALPHA
100
AcDbLine
 10
80.247605
 20
145.684625
 30
0.0
 11
78.047605
 21
145.684625
 31
0.0
  0
LINE
  5
76
100
AcDbEntity
  8
ALPHA
100
AcDbLine
 10
74.447605
 20
145.484625
 30
0.0
 11
78.047605
 21
145.484625
 31
0.0
  0
LWPOLYLINE
  5
77
100
AcDbEntity
  8
ALPHA
100
AcDbPolyline
 90
        6
 70
     0
 43
0.0
 10
78.547605
 20
150.73008
 10
78.393096
 20
150.727855
 10
78.253712
 20
150.721398
 10
78.143096
 20
150.711342
 10
78.072077
 20
150.698671
 10
78.047605
 20
150.684625
  0
LINE
  5
7F
100
AcDbEntity
  8
ALPHA
100
AcDbLine
 10
74.947605
 20
155.577518
 30
0.0
 11
77.954712
 21
158.584625
 31
0.0
  0
LINE
  5
80
100
AcDbEntity
  8
ALPHA
100
AcDbLine
 10
74.594051
 20
155.931072
 30
0.0
 11
77.247605
 21
158.584625
 31
0.0
  0
LINE
  5
81
100
AcDbEntity
  8
ALPHA
100
AcDbLine
 10
88.447605
 20
192.534625
 30
0.0
 11
88.447605
 21
187.234625
 31
0.0
  0
LINE
  5
82
100
AcDbEntity
  8
ALPHA
100
AcDbLine
 10
86.347605
 20
163.734625
 30
0.0
 11
86.347605
 21
182.284625
 31
0.0
  0
LINE
  5
83
100
AcDbEntity
  8
ALPHA
100
AcDbLine
 10
85.847605
 20
182.334625
 30
0.0
 11
85.847605
 21
195.434625
 31
0.0
  0
LINE
  5
84
100
AcDbEntity
  8
ALPHA
100
AcDbLine
 10
85.347605
 20
145.734625
 30
0.0
 11
85.347605
 21
182.284625
 31
0.0
  0
LINE
  5
85
100
AcDbEntity
  8
ALPHA
100
AcDbLine
 10
85.347605
 20
82.234625
 30
0.0
 11
85.347605
 21
98.734625
 31
0.0
  0
LINE
  5
86
100
AcDbEntity
  8
ALPHA
100
AcDbLine
 10
85.347605
 20
194.934625
 30
0.0
 11
85.347605
 21
182.334625
 31
0.0
  0
LINE
  5
87
100
AcDbEntity
  8
ALPHA
100
AcDbLine
 10
81.747605
 20
85.234625
 30
0.0
 11
81.747605
 21
151.734625
 31
0.0
  0
LINE
  5
88
100
AcDbEntity
  8
ALPHA
100
AcDbLine
 10
81.247605
 20
85.284625
 30
0.0
 11
81.247605
 21
85.234625
 31
0.0
  0
LINE
  5
89
100
AcDbEntity
  8
ALPHA
100
AcDbLine
 10
81.247605
 20
151.734625
 30
0.0
 11
81.247605
 21
151.684625
 31
0.0
  0
LINE
  5
8A
100
AcDbEntity
  8
ALPHA
100
AcDbLine
 10
80.247605
 20
85.234625
 30
0.0
 11
80.247605
 21
151.734625
 31
0.0
  0
LINE
  5
8B
100
AcDbEntity
  8
ALPHA
100
AcDbLine
 10
74.594051
 20
155.931072
 30
0.0
 11
74.947605
 21
155.577518
 31
0.0
  0
LINE
  5
8C
100
AcDbEntity
  8
ALPHA
100
AcDbLine
 10
77.547605
 20
144.984625
 30
0.0
 11
74.947605
 21
144.984625
 31
0.0
  0
LINE
  5
8D
100
AcDbEntity
  8
ALPHA
100
AcDbLine
 10
81.747605
 20
144.809625
 30
0.0
 11
80.247605
 21
144.809625
 31
0.0
  0
LINE
  5
8E
100
AcDbEntity
  8
ALPHA
100
AcDbLine
 10
74.447605
 20
144.484625
 30
0.0
 11
78.047605
 21
144.484625
 31
0.0
  0
LINE
  5
8F
100
AcDbEntity
  8
ALPHA
100
AcDbLine
 10
118.347605
 20
144.234625
 30
0.0
 11
118.647605
 21
144.234625
 31
0.0
  0
LINE
  5
90
100
AcDbEntity
  8
ALPHA
100
AcDbLine
 10
74.447605
 20
143.584625
 30
0.0
 11
73.947605
 21
143.584625
 31
0.0
  0
LINE
  5
91
100
AcDbEntity
  8
ALPHA
100
AcDbLine
 10
78.547605
 20
85.584625
 30
0.0
 11
78.547605
 21
151.184625
 31
0.0
  0
LINE
  5
92
100
AcDbEntity
  8
ALPHA
100
AcDbLine
 10
78.347605
 20
151.734625
 30
0.0
 11
78.347605
 21
158.734625
 31
0.0
  0
LINE
  5
93
100
AcDbEntity
  8
ALPHA
100
AcDbLine
 10
78.347605
 20
82.234625
 30
0.0
 11
78.347605
 21
85.234625
 31
0.0
  0
LINE
  5
94
100
AcDbEntity
  8
ALPHA
100
AcDbLine
 10
78.047605
 20
86.084625
 30
0.0
 11
78.047605
 21
150.684625
 31
0.0
  0
LINE
  5
95
100
AcDbEntity
  8
ALPHA
100
AcDbLine
 10
78.047605
 20
82.345288
 30
0.0
 11
78.047605
 21
82.284625
 31
0.0
  0
LINE
  5
96
100
AcDbEntity
  8
ALPHA
100
AcDbLine
 10
78.047605
 20
85.584625
 30
0.0
 11
78.047605
 21
85.234625
 31
0.0
  0
LINE
  5
97
100
AcDbEntity
  8
ALPHA
100
AcDbLine
 10
77.847605
 20
151.734625
 30
0.0
 11
77.847605
 21
158.234625
 31
0.0
  0
LINE
  5
98
100
AcDbEntity
  8
ALPHA
100
AcDbLine
 10
77.847605
 20
82.734625
 30
0.0
 11
77.847605
 21
85.234625
 31
0.0
  0
LINE
  5
99
100
AcDbEntity
  8
ALPHA
100
AcDbLine
 10
77.547605
 20
82.691732
 30
0.0
 11
77.547605
 21
150.684625
 31
0.0
  0
LINE
  5
9A
100
AcDbEntity
  8
ALPHA
100
AcDbLine
 10
74.947605
 20
85.291732
 30
0.0
 11
74.947605
 21
155.577518
 31
0.0
  0
LINE
  5
9B
100
AcDbEntity
  8
ALPHA
100
AcDbLine
 10
74.447605
 20
85.291732
 30
0.0
 11
74.447605
 21
155.577518
 31
0.0
  0
LINE
  5
9C
100
AcDbEntity
  8
ALPHA
100
AcDbLine
 10
73.947605
 20
100.784625
 30
0.0
 11
73.947605
 21
143.584625
 31
0.0
  0
LINE
  5
9D
100
AcDbEntity
  8
ALPHA
100
AcDbLine
 10
73.947605
 20
93.797156
 30
0.0
 11
73.947605
 21
98.784395
 31
0.0
  0
LINE
  5
9E
100
AcDbEntity
  8
ALPHA
100
AcDbLine
 10
118.347605
 20
125.234625
 30
0.0
 11
118.647605
 21
125.234625
 31
0.0
  0
LINE
  5
9F
100
AcDbEntity
  8
ALPHA
100
AcDbLine
 10
118.347605
 20
124.370588
 30
0.0
 11
118.647605
 21
124.370588
 31
0.0
  0
LINE
  5
A0
100
AcDbEntity
  8
ALPHA
100
AcDbLine
 10
118.347605
 20
124.315764
 30
0.0
 11
118.647605
 21
124.315764
 31
0.0
  0
LINE
  5
A1
100
AcDbEntity
  8
ALPHA
100
AcDbLine
 10
118.347605
 20
124.260943
 30
0.0
 11
118.647605
 21
124.260943
 31
0.0
  0
LINE
  5
A2
100
AcDbEntity
  8
ALPHA
100
AcDbLine
 10
118.347605
 20
124.151293
 30
0.0
 11
118.647605
 21
124.151293
 31
0.0
  0
LINE
  5
A3
100
AcDbEntity
  8
ALPHA
100
AcDbLine
 10
118.347605
 20
123.986818
 30
0.0
 11
118.647605
 21
123.986818
 31
0.0
  0
LINE
  5
A4
100
AcDbEntity
  8
ALPHA
100
AcDbLine
 10
118.347605
 20
123.712694
 30
0.0
 11
118.647605
 21
123.712694
 31
0.0
  0
LINE
  5
A5
100
AcDbEntity
  8
ALPHA
100
AcDbLine
 10
118.347605
 20
123.383749
 30
0.0
 11
118.647605
 21
123.383749
 31
0.0
  0
LINE
  5
A6
100
AcDbEntity
  8
ALPHA
100
AcDbLine
 10
118.347605
 20
123.0548
 30
0.0
 11
118.647605
 21
123.0548
 31
0.0
  0
LINE
  5
A7
100
AcDbEntity
  8
ALPHA
100
AcDbLine
 10
118.347605
 20
122.780676
 30
0.0
 11
118.647605
 21
122.780676
 31
0.0
  0
LINE
  5
A8
100
AcDbEntity
  8
ALPHA
100
AcDbLine
 10
118.347605
 20
122.616205
 30
0.0
 11
118.647605
 21
122.616205
 31
0.0
  0
LINE
  5
A9
100
AcDbEntity
  8
ALPHA
100
AcDbLine
 10
118.347605
 20
122.506556
 30
0.0
 11
118.647605
 21
122.506556
 31
0.0
  0
LINE
  5
AA
100
AcDbEntity
  8
ALPHA
100
AcDbLine
 10
118.347605
 20
122.451731
 30
0.0
 11
118.647605
 21
122.451731
 31
0.0
  0
LINE
  5
AB
100
AcDbEntity
  8
ALPHA
100
AcDbLine
 10
118.347605
 20
122.396906
 30
0.0
 11
118.647605
 21
122.396906
 31
0.0
  0
LINE
  5
AC
100
AcDbEntity
  8
ALPHA
100
AcDbLine
 10
118.347605
 20
121.958307
 30
0.0
 11
118.647605
 21
121.958307
 31
0.0
  0
LINE
  5
AD
100
AcDbEntity
  8
ALPHA
100
AcDbLine
 10
118.347605
 20
121.848662
 30
0.0
 11
118.647605
 21
121.848662
 31
0.0
  0
LINE
  5
AE
100
AcDbEntity
  8
ALPHA
100
AcDbLine
 10
118.347605
 20
121.793837
 30
0.0
 11
118.647605
 21
121.793837
 31
0.0
  0
LINE
  5
AF
100
AcDbEntity
  8
ALPHA
100
AcDbLine
 10
118.347605
 20
121.629362
 30
0.0
 11
118.647605
 21
121.629362
 31
0.0
  0
LINE
  5
B0
100
AcDbEntity
  8
ALPHA
100
AcDbLine
 10
118.347605
 20
121.355238
 30
0.0
 11
118.647605
 21
121.355238
 31
0.0
  0
LINE
  5
B1
100
AcDbEntity
  8
ALPHA
100
AcDbLine
 10
118.347605
 20
121.081118
 30
0.0
 11
118.647605
 21
121.081118
 31
0.0
  0
LINE
  5
B2
100
AcDbEntity
  8
ALPHA
100
AcDbLine
 10
118.347605
 20
120.861818
 30
0.0
 11
118.647605
 21
120.861818
 31
0.0
  0
LINE
  5
B3
100
AcDbEntity
  8
ALPHA
100
AcDbLine
 10
118.347605
 20
120.587694
 30
0.0
 11
118.647605
 21
120.587694
 31
0.0
  0
LINE
  5
B4
100
AcDbEntity
  8
ALPHA
100
AcDbLine
 10
118.347605
 20
120.313574
 30
0.0
 11
118.647605
 21
120.313574
 31
0.0
  0
LINE
  5
B5
100
AcDbEntity
  8
ALPHA
100
AcDbLine
 10
118.347605
 20
120.149099
 30
0.0
 11
118.647605
 21
120.149099
 31
0.0
  0
LINE
  5
B6
100
AcDbEntity
  8
ALPHA
100
AcDbLine
 10
118.347605
 20
120.03945
 30
0.0
 11
118.647605
 21
120.03945
 31
0.0
  0
LINE
  5
B7
100
AcDbEntity
  8
ALPHA
100
AcDbLine
 10
118.347605
 20
119.984625
 30
0.0
 11
118.647605
 21
119.984625
 31
0.0
  0
LINE
  5
B8
100
AcDbEntity
  8
ALPHA
100
AcDbLine
 10
77.716234
 20
82.284625
 30
0.0
 11
77.547605
 21
82.691732
 31
0.0
  0
LINE
  5
B9
100
AcDbEntity
  8
ALPHA
100
AcDbLine
 10
118.347605
 20
119.234625
 30
0.0
 11
118.647605
 21
119.234625
 31
0.0
  0
LINE
  5
BA
100
AcDbEntity
  8
ALPHA
100
AcDbLine
 10
118.647605
 20
113.234625
 30
0.0
 11
118.747605
 21
113.234625
 31
0.0
  0
LWPOLYLINE
  5
BB
100
AcDbEntity
  8
ALPHA
100
AcDbPolyline
 90
        6
 70
     0
 43
0.0
 10
77.547605
 20
86.084625
 10
77.669496
 20
85.915948
 10
77.784988
 20
85.774012
 10
77.890876
 20
85.668284
 10
77.977068
 20
85.604914
 10
78.031728
 20
85.584625
  0
LINE
  5
C3
100
AcDbEntity
  8
ALPHA
100
AcDbLine
 10
118.747605
 20
105.534625
 30
0.0
 11
118.647605
 21
105.534625
 31
0.0
  0
LINE
  5
C4
100
AcDbEntity
  8
ALPHA
100
AcDbLine
 10
74.447605
 20
100.784625
 30
0.0
 11
73.947605
 21
100.784625
 31
0.0
  0
LINE
  5
C5
100
AcDbEntity
  8
ALPHA
100
AcDbLine
 10
118.347605
 20
100.234625
 30
0.0
 11
118.647605
 21
100.234625
 31
0.0
  0
LINE
  5
C6
100
AcDbEntity
  8
ALPHA
100
AcDbLine
 10
74.447605
 20
99.884625
 30
0.0
 11
78.047605
 21
99.884625
 31
0.0
  0
LINE
  5
C7
100
AcDbEntity
  8
ALPHA
100
AcDbLine
 10
118.747605
 20
99.534625
 30
0.0
 11
118.347605
 21
99.534625
 31
0.0
  0
LINE
  5
C8
100
AcDbEntity
  8
ALPHA
100
AcDbLine
 10
77.547605
 20
99.384625
 30
0.0
 11
74.947605
 21
99.384625
 31
0.0
  0
LINE
  5
C9
100
AcDbEntity
  8
ALPHA
100
AcDbLine
 10
81.747605
 20
98.959625
 30
0.0
 11
80.247605
 21
98.959625
 31
0.0
  0
LINE
  5
CA
100
AcDbEntity
  8
ALPHA
100
AcDbLine
 10
74.447605
 20
98.884625
 30
0.0
 11
78.047605
 21
98.884625
 31
0.0
  0
LINE
  5
CB
100
AcDbEntity
  8
ALPHA
100
AcDbLine
 10
74.447605
 20
98.784625
 30
0.0
 11
73.947605
 21
98.784625
 31
0.0
  0
LINE
  5
CC
100
AcDbEntity
  8
ALPHA
100
AcDbLine
 10
74.447605
 20
98.772094
 30
0.0
 11
73.947605
 21
98.772094
 31
0.0
  0
LINE
  5
CD
100
AcDbEntity
  8
ALPHA
100
AcDbLine
 10
81.747605
 20
98.734625
 30
0.0
 11
85.347605
 21
98.734625
 31
0.0
  0
LINE
  5
CE
100
AcDbEntity
  8
ALPHA
100
AcDbLine
 10
80.247605
 20
98.684625
 30
0.0
 11
78.047605
 21
98.684625
 31
0.0
  0
LINE
  5
CF
100
AcDbEntity
  8
ALPHA
100
AcDbLine
 10
85.347605
 20
98.234625
 30
0.0
 11
81.747605
 21
98.234625
 31
0.0
  0
LINE
  5
D0
100
AcDbEntity
  8
ALPHA
100
AcDbLine
 10
80.247605
 20
98.184625
 30
0.0
 11
78.547605
 21
98.184625
 31
0.0
  0
LINE
  5
D1
100
AcDbEntity
  8
ALPHA
100
AcDbLine
 10
74.447605
 20
98.016676
 30
0.0
 11
73.947605
 21
98.016676
 31
0.0
  0
LINE
  5
D2
100
AcDbEntity
  8
ALPHA
100
AcDbLine
 10
81.747605
 20
97.884625
 30
0.0
 11
80.247605
 21
97.884625
 31
0.0
  0
LINE
  5
D3
100
AcDbEntity
  8
ALPHA
100
AcDbLine
 10
118.747605
 20
97.234625
 30
0.0
 11
118.347605
 21
97.234625
 31
0.0
  0
LINE
  5
D4
100
AcDbEntity
  8
ALPHA
100
AcDbLine
 10
74.447605
 20
96.659625
 30
0.0
 11
73.947605
 21
96.659625
 31
0.0
  0
LINE
  5
D5
100
AcDbEntity
  8
ALPHA
100
AcDbLine
 10
74.447605
 20
95.909625
 30
0.0
 11
73.947605
 21
95.909625
 31
0.0
  0
LINE
  5
D6
100
AcDbEntity
  8
ALPHA
100
AcDbLine
 10
74.447605
 20
94.552574
 30
0.0
 11
73.947605
 21
94.552574
 31
0.0
  0
LINE
  5
D7
100
AcDbEntity
  8
ALPHA
100
AcDbLine
 10
74.447605
 20
93.797156
 30
0.0
 11
73.947605
 21
93.797156
 31
0.0
  0
LINE
  5
D8
100
AcDbEntity
  8
ALPHA
100
AcDbLine
 10
74.447605
 20
93.784625
 30
0.0
 11
73.947605
 21
93.784625
 31
0.0
  0
LINE
  5
D9
100
AcDbEntity
  8
ALPHA
100
AcDbLine
 10
74.947605
 20
85.291732
 30
0.0
 11
77.547605
 21
82.691732
 31
0.0
  0
LINE
  5
DA
100
AcDbEntity
  8
ALPHA
100
AcDbLine
 10
77.247605
 20
82.284625
 30
0.0
 11
74.594051
 21
84.938178
 31
0.0
  0
LINE
  5
DB
100
AcDbEntity
  8
ALPHA
100
AcDbLine
 10
81.747605
 20
93.234625
 30
0.0
 11
85.347605
 21
93.234625
 31
0.0
  0
LINE
  5
DC
100
AcDbEntity
  8
ALPHA
100
AcDbLine
 10
78.047605
 20
93.184625
 30
0.0
 11
80.247605
 21
93.184625
 31
0.0
  0
LINE
  5
DD
100
AcDbEntity
  8
ALPHA
100
AcDbLine
 10
81.747605
 20
92.884625
 30
0.0
 11
80.247605
 21
92.884625
 31
0.0
  0
LINE
  5
DE
100
AcDbEntity
  8
ALPHA
100
AcDbLine
 10
118.747605
 20
87.234625
 30
0.0
 11
118.347605
 21
87.234625
 31
0.0
  0
LINE
  5
DF
100
AcDbEntity
  8
ALPHA
100
AcDbLine
 10
77.547605
 20
86.084625
 30
0.0
 11
80.247605
 21
86.084625
 31
0.0
  0
LINE
  5
E0
100
AcDbEntity
  8
ALPHA
100
AcDbLine
 10
78.031728
 20
85.584625
 30
0.0
 11
80.247605
 21
85.584625
 31
0.0
  0
LINE
  5
E1
100
AcDbEntity
  8
ALPHA
100
AcDbLine
 10
74.947605
 20
85.291732
 30
0.0
 11
74.447605
 21
85.291732
 31
0.0
  0
LINE
  5
E2
100
AcDbEntity
  8
ALPHA
100
AcDbLine
 10
81.747605
 20
85.284625
 30
0.0
 11
80.247605
 21
85.284625
 31
0.0
  0
LINE
  5
E3
100
AcDbEntity
  8
ALPHA
100
AcDbLine
 10
77.847605
 20
85.234625
 30
0.0
 11
81.747605
 21
85.234625
 31
0.0
  0
LINE
  5
E4
100
AcDbEntity
  8
ALPHA
100
AcDbLine
 10
77.847605
 20
83.734625
 30
0.0
 11
118.347605
 21
83.734625
 31
0.0
  0
LINE
  5
E5
100
AcDbEntity
  8
ALPHA
100
AcDbLine
 10
77.247605
 20
82.284625
 30
0.0
 11
78.138394
 21
82.284625
 31
0.0
  0
LINE
  5
E6
100
AcDbEntity
  8
ALPHA
100
AcDbLine
 10
118.347605
 20
82.234625
 30
0.0
 11
78.347605
 21
82.234625
 31
0.0
  0
LINE
  5
E7
100
AcDbEntity
  8
ALPHA
100
AcDbLine
 10
90.747605
 20
82.034625
 30
0.0
 11
114.747605
 21
82.034625
 31
0.0
  0
LINE
  5
E8
100
AcDbEntity
  8
ALPHA
100
AcDbLine
 10
90.747634
 20
80.734625
 30
0.0
 11
114.747575
 21
80.734625
 31
0.0
  0
INSERT
  5
168
100
AcDbEntity
  8
0
100
AcDbBlockReference
  2
SCH_ISO
 10
0.0
 20
0.0
 30
0.0
  0
ENDSEC
  0
SECTION
  2
OBJECTS
  0
DICTIONARY
  5
1D6
100
AcDbDictionary
  3
ACAD_GROUP
350
1D7
  3
ACAD_MLINESTYLE
350
1E4
  3
ACDBVARIABLEDICTIONARY
350
226
  0
DICTIONARY
  5
1D7
102
{ACAD_REACTORS
330
1D6
102
}
100
AcDbDictionary
  0
DICTIONARY
  5
1E4
102
{ACAD_REACTORS
330
1D6
102
}
100
AcDbDictionary
  3
STANDARD
350
1E5
  0
DICTIONARY
  5
226
102
{ACAD_REACTORS
330
1D6
102
}
100
AcDbDictionary
  3
DIMADEC
350
227
  0
MLINESTYLE
  5
1E5
102
{ACAD_REACTORS
330
1E4
102
}
100
AcDbMlineStyle
  2
STANDARD
 70
     0
  3

 62
   256
 51
90.0
 52
90.0
 71
     2
 49
0.5
 62
   256
  6
BYLAYER
 49
-0.5
 62
   256
  6
BYLAYER
  0
DICTIONARYVAR
  5
227
102
{ACAD_REACTORS
330
226
102
}
100
DictionaryVariables
280
     0
  1
0
  0
ENDSEC
  0
EOF
