  0
SECTION
  2
HEADER
  9
$ACADVER
  1
AC1012
  9
$DWGCODEPAGE
  3
ANSI_1252
  9
$INSBASE
 10
0.0
 20
0.0
 30
0.0
  9
$EXTMIN
 10
-0.816126
 20
8.531273
 30
-0.001526
  9
$EXTMAX
 10
114.896714
 20
177.541588
 30
0.0
  9
$LIMMIN
 10
19.077216
 20
43.616976
  9
$LIMMAX
 10
194.084622
 20
146.65737
  9
$ORTHOMODE
 70
     0
  9
$REGENMODE
 70
     1
  9
$FILLMODE
 70
     1
  9
$QTEXTMODE
 70
     0
  9
$MIRRTEXT
 70
     1
  9
$DRAGMODE
 70
     2
  9
$LTSCALE
 40
10.0
  9
$OSMODE
 70
    37
  9
$ATTMODE
 70
     1
  9
$TEXTSIZE
 40
0.2
  9
$TRACEWID
 40
0.05
  9
$TEXTSTYLE
  7
STANDARD
  9
$CLAYER
  8
ALPHA
  9
$CELTYPE
  6
CONTINUOUS
  9
$CECOLOR
 62
   256
  9
$CELTSCALE
 40
1.0
  9
$DELOBJ
 70
     1
  9
$DISPSILH
 70
     0
  9
$DIMSCALE
 40
1.0
  9
$DIMASZ
 40
0.18
  9
$DIMEXO
 40
0.0625
  9
$DIMDLI
 40
0.38
  9
$DIMRND
 40
0.0
  9
$DIMDLE
 40
0.0
  9
$DIMEXE
 40
0.18
  9
$DIMTP
 40
0.0
  9
$DIMTM
 40
0.0
  9
$DIMTXT
 40
0.18
  9
$DIMCEN
 40
0.09
  9
$DIMTSZ
 40
0.0
  9
$DIMTOL
 70
     0
  9
$DIMLIM
 70
     0
  9
$DIMTIH
 70
     1
  9
$DIMTOH
 70
     1
  9
$DIMSE1
 70
     0
  9
$DIMSE2
 70
     0
  9
$DIMTAD
 70
     0
  9
$DIMZIN
 70
     0
  9
$DIMBLK
  1

  9
$DIMASO
 70
     1
  9
$DIMSHO
 70
     1
  9
$DIMPOST
  1

  9
$DIMAPOST
  1

  9
$DIMALT
 70
     0
  9
$DIMALTD
 70
     2
  9
$DIMALTF
 40
25.4
  9
$DIMLFAC
 40
1.0
  9
$DIMTOFL
 70
     0
  9
$DIMTVP
 40
0.0
  9
$DIMTIX
 70
     0
  9
$DIMSOXD
 70
     0
  9
$DIMSAH
 70
     0
  9
$DIMBLK1
  1

  9
$DIMBLK2
  1

  9
$DIMSTYLE
  2
STANDARD
  9
$DIMCLRD
 70
     0
  9
$DIMCLRE
 70
     0
  9
$DIMCLRT
 70
     0
  9
$DIMTFAC
 40
1.0
  9
$DIMGAP
 40
0.09
  9
$DIMJUST
 70
     0
  9
$DIMSD1
 70
     0
  9
$DIMSD2
 70
     0
  9
$DIMTOLJ
 70
     1
  9
$DIMTZIN
 70
     0
  9
$DIMALTZ
 70
     0
  9
$DIMALTTZ
 70
     0
  9
$DIMFIT
 70
     3
  9
$DIMUPT
 70
     0
  9
$DIMUNIT
 70
     2
  9
$DIMDEC
 70
     4
  9
$DIMTDEC
 70
     4
  9
$DIMALTU
 70
     2
  9
$DIMALTTD
 70
     2
  9
$DIMTXSTY
  7
STANDARD
  9
$DIMAUNIT
 70
     0
  9
$LUNITS
 70
     2
  9
$LUPREC
 70
     4
  9
$SKETCHINC
 40
0.1
  9
$FILLETRAD
 40
0.0
  9
$AUNITS
 70
     0
  9
$AUPREC
 70
     0
  9
$MENU
  1
acad
  9
$ELEVATION
 40
0.0
  9
$PELEVATION
 40
0.0
  9
$THICKNESS
 40
0.0
  9
$LIMCHECK
 70
     0
  9
$BLIPMODE
 70
     0
  9
$CHAMFERA
 40
0.0
  9
$CHAMFERB
 40
0.0
  9
$CHAMFERC
 40
0.0
  9
$CHAMFERD
 40
0.0
  9
$SKPOLY
 70
     0
  9
$TDCREATE
 40
2453634.413430799
  9
$TDUPDATE
 40
2453893.724882916
  9
$TDINDWG
 40
1.8130605556
  9
$TDUSRTIMER
 40
1.8130594676
  9
$USRTIMER
 70
     1
  9
$ANGBASE
 50
0.0
  9
$ANGDIR
 70
     0
  9
$PDMODE
 70
     0
  9
$PDSIZE
 40
0.0
  9
$PLINEWID
 40
0.0
  9
$COORDS
 70
     1
  9
$SPLFRAME
 70
     0
  9
$SPLINETYPE
 70
     6
  9
$SPLINESEGS
 70
     8
  9
$ATTDIA
 70
     0
  9
$ATTREQ
 70
     1
  9
$HANDLING
 70
     1
  9
$HANDSEED
  5
1264D
  9
$SURFTAB1
 70
     6
  9
$SURFTAB2
 70
     6
  9
$SURFTYPE
 70
     6
  9
$SURFU
 70
     6
  9
$SURFV
 70
     6
  9
$UCSNAME
  2

  9
$UCSORG
 10
0.0
 20
0.0
 30
0.0
  9
$UCSXDIR
 10
1.0
 20
0.0
 30
0.0
  9
$UCSYDIR
 10
0.0
 20
1.0
 30
0.0
  9
$PUCSNAME
  2

  9
$PUCSORG
 10
0.0
 20
0.0
 30
0.0
  9
$PUCSXDIR
 10
1.0
 20
0.0
 30
0.0
  9
$PUCSYDIR
 10
0.0
 20
1.0
 30
0.0
  9
$USERI1
 70
     0
  9
$USERI2
 70
     0
  9
$USERI3
 70
     0
  9
$USERI4
 70
     0
  9
$USERI5
 70
     0
  9
$USERR1
 40
0.0
  9
$USERR2
 40
0.0
  9
$USERR3
 40
0.0
  9
$USERR4
 40
0.0
  9
$USERR5
 40
0.0
  9
$WORLDVIEW
 70
     1
  9
$SHADEDGE
 70
     3
  9
$SHADEDIF
 70
    70
  9
$TILEMODE
 70
     1
  9
$MAXACTVP
 70
    16
  9
$PINSBASE
 10
0.0
 20
0.0
 30
0.0
  9
$PLIMCHECK
 70
     0
  9
$PEXTMIN
 10
1.000000E+20
 20
1.000000E+20
 30
1.000000E+20
  9
$PEXTMAX
 10
-1.000000E+20
 20
-1.000000E+20
 30
-1.000000E+20
  9
$PLIMMIN
 10
0.0
 20
0.0
  9
$PLIMMAX
 10
12.0
 20
9.0
  9
$UNITMODE
 70
     0
  9
$VISRETAIN
 70
     0
  9
$PLINEGEN
 70
     1
  9
$PSLTSCALE
 70
     0
  9
$TREEDEPTH
 70
  3020
  9
$PICKSTYLE
 70
     0
  9
$CMLSTYLE
  2
STANDARD
  9
$CMLJUST
 70
     0
  9
$CMLSCALE
 40
1.0
  9
$SAVEIMAGES
 70
     0
  0
ENDSEC
  0
SECTION
  2
CLASSES
  0
CLASS
  1
LWPOLYLINE
  2
AcDbPolyline
  3
"AutoCAD"
 90
    32768
280
     0
281
     1
  0
CLASS
  1
IMAGE
  2
AcDbRasterImage
  3
ISM
 90
    32895
280
     0
281
     1
  0
CLASS
  1
OLE2FRAME
  2
AcDbOle2Frame
  3
""
 90
    32768
280
     0
281
     1
  0
CLASS
  1
HATCH
  2
AcDbHatch
  3
"ACAD_SEDONA"
 90
    32768
280
     0
281
     1
  0
CLASS
  1
DICTIONARYVAR
  2
AcDbDictionaryVar
  3
"AutoCAD"
 90
    32768
280
     0
281
     0
  0
CLASS
  1
RASTERVARIABLES
  2
AcDbRasterVariables
  3
ISM
 90
    32768
280
     0
281
     0
  0
CLASS
  1
IMAGEDEF
  2
AcDbRasterImageDef
  3
ISM
 90
    32768
280
     0
281
     0
  0
CLASS
  1
IMAGEDEF_REACTOR
  2
AcDbRasterImageDefReactor
  3
ISM
 90
    32769
280
     0
281
     0
  0
CLASS
  1
SPATIAL_FILTER
  2
AcDbSpatialFilter
  3
"Acad"
 90
    32768
280
     0
281
     0
  0
CLASS
  1
XRECORD
  2
AcDbXrecord
  3
"<Built In>"
 90
    32768
280
     0
281
     0
  0
CLASS
  1
SORTENTSTABLE
  2
AcDbSortentsTable
  3
"AutoCAD"
 90
    32768
280
     0
281
     0
  0
CLASS
  1
LAYER_INDEX
  2
AcDbLayerIndex
  3
"Acad"
 90
    32768
280
     0
281
     0
  0
CLASS
  1
SPATIAL_INDEX
  2
AcDbSpatialIndex
  3
"Acad"
 90
    32768
280
     0
281
     0
  0
CLASS
  1
OBJECT_PTR
  2
CAseDLPNTableRecord
  3
ASE-LPNTableRecord
 90
    32769
280
     0
281
     0
  0
CLASS
  1
LAYOUT
  2
AcDbLayout
  3
AutoCAD 2000
 90
    32768
280
     0
281
     0
  0
CLASS
  1
PLOTSETTINGS
  2
AcDbPlotSettings
  3
AutoCAD 2000
 90
    32768
280
     0
281
     0
  0
CLASS
  1
ACDBDICTIONARYWDFLT
  2
AcDbDictionaryWithDefault
  3
AutoCAD 2000
 90
    32768
280
     0
281
     0
  0
CLASS
  1
ACDBPLACEHOLDER
  2
AcDbPlaceHolder
  3
AutoCAD 2000
 90
    32768
280
     0
281
     0
  0
CLASS
  1
VBA_PROJECT
  2
AcDbVbaProject
  3
acad
 90
    32768
280
     0
281
     0
  0
CLASS
  1
WIPEOUT
  2
AcDbWipeout
  3
WipeOut|AutoCAD Express Tool|expresstools@autodesk.com
 90
    32895
280
     0
281
     1
  0
CLASS
  1
WIPEOUTVARIABLES
  2
AcDbWipeoutVariables
  3
WipeOut|AutoCAD Express Tool|expresstools@autodesk.com
 90
    32768
280
     0
281
     0
  0
CLASS
  1
RTEXT
  2
RText
  3
RText|AutoCAD Express Tool|expresstools@autodesk.com
 90
    32768
280
     0
281
     1
  0
CLASS
  1
ARCALIGNEDTEXT
  2
AcDbArcAlignedText
  3
ATEXT|AutoCAD Express Tool|expresstools@autodesk.com
 90
    32768
280
     0
281
     1
  0
CLASS
  1
TABLESTYLE
  2
AcDbTableStyle
  3
ObjectDBX Classes
 90
    34815
280
     0
281
     0
  0
CLASS
  1
ACAD_PROXY_OBJECT_WRAPPER
  2
AcDbProxyObjectWrapper
  3
AutoCAD 2000
 90
    32768
280
     0
281
     0
  0
CLASS
  1
LONG_TRANSACTION
  2
AcDbLongTransaction
  3
AutoCAD 2000
 90
    32768
280
     0
281
     0
  0
CLASS
  1
LWPOLYLINE
  2
AcDbPolyline
  3
"AutoCAD"
 90
    32768
280
     0
281
     1
  0
CLASS
  1
HATCH
  2
AcDbHatch
  3
"ACAD_SEDONA"
 90
    32768
280
     0
281
     1
  0
CLASS
  1
XRECORD
  2
AcDbXrecord
  3
"<Built In>"
 90
    32768
280
     0
281
     0
  0
ENDSEC
  0
SECTION
  2
TABLES
  0
TABLE
  2
VPORT
  5
7
100
AcDbSymbolTable
 70
     2
  0
VPORT
  5
1264C
100
AcDbSymbolTableRecord
100
AcDbViewportTableRecord
  2
*ACTIVE
 70
     0
 10
0.0
 20
0.0
 11
1.0
 21
1.0
 12
57.040294
 22
93.036431
 13
0.0
 23
0.0
 14
1.0
 24
1.0
 15
0.0
 25
0.0
 16
0.0
 26
0.0
 36
1.0
 17
0.0
 27
0.0
 37
0.0
 40
170.767788
 41
1.673611
 42
50.0
 43
0.0
 44
0.0
 50
0.0
 51
0.0
 71
     0
 72
   100
 73
     1
 74
     2
 75
     0
 76
     0
 77
     0
 78
     0
  0
ENDTAB
  0
TABLE
  2
LTYPE
  5
4
100
AcDbSymbolTable
 70
     3
  0
LTYPE
  5
11
102
{ACAD_XDICTIONARY
360
12609
102
}
100
AcDbSymbolTableRecord
100
AcDbLinetypeTableRecord
  2
BYBLOCK
 70
     0
  3

 72
    65
 73
     0
 40
0.0
  0
LTYPE
  5
12
102
{ACAD_XDICTIONARY
360
1260B
102
}
100
AcDbSymbolTableRecord
100
AcDbLinetypeTableRecord
  2
BYLAYER
 70
     0
  3

 72
    65
 73
     0
 40
0.0
  0
LTYPE
  5
13
102
{ACAD_XDICTIONARY
360
1260D
102
}
100
AcDbSymbolTableRecord
100
AcDbLinetypeTableRecord
  2
CONTINUOUS
 70
     0
  3
Solid line
 72
    65
 73
     0
 40
0.0
  0
LTYPE
  5
725
100
AcDbSymbolTableRecord
100
AcDbLinetypeTableRecord
  2
AXES2
 70
     0
  3
___ _ ___ _ ___ _ ___ _ ___ _ ___ _ ___ _ ___ _
 72
    65
 73
     4
 40
1.125
 49
0.75
 74
     0
 49
-0.125
 74
     0
 49
0.125
 74
     0
 49
-0.125
 74
     0
  0
LTYPE
  5
FF12
100
AcDbSymbolTableRecord
100
AcDbLinetypeTableRecord
  2
CACHE2
 70
     0
  3
Caché (x.5) _ _ _ _ _ _ _ _ _ _ _ _ _ _ _ _ _
 72
    65
 73
     2
 40
0.1875
 49
0.125
 74
     0
 49
-0.0625
 74
     0
  0
ENDTAB
  0
TABLE
  2
LAYER
  5
2
102
{ACAD_XDICTIONARY
360
26F0
102
}
100
AcDbSymbolTable
 70
     6
  0
LAYER
  5
14
100
AcDbSymbolTableRecord
100
AcDbLayerTableRecord
  2
0
 70
     0
 62
     7
  6
CONTINUOUS
  0
LAYER
  5
6EC
102
{ACAD_XDICTIONARY
360
12607
102
}
100
AcDbSymbolTableRecord
100
AcDbLayerTableRecord
  2
DEFPOINTS
 70
     0
 62
     7
  6
CONTINUOUS
  0
LAYER
  5
727
100
AcDbSymbolTableRecord
100
AcDbLayerTableRecord
  2
COTATION1
 70
     0
 62
     2
  6
CONTINUOUS
  0
LAYER
  5
728
100
AcDbSymbolTableRecord
100
AcDbLayerTableRecord
  2
AXE
 70
     0
 62
    80
  6
AXES2
  0
LAYER
  5
729
100
AcDbSymbolTableRecord
100
AcDbLayerTableRecord
  2
ALPHA
 70
     0
 62
   254
  6
CONTINUOUS
  0
LAYER
  5
FF13
100
AcDbSymbolTableRecord
100
AcDbLayerTableRecord
  2
POINTILLE_COURT
 70
     0
 62
    41
  6
CACHE2
  0
ENDTAB
  0
TABLE
  2
STYLE
  5
3
100
AcDbSymbolTable
 70
     2
  0
STYLE
  5
17
102
{ACAD_XDICTIONARY
360
12613
102
}
100
AcDbSymbolTableRecord
100
AcDbTextStyleTableRecord
  2
STANDARD
 70
     0
 40
0.0
 41
1.0
 50
0.0
 71
     0
 42
0.0
  3
txt
  4

  0
STYLE
  5
72B
100
AcDbSymbolTableRecord
100
AcDbTextStyleTableRecord
  2
ROMANS
 70
     0
 40
0.0
 41
1.0
 50
0.0
 71
     0
 42
6.0
  3
romans
  4

  0
ENDTAB
  0
TABLE
  2
VIEW
  5
5
100
AcDbSymbolTable
 70
     0
  0
ENDTAB
  0
TABLE
  2
UCS
  5
6
100
AcDbSymbolTable
 70
     0
  0
ENDTAB
  0
TABLE
  2
APPID
  5
8
100
AcDbSymbolTable
 70
     4
  0
APPID
  5
16
100
AcDbSymbolTableRecord
100
AcDbRegAppTableRecord
  2
ACAD
 70
     0
  0
APPID
  5
26EF
102
{ACAD_XDICTIONARY
360
1260F
102
}
100
AcDbSymbolTableRecord
100
AcDbRegAppTableRecord
  2
ACAECLAYERSTANDARD
 70
     0
  0
APPID
  5
320E
100
AcDbSymbolTableRecord
100
AcDbRegAppTableRecord
  2
DCO15
 70
     0
  0
APPID
  5
3569
102
{ACAD_XDICTIONARY
360
12611
102
}
100
AcDbSymbolTableRecord
100
AcDbRegAppTableRecord
  2
ACAD_EXEMPT_FROM_CAD_STAND
 70
     0
  0
ENDTAB
  0
TABLE
  2
DIMSTYLE
  5
9
100
AcDbSymbolTable
 70
     2
  0
DIMSTYLE
105
18
102
{ACAD_XDICTIONARY
360
12605
102
}
100
AcDbSymbolTableRecord
100
AcDbDimStyleTableRecord
  2
STANDARD
 70
     0
  3

  4

  5

  6

  7

 40
1.0
 41
0.18
 42
0.0625
 43
0.38
 44
0.18
 45
0.0
 46
0.0
 47
0.0
 48
0.0
140
0.18
141
0.09
142
0.0
143
25.4
144
1.0
145
0.0
146
1.0
147
0.09
 71
     0
 72
     0
 73
     1
 74
     1
 75
     0
 76
     0
 77
     0
 78
     0
170
     0
171
     2
172
     0
173
     0
174
     0
175
     0
176
     0
177
     0
178
     0
270
     2
271
     4
272
     4
273
     2
274
     2
340
17
275
     0
280
     0
281
     0
282
     0
283
     1
284
     0
285
     0
286
     0
287
     3
288
     0
  0
DIMSTYLE
105
72C
102
{ACAD_XDICTIONARY
360
12643
102
}
102
{ACAD_REACTORS
330
1160B
330
1160C
330
116AC
330
116DA
330
11724
330
11755
330
1177E
102
}
100
AcDbSymbolTableRecord
100
AcDbDimStyleTableRecord
  2
SC_DEFAUT
 70
     0
  3

  4

  5
OPEN30
  6

  7

 40
1.0
 41
5.0
 42
2.0
 43
0.38
 44
2.5
 45
0.0
 46
0.0
 47
0.0
 48
0.0
140
2.5
141
0.0
142
0.0
143
25.4
144
1.0
145
0.0
146
1.0
147
2.0
 71
     0
 72
     0
 73
     1
 74
     1
 75
     0
 76
     0
 77
     1
 78
    12
170
     0
171
     2
172
     0
173
     0
174
     0
175
     0
176
     0
177
     0
178
     0
270
     2
271
     1
272
     1
273
     2
274
     2
340
72B
275
     0
280
     0
281
     0
282
     0
283
     1
284
    12
285
    12
286
    12
287
     5
288
     0
  0
ENDTAB
  0
TABLE
  2
BLOCK_RECORD
  5
1
100
AcDbSymbolTable
 70
     8
  0
BLOCK_RECORD
  5
A
102
{ACAD_XDICTIONARY
360
7D7
102
}
100
AcDbSymbolTableRecord
100
AcDbBlockTableRecord
  2
*MODEL_SPACE
  0
BLOCK_RECORD
  5
B
102
{ACAD_XDICTIONARY
360
12639
102
}
100
AcDbSymbolTableRecord
100
AcDbBlockTableRecord
  2
*PAPER_SPACE
  0
BLOCK_RECORD
  5
6FA
100
AcDbSymbolTableRecord
100
AcDbBlockTableRecord
  2
_OPEN30
  0
BLOCK_RECORD
  5
1160E
100
AcDbSymbolTableRecord
100
AcDbBlockTableRecord
  2
*D1
  0
BLOCK_RECORD
  5
1161B
100
AcDbSymbolTableRecord
100
AcDbBlockTableRecord
  2
*D2
  0
BLOCK_RECORD
  5
116AD
100
AcDbSymbolTableRecord
100
AcDbBlockTableRecord
  2
*D3
  0
BLOCK_RECORD
  5
116DB
100
AcDbSymbolTableRecord
100
AcDbBlockTableRecord
  2
*D4
  0
BLOCK_RECORD
  5
11725
100
AcDbSymbolTableRecord
100
AcDbBlockTableRecord
  2
*D5
  0
BLOCK_RECORD
  5
11756
100
AcDbSymbolTableRecord
100
AcDbBlockTableRecord
  2
*D6
  0
BLOCK_RECORD
  5
1177F
100
AcDbSymbolTableRecord
100
AcDbBlockTableRecord
  2
*D7
  0
ENDTAB
  0
ENDSEC
  0
SECTION
  2
BLOCKS
  0
BLOCK
  5
D
100
AcDbEntity
  8
0
100
AcDbBlockBegin
  2
*MODEL_SPACE
 70
     0
 10
0.0
 20
0.0
 30
0.0
  3
*MODEL_SPACE
  1

  0
ENDBLK
  5
E
100
AcDbEntity
  8
0
100
AcDbBlockEnd
  0
BLOCK
  5
F
100
AcDbEntity
 67
     1
  8
0
100
AcDbBlockBegin
  2
*PAPER_SPACE
 70
     0
 10
0.0
 20
0.0
 30
0.0
  3
*PAPER_SPACE
  1

  0
ENDBLK
  5
10
100
AcDbEntity
 67
     1
  8
0
100
AcDbBlockEnd
  0
BLOCK
  5
6FB
100
AcDbEntity
  8
0
100
AcDbBlockBegin
  2
_OPEN30
 70
     0
 10
0.0
 20
0.0
 30
0.0
  3
_OPEN30
  1

  0
LINE
  5
6FC
100
AcDbEntity
  8
COTATION1
 62
     0
100
AcDbLine
 10
-1.0
 20
0.267949
 30
0.0
 11
0.0
 21
0.0
 31
0.0
1001
ACAD
1000
RTLwPs
1070
   158
  0
LINE
  5
6FD
100
AcDbEntity
  8
COTATION1
 62
     0
100
AcDbLine
 10
0.0
 20
0.0
 30
0.0
 11
-1.0
 21
-0.267949
 31
0.0
1001
ACAD
1000
RTLwPs
1070
   158
  0
LINE
  5
6FE
100
AcDbEntity
  8
COTATION1
 62
     0
100
AcDbLine
 10
0.0
 20
0.0
 30
0.0
 11
-1.0
 21
0.0
 31
0.0
1001
ACAD
1000
RTLwPs
1070
   158
  0
ENDBLK
  5
6FF
100
AcDbEntity
  8
0
100
AcDbBlockEnd
  0
BLOCK
  5
11619
100
AcDbEntity
  8
0
100
AcDbBlockBegin
  2
*D1
 70
     1
 10
0.0
 20
0.0
 30
0.0
  3
*D1
  1

1001
ACAD
1000
RTLwPs
1070
   128
  0
LINE
  5
125B7
100
AcDbEntity
  8
COTATION1
 62
     0
100
AcDbLine
 10
86.389821
 20
137.53643
 30
0.0
 11
114.889821
 21
137.53643
 31
0.0
1001
ACAD
1000
RTLwPs
1070
   158
  0
LINE
  5
125B8
100
AcDbEntity
  8
COTATION1
 62
     0
100
AcDbLine
 10
89.389821
 20
48.53643
 30
0.0
 11
114.889821
 21
48.53643
 31
0.0
1001
ACAD
1000
RTLwPs
1070
   158
  0
LINE
  5
125B9
100
AcDbEntity
  8
COTATION1
 62
     0
100
AcDbLine
 10
112.389821
 20
132.53643
 30
0.0
 11
112.389821
 21
96.28643
 31
0.0
1001
ACAD
1000
RTLwPs
1070
   158
  0
LINE
  5
125BA
100
AcDbEntity
  8
COTATION1
 62
     0
100
AcDbLine
 10
112.389821
 20
53.53643
 30
0.0
 11
112.389821
 21
89.78643
 31
0.0
1001
ACAD
1000
RTLwPs
1070
   158
  0
INSERT
  5
125BB
100
AcDbEntity
  8
COTATION1
 62
     0
100
AcDbBlockReference
  2
_OPEN30
 10
112.389821
 20
137.53643
 30
0.0
 41
5.0
 42
5.0
 43
5.0
 50
90.0
1001
ACAD
1000
RTLwPs
1070
   158
  0
INSERT
  5
125BC
100
AcDbEntity
  8
COTATION1
 62
     0
100
AcDbBlockReference
  2
_OPEN30
 10
112.389821
 20
48.53643
 30
0.0
 41
5.0
 42
5.0
 43
5.0
 50
270.0
1001
ACAD
1000
RTLwPs
1070
   158
  0
MTEXT
  5
125BD
100
AcDbEntity
  8
COTATION1
 62
     0
100
AcDbMText
 10
112.389821
 20
93.03643
 30
0.0
 40
2.5
 41
0.0
 71
     5
 72
     1
  1
\A1;89
  7
ROMANS
1001
ACAD
1000
MTEXTBEGIN
1070
    73
1070
     1
1070
    44
1040
1.0
1070
    74
1070
     0
1000
MTEXTEND
1000
MTEXTBEGIN
1070
    73
1070
     1
1070
    44
1040
1.0
1070
    74
1070
     0
1000
MTEXTEND
  0
POINT
  5
125BE
100
AcDbEntity
  8
DEFPOINTS
 62
     0
100
AcDbPoint
 10
84.389821
 20
137.53643
 30
0.0
1001
ACAD
1000
RTLwPs
1070
   128
  0
POINT
  5
125BF
100
AcDbEntity
  8
DEFPOINTS
 62
     0
100
AcDbPoint
 10
87.389821
 20
48.53643
 30
0.0
1001
ACAD
1000
RTLwPs
1070
   128
  0
POINT
  5
125C0
100
AcDbEntity
  8
DEFPOINTS
 62
     0
100
AcDbPoint
 10
112.389821
 20
48.53643
 30
0.0
1001
ACAD
1000
RTLwPs
1070
   128
  0
ENDBLK
  5
1161A
100
AcDbEntity
  8
0
100
AcDbBlockEnd
1001
ACAD
1000
RTLwPs
1070
   128
  0
BLOCK
  5
11626
100
AcDbEntity
  8
0
100
AcDbBlockBegin
  2
*D2
 70
     1
 10
0.0
 20
0.0
 30
0.0
  3
*D2
  1

1001
ACAD
1000
RTLwPs
1070
   128
  0
LINE
  5
125C1
100
AcDbEntity
  8
COTATION1
 62
     0
100
AcDbLine
 10
104.389821
 20
177.53643
 30
0.0
 11
114.889821
 21
177.53643
 31
0.0
1001
ACAD
1000
RTLwPs
1070
   158
  0
LINE
  5
125C2
100
AcDbEntity
  8
COTATION1
 62
     0
100
AcDbLine
 10
86.389821
 20
137.53643
 30
0.0
 11
114.889821
 21
137.53643
 31
0.0
1001
ACAD
1000
RTLwPs
1070
   158
  0
LINE
  5
125C3
100
AcDbEntity
  8
COTATION1
 62
     0
100
AcDbLine
 10
112.389821
 20
172.53643
 30
0.0
 11
112.389821
 21
160.78643
 31
0.0
1001
ACAD
1000
RTLwPs
1070
   158
  0
LINE
  5
125C4
100
AcDbEntity
  8
COTATION1
 62
     0
100
AcDbLine
 10
112.389821
 20
142.53643
 30
0.0
 11
112.389821
 21
154.28643
 31
0.0
1001
ACAD
1000
RTLwPs
1070
   158
  0
INSERT
  5
125C5
100
AcDbEntity
  8
COTATION1
 62
     0
100
AcDbBlockReference
  2
_OPEN30
 10
112.389821
 20
177.53643
 30
0.0
 41
5.0
 42
5.0
 43
5.0
 50
90.0
1001
ACAD
1000
RTLwPs
1070
   158
  0
INSERT
  5
125C6
100
AcDbEntity
  8
COTATION1
 62
     0
100
AcDbBlockReference
  2
_OPEN30
 10
112.389821
 20
137.53643
 30
0.0
 41
5.0
 42
5.0
 43
5.0
 50
270.0
1001
ACAD
1000
RTLwPs
1070
   158
  0
MTEXT
  5
125C7
100
AcDbEntity
  8
COTATION1
 62
     0
100
AcDbMText
 10
112.389821
 20
157.53643
 30
0.0
 40
2.5
 41
0.0
 71
     5
 72
     1
  1
\A1;40
  7
ROMANS
1001
ACAD
1000
MTEXTBEGIN
1070
    73
1070
     1
1070
    44
1040
1.0
1070
    74
1070
     0
1000
MTEXTEND
1000
MTEXTBEGIN
1070
    73
1070
     1
1070
    44
1040
1.0
1070
    74
1070
     0
1000
MTEXTEND
  0
POINT
  5
125C8
100
AcDbEntity
  8
DEFPOINTS
 62
     0
100
AcDbPoint
 10
102.389821
 20
177.53643
 30
0.0
1001
ACAD
1000
RTLwPs
1070
   128
  0
POINT
  5
125C9
100
AcDbEntity
  8
DEFPOINTS
 62
     0
100
AcDbPoint
 10
84.389821
 20
137.53643
 30
0.0
1001
ACAD
1000
RTLwPs
1070
   128
  0
POINT
  5
125CA
100
AcDbEntity
  8
DEFPOINTS
 62
     0
100
AcDbPoint
 10
112.389821
 20
137.53643
 30
0.0
1001
ACAD
1000
RTLwPs
1070
   128
  0
ENDBLK
  5
11627
100
AcDbEntity
  8
0
100
AcDbBlockEnd
1001
ACAD
1000
RTLwPs
1070
   128
  0
BLOCK
  5
116B8
100
AcDbEntity
  8
0
100
AcDbBlockBegin
  2
*D3
 70
     1
 10
0.0
 20
0.0
 30
0.0
  3
*D3
  1

1001
ACAD
1000
RTLwPs
1070
   128
  0
LINE
  5
125CB
100
AcDbEntity
  8
COTATION1
 62
     0
100
AcDbLine
 10
89.389821
 20
48.53643
 30
0.0
 11
114.889821
 21
48.53643
 31
0.0
1001
ACAD
1000
RTLwPs
1070
   158
  0
LINE
  5
125CC
100
AcDbEntity
  8
COTATION1
 62
     0
100
AcDbLine
 10
104.389821
 20
8.53643
 30
0.0
 11
114.889821
 21
8.53643
 31
0.0
1001
ACAD
1000
RTLwPs
1070
   158
  0
LINE
  5
125CD
100
AcDbEntity
  8
COTATION1
 62
     0
100
AcDbLine
 10
112.389821
 20
43.53643
 30
0.0
 11
112.389821
 21
31.78643
 31
0.0
1001
ACAD
1000
RTLwPs
1070
   158
  0
LINE
  5
125CE
100
AcDbEntity
  8
COTATION1
 62
     0
100
AcDbLine
 10
112.389821
 20
13.53643
 30
0.0
 11
112.389821
 21
25.28643
 31
0.0
1001
ACAD
1000
RTLwPs
1070
   158
  0
INSERT
  5
125CF
100
AcDbEntity
  8
COTATION1
 62
     0
100
AcDbBlockReference
  2
_OPEN30
 10
112.389821
 20
48.53643
 30
0.0
 41
5.0
 42
5.0
 43
5.0
 50
90.0
1001
ACAD
1000
RTLwPs
1070
   158
  0
INSERT
  5
125D0
100
AcDbEntity
  8
COTATION1
 62
     0
100
AcDbBlockReference
  2
_OPEN30
 10
112.389821
 20
8.53643
 30
0.0
 41
5.0
 42
5.0
 43
5.0
 50
270.0
1001
ACAD
1000
RTLwPs
1070
   158
  0
MTEXT
  5
125D1
100
AcDbEntity
  8
COTATION1
 62
     0
100
AcDbMText
 10
112.389821
 20
28.53643
 30
0.0
 40
2.5
 41
0.0
 71
     5
 72
     1
  1
\A1;40
  7
ROMANS
1001
ACAD
1000
MTEXTBEGIN
1070
    73
1070
     1
1070
    44
1040
1.0
1070
    74
1070
     0
1000
MTEXTEND
1000
MTEXTBEGIN
1070
    73
1070
     1
1070
    44
1040
1.0
1070
    74
1070
     0
1000
MTEXTEND
  0
POINT
  5
125D2
100
AcDbEntity
  8
DEFPOINTS
 62
     0
100
AcDbPoint
 10
87.389821
 20
48.53643
 30
0.0
1001
ACAD
1000
RTLwPs
1070
   128
  0
POINT
  5
125D3
100
AcDbEntity
  8
DEFPOINTS
 62
     0
100
AcDbPoint
 10
102.389821
 20
8.53643
 30
0.0
1001
ACAD
1000
RTLwPs
1070
   128
  0
POINT
  5
125D4
100
AcDbEntity
  8
DEFPOINTS
 62
     0
100
AcDbPoint
 10
112.389821
 20
8.53643
 30
0.0
1001
ACAD
1000
RTLwPs
1070
   128
  0
ENDBLK
  5
116B9
100
AcDbEntity
  8
0
100
AcDbBlockEnd
1001
ACAD
1000
RTLwPs
1070
   128
  0
BLOCK
  5
116E5
100
AcDbEntity
  8
0
100
AcDbBlockBegin
  2
*D4
 70
     1
 10
0.0
 20
0.0
 30
0.0
  3
*D4
  1

1001
ACAD
1000
RTLwPs
1070
   128
  0
LINE
  5
125D5
100
AcDbEntity
  8
COTATION1
 62
     0
100
AcDbLine
 10
81.889821
 20
72.53643
 30
0.0
 11
81.889821
 21
21.03643
 31
0.0
1001
ACAD
1000
RTLwPs
1070
   158
  0
LINE
  5
125D6
100
AcDbEntity
  8
COTATION1
 62
     0
100
AcDbLine
 10
35.889821
 20
46.53643
 30
0.0
 11
35.889821
 21
21.03643
 31
0.0
1001
ACAD
1000
RTLwPs
1070
   158
  0
LINE
  5
125D7
100
AcDbEntity
  8
COTATION1
 62
     0
100
AcDbLine
 10
76.889821
 20
23.53643
 30
0.0
 11
40.889821
 21
23.53643
 31
0.0
1001
ACAD
1000
RTLwPs
1070
   158
  0
INSERT
  5
125D8
100
AcDbEntity
  8
COTATION1
 62
     0
100
AcDbBlockReference
  2
_OPEN30
 10
81.889821
 20
23.53643
 30
0.0
 41
5.0
 42
5.0
 43
5.0
1001
ACAD
1000
RTLwPs
1070
   158
  0
INSERT
  5
125D9
100
AcDbEntity
  8
COTATION1
 62
     0
100
AcDbBlockReference
  2
_OPEN30
 10
35.889821
 20
23.53643
 30
0.0
 41
5.0
 42
5.0
 43
5.0
 50
180.0
1001
ACAD
1000
RTLwPs
1070
   158
  0
MTEXT
  5
125DA
100
AcDbEntity
  8
COTATION1
 62
     0
100
AcDbMText
 10
58.889821
 20
26.78643
 30
0.0
 40
2.5
 41
0.0
 71
     5
 72
     1
  1
\A1;46
  7
ROMANS
1001
ACAD
1000
MTEXTBEGIN
1070
    73
1070
     1
1070
    44
1040
1.0
1070
    74
1070
     0
1000
MTEXTEND
1000
MTEXTBEGIN
1070
    73
1070
     1
1070
    44
1040
1.0
1070
    74
1070
     0
1000
MTEXTEND
  0
POINT
  5
125DB
100
AcDbEntity
  8
DEFPOINTS
 62
     0
100
AcDbPoint
 10
81.889821
 20
74.53643
 30
0.0
1001
ACAD
1000
RTLwPs
1070
   128
  0
POINT
  5
125DC
100
AcDbEntity
  8
DEFPOINTS
 62
     0
100
AcDbPoint
 10
35.889821
 20
48.53643
 30
0.0
1001
ACAD
1000
RTLwPs
1070
   128
  0
POINT
  5
125DD
100
AcDbEntity
  8
DEFPOINTS
 62
     0
100
AcDbPoint
 10
35.889821
 20
23.53643
 30
0.0
1001
ACAD
1000
RTLwPs
1070
   128
  0
ENDBLK
  5
116E6
100
AcDbEntity
  8
0
100
AcDbBlockEnd
1001
ACAD
1000
RTLwPs
1070
   128
  0
BLOCK
  5
1172F
100
AcDbEntity
  8
0
100
AcDbBlockBegin
  2
*D5
 70
     1
 10
0.0
 20
0.0
 30
0.0
  3
*D5
  1

1001
ACAD
1000
RTLwPs
1070
   128
  0
LINE
  5
125DE
100
AcDbEntity
  8
COTATION1
 62
     0
100
AcDbLine
 10
87.389821
 20
128.53643
 30
0.0
 11
87.389821
 21
155.03643
 31
0.0
1001
ACAD
1000
RTLwPs
1070
   158
  0
LINE
  5
125DF
100
AcDbEntity
  8
COTATION1
 62
     0
100
AcDbLine
 10
20.189821
 20
117.53643
 30
0.0
 11
20.189821
 21
155.03643
 31
0.0
1001
ACAD
1000
RTLwPs
1070
   158
  0
LINE
  5
125E0
100
AcDbEntity
  8
COTATION1
 62
     0
100
AcDbLine
 10
82.389821
 20
152.53643
 30
0.0
 11
25.189821
 21
152.53643
 31
0.0
1001
ACAD
1000
RTLwPs
1070
   158
  0
INSERT
  5
125E1
100
AcDbEntity
  8
COTATION1
 62
     0
100
AcDbBlockReference
  2
_OPEN30
 10
87.389821
 20
152.53643
 30
0.0
 41
5.0
 42
5.0
 43
5.0
1001
ACAD
1000
RTLwPs
1070
   158
  0
INSERT
  5
125E2
100
AcDbEntity
  8
COTATION1
 62
     0
100
AcDbBlockReference
  2
_OPEN30
 10
20.189821
 20
152.53643
 30
0.0
 41
5.0
 42
5.0
 43
5.0
 50
180.0
1001
ACAD
1000
RTLwPs
1070
   158
  0
MTEXT
  5
125E3
100
AcDbEntity
  8
COTATION1
 62
     0
100
AcDbMText
 10
53.789821
 20
155.78643
 30
0.0
 40
2.5
 41
0.0
 71
     5
 72
     1
  1
\A1;67.2
  7
ROMANS
1001
ACAD
1000
MTEXTBEGIN
1070
    73
1070
     1
1070
    44
1040
1.0
1070
    74
1070
     0
1000
MTEXTEND
1000
MTEXTBEGIN
1070
    73
1070
     1
1070
    44
1040
1.0
1070
    74
1070
     0
1000
MTEXTEND
  0
POINT
  5
125E4
100
AcDbEntity
  8
DEFPOINTS
 62
     0
100
AcDbPoint
 10
87.389821
 20
126.53643
 30
0.0
1001
ACAD
1000
RTLwPs
1070
   128
  0
POINT
  5
125E5
100
AcDbEntity
  8
DEFPOINTS
 62
     0
100
AcDbPoint
 10
20.189821
 20
115.53643
 30
0.0
1001
ACAD
1000
RTLwPs
1070
   128
  0
POINT
  5
125E6
100
AcDbEntity
  8
DEFPOINTS
 62
     0
100
AcDbPoint
 10
20.189821
 20
152.53643
 30
0.0
1001
ACAD
1000
RTLwPs
1070
   128
  0
ENDBLK
  5
11730
100
AcDbEntity
  8
0
100
AcDbBlockEnd
1001
ACAD
1000
RTLwPs
1070
   128
  0
BLOCK
  5
11760
100
AcDbEntity
  8
0
100
AcDbBlockBegin
  2
*D6
 70
     1
 10
0.0
 20
0.0
 30
0.0
  3
*D6
  1

1001
ACAD
1000
RTLwPs
1070
   128
  0
LINE
  5
125E7
100
AcDbEntity
  8
COTATION1
 62
     0
100
AcDbLine
 10
20.189821
 20
117.53643
 30
0.0
 11
20.189821
 21
155.03643
 31
0.0
1001
ACAD
1000
RTLwPs
1070
   158
  0
LINE
  5
125E8
100
AcDbEntity
  8
COTATION1
 62
     0
100
AcDbLine
 10
9.189821
 20
101.843611
 30
0.0
 11
9.189821
 21
155.03643
 31
0.0
1001
ACAD
1000
RTLwPs
1070
   158
  0
LINE
  5
125E9
100
AcDbEntity
  8
COTATION1
 62
     0
100
AcDbLine
 10
25.189821
 20
152.53643
 30
0.0
 11
30.189821
 21
152.53643
 31
0.0
1001
ACAD
1000
RTLwPs
1070
   158
  0
LINE
  5
125EA
100
AcDbEntity
  8
COTATION1
 62
     0
100
AcDbLine
 10
4.189821
 20
152.53643
 30
0.0
 11
-0.810179
 21
152.53643
 31
0.0
1001
ACAD
1000
RTLwPs
1070
   158
  0
INSERT
  5
125EB
100
AcDbEntity
  8
COTATION1
 62
     0
100
AcDbBlockReference
  2
_OPEN30
 10
20.189821
 20
152.53643
 30
0.0
 41
5.0
 42
5.0
 43
5.0
 50
180.0
1001
ACAD
1000
RTLwPs
1070
   158
  0
INSERT
  5
125EC
100
AcDbEntity
  8
COTATION1
 62
     0
100
AcDbBlockReference
  2
_OPEN30
 10
9.189821
 20
152.53643
 30
0.0
 41
5.0
 42
5.0
 43
5.0
1001
ACAD
1000
RTLwPs
1070
   158
  0
MTEXT
  5
125ED
100
AcDbEntity
  8
COTATION1
 62
     0
100
AcDbMText
 10
14.689821
 20
155.78643
 30
0.0
 40
2.5
 41
0.0
 71
     5
 72
     1
  1
\A1;11
  7
ROMANS
1001
ACAD
1000
MTEXTBEGIN
1070
    73
1070
     1
1070
    44
1040
1.0
1070
    74
1070
     0
1000
MTEXTEND
1000
MTEXTBEGIN
1070
    73
1070
     1
1070
    44
1040
1.0
1070
    74
1070
     0
1000
MTEXTEND
  0
POINT
  5
125EE
100
AcDbEntity
  8
DEFPOINTS
 62
     0
100
AcDbPoint
 10
20.189821
 20
115.53643
 30
0.0
1001
ACAD
1000
RTLwPs
1070
   128
  0
POINT
  5
125EF
100
AcDbEntity
  8
DEFPOINTS
 62
     0
100
AcDbPoint
 10
9.189821
 20
99.843611
 30
0.0
1001
ACAD
1000
RTLwPs
1070
   128
  0
POINT
  5
125F0
100
AcDbEntity
  8
DEFPOINTS
 62
     0
100
AcDbPoint
 10
9.189821
 20
152.53643
 30
0.0
1001
ACAD
1000
RTLwPs
1070
   128
  0
ENDBLK
  5
11761
100
AcDbEntity
  8
0
100
AcDbBlockEnd
1001
ACAD
1000
RTLwPs
1070
   128
  0
BLOCK
  5
11789
100
AcDbEntity
  8
0
100
AcDbBlockBegin
  2
*D7
 70
     1
 10
0.0
 20
0.0
 30
0.0
  3
*D7
  1

1001
ACAD
1000
RTLwPs
1070
   128
  0
LINE
  5
125F1
100
AcDbEntity
  8
COTATION1
 62
     0
100
AcDbLine
 10
35.889821
 20
46.53643
 30
0.0
 11
35.889821
 21
21.03643
 31
0.0
1001
ACAD
1000
RTLwPs
1070
   158
  0
LINE
  5
125F2
100
AcDbEntity
  8
COTATION1
 62
     0
100
AcDbLine
 10
20.189821
 20
68.53643
 30
0.0
 11
20.189821
 21
21.03643
 31
0.0
1001
ACAD
1000
RTLwPs
1070
   158
  0
LINE
  5
125F3
100
AcDbEntity
  8
COTATION1
 62
     0
100
AcDbLine
 10
30.889821
 20
23.53643
 30
0.0
 11
25.189821
 21
23.53643
 31
0.0
1001
ACAD
1000
RTLwPs
1070
   158
  0
INSERT
  5
125F4
100
AcDbEntity
  8
COTATION1
 62
     0
100
AcDbBlockReference
  2
_OPEN30
 10
35.889821
 20
23.53643
 30
0.0
 41
5.0
 42
5.0
 43
5.0
1001
ACAD
1000
RTLwPs
1070
   158
  0
INSERT
  5
125F5
100
AcDbEntity
  8
COTATION1
 62
     0
100
AcDbBlockReference
  2
_OPEN30
 10
20.189821
 20
23.53643
 30
0.0
 41
5.0
 42
5.0
 43
5.0
 50
180.0
1001
ACAD
1000
RTLwPs
1070
   158
  0
MTEXT
  5
125F6
100
AcDbEntity
  8
COTATION1
 62
     0
100
AcDbMText
 10
28.039821
 20
26.78643
 30
0.0
 40
2.5
 41
0.0
 71
     5
 72
     1
  1
\A1;15.7
  7
ROMANS
1001
ACAD
1000
MTEXTBEGIN
1070
    73
1070
     1
1070
    44
1040
1.0
1070
    74
1070
     0
1000
MTEXTEND
1000
MTEXTBEGIN
1070
    73
1070
     1
1070
    44
1040
1.0
1070
    74
1070
     0
1000
MTEXTEND
  0
POINT
  5
125F7
100
AcDbEntity
  8
DEFPOINTS
 62
     0
100
AcDbPoint
 10
35.889821
 20
48.53643
 30
0.0
1001
ACAD
1000
RTLwPs
1070
   128
  0
POINT
  5
125F8
100
AcDbEntity
  8
DEFPOINTS
 62
     0
100
AcDbPoint
 10
20.189821
 20
70.53643
 30
0.0
1001
ACAD
1000
RTLwPs
1070
   128
  0
POINT
  5
125F9
100
AcDbEntity
  8
DEFPOINTS
 62
     0
100
AcDbPoint
 10
20.189821
 20
23.53643
 30
0.0
1001
ACAD
1000
RTLwPs
1070
   128
  0
ENDBLK
  5
1178A
100
AcDbEntity
  8
0
100
AcDbBlockEnd
1001
ACAD
1000
RTLwPs
1070
   128
  0
ENDSEC
  0
SECTION
  2
ENTITIES
  0
LINE
  5
11503
100
AcDbEntity
  8
ALPHA
  6
CONTINUOUS
100
AcDbLine
 10
84.389821
 20
137.53643
 30
0.0
 11
35.889821
 21
137.53643
 31
0.0
1001
ACAD
1000
RTLwPs
1070
   128
  0
LINE
  5
11504
100
AcDbEntity
  8
ALPHA
  6
CONTINUOUS
100
AcDbLine
 10
87.389821
 20
48.53643
 30
0.0
 11
35.889821
 21
48.53643
 31
0.0
1001
ACAD
1000
RTLwPs
1070
   128
  0
LINE
  5
11505
100
AcDbEntity
  8
ALPHA
  6
CONTINUOUS
100
AcDbLine
 10
20.189821
 20
115.53643
 30
0.0
 11
20.189821
 21
70.53643
 31
0.0
1001
ACAD
1000
RTLwPs
1070
   128
  0
LINE
  5
11506
100
AcDbEntity
  8
ALPHA
  6
CONTINUOUS
100
AcDbLine
 10
35.889821
 20
137.53643
 30
0.0
 11
35.889821
 21
115.53643
 31
0.0
1001
ACAD
1000
RTLwPs
1070
   128
  0
LINE
  5
11507
100
AcDbEntity
  8
ALPHA
  6
CONTINUOUS
100
AcDbLine
 10
87.389821
 20
126.53643
 30
0.0
 11
87.389821
 21
108.53643
 31
0.0
1001
ACAD
1000
RTLwPs
1070
   128
  0
LINE
  5
11508
100
AcDbEntity
  8
ALPHA
  6
CONTINUOUS
100
AcDbLine
 10
35.889821
 20
115.53643
 30
0.0
 11
20.189821
 21
115.53643
 31
0.0
1001
ACAD
1000
RTLwPs
1070
   128
  0
LINE
  5
11509
100
AcDbEntity
  8
ALPHA
  6
CONTINUOUS
100
AcDbLine
 10
35.889821
 20
70.53643
 30
0.0
 11
20.189821
 21
70.53643
 31
0.0
1001
ACAD
1000
RTLwPs
1070
   128
  0
LINE
  5
1150A
100
AcDbEntity
  8
ALPHA
  6
CONTINUOUS
100
AcDbLine
 10
35.889821
 20
48.53643
 30
0.0
 11
35.889821
 21
70.53643
 31
0.0
1001
ACAD
1000
RTLwPs
1070
   128
  0
LINE
  5
1150B
100
AcDbEntity
  8
ALPHA
  6
CONTINUOUS
100
AcDbLine
 10
51.889821
 20
137.53643
 30
0.0
 11
51.889821
 21
48.53643
 31
0.0
1001
ACAD
1000
RTLwPs
1070
   128
  0
LINE
  5
1150E
100
AcDbEntity
  8
ALPHA
  6
CONTINUOUS
100
AcDbLine
 10
81.889821
 20
105.53643
 30
0.0
 11
81.889821
 21
111.53643
 31
0.0
1001
ACAD
1000
RTLwPs
1070
   128
  0
LINE
  5
11511
100
AcDbEntity
  8
ALPHA
  6
CONTINUOUS
100
AcDbLine
 10
81.889821
 20
111.53643
 30
0.0
 11
87.389821
 21
111.53643
 31
0.0
1001
ACAD
1000
RTLwPs
1070
   128
  0
LINE
  5
11513
100
AcDbEntity
  8
ALPHA
  6
CONTINUOUS
100
AcDbLine
 10
81.889821
 20
105.53643
 30
0.0
 11
87.389821
 21
100.03643
 31
0.0
1001
ACAD
1000
RTLwPs
1070
   128
  0
LINE
  5
11514
100
AcDbEntity
  8
ALPHA
  6
CONTINUOUS
100
AcDbLine
 10
87.389821
 20
74.28643
 30
0.0
 11
87.389821
 21
48.53643
 31
0.0
1001
ACAD
1000
RTLwPs
1070
   128
  0
LINE
  5
11515
100
AcDbEntity
  8
ALPHA
  6
CONTINUOUS
100
AcDbLine
 10
81.889821
 20
80.53643
 30
0.0
 11
81.889821
 21
74.53643
 31
0.0
1001
ACAD
1000
RTLwPs
1070
   128
  0
LINE
  5
11516
100
AcDbEntity
  8
ALPHA
  6
CONTINUOUS
100
AcDbLine
 10
81.889821
 20
80.53643
 30
0.0
 11
87.389821
 21
86.03643
 31
0.0
1001
ACAD
1000
RTLwPs
1070
   128
  0
LINE
  5
11517
100
AcDbEntity
  8
ALPHA
  6
CONTINUOUS
100
AcDbLine
 10
81.889821
 20
74.53643
 30
0.0
 11
87.389821
 21
74.53643
 31
0.0
1001
ACAD
1000
RTLwPs
1070
   128
  0
LINE
  5
11518
100
AcDbEntity
  8
ALPHA
  6
CONTINUOUS
100
AcDbLine
 10
87.389821
 20
100.03643
 30
0.0
 11
87.389821
 21
86.03643
 31
0.0
1001
ACAD
1000
RTLwPs
1070
   128
  0
LINE
  5
11519
100
AcDbEntity
  8
ALPHA
  6
CONTINUOUS
100
AcDbLine
 10
84.389821
 20
108.53643
 30
0.0
 11
87.389821
 21
108.53643
 31
0.0
1001
ACAD
1000
RTLwPs
1070
   128
  0
LINE
  5
1151A
100
AcDbEntity
  8
ALPHA
  6
CONTINUOUS
100
AcDbLine
 10
82.65777
 20
111.53643
 30
0.0
 11
84.389821
 21
108.53643
 31
0.0
1001
ACAD
1000
RTLwPs
1070
   128
  0
LINE
  5
1151C
100
AcDbEntity
  8
ALPHA
  6
CONTINUOUS
100
AcDbLine
 10
84.389821
 20
137.53643
 30
0.0
 11
87.389821
 21
126.53643
 31
0.0
1001
ACAD
1000
RTLwPs
1070
   128
  0
LINE
  5
1151D
100
AcDbEntity
  8
ALPHA
  6
CONTINUOUS
100
AcDbLine
 10
20.189821
 20
113.53643
 30
0.0
 11
15.627324
 21
113.53643
 31
0.0
1001
ACAD
1000
RTLwPs
1070
   128
  0
ARC
  5
11523
100
AcDbEntity
  8
ALPHA
  6
CONTINUOUS
100
AcDbCircle
 10
-9.42449
 20
116.613231
 30
0.0
 40
24.805866
100
AcDbArc
 50
319.487102
 51
351.874447
1001
ACAD
1000
RTLwPs
1070
   128
  0
ARC
  5
11524
100
AcDbEntity
  8
ALPHA
  6
CONTINUOUS
100
AcDbCircle
 10
20.044534
 20
105.294956
 30
0.0
 40
12.259387
100
AcDbArc
 50
208.598139
 51
270.679032
1001
ACAD
1000
RTLwPs
1070
   128
  0
ARC
  5
11528
100
AcDbEntity
  8
ALPHA
  6
CONTINUOUS
100
AcDbCircle
 10
10.189821
 20
99.843611
 30
0.0
 40
1.0
100
AcDbArc
 50
139.061146
 51
204.631047
1001
ACAD
1000
RTLwPs
1070
   128
  0
ARC
  5
1152B
100
AcDbEntity
  8
ALPHA
  6
CONTINUOUS
100
AcDbCircle
 10
15.627324
 20
113.03643
 30
0.0
 40
0.5
100
AcDbArc
 50
90.0
 51
171.874447
1001
ACAD
1000
RTLwPs
1070
   128
  0
LINE
  5
1152D
100
AcDbEntity
  8
AXE
100
AcDbLine
 10
102.389821
 20
93.03643
 30
0.0
 11
4.189821
 21
93.03643
 31
0.0
  0
TEXT
  5
1152E
100
AcDbEntity
  8
AXE
100
AcDbText
 10
95.873949
 20
94.0407
 30
0.0
 40
8.0
  1
Z
  7
ROMANS
 72
     2
 11
102.350139
 21
94.0407
 31
0.0
100
AcDbText
  0
DIMENSION
  5
1160B
100
AcDbEntity
  8
COTATION1
100
AcDbDimension
  2
*D1
 10
112.389821
 20
48.53643
 30
0.0
 11
112.389821
 21
93.03643
 31
0.0
 70
    32
  3
SC_DEFAUT
100
AcDbAlignedDimension
 13
84.389821
 23
137.53643
 33
0.0
 14
87.389821
 24
48.53643
 34
0.0
 50
90.0
100
AcDbRotatedDimension
  0
DIMENSION
  5
1160C
100
AcDbEntity
  8
COTATION1
100
AcDbDimension
  2
*D2
 10
112.389821
 20
137.53643
 30
0.0
 11
112.389821
 21
157.53643
 31
0.0
 70
    32
  3
SC_DEFAUT
100
AcDbAlignedDimension
 13
102.389821
 23
177.53643
 33
0.0
 14
84.389821
 24
137.53643
 34
0.0
 50
90.0
100
AcDbRotatedDimension
  0
LINE
  5
1167F
100
AcDbEntity
  8
POINTILLE_COURT
100
AcDbLine
 10
102.389821
 20
177.53643
 30
0.0
 11
4.189821
 21
177.53643
 31
0.0
  0
LINE
  5
116AB
100
AcDbEntity
  8
POINTILLE_COURT
100
AcDbLine
 10
102.389821
 20
8.53643
 30
0.0
 11
4.189821
 21
8.53643
 31
0.0
  0
DIMENSION
  5
116AC
100
AcDbEntity
  8
COTATION1
100
AcDbDimension
  2
*D3
 10
112.389821
 20
8.53643
 30
0.0
 11
112.389821
 21
28.53643
 31
0.0
 70
    32
  3
SC_DEFAUT
100
AcDbAlignedDimension
 13
87.389821
 23
48.53643
 33
0.0
 14
102.389821
 24
8.53643
 34
0.0
 50
90.0
100
AcDbRotatedDimension
  0
LINE
  5
116D8
100
AcDbEntity
  8
AXE
100
AcDbLine
 10
61.639821
 20
142.53643
 30
0.0
 11
61.639821
 21
33.53643
 31
0.0
  0
TEXT
  5
116D9
100
AcDbEntity
  8
AXE
100
AcDbText
 10
54.163631
 20
33.53643
 30
0.0
 40
8.0
  1
Y
  7
ROMANS
 72
     2
 11
60.639821
 21
33.53643
 31
0.0
100
AcDbText
  0
DIMENSION
  5
116DA
100
AcDbEntity
  8
COTATION1
100
AcDbDimension
  2
*D4
 10
35.889821
 20
23.53643
 30
0.0
 11
58.889821
 21
26.78643
 31
0.0
 70
    32
  3
SC_DEFAUT
100
AcDbAlignedDimension
 13
81.889821
 23
74.53643
 33
0.0
 14
35.889821
 24
48.53643
 34
0.0
100
AcDbRotatedDimension
  0
DIMENSION
  5
11724
100
AcDbEntity
  8
COTATION1
100
AcDbDimension
  2
*D5
 10
20.189821
 20
152.53643
 30
0.0
 11
53.789821
 21
155.78643
 31
0.0
 70
    32
  3
SC_DEFAUT
100
AcDbAlignedDimension
 13
87.389821
 23
126.53643
 33
0.0
 14
20.189821
 24
115.53643
 34
0.0
100
AcDbRotatedDimension
  0
DIMENSION
  5
11755
100
AcDbEntity
  8
COTATION1
100
AcDbDimension
  2
*D6
 10
9.189821
 20
152.53643
 30
0.0
 11
14.689821
 21
155.78643
 31
0.0
 70
    32
  3
SC_DEFAUT
100
AcDbAlignedDimension
 13
20.189821
 23
115.53643
 33
0.0
 14
9.189821
 24
99.843611
 34
0.0
100
AcDbRotatedDimension
  0
DIMENSION
  5
1177E
100
AcDbEntity
  8
COTATION1
100
AcDbDimension
  2
*D7
 10
20.189821
 20
23.53643
 30
0.0
 11
28.039821
 21
26.78643
 31
0.0
 70
    32
  3
SC_DEFAUT
100
AcDbAlignedDimension
 13
35.889821
 23
48.53643
 33
0.0
 14
20.189821
 24
70.53643
 34
0.0
100
AcDbRotatedDimension
  0
ENDSEC
  0
SECTION
  2
OBJECTS
  0
DICTIONARY
  5
19
102
{ACAD_XDICTIONARY
360
1263B
102
}
100
AcDbDictionary
  3
ACAD_COLOR
350
6DB
  3
ACAD_GROUP
350
1A
  3
ACAD_LAYOUT
350
1E
  3
ACAD_MATERIAL
350
6DA
  3
ACAD_MLINESTYLE
350
1B
  3
ACAD_PLOTSETTINGS
350
22
  3
ACAD_PLOTSTYLENAME
350
1F
  3
ACAD_TABLESTYLE
350
6DC
  3
ACAD_WIPEOUT_VARS
350
23
  3
ACDBHEADERROUNDTRIPXREC
350
12617
  3
ACDBVARIABLEDICTIONARY
350
7DA
  3
ASE_INDEX_DICTIONARY
350
3571
  0
DICTIONARY
  5
12609
100
AcDbDictionary
  3
ACAD_XREC_ROUNDTRIP
360
1260A
  0
DICTIONARY
  5
1260B
100
AcDbDictionary
  3
ACAD_XREC_ROUNDTRIP
360
1260C
  0
DICTIONARY
  5
1260D
100
AcDbDictionary
  3
ACAD_XREC_ROUNDTRIP
360
1260E
  0
DICTIONARY
  5
26F0
100
AcDbDictionary
  3
ACAD_LAYERFILTERS
360
26F2
  3
ACAD_LAYERSTATES
360
3474
  3
ACLYDICTIONARY
360
26F1
  0
DICTIONARY
  5
12607
100
AcDbDictionary
  3
ACAD_XREC_ROUNDTRIP
360
12608
  0
DICTIONARY
  5
12613
100
AcDbDictionary
  3
ACAD_XREC_ROUNDTRIP
360
12614
  0
DICTIONARY
  5
1260F
100
AcDbDictionary
  3
ACAD_XREC_ROUNDTRIP
360
12610
  0
DICTIONARY
  5
12611
100
AcDbDictionary
  3
ACAD_XREC_ROUNDTRIP
360
12612
  0
DICTIONARY
  5
12605
100
AcDbDictionary
  3
ACAD_XREC_ROUNDTRIP
360
12606
  0
DICTIONARY
  5
12643
100
AcDbDictionary
  3
ACAD_XREC_ROUNDTRIP
360
12644
  0
DICTIONARY
  5
7D7
100
AcDbDictionary
  3
ACAD_LAYOUTSELFREF
360
12638
  3
ACAD_SORTENTS
360
7D8
  0
DICTIONARY
  5
12639
100
AcDbDictionary
  3
ACAD_LAYOUTSELFREF
360
1263A
  0
DICTIONARY
  5
1263B
100
AcDbDictionary
  3
ACAD_XREC_ROUNDTRIP
360
1263C
  0
DICTIONARY
  5
6DB
102
{ACAD_REACTORS
330
19
102
}
100
AcDbDictionary
  0
DICTIONARY
  5
1A
102
{ACAD_REACTORS
330
19
102
}
100
AcDbDictionary
  0
DICTIONARY
  5
1E
102
{ACAD_XDICTIONARY
360
1263F
102
}
102
{ACAD_REACTORS
330
19
102
}
100
AcDbDictionary
  3
LAYOUT1
350
21
  3
MODEL
350
20
  0
DICTIONARY
  5
6DA
102
{ACAD_REACTORS
330
19
102
}
100
AcDbDictionary
  0
DICTIONARY
  5
1B
102
{ACAD_XDICTIONARY
360
1263D
102
}
102
{ACAD_REACTORS
330
19
102
}
100
AcDbDictionary
  3
STANDARD
350
1C
  0
DICTIONARY
  5
22
102
{ACAD_REACTORS
330
19
102
}
100
AcDbDictionary
  0
ACAD_ZOMBIE_OBJECT
  5
1F
102
{ACAD_REACTORS
330
19
102
}
100
AcDbZombieObject
 90
      499
 91
      517
 93
       86
310
405010041939BDC9B585B0
350
1D
340
1D
 94
        0
  0
DICTIONARY
  5
6DC
102
{ACAD_XDICTIONARY
360
12641
102
}
102
{ACAD_REACTORS
330
19
102
}
100
AcDbDictionary
  3
STANDARD
350
6DD
  0
ACAD_ZOMBIE_OBJECT
  5
23
102
{ACAD_REACTORS
330
19
102
}
100
AcDbZombieObject
 90
      499
 91
      521
 93
       10
310
4040
 94
        0
  0
DICTIONARY
  5
12617
102
{ACAD_REACTORS
330
19
102
}
100
AcDbDictionary
  3
CEPSNTYPE
350
12621
  3
DIMSTYLEDATA
350
12625
  3
FINGERPRINTGUID
350
12622
  3
HYPERLINKBASE
350
1261A
  3
INSUNITS
350
12620
  3
LAYOUTDICT
350
1261C
  3
LWETCUNION
350
1261F
  3
PLOTSETDICT
350
1261D
  3
PLOTSTYLNAMDICT
350
1261E
  3
PSVPSCALE
350
12624
  3
PUCSBASE
350
12628
  3
PUCSORGBACK
350
1262E
  3
PUCSORGBOTTOM
350
1262A
  3
PUCSORGFRONT
350
1262D
  3
PUCSORGLEFT
350
1262B
  3
PUCSORGRIGHT
350
1262C
  3
PUCSORGTOP
350
12629
  3
PUCSORTHOREF
350
12626
  3
PUCSORTHOVIEW
350
12627
  3
STYLESHEET
350
1261B
  3
TSTACKALIGN
350
12618
  3
TSTACKSIZE
350
12619
  3
UCSBASE
350
12631
  3
UCSORGBACK
350
12637
  3
UCSORGBOTTOM
350
12633
  3
UCSORGFRONT
350
12636
  3
UCSORGLEFT
350
12634
  3
UCSORGRIGHT
350
12635
  3
UCSORGTOP
350
12632
  3
UCSORTHOREF
350
1262F
  3
UCSORTHOVIEW
350
12630
  3
VERSIONGUID
350
12623
  0
DICTIONARY
  5
7DA
102
{ACAD_REACTORS
330
19
102
}
100
AcDbDictionary
  3
CTABLESTYLE
350
7DB
  3
DIMASSOC
350
1A71
  3
PROJECTNAME
350
1A72
  0
DICTIONARY
  5
3571
102
{ACAD_XDICTIONARY
360
12645
102
}
102
{ACAD_REACTORS
330
19
102
}
100
AcDbDictionary
  3
ASEBLOCKHIERARCHYINDEXRECORD
350
3572
1001
DCO15
1040
1558939622.437
  0
XRECORD
  5
1260A
102
{ACAD_REACTORS
330
12609
102
}
100
AcDbXrecord
102
EXTNAMES
  1
BYBLOCK
  2
ByBlock
  0
XRECORD
  5
1260C
102
{ACAD_REACTORS
330
1260B
102
}
100
AcDbXrecord
102
EXTNAMES
  1
BYLAYER
  2
ByLayer
  0
XRECORD
  5
1260E
102
{ACAD_REACTORS
330
1260D
102
}
100
AcDbXrecord
102
EXTNAMES
  1
CONTINUOUS
  2
Continuous
  0
DICTIONARY
  5
26F2
102
{ACAD_REACTORS
330
26F0
102
}
100
AcDbDictionary
  0
DICTIONARY
  5
3474
102
{ACAD_REACTORS
330
26F0
102
}
100
AcDbDictionary
  0
DICTIONARY
  5
26F1
102
{ACAD_REACTORS
330
26F0
102
}
100
AcDbDictionary
1001
ACAD
1000
<All
  0
XRECORD
  5
12608
102
{ACAD_REACTORS
330
12607
102
}
100
AcDbXrecord
102
EXTNAMES
  1
DEFPOINTS
  2
Defpoints
102
PLOTBIT
280
     0
  0
XRECORD
  5
12614
102
{ACAD_REACTORS
330
12613
102
}
100
AcDbXrecord
102
EXTNAMES
  1
STANDARD
  2
Standard
  0
XRECORD
  5
12610
102
{ACAD_REACTORS
330
1260F
102
}
100
AcDbXrecord
102
EXTNAMES
  1
ACAECLAYERSTANDARD
  2
AcAecLayerStandard
  0
XRECORD
  5
12612
102
{ACAD_REACTORS
330
12611
102
}
100
AcDbXrecord
102
EXTNAMES
  1
ACAD_EXEMPT_FROM_CAD_STAND
  2
ACAD_EXEMPT_FROM_CAD_STANDARDS
  0
XRECORD
  5
12606
102
{ACAD_REACTORS
330
12605
102
}
100
AcDbXrecord
102
EXTNAMES
  1
STANDARD
  2
Standard
  0
XRECORD
  5
12644
102
{ACAD_REACTORS
330
12643
102
}
100
AcDbXrecord
102
ACADR14ROUNDTRIP
1000
DSTYLE
1002
{
1070
   279
 70
     2
1070
   341
340
6FA
1070
   342
340
6FA
1002
}
  0
XRECORD
  5
12638
102
{ACAD_REACTORS
330
7D7
102
}
100
AcDbXrecord
340
A
  0
SORTENTSTABLE
  5
7D8
102
{ACAD_REACTORS
330
7D7
102
}
100
AcDbSortentsTable
330
A
331
11513
  5
11526
331
1177E
  5
1177E
331
116AC
  5
116FA
331
11523
  5
11532
331
11511
  5
1152B
331
1160C
  5
116D8
331
116D9
  5
11717
331
1150B
  5
1151C
331
1151D
  5
11531
331
1152E
  5
11583
331
11509
  5
1151E
331
11507
  5
11515
331
11519
  5
1152C
331
1167F
  5
11509
331
11505
  5
11512
331
11528
  5
11534
331
11516
  5
1152E
331
11503
  5
11506
331
11514
  5
11518
331
11755
  5
11755
331
116AB
  5
116F9
331
11524
  5
11535
331
11724
  5
11724
331
1160B
  5
116AC
331
1150E
  5
11525
331
116DA
  5
11718
331
116D8
  5
11716
331
1150A
  5
11520
331
1151C
  5
11516
331
1151A
  5
11517
331
1152D
  5
11536
331
11508
  5
1151D
331
11506
  5
1151A
331
1152B
  5
11533
331
11518
  5
11530
331
11517
  5
1152F
331
11504
  5
1150B
331
11515
  5
1152D
  0
XRECORD
  5
1263A
102
{ACAD_REACTORS
330
12639
102
}
100
AcDbXrecord
340
B
  0
XRECORD
  5
1263C
102
{ACAD_REACTORS
330
1263B
102
}
100
AcDbXrecord
102
EXTNAMES
  1
ACDBVARIABLEDICTIONARY
  2
AcDbVariableDictionary
  0
DICTIONARY
  5
1263F
100
AcDbDictionary
  3
ACAD_XREC_ROUNDTRIP
360
12640
  0
ACAD_ZOMBIE_OBJECT
  5
21
102
{ACAD_XDICTIONARY
360
125FE
102
}
102
{ACAD_REACTORS
330
1E
102
}
100
AcDbZombieObject
 90
      499
 91
      515
 93
      812
310
AAAAAAAAAA5A69074C61796F757431406A800000000000000000000000000000000000000000000A1000000000000008902A6A6A10232D5E076BC5510408CB5781DAF154410232D5E076BC5510408CB5781DAF15C410232D5E076BC5710408CB5781DAF15C4C
330
B
330
0
340
0
340
0
 94
        0
  0
ACAD_ZOMBIE_OBJECT
  5
20
102
{ACAD_XDICTIONARY
360
125FC
102
}
102
{ACAD_REACTORS
330
1E
102
}
100
AcDbZombieObject
 90
      499
 91
      515
 93
      420
310
A00012AAAAAAAA5A69054D6F64656CAA80000000000000000000000000000000000000000000000000000000000000002AAAAAAAA0
330
A
330
0
340
0
340
0
 94
        0
  0
DICTIONARY
  5
1263D
100
AcDbDictionary
  3
ACAD_XREC_ROUNDTRIP
360
1263E
  0
MLINESTYLE
  5
1C
102
{ACAD_REACTORS
330
1B
102
}
100
AcDbMlineStyle
  2
STANDARD
 70
     0
  3

 62
     0
 51
90.0
 52
90.0
 71
     2
 49
0.5
 62
   256
  6
BYLAYER
 49
-0.5
 62
   256
  6
BYLAYER
  0
ACAD_ZOMBIE_OBJECT
  5
1D
102
{ACAD_REACTORS
330
1F
102
}
100
AcDbZombieObject
 90
      499
 91
      518
 93
        0
 94
        0
  0
DICTIONARY
  5
12641
100
AcDbDictionary
  3
ACAD_XREC_ROUNDTRIP
360
12642
  0
ACAD_ZOMBIE_OBJECT
  5
6DD
102
{ACAD_REACTORS
330
6DC
102
}
100
AcDbZombieObject
 90
      499
 91
      525
 93
     1841
310
4214DD185B99185C9928000000000000F83F0000000000003E0FC00000000000004901028000000C1008070000C3001FDFF8000000C1003FBFF000000182007F7FE00000030400FEFFC00000060801FDFF8000000C1003FBFF000000182000000000000000C2020B0000001820100E000186003FBFF000000182007F7FE000
310
00030400FEFFC00000060801FDFF8000000C1003FBFF000000182007F7FE0000003040000000000000012404160000003040201C00030C007F7FE00000030400FEFFC00000060801FDFF8000000C1003FBFF000000182007F7FE00000030400FEFFC000000608000
340
17
340
17
340
17
 94
        0
1001
ACAD
1000
AcadProxyRoundTripData
1071
      524
1071
   393239
1070
     0
  0
XRECORD
  5
12621
102
{ACAD_REACTORS
330
12617
102
}
100
AcDbXrecord
 90
        0
  0
XRECORD
  5
12625
102
{ACAD_REACTORS
330
12617
102
}
100
AcDbXrecord
1000
DSTYLE
1002
{
1070
   278
 70
     0
1070
   371
 70
     0
1070
   372
 70
     0
1002
}
  0
XRECORD
  5
12622
102
{ACAD_REACTORS
330
12617
102
}
100
AcDbXrecord
  1

  0
XRECORD
  5
1261A
102
{ACAD_REACTORS
330
12617
102
}
100
AcDbXrecord
  1

  0
XRECORD
  5
12620
102
{ACAD_REACTORS
330
12617
102
}
100
AcDbXrecord
 90
        0
  0
XRECORD
  5
1261C
102
{ACAD_REACTORS
330
12617
102
}
100
AcDbXrecord
340
1E
  0
XRECORD
  5
1261F
102
{ACAD_REACTORS
330
12617
102
}
100
AcDbXrecord
 90
    10752
  0
XRECORD
  5
1261D
102
{ACAD_REACTORS
330
12617
102
}
100
AcDbXrecord
340
22
  0
XRECORD
  5
1261E
102
{ACAD_REACTORS
330
12617
102
}
100
AcDbXrecord
340
1F
  0
XRECORD
  5
12624
102
{ACAD_REACTORS
330
12617
102
}
100
AcDbXrecord
 40
0.0
  0
XRECORD
  5
12628
102
{ACAD_REACTORS
330
12617
102
}
100
AcDbXrecord
340
0
  0
XRECORD
  5
1262E
102
{ACAD_REACTORS
330
12617
102
}
100
AcDbXrecord
 10
0.0
 20
0.0
 30
0.0
  0
XRECORD
  5
1262A
102
{ACAD_REACTORS
330
12617
102
}
100
AcDbXrecord
 10
0.0
 20
0.0
 30
0.0
  0
XRECORD
  5
1262D
102
{ACAD_REACTORS
330
12617
102
}
100
AcDbXrecord
 10
0.0
 20
0.0
 30
0.0
  0
XRECORD
  5
1262B
102
{ACAD_REACTORS
330
12617
102
}
100
AcDbXrecord
 10
0.0
 20
0.0
 30
0.0
  0
XRECORD
  5
1262C
102
{ACAD_REACTORS
330
12617
102
}
100
AcDbXrecord
 10
0.0
 20
0.0
 30
0.0
  0
XRECORD
  5
12629
102
{ACAD_REACTORS
330
12617
102
}
100
AcDbXrecord
 10
0.0
 20
0.0
 30
0.0
  0
XRECORD
  5
12626
102
{ACAD_REACTORS
330
12617
102
}
100
AcDbXrecord
340
0
  0
XRECORD
  5
12627
102
{ACAD_REACTORS
330
12617
102
}
100
AcDbXrecord
 70
     0
  0
XRECORD
  5
1261B
102
{ACAD_REACTORS
330
12617
102
}
100
AcDbXrecord
  1

  0
XRECORD
  5
12618
102
{ACAD_REACTORS
330
12617
102
}
100
AcDbXrecord
 90
        1
  0
XRECORD
  5
12619
102
{ACAD_REACTORS
330
12617
102
}
100
AcDbXrecord
 90
       70
  0
XRECORD
  5
12631
102
{ACAD_REACTORS
330
12617
102
}
100
AcDbXrecord
340
0
  0
XRECORD
  5
12637
102
{ACAD_REACTORS
330
12617
102
}
100
AcDbXrecord
 10
0.0
 20
0.0
 30
0.0
  0
XRECORD
  5
12633
102
{ACAD_REACTORS
330
12617
102
}
100
AcDbXrecord
 10
0.0
 20
0.0
 30
0.0
  0
XRECORD
  5
12636
102
{ACAD_REACTORS
330
12617
102
}
100
AcDbXrecord
 10
0.0
 20
0.0
 30
0.0
  0
XRECORD
  5
12634
102
{ACAD_REACTORS
330
12617
102
}
100
AcDbXrecord
 10
0.0
 20
0.0
 30
0.0
  0
XRECORD
  5
12635
102
{ACAD_REACTORS
330
12617
102
}
100
AcDbXrecord
 10
0.0
 20
0.0
 30
0.0
  0
XRECORD
  5
12632
102
{ACAD_REACTORS
330
12617
102
}
100
AcDbXrecord
 10
0.0
 20
0.0
 30
0.0
  0
XRECORD
  5
1262F
102
{ACAD_REACTORS
330
12617
102
}
100
AcDbXrecord
340
0
  0
XRECORD
  5
12630
102
{ACAD_REACTORS
330
12617
102
}
100
AcDbXrecord
 70
     0
  0
XRECORD
  5
12623
102
{ACAD_REACTORS
330
12617
102
}
100
AcDbXrecord
  1
{18017163-FF29-430F-9573-D2E320A7FC11}
  0
DICTIONARYVAR
  5
7DB
102
{ACAD_REACTORS
330
7DA
102
}
100
DictionaryVariables
280
     0
  1
STANDARD
  0
DICTIONARYVAR
  5
1A71
102
{ACAD_REACTORS
330
7DA
102
}
100
DictionaryVariables
280
     0
  1
1
  0
DICTIONARYVAR
  5
1A72
102
{ACAD_REACTORS
330
7DA
102
}
100
DictionaryVariables
280
     0
  1

  0
DICTIONARY
  5
12645
100
AcDbDictionary
  3
ACAD_XREC_ROUNDTRIP
360
12646
  0
XRECORD
  5
3572
102
{ACAD_REACTORS
330
3571
102
}
100
AcDbXrecord
330
0
330
0
330
0
330
0
330
0
330
0
330
0
330
0
330
0
330
0
330
0
330
0
330
0
330
0
330
0
330
0
330
0
330
0
330
0
330
0
330
0
330
0
330
0
330
0
330
0
330
0
330
0
330
0
330
0
330
0
330
0
  0
XRECORD
  5
12640
102
{ACAD_REACTORS
330
1263F
102
}
100
AcDbXrecord
102
EXTNAMES
  1
LAYOUT1
  2
Layout1
  1
MODEL
  2
Model
  0
DICTIONARY
  5
125FE
100
AcDbDictionary
  3
ACAD_XREC_ROUNDTRIP
360
125FF
  0
DICTIONARY
  5
125FC
100
AcDbDictionary
  3
ACAD_XREC_ROUNDTRIP
360
125FD
  0
XRECORD
  5
1263E
102
{ACAD_REACTORS
330
1263D
102
}
100
AcDbXrecord
102
EXTNAMES
  1
STANDARD
  2
Standard
  0
XRECORD
  5
12642
102
{ACAD_REACTORS
330
12641
102
}
100
AcDbXrecord
102
EXTNAMES
  1
STANDARD
  2
Standard
  0
XRECORD
  5
12646
102
{ACAD_REACTORS
330
12645
102
}
100
AcDbXrecord
102
EXTNAMES
  1
ASEBLOCKHIERARCHYINDEXRECORD
  2
ASEBlockHierarchyIndexRecord
  0
XRECORD
  5
125FF
102
{ACAD_REACTORS
330
125FE
102
}
100
AcDbXrecord
102
SHADEPLOT
 70
     0
102
SHADEPLOTRESLEVEL
 70
     2
102
SHADEPLOTCUSTOMDPI
 70
   300
  0
XRECORD
  5
125FD
102
{ACAD_REACTORS
330
125FC
102
}
100
AcDbXrecord
102
SHADEPLOT
 70
     0
102
SHADEPLOTRESLEVEL
 70
     2
102
SHADEPLOTCUSTOMDPI
 70
   300
  0
ENDSEC
  0
EOF
