  0
SECTION
  2
HEADER
  9
$ACADVER
  1
AC1014
  9
$ACADMAINTVER
 70
     0
  9
$DWGCODEPAGE
  3
ANSI_1252
  9
$INSBASE
 10
0.0
 20
0.0
 30
0.0
  9
$EXTMIN
 10
84.068654
 20
57.40537
 30
0.0
  9
$EXTMAX
 10
124.895544
 20
287.566475
 30
0.0
  9
$LIMMIN
 10
0.0
 20
0.0
  9
$LIMMAX
 10
297.0
 20
210.0
  9
$ORTHOMODE
 70
     0
  9
$REGENMODE
 70
     1
  9
$FILLMODE
 70
     1
  9
$QTEXTMODE
 70
     0
  9
$MIRRTEXT
 70
     1
  9
$DRAGMODE
 70
     2
  9
$LTSCALE
 40
1.0
  9
$OSMODE
 70
     0
  9
$ATTMODE
 70
     1
  9
$TEXTSIZE
 40
3.5
  9
$TRACEWID
 40
0.05
  9
$TEXTSTYLE
  7
ROMANS
  9
$CLAYER
  8
0
  9
$CELTYPE
  6
BYLAYER
  9
$CECOLOR
 62
   256
  9
$CELTSCALE
 40
1.0
  9
$DELOBJ
 70
     1
  9
$DISPSILH
 70
     0
  9
$DIMSCALE
 40
1.0
  9
$DIMASZ
 40
3.0
  9
$DIMEXO
 40
0.0625
  9
$DIMDLI
 40
0.38
  9
$DIMRND
 40
0.01
  9
$DIMDLE
 40
0.0
  9
$DIMEXE
 40
0.18
  9
$DIMTP
 40
0.0
  9
$DIMTM
 40
0.0
  9
$DIMTXT
 40
2.5
  9
$DIMCEN
 40
0.09
  9
$DIMTSZ
 40
0.0
  9
$DIMTOL
 70
     0
  9
$DIMLIM
 70
     0
  9
$DIMTIH
 70
     0
  9
$DIMTOH
 70
     0
  9
$DIMSE1
 70
     0
  9
$DIMSE2
 70
     0
  9
$DIMTAD
 70
     1
  9
$DIMZIN
 70
    12
  9
$DIMBLK
  1

  9
$DIMASO
 70
     1
  9
$DIMSHO
 70
     1
  9
$DIMPOST
  1

  9
$DIMAPOST
  1

  9
$DIMALT
 70
     0
  9
$DIMALTD
 70
     2
  9
$DIMALTF
 40
25.4
  9
$DIMLFAC
 40
1.0
  9
$DIMTOFL
 70
     1
  9
$DIMTVP
 40
0.0
  9
$DIMTIX
 70
     0
  9
$DIMSOXD
 70
     0
  9
$DIMSAH
 70
     0
  9
$DIMBLK1
  1

  9
$DIMBLK2
  1

  9
$DIMSTYLE
  2
SC_STAND
  9
$DIMCLRD
 70
     0
  9
$DIMCLRE
 70
     0
  9
$DIMCLRT
 70
     0
  9
$DIMTFAC
 40
1.0
  9
$DIMGAP
 40
1.0
  9
$DIMJUST
 70
     0
  9
$DIMSD1
 70
     0
  9
$DIMSD2
 70
     0
  9
$DIMTOLJ
 70
     1
  9
$DIMTZIN
 70
    12
  9
$DIMALTZ
 70
    12
  9
$DIMALTTZ
 70
    12
  9
$DIMFIT
 70
     5
  9
$DIMUPT
 70
     0
  9
$DIMUNIT
 70
     2
  9
$DIMDEC
 70
     4
  9
$DIMTDEC
 70
     4
  9
$DIMALTU
 70
     2
  9
$DIMALTTD
 70
     2
  9
$DIMTXSTY
  7
ROMANS
  9
$DIMAUNIT
 70
     0
  9
$LUNITS
 70
     2
  9
$LUPREC
 70
     4
  9
$SKETCHINC
 40
0.1
  9
$FILLETRAD
 40
10.0
  9
$AUNITS
 70
     0
  9
$AUPREC
 70
     0
  9
$MENU
  1
acad
  9
$ELEVATION
 40
0.0
  9
$PELEVATION
 40
0.0
  9
$THICKNESS
 40
0.0
  9
$LIMCHECK
 70
     0
  9
$BLIPMODE
 70
     1
  9
$CHAMFERA
 40
10.0
  9
$CHAMFERB
 40
10.0
  9
$CHAMFERC
 40
0.0
  9
$CHAMFERD
 40
0.0
  9
$SKPOLY
 70
     0
  9
$TDCREATE
 40
2450653.478992824
  9
$TDUPDATE
 40
2451387.895808298
  9
$TDINDWG
 40
0.0000626157
  9
$TDUSRTIMER
 40
0.0000626157
  9
$USRTIMER
 70
     1
  9
$ANGBASE
 50
0.0
  9
$ANGDIR
 70
     0
  9
$PDMODE
 70
     0
  9
$PDSIZE
 40
0.0
  9
$PLINEWID
 40
0.0
  9
$COORDS
 70
     1
  9
$SPLFRAME
 70
     0
  9
$SPLINETYPE
 70
     6
  9
$SPLINESEGS
 70
     8
  9
$ATTDIA
 70
     0
  9
$ATTREQ
 70
     1
  9
$HANDLING
 70
     1
  9
$HANDSEED
  5
3BA
  9
$SURFTAB1
 70
     6
  9
$SURFTAB2
 70
     6
  9
$SURFTYPE
 70
     6
  9
$SURFU
 70
     6
  9
$SURFV
 70
     6
  9
$UCSNAME
  2

  9
$UCSORG
 10
0.0
 20
0.0
 30
0.0
  9
$UCSXDIR
 10
1.0
 20
0.0
 30
0.0
  9
$UCSYDIR
 10
0.0
 20
1.0
 30
0.0
  9
$PUCSNAME
  2

  9
$PUCSORG
 10
0.0
 20
0.0
 30
0.0
  9
$PUCSXDIR
 10
1.0
 20
0.0
 30
0.0
  9
$PUCSYDIR
 10
0.0
 20
1.0
 30
0.0
  9
$USERI1
 70
     0
  9
$USERI2
 70
     0
  9
$USERI3
 70
     0
  9
$USERI4
 70
     0
  9
$USERI5
 70
     0
  9
$USERR1
 40
0.0
  9
$USERR2
 40
0.0
  9
$USERR3
 40
0.0
  9
$USERR4
 40
0.0
  9
$USERR5
 40
0.0
  9
$WORLDVIEW
 70
     1
  9
$SHADEDGE
 70
     3
  9
$SHADEDIF
 70
    70
  9
$TILEMODE
 70
     1
  9
$MAXACTVP
 70
    16
  9
$PINSBASE
 10
0.0
 20
0.0
 30
0.0
  9
$PLIMCHECK
 70
     0
  9
$PEXTMIN
 10
1.000000E+20
 20
1.000000E+20
 30
1.000000E+20
  9
$PEXTMAX
 10
-1.000000E+20
 20
-1.000000E+20
 30
-1.000000E+20
  9
$PLIMMIN
 10
0.0
 20
0.0
  9
$PLIMMAX
 10
12.0
 20
9.0
  9
$UNITMODE
 70
     0
  9
$VISRETAIN
 70
     0
  9
$PLINEGEN
 70
     0
  9
$PSLTSCALE
 70
     1
  9
$TREEDEPTH
 70
  3020
  9
$PICKSTYLE
 70
     1
  9
$CMLSTYLE
  2
STANDARD
  9
$CMLJUST
 70
     0
  9
$CMLSCALE
 40
1.0
  9
$PROXYGRAPHICS
 70
     1
  9
$MEASUREMENT
 70
     0
  0
ENDSEC
  0
SECTION
  2
CLASSES
  0
CLASS
  1
DICTIONARYVAR
  2
AcDbDictionaryVar
  3
"AutoCAD"
 90
        0
280
     0
281
     0
  0
CLASS
  1
LWPOLYLINE
  2
AcDbPolyline
  3
"AutoCAD"
 90
        0
280
     0
281
     1
  0
ENDSEC
  0
SECTION
  2
TABLES
  0
TABLE
  2
VPORT
  5
35F
100
AcDbSymbolTable
 70
     1
  0
VPORT
  5
3B5
100
AcDbSymbolTableRecord
100
AcDbViewportTableRecord
  2
*ACTIVE
 70
     0
 10
0.0
 20
0.0
 11
1.0
 21
1.0
 12
309.901656
 22
192.549529
 13
0.0
 23
0.0
 14
1.0
 24
1.0
 15
0.0
 25
0.0
 16
0.0
 26
0.0
 36
1.0
 17
0.0
 27
0.0
 37
0.0
 40
270.288318
 41
1.671053
 42
50.0
 43
0.0
 44
0.0
 50
0.0
 51
0.0
 71
     0
 72
   100
 73
     1
 74
     1
 75
     0
 76
     0
 77
     0
 78
     0
  0
ENDTAB
  0
TABLE
  2
LTYPE
  5
35C
100
AcDbSymbolTable
 70
    23
  0
LTYPE
  5
368
100
AcDbSymbolTableRecord
100
AcDbLinetypeTableRecord
  2
BYBLOCK
 70
     0
  3

 72
    65
 73
     0
 40
0.0
  0
LTYPE
  5
369
100
AcDbSymbolTableRecord
100
AcDbLinetypeTableRecord
  2
BYLAYER
 70
     0
  3

 72
    65
 73
     0
 40
0.0
  0
LTYPE
  5
36A
100
AcDbSymbolTableRecord
100
AcDbLinetypeTableRecord
  2
CONTINUOUS
 70
     0
  3
Solid line
 72
    65
 73
     0
 40
0.0
  0
LTYPE
  5
37C
100
AcDbSymbolTableRecord
100
AcDbLinetypeTableRecord
  2
AXES
 70
     0
  3
____ _ ____ _ ____ _ ____ _ ____ _ ____ _ ____ 
 72
    65
 73
     4
 40
2.0
 49
1.25
 74
     0
 49
-0.25
 74
     0
 49
0.25
 74
     0
 49
-0.25
 74
     0
  0
LTYPE
  5
37D
100
AcDbSymbolTableRecord
100
AcDbLinetypeTableRecord
  2
AXES2
 70
     0
  3
___ _ ___ _ ___ _ ___ _ ___ _ ___ _ ___ _ ___ _
 72
    65
 73
     4
 40
1.125
 49
0.75
 74
     0
 49
-0.125
 74
     0
 49
0.125
 74
     0
 49
-0.125
 74
     0
  0
LTYPE
  5
37E
100
AcDbSymbolTableRecord
100
AcDbLinetypeTableRecord
  2
AXESX2
 70
     0
  3
________  __  ________  __  ________  __  _____
 72
    65
 73
     4
 40
4.0
 49
2.5
 74
     0
 49
-0.5
 74
     0
 49
0.5
 74
     0
 49
-0.5
 74
     0
  0
LTYPE
  5
37F
100
AcDbSymbolTableRecord
100
AcDbLinetypeTableRecord
  2
TIRETPT
 70
     0
  3
__ . __ . __ . __ . __ . __ . __ . __ . __ . __
 72
    65
 73
     4
 40
1.0
 49
0.5
 74
     0
 49
-0.25
 74
     0
 49
0.0
 74
     0
 49
-0.25
 74
     0
  0
LTYPE
  5
380
100
AcDbSymbolTableRecord
100
AcDbLinetypeTableRecord
  2
TIRETPT2
 70
     0
  3
_._._._._._._._._._._._._._._._._._._._._._._._
 72
    65
 73
     4
 40
0.5
 49
0.25
 74
     0
 49
-0.125
 74
     0
 49
0.0
 74
     0
 49
-0.125
 74
     0
  0
LTYPE
  5
381
100
AcDbSymbolTableRecord
100
AcDbLinetypeTableRecord
  2
TIRETPTX2
 70
     0
  3
____  .  ____  .  ____  .  ____  .  ____  .  __
 72
    65
 73
     4
 40
2.0
 49
1.0
 74
     0
 49
-0.5
 74
     0
 49
0.0
 74
     0
 49
-0.5
 74
     0
  0
LTYPE
  5
382
100
AcDbSymbolTableRecord
100
AcDbLinetypeTableRecord
  2
DISCONTINU
 70
     0
  3
__ __ __ __ __ __ __ __ __ __ __ __ __ __ __ __
 72
    65
 73
     2
 40
0.75
 49
0.5
 74
     0
 49
-0.25
 74
     0
  0
LTYPE
  5
383
100
AcDbSymbolTableRecord
100
AcDbLinetypeTableRecord
  2
DISCONTINU2
 70
     0
  3
_ _ _ _ _ _ _ _ _ _ _ _ _ _ _ _ _ _ _ _ _ _ _ _
 72
    65
 73
     2
 40
0.375
 49
0.25
 74
     0
 49
-0.125
 74
     0
  0
LTYPE
  5
384
100
AcDbSymbolTableRecord
100
AcDbLinetypeTableRecord
  2
DISCONTINUX2
 70
     0
  3
____  ____  ____  ____  ____  ____  ____  ____ 
 72
    65
 73
     2
 40
1.5
 49
1.0
 74
     0
 49
-0.5
 74
     0
  0
LTYPE
  5
385
100
AcDbSymbolTableRecord
100
AcDbLinetypeTableRecord
  2
DIVISE
 70
     0
  3
____ . . ____ . . ____ . . ____ . . ____ . . __
 72
    65
 73
     6
 40
1.25
 49
0.5
 74
     0
 49
-0.25
 74
     0
 49
0.0
 74
     0
 49
-0.25
 74
     0
 49
0.0
 74
     0
 49
-0.25
 74
     0
  0
LTYPE
  5
386
100
AcDbSymbolTableRecord
100
AcDbLinetypeTableRecord
  2
DIVISE2
 70
     0
  3
__..__..__..__..__..__..__..__..__..__..__..__.
 72
    65
 73
     6
 40
0.625
 49
0.25
 74
     0
 49
-0.125
 74
     0
 49
0.0
 74
     0
 49
-0.125
 74
     0
 49
0.0
 74
     0
 49
-0.125
 74
     0
  0
LTYPE
  5
387
100
AcDbSymbolTableRecord
100
AcDbLinetypeTableRecord
  2
DIVISEX2
 70
     0
  3
________  .  .  ________  .  .  ________  .  . 
 72
    65
 73
     6
 40
2.5
 49
1.0
 74
     0
 49
-0.5
 74
     0
 49
0.0
 74
     0
 49
-0.5
 74
     0
 49
0.0
 74
     0
 49
-0.5
 74
     0
  0
LTYPE
  5
388
100
AcDbSymbolTableRecord
100
AcDbLinetypeTableRecord
  2
POINTILLE
 70
     0
  3
. . . . . . . . . . . . . . . . . . . . . . . .
 72
    65
 73
     2
 40
0.25
 49
0.0
 74
     0
 49
-0.25
 74
     0
  0
LTYPE
  5
389
100
AcDbSymbolTableRecord
100
AcDbLinetypeTableRecord
  2
POINTILLE2
 70
     0
  3
...............................................
 72
    65
 73
     2
 40
0.125
 49
0.0
 74
     0
 49
-0.125
 74
     0
  0
LTYPE
  5
38A
100
AcDbSymbolTableRecord
100
AcDbLinetypeTableRecord
  2
POINTILLEX2
 70
     0
  3
.  .  .  .  .  .  .  .  .  .  .  .  .  .  .  . 
 72
    65
 73
     2
 40
0.5
 49
0.0
 74
     0
 49
-0.5
 74
     0
  0
LTYPE
  5
38B
100
AcDbSymbolTableRecord
100
AcDbLinetypeTableRecord
  2
CACHE
 70
     0
  3
__ __ __ __ __ __ __ __ __ __ __ __ __ __ __ __
 72
    65
 73
     2
 40
0.375
 49
0.25
 74
     0
 49
-0.125
 74
     0
  0
LTYPE
  5
38C
100
AcDbSymbolTableRecord
100
AcDbLinetypeTableRecord
  2
CACHE2
 70
     0
  3
_ _ _ _ _ _ _ _ _ _ _ _ _ _ _ _ _ _ _ _ _ _ _ _
 72
    65
 73
     2
 40
0.1875
 49
0.125
 74
     0
 49
-0.0625
 74
     0
  0
LTYPE
  5
38D
100
AcDbSymbolTableRecord
100
AcDbLinetypeTableRecord
  2
CACHEX2
 70
     0
  3
____ ____ ____ ____ ____ ____ ____ ____ ____ __
 72
    65
 73
     2
 40
0.75
 49
0.5
 74
     0
 49
-0.25
 74
     0
  0
LTYPE
  5
38E
100
AcDbSymbolTableRecord
100
AcDbLinetypeTableRecord
  2
FANTOME
 70
     0
  3
______  __  __  ______  __  __  ______  __  __ 
 72
    65
 73
     6
 40
2.5
 49
1.25
 74
     0
 49
-0.25
 74
     0
 49
0.25
 74
     0
 49
-0.25
 74
     0
 49
0.25
 74
     0
 49
-0.25
 74
     0
  0
LTYPE
  5
38F
100
AcDbSymbolTableRecord
100
AcDbLinetypeTableRecord
  2
FANTOME2
 70
     0
  3
___ _ _ ___ _ _ ___ _ _ ___ _ _ ___ _ _ ___ _ _
 72
    65
 73
     6
 40
1.25
 49
0.625
 74
     0
 49
-0.125
 74
     0
 49
0.125
 74
     0
 49
-0.125
 74
     0
 49
0.125
 74
     0
 49
-0.125
 74
     0
  0
LTYPE
  5
390
100
AcDbSymbolTableRecord
100
AcDbLinetypeTableRecord
  2
FANTOMEX2
 70
     0
  3
____________    ____    ____    ____________   
 72
    65
 73
     6
 40
5.0
 49
2.5
 74
     0
 49
-0.5
 74
     0
 49
0.5
 74
     0
 49
-0.5
 74
     0
 49
0.5
 74
     0
 49
-0.5
 74
     0
  0
LTYPE
  5
391
100
AcDbSymbolTableRecord
100
AcDbLinetypeTableRecord
  2
0
 70
     0
  3
MEDUSA PEN 0
 72
    65
 73
     0
 40
0.0
  0
ENDTAB
  0
TABLE
  2
LAYER
  5
359
100
AcDbSymbolTable
 70
    21
  0
LAYER
  5
365
100
AcDbSymbolTableRecord
100
AcDbLayerTableRecord
  2
0
 70
     0
 62
     7
  6
CONTINUOUS
  0
LAYER
  5
398
100
AcDbSymbolTableRecord
100
AcDbLayerTableRecord
  2
COTATION1
 70
     0
 62
     2
  6
CONTINUOUS
  0
LAYER
  5
399
100
AcDbSymbolTableRecord
100
AcDbLayerTableRecord
  2
ALPHA
 70
     0
 62
   255
  6
CONTINUOUS
  0
LAYER
  5
39A
100
AcDbSymbolTableRecord
100
AcDbLayerTableRecord
  2
DEFPOINTS
 70
     0
 62
     7
  6
CONTINUOUS
  0
LAYER
  5
39B
100
AcDbSymbolTableRecord
100
AcDbLayerTableRecord
  2
AXE
 70
     0
 62
    80
  6
AXES2
  0
LAYER
  5
39C
100
AcDbSymbolTableRecord
100
AcDbLayerTableRecord
  2
CONSTRUCTION
 70
     0
 62
     6
  6
CONTINUOUS
  0
LAYER
  5
39D
100
AcDbSymbolTableRecord
100
AcDbLayerTableRecord
  2
HACHURES
 70
     0
 62
     9
  6
CONTINUOUS
  0
LAYER
  5
39E
100
AcDbSymbolTableRecord
100
AcDbLayerTableRecord
  2
FMULT
 70
     0
 62
     6
  6
CONTINUOUS
  0
LAYER
  5
39F
100
AcDbSymbolTableRecord
100
AcDbLayerTableRecord
  2
TEXTE
 70
     0
 62
   131
  6
CONTINUOUS
  0
LAYER
  5
3A0
100
AcDbSymbolTableRecord
100
AcDbLayerTableRecord
  2
FDP_CARTOUCHE
 70
     0
 62
     4
  6
CONTINUOUS
  0
LAYER
  5
3A1
100
AcDbSymbolTableRecord
100
AcDbLayerTableRecord
  2
FDP_TEXTES
 70
     0
 62
     5
  6
CONTINUOUS
  0
LAYER
  5
3A2
100
AcDbSymbolTableRecord
100
AcDbLayerTableRecord
  2
FDP_LOGO_MG
 70
     0
 62
    30
  6
CONTINUOUS
  0
LAYER
  5
3A3
100
AcDbSymbolTableRecord
100
AcDbLayerTableRecord
  2
FDP_LOGO_SCH
 70
     0
 62
     3
  6
CONTINUOUS
  0
LAYER
  5
3A4
100
AcDbSymbolTableRecord
100
AcDbLayerTableRecord
  2
FDP_FDP
 70
     0
 62
     5
  6
CONTINUOUS
  0
LAYER
  5
3A5
100
AcDbSymbolTableRecord
100
AcDbLayerTableRecord
  2
COTATION2
 70
     0
 62
     2
  6
CONTINUOUS
  0
LAYER
  5
3A6
100
AcDbSymbolTableRecord
100
AcDbLayerTableRecord
  2
COTATION3
 70
     0
 62
     2
  6
CONTINUOUS
  0
LAYER
  5
3A7
100
AcDbSymbolTableRecord
100
AcDbLayerTableRecord
  2
COTATION4
 70
     0
 62
     2
  6
CONTINUOUS
  0
LAYER
  5
3A8
100
AcDbSymbolTableRecord
100
AcDbLayerTableRecord
  2
ASHADE
 70
     0
 62
     7
  6
CONTINUOUS
  0
LAYER
  5
3A9
100
AcDbSymbolTableRecord
100
AcDbLayerTableRecord
  2
POINTILLE_COURT
 70
     0
 62
    40
  6
CACHE2
  0
LAYER
  5
3AA
100
AcDbSymbolTableRecord
100
AcDbLayerTableRecord
  2
POINTILLE_MOYEN
 70
     0
 62
   140
  6
CACHE
  0
LAYER
  5
3AB
100
AcDbSymbolTableRecord
100
AcDbLayerTableRecord
  2
POINTILLE_LONG
 70
     0
 62
   240
  6
CACHEX2
  0
ENDTAB
  0
TABLE
  2
STYLE
  5
35A
100
AcDbSymbolTable
 70
     4
  0
STYLE
  5
366
100
AcDbSymbolTableRecord
100
AcDbTextStyleTableRecord
  2
STANDARD
 70
     0
 40
0.0
 41
1.0
 50
0.0
 71
     0
 42
3.5
  3
txt
  4

  0
STYLE
  5
379
100
AcDbSymbolTableRecord
100
AcDbTextStyleTableRecord
  2
ROMANS
 70
     0
 40
0.0
 41
1.0
 50
0.0
 71
     0
 42
2.9
  3
romans.shx
  4

  0
STYLE
  5
37A
100
AcDbSymbolTableRecord
100
AcDbTextStyleTableRecord
  2
INFOCAR
 70
     0
 40
0.0
 41
1.34
 50
0.0
 71
     0
 42
2.0
  3
ROMANS.SHX
  4

  0
STYLE
  5
37B
100
AcDbSymbolTableRecord
100
AcDbTextStyleTableRecord
  2
CARTOUCHE
 70
     0
 40
0.0
 41
1.0
 50
0.0
 71
     0
 42
0.2
  3
ROMANS.SHX
  4

  0
ENDTAB
  0
TABLE
  2
VIEW
  5
35D
100
AcDbSymbolTable
 70
     0
  0
ENDTAB
  0
TABLE
  2
UCS
  5
35E
100
AcDbSymbolTable
 70
     0
  0
ENDTAB
  0
TABLE
  2
APPID
  5
360
100
AcDbSymbolTable
 70
     3
  0
APPID
  5
367
100
AcDbSymbolTableRecord
100
AcDbRegAppTableRecord
  2
ACAD
 70
     0
  0
APPID
  5
394
100
AcDbSymbolTableRecord
100
AcDbRegAppTableRecord
  2
AVE_RENDER
 70
     0
  0
APPID
  5
395
100
AcDbSymbolTableRecord
100
AcDbRegAppTableRecord
  2
AVE_MATERIAL
 70
     0
  0
ENDTAB
  0
TABLE
  2
DIMSTYLE
  5
361
100
AcDbSymbolTable
 70
     2
  0
DIMSTYLE
105
396
100
AcDbSymbolTableRecord
100
AcDbDimStyleTableRecord
  2
STANDARD
 70
     0
  3

  4

  5

  6

  7

 40
1.0
 41
0.18
 42
0.0625
 43
0.38
 44
0.18
 45
0.0
 46
0.0
 47
0.0
 48
0.0
140
0.18
141
0.09
142
0.0
143
25.4
144
1.0
145
0.0
146
1.0
147
0.09
 71
     0
 72
     0
 73
     1
 74
     1
 75
     0
 76
     0
 77
     0
 78
     0
170
     0
171
     2
172
     0
173
     0
174
     0
175
     0
176
     0
177
     0
178
     0
270
     2
271
     4
272
     4
273
     2
274
     2
340
379
275
     0
280
     0
281
     0
282
     0
283
     1
284
    12
285
    12
286
    12
287
     5
288
     0
  0
DIMSTYLE
105
397
102
{ACAD_REACTORS
330
3
102
}
100
AcDbSymbolTableRecord
100
AcDbDimStyleTableRecord
  2
SC_STAND
 70
     0
  3

  4

  5

  6

  7

 40
1.0
 41
3.0
 42
0.0625
 43
0.38
 44
0.18
 45
0.01
 46
0.0
 47
0.0
 48
0.0
140
2.5
141
0.09
142
0.0
143
25.4
144
1.0
145
0.0
146
1.0
147
1.0
 71
     0
 72
     0
 73
     0
 74
     0
 75
     0
 76
     0
 77
     1
 78
    12
170
     0
171
     2
172
     1
173
     0
174
     0
175
     0
176
     0
177
     0
178
     0
270
     2
271
     4
272
     4
273
     2
274
     2
340
379
275
     0
280
     0
281
     0
282
     0
283
     1
284
    12
285
    12
286
    12
287
     5
288
     0
  0
ENDTAB
  0
TABLE
  2
BLOCK_RECORD
  5
358
100
AcDbSymbolTable
 70
     5
  0
BLOCK_RECORD
  5
36E
100
AcDbSymbolTableRecord
100
AcDbBlockTableRecord
  2
*MODEL_SPACE
  0
BLOCK_RECORD
  5
36B
100
AcDbSymbolTableRecord
100
AcDbBlockTableRecord
  2
*PAPER_SPACE
  0
BLOCK_RECORD
  5
373
100
AcDbSymbolTableRecord
100
AcDbBlockTableRecord
  2
AVE_RENDER
  0
BLOCK_RECORD
  5
374
100
AcDbSymbolTableRecord
100
AcDbBlockTableRecord
  2
AVE_GLOBAL
  0
BLOCK_RECORD
  5
375
100
AcDbSymbolTableRecord
100
AcDbBlockTableRecord
  2
SCH_ISO
  0
BLOCK_RECORD
  5
378
100
AcDbSymbolTableRecord
100
AcDbBlockTableRecord
  2
*D4
  0
ENDTAB
  0
ENDSEC
  0
SECTION
  2
BLOCKS
  0
BLOCK
  5
3AE
100
AcDbEntity
  8
0
100
AcDbBlockBegin
  2
*MODEL_SPACE
 70
     0
 10
0.0
 20
0.0
 30
0.0
  3
*MODEL_SPACE
  1

  0
ENDBLK
  5
3AF
100
AcDbEntity
  8
0
100
AcDbBlockEnd
  0
BLOCK
  5
3AC
100
AcDbEntity
 67
     1
  8
0
100
AcDbBlockBegin
  2
*PAPER_SPACE
 70
     0
 10
0.0
 20
0.0
 30
0.0
  3
*PAPER_SPACE
  1

  0
ENDBLK
  5
3AD
100
AcDbEntity
 67
     1
  8
0
100
AcDbBlockEnd
  0
BLOCK
  5
2E6
100
AcDbEntity
  8
0
100
AcDbBlockBegin
  2
AVE_RENDER
 70
     0
 10
0.0
 20
0.0
 30
0.0
  3
AVE_RENDER
  1
AVE_RENDER
  0
ENDBLK
  5
2E7
100
AcDbEntity
  8
0
100
AcDbBlockEnd
  0
BLOCK
  5
2E9
100
AcDbEntity
  8
0
100
AcDbBlockBegin
  2
AVE_GLOBAL
 70
     0
 10
0.0
 20
0.0
 30
0.0
  3
AVE_GLOBAL
  1
AVE_GLOBAL
  0
ENDBLK
  5
2EA
100
AcDbEntity
  8
0
100
AcDbBlockEnd
  0
BLOCK
  5
320
100
AcDbEntity
  8
0
100
AcDbBlockBegin
  2
SCH_ISO
 70
     0
 10
0.0
 20
0.0
 30
0.0
  3
SCH_ISO
  1

  0
INSERT
  5
317
100
AcDbEntity
  8
ASHADE
 62
     1
100
AcDbBlockReference
  2
AVE_RENDER
 10
0.0
 20
0.0
 30
0.0
1001
AVE_RENDER
1002
{
1070
     6
1000
Pref
1070
    50
1070
    20
1070
     1
1070
     0
1000

1070
    10
1070
     1
1070
    30
1040
25.4
1070
     1
1040
0.3
1040
0.7
1040
0.0
1040
10.0
1010
-1.0
1020
-1.0
1030
-1.0
1040
0.3
1070
    49
1070
     0
1070
     0
1010
1.0
1020
1.0
1030
1.0
1040
45.0
1070
     1
1070
     0
1000
WCS
1040
0.0
1002
}
  0
INSERT
  5
318
100
AcDbEntity
  8
ASHADE
 62
     3
100
AcDbBlockReference
  2
AVE_RENDER
 10
0.0
 20
0.0
 30
0.0
1001
AVE_RENDER
1002
{
1070
     0
1000
Full Opt
1070
     0
1070
     1
1070
     1
1070
     1
1070
     0
1070
     0
1070
     0
1070
     1
1070
     1
1040
0.0001
1040
0.0001
1002
}
  0
INSERT
  5
319
100
AcDbEntity
  8
ASHADE
 62
     4
100
AcDbBlockReference
  2
AVE_RENDER
 10
0.0
 20
0.0
 30
0.0
1001
AVE_RENDER
1002
{
1070
     0
1000
Quick Opt
1070
     0
1070
     1
1070
     1
1070
     1
1070
     0
1070
     0
1070
     1
1002
}
  0
INSERT
  5
31A
100
AcDbEntity
  8
ASHADE
 62
     5
100
AcDbBlockReference
  2
AVE_RENDER
 10
0.0
 20
0.0
 30
0.0
1001
AVE_RENDER
1002
{
1070
     1
1000
Scanl Opt
1070
     2
1070
     0
1070
     2
1040
2.0
1040
4.0
1070
     0
1070
     1
1070
     0
1040
0.03
1002
}
  0
INSERT
  5
31B
100
AcDbEntity
  8
ASHADE
 62
     6
100
AcDbBlockReference
  2
AVE_RENDER
 10
0.0
 20
0.0
 30
0.0
1001
AVE_RENDER
1002
{
1070
     2
1000
Raytr Opt
1070
     2
1070
     0
1070
     2
1040
2.0
1040
4.0
1070
     0
1070
     1
1070
     1
1040
0.03
1070
     3
1040
0.03
1002
}
  0
INSERT
  5
31C
100
AcDbEntity
  8
ASHADE
 62
     7
100
AcDbBlockReference
  2
AVE_RENDER
 10
0.0
 20
0.0
 30
0.0
1001
AVE_RENDER
1002
{
1070
     0
1000
RFile Opt
1070
     5
1070
   640
1070
   480
1070
 10000
1070
     3
1070
    32
1070
    24
1070
     0
1070
     0
1070
     0
1070
     1
1070
     0
1070
     0
1070
     0
1002
}
  0
INSERT
  5
31D
100
AcDbEntity
  8
ASHADE
 62
     8
100
AcDbBlockReference
  2
AVE_RENDER
 10
0.0
 20
0.0
 30
0.0
1001
AVE_RENDER
1002
{
1070
     0
1000
Fog Opt
1070
     0
1070
     0
1040
0.0
1040
1.0
1040
0.0
1040
1.0
1010
0.5
1020
0.5
1030
0.5
1002
}
  0
INSERT
  5
31E
100
AcDbEntity
  8
ASHADE
 62
     9
100
AcDbBlockReference
  2
AVE_RENDER
 10
0.0
 20
0.0
 30
0.0
1001
AVE_RENDER
1002
{
1070
     0
1000
BG Opt
1070
     0
1070
     1
1010
0.0
1020
0.0
1030
0.0
1010
1.0
1020
0.0
1030
0.0
1010
0.0
1020
1.0
1030
0.0
1010
0.0
1020
0.0
1030
1.0
1040
0.5
1040
0.33
1040
0.0
1000

1070
     1
1000

1070
     1
1070
     1
1040
1.0
1040
1.0
1040
0.0
1040
0.0
1070
     0
1002
}
  0
INSERT
  5
31F
100
AcDbEntity
  8
ASHADE
 62
     1
100
AcDbBlockReference
  2
AVE_GLOBAL
 10
0.0
 20
0.0
 30
0.0
1001
AVE_MATERIAL
1002
{
1000
*GLOBAL*
1000
1
1000
Finition globale.
1002
{
1002
}
1002
{
1070
    63
1002
{
1002
{
1010
-1.0
1020
-1.0
1030
-1.0
1002
}
1040
0.1
1000

1040
0.0
1002
{
1002
}
1040
0.0
1002
{
1002
}
1040
0.0
1002
}
1002
{
1002
{
1010
-1.0
1020
-1.0
1030
-1.0
1002
}
1040
0.7
1000

1040
0.0
1002
{
1002
}
1040
0.0
1002
{
1002
}
1040
0.0
1002
}
1002
{
1002
{
1010
-1.0
1020
-1.0
1030
-1.0
1002
}
1040
0.2
1000

1040
0.0
1002
{
1002
}
1040
0.0
1002
{
1002
}
1040
0.0
1002
}
1002
{
1070
     0
1002
{
1070
     1
1002
{
1040
1.0
1040
1.0
1000

1040
0.0
1002
{
1002
}
1040
0.0
1002
{
1002
}
1040
0.0
1002
}
1002
}
1040
1.0
1040
0.0
1040
0.0
1002
}
1002
{
1040
1.0
1040
1.0
1000

1040
0.0
1002
{
1002
}
1040
0.0
1002
{
1002
}
1040
0.0
1002
}
1002
{
1040
0.5
1040
1.0
1000

1040
0.0
1002
{
1002
}
1040
0.0
1002
{
1002
}
1040
0.0
1002
}
1002
{
1070
     0
1040
0.0
1002
{
1002
}
1040
1.0
1002
{
1002
}
1040
0.0
1002
}
1002
{
1040
0.0
1002
{
1002
{
1010
0.0
1020
0.0
1030
0.0
1002
}
1040
1.0
1000

1040
0.0
1002
{
1002
}
1040
0.0
1002
{
1002
}
1040
0.0
1002
}
1002
}
1002
{
1002
{
1070
     1
1002
{
1040
0.0
1040
1.0
1000

1040
0.0
1002
{
1002
}
1040
0.0
1002
{
1002
}
1040
0.0
1002
}
1002
}
1040
0.0
1002
{
1002
}
1010
1.0
1020
0.0
1030
0.0
1010
0.0
1020
1.0
1030
0.0
1010
0.0
1020
0.0
1030
1.0
1070
     0
1002
}
1002
{
1002
{
1040
1.0
1040
1.0
1002
{
1070
     1
1002
{
1040
1.0
1040
1.0
1000

1040
0.0
1002
{
1002
}
1040
0.0
1002
{
1002
}
1040
0.0
1002
}
1002
}
1002
}
1070
     0
1040
0.0
1002
{
1002
}
1002
}
1002
{
1002
}
1002
}
1002
{
1071
        3
1070
     3
1070
     0
1002
{
1070
     2
1070
     0
1070
     0
1040
0.0
1002
}
1070
     0
1070
     2
1002
{
1002
}
1002
}
1002
{
1040
8030.0
1040
190.300003
1040
0.305
1040
228.0
1040
545.0
1040
14.0
1040
17.4
1040
0.456
1002
}
1002
}
  0
ENDBLK
  5
321
100
AcDbEntity
  8
0
100
AcDbBlockEnd
  0
BLOCK
  5
34D
100
AcDbEntity
  8
0
100
AcDbBlockBegin
  2
*D4
 70
     1
 10
0.0
 20
0.0
 30
0.0
  3
*D4
  1
AVE_GLOBAL
  0
LINE
  5
34E
100
AcDbEntity
  8
0
  6
BYBLOCK
 62
     0
100
AcDbLine
 10
84.484884
 20
81.596868
 30
0.0
 11
84.484884
 21
57.72537
 31
0.0
  0
LINE
  5
34F
100
AcDbEntity
  8
0
  6
BYBLOCK
 62
     0
100
AcDbLine
 10
124.584884
 20
81.596868
 30
0.0
 11
124.584884
 21
57.72537
 31
0.0
  0
LINE
  5
350
100
AcDbEntity
  8
0
  6
BYBLOCK
 62
     0
100
AcDbLine
 10
87.484884
 20
57.90537
 30
0.0
 11
121.584884
 21
57.90537
 31
0.0
  0
SOLID
  5
351
100
AcDbEntity
  8
0
  6
BYBLOCK
 62
     0
100
AcDbTrace
 10
87.484884
 20
58.40537
 30
0.0
 11
87.484884
 21
57.40537
 31
0.0
 12
84.484884
 22
57.90537
 32
0.0
 13
84.484884
 23
57.90537
 33
0.0
  0
SOLID
  5
352
100
AcDbEntity
  8
0
  6
BYBLOCK
 62
     0
100
AcDbTrace
 10
121.584884
 20
58.40537
 30
0.0
 11
121.584884
 21
57.40537
 31
0.0
 12
124.584884
 22
57.90537
 32
0.0
 13
124.584884
 23
57.90537
 33
0.0
  0
TEXT
  5
353
100
AcDbEntity
  8
0
  6
BYBLOCK
 62
     0
100
AcDbText
 10
100.72536
 20
59.15537
 30
0.0
 40
2.5
  1
40.1
  7
ROMANS
 72
     1
 11
104.534884
 21
60.40537
 31
0.0
100
AcDbText
 73
     2
  0
POINT
  5
354
100
AcDbEntity
  8
DEFPOINTS
  6
BYBLOCK
 62
     0
100
AcDbPoint
 10
84.484884
 20
81.659368
 30
0.0
  0
POINT
  5
355
100
AcDbEntity
  8
DEFPOINTS
  6
BYBLOCK
 62
     0
100
AcDbPoint
 10
124.584884
 20
81.659368
 30
0.0
  0
POINT
  5
356
100
AcDbEntity
  8
DEFPOINTS
  6
BYBLOCK
 62
     0
100
AcDbPoint
 10
124.584884
 20
57.90537
 30
0.0
  0
ENDBLK
  5
357
100
AcDbEntity
  8
0
100
AcDbBlockEnd
  0
ENDSEC
  0
SECTION
  2
ENTITIES
  0
DIMENSION
  5
3
100
AcDbEntity
  8
COTATION1
100
AcDbDimension
  2
*D4
 10
124.584884
 20
57.90537
 30
0.0
 11
104.534884
 21
60.40537
 31
0.0
  3
SC_STAND
100
AcDbAlignedDimension
 13
84.484884
 23
81.659368
 33
0.0
 14
124.584884
 24
81.659368
 34
0.0
100
AcDbRotatedDimension
  0
ARC
  5
18
100
AcDbEntity
  8
ALPHA
100
AcDbCircle
 10
113.034884
 20
81.659368
 30
0.0
 40
1.0
100
AcDbArc
 50
270.0
 51
0.0
  0
ARC
  5
1A
100
AcDbEntity
  8
ALPHA
100
AcDbCircle
 10
96.034884
 20
81.659368
 30
0.0
 40
1.0
100
AcDbArc
 50
180.0
 51
270.0
  0
ARC
  5
1B
100
AcDbEntity
  8
ALPHA
100
AcDbCircle
 10
96.034884
 20
155.159368
 30
0.0
 40
1.0
100
AcDbArc
 50
90.0
 51
180.0
  0
ARC
  5
1C
100
AcDbEntity
  8
ALPHA
100
AcDbCircle
 10
113.034884
 20
155.159368
 30
0.0
 40
1.0
100
AcDbArc
 50
0.0
 51
90.0
  0
ARC
  5
1D
100
AcDbEntity
  8
ALPHA
100
AcDbCircle
 10
119.534884
 20
91.159368
 30
0.0
 40
5.0
100
AcDbArc
 50
133.902818
 51
180.0
  0
ARC
  5
1E
100
AcDbEntity
  8
ALPHA
100
AcDbCircle
 10
119.534884
 20
149.159368
 30
0.0
 40
5.0
100
AcDbArc
 50
180.0
 51
270.0
  0
ARC
  5
1F
100
AcDbEntity
  8
ALPHA
100
AcDbCircle
 10
89.534884
 20
149.159368
 30
0.0
 40
5.0
100
AcDbArc
 50
270.0
 51
278.312346
  0
ARC
  5
20
100
AcDbEntity
  8
ALPHA
100
AcDbCircle
 10
85.984884
 20
160.159368
 30
0.0
 40
1.5
100
AcDbArc
 50
90.0
 51
180.0
  0
ARC
  5
21
100
AcDbEntity
  8
ALPHA
100
AcDbCircle
 10
85.984884
 20
81.659368
 30
0.0
 40
1.5
100
AcDbArc
 50
180.0
 51
270.0
  0
ARC
  5
22
100
AcDbEntity
  8
ALPHA
100
AcDbCircle
 10
123.084884
 20
81.659368
 30
0.0
 40
1.5
100
AcDbArc
 50
270.0
 51
0.0
  0
ARC
  5
23
100
AcDbEntity
  8
ALPHA
100
AcDbCircle
 10
123.084884
 20
160.159368
 30
0.0
 40
1.5
100
AcDbArc
 50
0.0
 51
90.0
  0
ARC
  5
24
100
AcDbEntity
  8
ALPHA
100
AcDbCircle
 10
113.034884
 20
81.659368
 30
0.0
 40
1.5
100
AcDbArc
 50
270.0
 51
0.0
  0
ARC
  5
25
100
AcDbEntity
  8
ALPHA
100
AcDbCircle
 10
96.034884
 20
81.659368
 30
0.0
 40
1.5
100
AcDbArc
 50
180.0
 51
270.0
  0
ARC
  5
26
100
AcDbEntity
  8
ALPHA
100
AcDbCircle
 10
96.034884
 20
155.159368
 30
0.0
 40
1.5
100
AcDbArc
 50
90.0
 51
180.0
  0
ARC
  5
27
100
AcDbEntity
  8
ALPHA
100
AcDbCircle
 10
113.034884
 20
155.159368
 30
0.0
 40
1.5
100
AcDbArc
 50
0.0
 51
90.0
  0
ARC
  5
28
100
AcDbEntity
  8
ALPHA
100
AcDbCircle
 10
111.309884
 20
82.659368
 30
0.0
 40
0.5
100
AcDbArc
 50
90.0
 51
97.577347
  0
ARC
  5
29
100
AcDbEntity
  8
ALPHA
100
AcDbCircle
 10
112.309884
 20
150.159368
 30
0.0
 40
0.5
100
AcDbArc
 50
180.0
 51
270.0
  0
ARC
  5
2A
100
AcDbEntity
  8
ALPHA
100
AcDbCircle
 10
96.759884
 20
150.159368
 30
0.0
 40
0.5
100
AcDbArc
 50
270.0
 51
312.790435
  0
ARC
  5
2B
100
AcDbEntity
  8
ALPHA
100
AcDbCircle
 10
111.309884
 20
155.359368
 30
0.0
 40
0.5
100
AcDbArc
 50
0.0
 51
90.0
  0
ARC
  5
2C
100
AcDbEntity
  8
ALPHA
100
AcDbCircle
 10
119.534884
 20
90.159368
 30
0.0
 40
3.65
100
AcDbArc
 50
223.445618
 51
316.554382
  0
ARC
  5
2D
100
AcDbEntity
  8
ALPHA
100
AcDbCircle
 10
119.534884
 20
90.159368
 30
0.0
 40
3.65
100
AcDbArc
 50
43.445618
 51
136.554382
  0
ARC
  5
2E
100
AcDbEntity
  8
ALPHA
100
AcDbCircle
 10
89.534884
 20
150.159368
 30
0.0
 40
3.65
100
AcDbArc
 50
223.445618
 51
316.554382
  0
ARC
  5
2F
100
AcDbEntity
  8
ALPHA
100
AcDbCircle
 10
89.534884
 20
150.159368
 30
0.0
 40
3.65
100
AcDbArc
 50
43.445618
 51
136.554382
  0
CIRCLE
  5
30
100
AcDbEntity
  8
ALPHA
100
AcDbCircle
 10
119.534884
 20
150.159368
 30
0.0
 40
2.65
  0
CIRCLE
  5
31
100
AcDbEntity
  8
ALPHA
100
AcDbCircle
 10
89.534884
 20
90.159368
 30
0.0
 40
2.65
  0
ARC
  5
32
100
AcDbEntity
  8
ALPHA
100
AcDbCircle
 10
124.084884
 20
96.659368
 30
0.0
 40
0.5
100
AcDbArc
 50
270.0
 51
0.0
  0
ARC
  5
33
100
AcDbEntity
  8
ALPHA
100
AcDbCircle
 10
84.984884
 20
143.659368
 30
0.0
 40
0.5
100
AcDbArc
 50
90.0
 51
114.934328
  0
ARC
  5
34
100
AcDbEntity
  8
ALPHA
100
AcDbCircle
 10
124.084884
 20
143.659368
 30
0.0
 40
0.5
100
AcDbArc
 50
0.0
 51
90.0
  0
ARC
  5
35
100
AcDbEntity
  8
ALPHA
100
AcDbCircle
 10
122.472207
 20
97.809368
 30
0.0
 40
1.0
100
AcDbArc
 50
270.0
 51
0.0
  0
ARC
  5
36
100
AcDbEntity
  8
ALPHA
100
AcDbCircle
 10
122.472207
 20
142.409368
 30
0.0
 40
1.0
100
AcDbArc
 50
0.0
 51
90.0
  0
ARC
  5
37
100
AcDbEntity
  8
ALPHA
100
AcDbCircle
 10
89.172207
 20
91.109368
 30
0.0
 40
5.5
100
AcDbArc
 50
0.0
 51
90.0
  0
ARC
  5
38
100
AcDbEntity
  8
ALPHA
100
AcDbCircle
 10
104.172207
 20
84.509368
 30
0.0
 40
5.5
100
AcDbArc
 50
0.0
 51
180.0
  0
ARC
  5
39
100
AcDbEntity
  8
ALPHA
100
AcDbCircle
 10
85.872207
 20
97.809368
 30
0.0
 40
1.0
100
AcDbArc
 50
180.0
 51
270.0
  0
ARC
  5
3A
100
AcDbEntity
  8
ALPHA
100
AcDbCircle
 10
85.872207
 20
142.409368
 30
0.0
 40
1.0
100
AcDbArc
 50
90.0
 51
180.0
  0
ARC
  5
3B
100
AcDbEntity
  8
ALPHA
100
AcDbCircle
 10
89.172207
 20
149.109368
 30
0.0
 40
5.5
100
AcDbArc
 50
270.0
 51
354.784091
  0
ARC
  5
3C
100
AcDbEntity
  8
ALPHA
100
AcDbCircle
 10
104.172207
 20
150.509368
 30
0.0
 40
5.5
100
AcDbArc
 50
180.0
 51
0.0
  0
ARC
  5
3D
100
AcDbEntity
  8
ALPHA
100
AcDbCircle
 10
111.747207
 20
96.809368
 30
0.0
 40
1.0
100
AcDbArc
 50
90.0
 51
180.0
  0
ARC
  5
3E
100
AcDbEntity
  8
ALPHA
100
AcDbCircle
 10
111.747207
 20
143.409368
 30
0.0
 40
1.0
100
AcDbArc
 50
180.0
 51
270.0
  0
ARC
  5
3F
100
AcDbEntity
  8
ALPHA
100
AcDbCircle
 10
119.172207
 20
91.109368
 30
0.0
 40
5.5
100
AcDbArc
 50
90.0
 51
180.0
  0
ARC
  5
40
100
AcDbEntity
  8
ALPHA
100
AcDbCircle
 10
96.597207
 20
96.809368
 30
0.0
 40
1.0
100
AcDbArc
 50
0.0
 51
90.0
  0
ARC
  5
41
100
AcDbEntity
  8
ALPHA
100
AcDbCircle
 10
119.172207
 20
149.109368
 30
0.0
 40
5.5
100
AcDbArc
 50
185.215909
 51
270.0
  0
ARC
  5
42
100
AcDbEntity
  8
ALPHA
100
AcDbCircle
 10
96.597207
 20
143.409368
 30
0.0
 40
1.0
100
AcDbArc
 50
270.0
 51
0.0
  0
ARC
  5
43
100
AcDbEntity
  8
ALPHA
100
AcDbCircle
 10
107.422207
 20
94.209368
 30
0.0
 40
1.75
100
AcDbArc
 50
192.373625
 51
278.213211
  0
ARC
  5
44
100
AcDbEntity
  8
ALPHA
100
AcDbCircle
 10
107.422207
 20
94.209368
 30
0.0
 40
1.75
100
AcDbArc
 50
81.786789
 51
167.626375
  0
ARC
  5
45
100
AcDbEntity
  8
ALPHA
100
AcDbCircle
 10
107.422207
 20
94.209368
 30
0.0
 40
2.5
100
AcDbArc
 50
84.26083
 51
275.73917
  0
ARC
  5
46
100
AcDbEntity
  8
ALPHA
100
AcDbCircle
 10
103.172207
 20
94.209368
 30
0.0
 40
2.5
100
AcDbArc
 50
84.26083
 51
275.73917
  0
ARC
  5
47
100
AcDbEntity
  8
ALPHA
100
AcDbCircle
 10
103.172207
 20
94.209368
 30
0.0
 40
1.75
100
AcDbArc
 50
81.786789
 51
278.213211
  0
ARC
  5
48
100
AcDbEntity
  8
ALPHA
100
AcDbCircle
 10
85.872207
 20
97.809368
 30
0.0
 40
0.5
100
AcDbArc
 50
180.0
 51
270.0
  0
ARC
  5
49
100
AcDbEntity
  8
ALPHA
100
AcDbCircle
 10
85.872207
 20
142.409368
 30
0.0
 40
0.5
100
AcDbArc
 50
90.0
 51
180.0
  0
ARC
  5
4A
100
AcDbEntity
  8
ALPHA
100
AcDbCircle
 10
111.747207
 20
96.809368
 30
0.0
 40
0.5
100
AcDbArc
 50
90.0
 51
180.0
  0
ARC
  5
4B
100
AcDbEntity
  8
ALPHA
100
AcDbCircle
 10
122.472207
 20
97.809368
 30
0.0
 40
0.5
100
AcDbArc
 50
270.0
 51
0.0
  0
ARC
  5
4C
100
AcDbEntity
  8
ALPHA
100
AcDbCircle
 10
122.472207
 20
142.409368
 30
0.0
 40
0.5
100
AcDbArc
 50
0.0
 51
90.0
  0
ARC
  5
4D
100
AcDbEntity
  8
ALPHA
100
AcDbCircle
 10
111.747207
 20
143.409368
 30
0.0
 40
0.5
100
AcDbArc
 50
180.0
 51
270.0
  0
ARC
  5
4E
100
AcDbEntity
  8
ALPHA
100
AcDbCircle
 10
96.597207
 20
96.809368
 30
0.0
 40
0.5
100
AcDbArc
 50
0.0
 51
90.0
  0
ARC
  5
4F
100
AcDbEntity
  8
ALPHA
100
AcDbCircle
 10
96.597207
 20
143.409368
 30
0.0
 40
0.5
100
AcDbArc
 50
270.0
 51
0.0
  0
ARC
  5
50
100
AcDbEntity
  8
ALPHA
100
AcDbCircle
 10
104.172207
 20
84.509368
 30
0.0
 40
5.0
100
AcDbArc
 50
0.0
 51
180.0
  0
ARC
  5
51
100
AcDbEntity
  8
ALPHA
100
AcDbCircle
 10
104.172207
 20
150.509368
 30
0.0
 40
5.0
100
AcDbArc
 50
180.0
 51
0.0
  0
ARC
  5
52
100
AcDbEntity
  8
ALPHA
100
AcDbCircle
 10
113.672207
 20
84.009368
 30
0.0
 40
0.5
100
AcDbArc
 50
270.0
 51
0.0
  0
ARC
  5
53
100
AcDbEntity
  8
ALPHA
100
AcDbCircle
 10
119.172207
 20
91.109368
 30
0.0
 40
5.0
100
AcDbArc
 50
90.0
 51
180.0
  0
ARC
  5
54
100
AcDbEntity
  8
ALPHA
100
AcDbCircle
 10
123.672207
 20
96.609368
 30
0.0
 40
0.5
100
AcDbArc
 50
270.0
 51
0.0
  0
ARC
  5
55
100
AcDbEntity
  8
ALPHA
100
AcDbCircle
 10
123.672207
 20
143.609368
 30
0.0
 40
0.5
100
AcDbArc
 50
0.0
 51
90.0
  0
ARC
  5
56
100
AcDbEntity
  8
ALPHA
100
AcDbCircle
 10
119.172207
 20
149.109368
 30
0.0
 40
5.0
100
AcDbArc
 50
185.215909
 51
270.0
  0
ARC
  5
57
100
AcDbEntity
  8
ALPHA
100
AcDbCircle
 10
113.694982
 20
148.609368
 30
0.0
 40
0.5
100
AcDbArc
 50
5.215909
 51
90.0
  0
ARC
  5
58
100
AcDbEntity
  8
ALPHA
100
AcDbCircle
 10
94.672207
 20
84.009368
 30
0.0
 40
0.5
100
AcDbArc
 50
180.0
 51
270.0
  0
ARC
  5
59
100
AcDbEntity
  8
ALPHA
100
AcDbCircle
 10
89.172207
 20
91.109368
 30
0.0
 40
5.0
100
AcDbArc
 50
0.0
 51
90.0
  0
ARC
  5
5A
100
AcDbEntity
  8
ALPHA
100
AcDbCircle
 10
84.672207
 20
96.609368
 30
0.0
 40
0.5
100
AcDbArc
 50
180.0
 51
270.0
  0
ARC
  5
5B
100
AcDbEntity
  8
ALPHA
100
AcDbCircle
 10
84.672207
 20
143.609368
 30
0.0
 40
0.5
100
AcDbArc
 50
90.0
 51
180.0
  0
ARC
  5
5C
100
AcDbEntity
  8
ALPHA
100
AcDbCircle
 10
89.172207
 20
149.109368
 30
0.0
 40
5.0
100
AcDbArc
 50
270.0
 51
354.784091
  0
ARC
  5
5D
100
AcDbEntity
  8
ALPHA
100
AcDbCircle
 10
94.649433
 20
148.609368
 30
0.0
 40
0.5
100
AcDbArc
 50
90.0
 51
174.784091
  0
ARC
  5
5E
100
AcDbEntity
  8
ALPHA
100
AcDbCircle
 10
85.247207
 20
96.884368
 30
0.0
 40
1.075
100
AcDbArc
 50
222.788308
 51
270.0
  0
ARC
  5
5F
100
AcDbEntity
  8
ALPHA
100
AcDbCircle
 10
89.172207
 20
90.809368
 30
0.0
 40
5.0
100
AcDbArc
 50
0.0
 51
90.0
  0
ARC
  5
60
100
AcDbEntity
  8
ALPHA
100
AcDbCircle
 10
119.172207
 20
90.809368
 30
0.0
 40
5.0
100
AcDbArc
 50
90.0
 51
180.0
  0
ARC
  5
61
100
AcDbEntity
  8
ALPHA
100
AcDbCircle
 10
123.097207
 20
96.884368
 30
0.0
 40
1.075
100
AcDbArc
 50
270.0
 51
317.211692
  0
CIRCLE
  5
62
100
AcDbEntity
  8
ALPHA
100
AcDbCircle
 10
99.172207
 20
126.109368
 30
0.0
 40
2.0
  0
ARC
  5
63
100
AcDbEntity
  8
ALPHA
100
AcDbCircle
 10
104.534884
 20
253.209368
 30
0.0
 40
2.65
100
AcDbArc
 50
180.0
 51
0.0
  0
ARC
  5
64
100
AcDbEntity
  8
ALPHA
100
AcDbCircle
 10
104.534884
 20
258.209368
 30
0.0
 40
2.65
100
AcDbArc
 50
0.0
 51
180.0
  0
ARC
  5
65
100
AcDbEntity
  8
ALPHA
100
AcDbCircle
 10
104.534884
 20
273.209368
 30
0.0
 40
2.65
100
AcDbArc
 50
180.0
 51
0.0
  0
ARC
  5
66
100
AcDbEntity
  8
ALPHA
100
AcDbCircle
 10
104.534884
 20
278.209368
 30
0.0
 40
2.65
100
AcDbArc
 50
0.0
 51
180.0
  0
ARC
  5
67
100
AcDbEntity
  8
ALPHA
100
AcDbCircle
 10
94.034884
 20
207.859368
 30
0.0
 40
2.0
100
AcDbArc
 50
180.0
 51
270.0
  0
ARC
  5
68
100
AcDbEntity
  8
ALPHA
100
AcDbCircle
 10
115.034884
 20
207.859368
 30
0.0
 40
2.0
100
AcDbArc
 50
270.0
 51
0.0
  0
ARC
  5
69
100
AcDbEntity
  8
ALPHA
100
AcDbCircle
 10
93.034884
 20
237.959368
 30
0.0
 40
1.0
100
AcDbArc
 50
90.0
 51
180.0
  0
ARC
  5
6A
100
AcDbEntity
  8
ALPHA
100
AcDbCircle
 10
96.034884
 20
239.959368
 30
0.0
 40
1.0
100
AcDbArc
 50
270.0
 51
0.0
  0
ARC
  5
6B
100
AcDbEntity
  8
ALPHA
100
AcDbCircle
 10
113.034884
 20
239.959368
 30
0.0
 40
1.0
100
AcDbArc
 50
180.0
 51
270.0
  0
ARC
  5
6C
100
AcDbEntity
  8
ALPHA
100
AcDbCircle
 10
116.034884
 20
237.959368
 30
0.0
 40
1.0
100
AcDbArc
 50
0.0
 51
90.0
  0
ARC
  5
6D
100
AcDbEntity
  8
ALPHA
100
AcDbCircle
 10
111.034884
 20
286.359368
 30
0.0
 40
1.0
100
AcDbArc
 50
0.0
 51
90.0
  0
ARC
  5
6E
100
AcDbEntity
  8
ALPHA
100
AcDbCircle
 10
98.034884
 20
286.359368
 30
0.0
 40
1.0
100
AcDbArc
 50
90.0
 51
180.0
  0
ARC
  5
6F
100
AcDbEntity
  8
ALPHA
100
AcDbCircle
 10
120.534884
 20
192.859368
 30
0.0
 40
0.5
100
AcDbArc
 50
0.0
 51
90.0
  0
ARC
  5
70
100
AcDbEntity
  8
ALPHA
100
AcDbCircle
 10
88.534884
 20
192.859368
 30
0.0
 40
0.5
100
AcDbArc
 50
90.0
 51
180.0
  0
ARC
  5
71
100
AcDbEntity
  8
ALPHA
100
AcDbCircle
 10
116.334884
 20
79.959368
 30
0.0
 40
0.2
100
AcDbArc
 50
0.0
 51
90.0
  0
ARC
  5
72
100
AcDbEntity
  8
ALPHA
100
AcDbCircle
 10
92.734884
 20
79.959368
 30
0.0
 40
0.2
100
AcDbArc
 50
90.0
 51
180.0
  0
ARC
  5
73
100
AcDbEntity
  8
ALPHA
100
AcDbCircle
 10
104.172207
 20
150.509368
 30
0.0
 40
3.1
100
AcDbArc
 50
11.159937
 51
78.840063
  0
ARC
  5
74
100
AcDbEntity
  8
ALPHA
100
AcDbCircle
 10
104.172207
 20
150.509368
 30
0.0
 40
3.1
100
AcDbArc
 50
281.159937
 51
348.840063
  0
ARC
  5
75
100
AcDbEntity
  8
ALPHA
100
AcDbCircle
 10
104.172207
 20
150.509368
 30
0.0
 40
3.1
100
AcDbArc
 50
101.159937
 51
168.840063
  0
ARC
  5
76
100
AcDbEntity
  8
ALPHA
100
AcDbCircle
 10
104.172207
 20
150.509368
 30
0.0
 40
3.1
100
AcDbArc
 50
191.159937
 51
258.840063
  0
CIRCLE
  5
77
100
AcDbEntity
  8
ALPHA
100
AcDbCircle
 10
104.172207
 20
150.509368
 30
0.0
 40
1.0
  0
CIRCLE
  5
78
100
AcDbEntity
  8
ALPHA
100
AcDbCircle
 10
104.172207
 20
150.509368
 30
0.0
 40
3.6
  0
CIRCLE
  5
79
100
AcDbEntity
  8
ALPHA
100
AcDbCircle
 10
104.172207
 20
84.509368
 30
0.0
 40
2.295
  0
CIRCLE
  5
7A
100
AcDbEntity
  8
ALPHA
100
AcDbCircle
 10
104.172207
 20
84.509368
 30
0.0
 40
2.695
  0
LINE
  5
7B
100
AcDbEntity
  8
ALPHA
100
AcDbLine
 10
111.034884
 20
287.359368
 30
0.0
 11
98.034884
 21
287.359368
 31
0.0
  0
LINE
  5
7C
100
AcDbEntity
  8
ALPHA
100
AcDbLine
 10
93.034884
 20
238.959368
 30
0.0
 11
96.034884
 21
238.959368
 31
0.0
  0
LINE
  5
7D
100
AcDbEntity
  8
ALPHA
100
AcDbLine
 10
116.034884
 20
238.959368
 30
0.0
 11
113.034884
 21
238.959368
 31
0.0
  0
LINE
  5
7E
100
AcDbEntity
  8
ALPHA
100
AcDbLine
 10
113.034884
 20
233.759368
 30
0.0
 11
96.034884
 21
233.759368
 31
0.0
  0
LINE
  5
7F
100
AcDbEntity
  8
ALPHA
100
AcDbLine
 10
96.034884
 20
213.759368
 30
0.0
 11
113.034884
 21
213.759368
 31
0.0
  0
LINE
  5
80
100
AcDbEntity
  8
ALPHA
100
AcDbLine
 10
110.534884
 20
211.059368
 30
0.0
 11
98.534884
 21
211.059368
 31
0.0
  0
LINE
  5
81
100
AcDbEntity
  8
ALPHA
100
AcDbLine
 10
98.534884
 20
207.359368
 30
0.0
 11
96.534884
 21
207.359368
 31
0.0
  0
LINE
  5
82
100
AcDbEntity
  8
ALPHA
100
AcDbLine
 10
112.534884
 20
207.359368
 30
0.0
 11
110.534884
 21
207.359368
 31
0.0
  0
LINE
  5
83
100
AcDbEntity
  8
ALPHA
100
AcDbLine
 10
95.034884
 20
205.859368
 30
0.0
 11
94.034884
 21
205.859368
 31
0.0
  0
LINE
  5
84
100
AcDbEntity
  8
ALPHA
100
AcDbLine
 10
115.034884
 20
205.859368
 30
0.0
 11
114.034884
 21
205.859368
 31
0.0
  0
LINE
  5
85
100
AcDbEntity
  8
ALPHA
100
AcDbLine
 10
114.034884
 20
205.859368
 30
0.0
 11
112.534884
 21
207.359368
 31
0.0
  0
LWPOLYLINE
  5
86
100
AcDbEntity
  8
ALPHA
100
AcDbPolyline
 90
        4
 70
     0
 43
0.0
 10
117.712396
 20
185.151013
 10
117.561371
 20
185.207538
 10
117.418643
 20
185.256083
 10
117.286646
 20
185.296156
  0
LINE
  5
8C
100
AcDbEntity
  8
ALPHA
100
AcDbLine
 10
88.534884
 20
193.359368
 30
0.0
 11
120.534884
 21
193.359368
 31
0.0
  0
LINE
  5
8D
100
AcDbEntity
  8
ALPHA
100
AcDbLine
 10
88.034884
 20
192.859368
 30
0.0
 11
121.034884
 21
192.859368
 31
0.0
  0
LINE
  5
8E
100
AcDbEntity
  8
ALPHA
100
AcDbLine
 10
89.722839
 20
191.951758
 30
0.0
 11
119.346929
 21
191.951758
 31
0.0
  0
LINE
  5
8F
100
AcDbEntity
  8
ALPHA
100
AcDbLine
 10
89.722839
 20
191.66497
 30
0.0
 11
119.346929
 21
191.66497
 31
0.0
  0
LINE
  5
90
100
AcDbEntity
  8
ALPHA
100
AcDbLine
 10
119.588437
 20
191.218164
 30
0.0
 11
119.941991
 21
191.218164
 31
0.0
  0
LINE
  5
91
100
AcDbEntity
  8
ALPHA
100
AcDbLine
 10
89.481331
 20
191.218164
 30
0.0
 11
89.127777
 21
191.218164
 31
0.0
  0
LINE
  5
92
100
AcDbEntity
  8
ALPHA
100
AcDbLine
 10
91.783122
 20
188.72258
 30
0.0
 11
117.286646
 21
188.72258
 31
0.0
  0
LINE
  5
93
100
AcDbEntity
  8
ALPHA
100
AcDbLine
 10
91.634884
 20
188.509368
 30
0.0
 11
117.434884
 21
188.509368
 31
0.0
  0
LINE
  5
94
100
AcDbEntity
  8
ALPHA
100
AcDbLine
 10
91.488437
 20
188.351719
 30
0.0
 11
91.634884
 21
188.351719
 31
0.0
  0
LINE
  5
95
100
AcDbEntity
  8
ALPHA
100
AcDbLine
 10
117.581331
 20
188.351719
 30
0.0
 11
117.434884
 21
188.351719
 31
0.0
  0
LINE
  5
96
100
AcDbEntity
  8
ALPHA
100
AcDbLine
 10
107.784884
 20
188.299368
 30
0.0
 11
108.134884
 21
188.299368
 31
0.0
  0
LINE
  5
97
100
AcDbEntity
  8
ALPHA
100
AcDbLine
 10
101.284884
 20
188.299368
 30
0.0
 11
100.934884
 21
188.299368
 31
0.0
  0
LINE
  5
98
100
AcDbEntity
  8
ALPHA
100
AcDbLine
 10
100.934884
 20
187.370563
 30
0.0
 11
98.934884
 21
187.370563
 31
0.0
  0
LINE
  5
99
100
AcDbEntity
  8
ALPHA
100
AcDbLine
 10
110.134884
 20
187.370563
 30
0.0
 11
108.134884
 21
187.370563
 31
0.0
  0
LINE
  5
9A
100
AcDbEntity
  8
ALPHA
100
AcDbLine
 10
98.434884
 20
187.194664
 30
0.0
 11
96.434884
 21
187.194664
 31
0.0
  0
LINE
  5
9B
100
AcDbEntity
  8
ALPHA
100
AcDbLine
 10
112.634884
 20
187.194664
 30
0.0
 11
110.634884
 21
187.194664
 31
0.0
  0
LINE
  5
9C
100
AcDbEntity
  8
ALPHA
100
AcDbLine
 10
100.934884
 20
186.933259
 30
0.0
 11
98.934884
 21
186.933259
 31
0.0
  0
LINE
  5
9D
100
AcDbEntity
  8
ALPHA
100
AcDbLine
 10
110.134884
 20
186.933259
 30
0.0
 11
108.134884
 21
186.933259
 31
0.0
  0
LINE
  5
9E
100
AcDbEntity
  8
ALPHA
100
AcDbLine
 10
98.434884
 20
186.757361
 30
0.0
 11
96.434884
 21
186.757361
 31
0.0
  0
LINE
  5
9F
100
AcDbEntity
  8
ALPHA
100
AcDbLine
 10
112.634884
 20
186.757361
 30
0.0
 11
110.634884
 21
186.757361
 31
0.0
  0
LWPOLYLINE
  5
A0
100
AcDbEntity
  8
ALPHA
100
AcDbPolyline
 90
       10
 70
     0
 43
0.0
 10
119.588437
 20
182.800572
 10
119.602733
 20
182.732042
 10
119.614018
 20
182.652621
 10
119.617644
 20
182.568545
 10
119.608848
 20
182.488139
 10
119.584421
 20
182.420574
 10
119.544684
 20
182.372865
 10
119.492731
 20
182.346601
 10
119.427823
 20
182.339816
 10
119.346929
 20
182.353767
  0
LWPOLYLINE
  5
AC
100
AcDbEntity
  8
ALPHA
100
AcDbPolyline
 90
        4
 70
     0
 43
0.0
 10
117.581331
 20
185.667018
 10
117.620264
 20
185.506229
 10
117.664117
 20
185.333737
 10
117.712396
 20
185.151013
  0
LINE
  5
B2
100
AcDbEntity
  8
ALPHA
100
AcDbLine
 10
119.588437
 20
182.800572
 30
0.0
 11
117.581331
 21
185.667018
 31
0.0
  0
LINE
  5
B3
100
AcDbEntity
  8
ALPHA
100
AcDbLine
 10
119.346929
 20
182.353767
 30
0.0
 11
117.286646
 21
185.296156
 31
0.0
  0
LWPOLYLINE
  5
B4
100
AcDbEntity
  8
ALPHA
100
AcDbPolyline
 90
        6
 70
     0
 43
0.0
 10
117.712396
 20
185.151013
 10
117.619583
 20
185.262653
 10
117.542739
 20
185.357288
 10
117.484066
 20
185.431774
 10
117.447143
 20
185.482441
 10
117.434898
 20
185.50668
  0
LWPOLYLINE
  5
BC
100
AcDbEntity
  8
ALPHA
100
AcDbPolyline
 90
        4
 70
     0
 43
0.0
 10
91.357372
 20
188.867724
 10
91.508397
 20
188.811198
 10
91.651124
 20
188.762654
 10
91.783122
 20
188.72258
  0
LINE
  5
C2
100
AcDbEntity
  8
ALPHA
100
AcDbLine
 10
107.784884
 20
186.299368
 30
0.0
 11
108.134884
 21
186.299368
 31
0.0
  0
LINE
  5
C3
100
AcDbEntity
  8
ALPHA
100
AcDbLine
 10
101.284884
 20
186.299368
 30
0.0
 11
100.934884
 21
186.299368
 31
0.0
  0
LINE
  5
C4
100
AcDbEntity
  8
ALPHA
100
AcDbLine
 10
91.488437
 20
185.667018
 30
0.0
 11
91.634884
 21
185.667018
 31
0.0
  0
LINE
  5
C5
100
AcDbEntity
  8
ALPHA
100
AcDbLine
 10
117.581331
 20
185.667018
 30
0.0
 11
117.434884
 21
185.667018
 31
0.0
  0
LINE
  5
C6
100
AcDbEntity
  8
ALPHA
100
AcDbLine
 10
117.434884
 20
185.509368
 30
0.0
 11
91.634884
 21
185.509368
 31
0.0
  0
LINE
  5
C7
100
AcDbEntity
  8
ALPHA
100
AcDbLine
 10
117.286646
 20
185.296156
 30
0.0
 11
91.783122
 21
185.296156
 31
0.0
  0
LINE
  5
C8
100
AcDbEntity
  8
ALPHA
100
AcDbLine
 10
119.588437
 20
182.800572
 30
0.0
 11
119.941991
 21
182.800572
 31
0.0
  0
LINE
  5
C9
100
AcDbEntity
  8
ALPHA
100
AcDbLine
 10
89.481331
 20
182.800572
 30
0.0
 11
89.127777
 21
182.800572
 31
0.0
  0
LINE
  5
CA
100
AcDbEntity
  8
ALPHA
100
AcDbLine
 10
119.346929
 20
182.353767
 30
0.0
 11
89.722839
 21
182.353767
 31
0.0
  0
LINE
  5
CB
100
AcDbEntity
  8
ALPHA
100
AcDbLine
 10
119.346929
 20
182.066978
 30
0.0
 11
89.722839
 21
182.066978
 31
0.0
  0
LINE
  5
CC
100
AcDbEntity
  8
ALPHA
100
AcDbLine
 10
88.034884
 20
180.259368
 30
0.0
 11
121.034884
 21
180.259368
 31
0.0
  0
LINE
  5
CD
100
AcDbEntity
  8
ALPHA
100
AcDbLine
 10
121.034884
 20
180.209368
 30
0.0
 11
88.034884
 21
180.209368
 31
0.0
  0
LINE
  5
CE
100
AcDbEntity
  8
ALPHA
100
AcDbLine
 10
124.584884
 20
81.659368
 30
0.0
 11
124.584884
 21
160.159368
 31
0.0
  0
LINE
  5
CF
100
AcDbEntity
  8
ALPHA
100
AcDbLine
 10
124.172207
 20
143.609368
 30
0.0
 11
124.172207
 21
96.609368
 31
0.0
  0
LINE
  5
D0
100
AcDbEntity
  8
ALPHA
100
AcDbLine
 10
123.672207
 20
96.109368
 30
0.0
 11
123.672207
 21
144.109368
 31
0.0
  0
LINE
  5
D1
100
AcDbEntity
  8
ALPHA
100
AcDbLine
 10
123.472207
 20
142.409368
 30
0.0
 11
123.472207
 21
97.809368
 31
0.0
  0
LINE
  5
D2
100
AcDbEntity
  8
ALPHA
100
AcDbLine
 10
122.972207
 20
142.409368
 30
0.0
 11
122.972207
 21
97.809368
 31
0.0
  0
LWPOLYLINE
  5
D3
100
AcDbEntity
  8
ALPHA
100
AcDbPolyline
 90
        4
 70
     0
 43
0.0
 10
111.217913
 20
80.209368
 10
111.233993
 20
80.340792
 10
111.243836
 20
80.476546
 10
111.247207
 20
80.616475
  0
LWPOLYLINE
  5
D9
100
AcDbEntity
  8
ALPHA
100
AcDbPolyline
 90
       10
 70
     0
 43
0.0
 10
119.941991
 20
182.800572
 10
119.938893
 20
182.708768
 10
119.926231
 20
182.600245
 10
119.898535
 20
182.482002
 10
119.850986
 20
182.363973
 10
119.781773
 20
182.25792
 10
119.694276
 20
182.17396
 10
119.59445
 20
182.115604
 10
119.480234
 20
182.079754
 10
119.346929
 20
182.066978
  0
LINE
  5
E5
100
AcDbEntity
  8
ALPHA
100
AcDbLine
 10
122.472207
 20
96.809368
 30
0.0
 11
122.472207
 21
143.409368
 31
0.0
  0
LINE
  5
E6
100
AcDbEntity
  8
ALPHA
100
AcDbLine
 10
122.184884
 20
87.649388
 30
0.0
 11
122.184884
 21
92.669348
 31
0.0
  0
LINE
  5
E7
100
AcDbEntity
  8
ALPHA
100
AcDbLine
 10
121.572207
 20
98.709368
 30
0.0
 11
121.572207
 21
141.509368
 31
0.0
  0
LINE
  5
E8
100
AcDbEntity
  8
ALPHA
100
AcDbLine
 10
121.034884
 20
161.659368
 30
0.0
 11
121.034884
 21
192.859368
 31
0.0
  0
LINE
  5
E9
100
AcDbEntity
  8
ALPHA
100
AcDbLine
 10
120.972207
 20
140.909368
 30
0.0
 11
120.972207
 21
99.309368
 31
0.0
  0
LINE
  5
EA
100
AcDbEntity
  8
ALPHA
100
AcDbLine
 10
120.534884
 20
180.259368
 30
0.0
 11
120.534884
 21
193.359368
 31
0.0
  0
LINE
  5
EB
100
AcDbEntity
  8
ALPHA
100
AcDbLine
 10
120.422207
 20
100.359368
 30
0.0
 11
120.422207
 21
140.859368
 31
0.0
  0
LINE
  5
EC
100
AcDbEntity
  8
ALPHA
100
AcDbLine
 10
120.034884
 20
161.359368
 30
0.0
 11
120.034884
 21
180.209368
 31
0.0
  0
LINE
  5
ED
100
AcDbEntity
  8
ALPHA
100
AcDbLine
 10
119.941991
 20
191.218164
 30
0.0
 11
119.941991
 21
182.800572
 31
0.0
  0
LINE
  5
EE
100
AcDbEntity
  8
ALPHA
100
AcDbLine
 10
119.588437
 20
191.218164
 30
0.0
 11
119.588437
 21
182.800572
 31
0.0
  0
LINE
  5
EF
100
AcDbEntity
  8
ALPHA
100
AcDbLine
 10
119.346929
 20
191.66497
 30
0.0
 11
119.346929
 21
191.951758
 31
0.0
  0
LINE
  5
F0
100
AcDbEntity
  8
ALPHA
100
AcDbLine
 10
119.346929
 20
182.353767
 30
0.0
 11
119.346929
 21
182.066978
 31
0.0
  0
LINE
  5
F1
100
AcDbEntity
  8
ALPHA
100
AcDbLine
 10
119.172207
 20
143.609368
 30
0.0
 11
119.172207
 21
144.109368
 31
0.0
  0
LINE
  5
F2
100
AcDbEntity
  8
ALPHA
100
AcDbLine
 10
119.172207
 20
96.109368
 30
0.0
 11
119.172207
 21
96.609368
 31
0.0
  0
LINE
  5
F3
100
AcDbEntity
  8
ALPHA
100
AcDbLine
 10
119.109884
 20
180.209368
 30
0.0
 11
119.109884
 21
180.259368
 31
0.0
  0
LINE
  5
F4
100
AcDbEntity
  8
ALPHA
100
AcDbLine
 10
118.884884
 20
180.259368
 30
0.0
 11
118.884884
 21
180.209368
 31
0.0
  0
LINE
  5
F5
100
AcDbEntity
  8
ALPHA
100
AcDbLine
 10
118.684884
 20
180.259368
 30
0.0
 11
118.684884
 21
180.209368
 31
0.0
  0
LINE
  5
F6
100
AcDbEntity
  8
ALPHA
100
AcDbLine
 10
117.581331
 20
188.351719
 30
0.0
 11
117.581331
 21
185.667018
 31
0.0
  0
LINE
  5
F7
100
AcDbEntity
  8
ALPHA
100
AcDbLine
 10
117.434884
 20
185.50668
 30
0.0
 11
117.434884
 21
188.512015
 31
0.0
  0
LINE
  5
F8
100
AcDbEntity
  8
ALPHA
100
AcDbLine
 10
117.286646
 20
185.296156
 30
0.0
 11
117.286646
 21
185.509368
 31
0.0
  0
LINE
  5
F9
100
AcDbEntity
  8
ALPHA
100
AcDbLine
 10
117.286646
 20
188.72258
 30
0.0
 11
117.286646
 21
188.509368
 31
0.0
  0
LINE
  5
FA
100
AcDbEntity
  8
ALPHA
100
AcDbLine
 10
117.034884
 20
237.959368
 30
0.0
 11
117.034884
 21
207.859368
 31
0.0
  0
LINE
  5
FB
100
AcDbEntity
  8
ALPHA
100
AcDbLine
 10
116.884884
 20
92.669348
 30
0.0
 11
116.884884
 21
87.649388
 31
0.0
  0
LINE
  5
FC
100
AcDbEntity
  8
ALPHA
100
AcDbLine
 10
116.534884
 20
78.659368
 30
0.0
 11
116.534884
 21
79.959368
 31
0.0
  0
LINE
  5
FD
100
AcDbEntity
  8
ALPHA
100
AcDbLine
 10
115.534884
 20
180.259368
 30
0.0
 11
115.534884
 21
180.209368
 31
0.0
  0
LINE
  5
FE
100
AcDbEntity
  8
ALPHA
100
AcDbLine
 10
114.534884
 20
149.159368
 30
0.0
 11
114.534884
 21
155.159368
 31
0.0
  0
LINE
  5
FF
100
AcDbEntity
  8
ALPHA
100
AcDbLine
 10
114.534884
 20
81.659368
 30
0.0
 11
114.534884
 21
91.159368
 31
0.0
  0
LINE
  5
100
100
AcDbEntity
  8
ALPHA
100
AcDbLine
 10
114.172207
 20
148.809368
 30
0.0
 11
114.172207
 21
149.609368
 31
0.0
  0
LINE
  5
101
100
AcDbEntity
  8
ALPHA
100
AcDbLine
 10
114.172207
 20
83.209368
 30
0.0
 11
114.172207
 21
91.109368
 31
0.0
  0
LWPOLYLINE
  5
102
100
AcDbEntity
  8
ALPHA
100
AcDbPolyline
 90
       10
 70
     0
 43
0.0
 10
119.941991
 20
191.218164
 10
119.938893
 20
191.309968
 10
119.926231
 20
191.418492
 10
119.898535
 20
191.536735
 10
119.850986
 20
191.654763
 10
119.781773
 20
191.760816
 10
119.694276
 20
191.844776
 10
119.59445
 20
191.903132
 10
119.480234
 20
191.938982
 10
119.346929
 20
191.951758
  0
LINE
  5
10E
100
AcDbEntity
  8
ALPHA
100
AcDbLine
 10
89.722839
 20
191.66497
 30
0.0
 11
91.783122
 21
188.72258
 31
0.0
  0
LINE
  5
10F
100
AcDbEntity
  8
ALPHA
100
AcDbLine
 10
89.481331
 20
191.218164
 30
0.0
 11
91.488437
 21
188.351719
 31
0.0
  0
LWPOLYLINE
  5
110
100
AcDbEntity
  8
ALPHA
100
AcDbPolyline
 90
        6
 70
     0
 43
0.0
 10
91.357372
 20
188.867724
 10
91.450185
 20
188.756083
 10
91.527029
 20
188.661448
 10
91.585702
 20
188.586962
 10
91.622625
 20
188.536295
 10
91.63487
 20
188.512056
  0
LINE
  5
118
100
AcDbEntity
  8
ALPHA
100
AcDbLine
 10
85.984884
 20
161.659368
 30
0.0
 11
123.084884
 21
161.659368
 31
0.0
  0
LINE
  5
119
100
AcDbEntity
  8
ALPHA
100
AcDbLine
 10
89.034884
 20
161.359368
 30
0.0
 11
120.034884
 21
161.359368
 31
0.0
  0
LWPOLYLINE
  5
11A
100
AcDbEntity
  8
ALPHA
100
AcDbPolyline
 90
        4
 70
     0
 43
0.0
 10
117.581331
 20
188.351719
 10
117.620264
 20
188.512507
 10
117.664117
 20
188.684999
 10
117.712396
 20
188.867724
  0
LWPOLYLINE
  5
120
100
AcDbEntity
  8
ALPHA
100
AcDbPolyline
 90
       10
 70
     0
 43
0.0
 10
119.588437
 20
191.218164
 10
119.602733
 20
191.286694
 10
119.614018
 20
191.366115
 10
119.617644
 20
191.450191
 10
119.608848
 20
191.530597
 10
119.584421
 20
191.598162
 10
119.544684
 20
191.645871
 10
119.492731
 20
191.672135
 10
119.427823
 20
191.67892
 10
119.346929
 20
191.66497
  0
LINE
  5
12C
100
AcDbEntity
  8
ALPHA
100
AcDbLine
 10
114.034884
 20
149.659368
 30
0.0
 11
114.034884
 21
155.159368
 31
0.0
  0
LINE
  5
12D
100
AcDbEntity
  8
ALPHA
100
AcDbLine
 10
114.034884
 20
81.659368
 30
0.0
 11
114.034884
 21
83.159368
 31
0.0
  0
LINE
  5
12E
100
AcDbEntity
  8
ALPHA
100
AcDbLine
 10
113.694982
 20
149.109368
 30
0.0
 11
113.694982
 21
148.609368
 31
0.0
  0
LINE
  5
12F
100
AcDbEntity
  8
ALPHA
100
AcDbLine
 10
113.672207
 20
83.509368
 30
0.0
 11
113.672207
 21
91.109368
 31
0.0
  0
LINE
  5
130
100
AcDbEntity
  8
ALPHA
100
AcDbLine
 10
113.634884
 20
83.209368
 30
0.0
 11
113.634884
 21
83.159368
 31
0.0
  0
LINE
  5
131
100
AcDbEntity
  8
ALPHA
100
AcDbLine
 10
113.634884
 20
149.659368
 30
0.0
 11
113.634884
 21
149.609368
 31
0.0
  0
LINE
  5
132
100
AcDbEntity
  8
ALPHA
100
AcDbLine
 10
113.034884
 20
213.759368
 30
0.0
 11
113.034884
 21
233.759368
 31
0.0
  0
LINE
  5
133
100
AcDbEntity
  8
ALPHA
100
AcDbLine
 10
113.034884
 20
156.159368
 30
0.0
 11
113.034884
 21
156.659368
 31
0.0
  0
LINE
  5
134
100
AcDbEntity
  8
ALPHA
100
AcDbLine
 10
113.034884
 20
80.159368
 30
0.0
 11
113.034884
 21
80.659368
 31
0.0
  0
LINE
  5
135
100
AcDbEntity
  8
ALPHA
100
AcDbLine
 10
112.634884
 20
185.509368
 30
0.0
 11
112.634884
 21
188.509368
 31
0.0
  0
LINE
  5
136
100
AcDbEntity
  8
ALPHA
100
AcDbLine
 10
112.634884
 20
180.259368
 30
0.0
 11
112.634884
 21
180.209368
 31
0.0
  0
LINE
  5
137
100
AcDbEntity
  8
ALPHA
100
AcDbLine
 10
112.034884
 20
286.359368
 30
0.0
 11
112.034884
 21
239.959368
 31
0.0
  0
LINE
  5
138
100
AcDbEntity
  8
ALPHA
100
AcDbLine
 10
111.809884
 20
150.159368
 30
0.0
 11
111.809884
 21
156.659368
 31
0.0
  0
LINE
  5
139
100
AcDbEntity
  8
ALPHA
100
AcDbLine
 10
111.747207
 20
142.409368
 30
0.0
 11
111.747207
 21
149.109368
 31
0.0
  0
LINE
  5
13A
100
AcDbEntity
  8
ALPHA
100
AcDbLine
 10
111.747207
 20
83.509368
 30
0.0
 11
111.747207
 21
97.809368
 31
0.0
  0
LINE
  5
13B
100
AcDbEntity
  8
ALPHA
100
AcDbLine
 10
111.322207
 20
149.609368
 30
0.0
 11
111.322207
 21
155.209368
 31
0.0
  0
LINE
  5
13C
100
AcDbEntity
  8
ALPHA
100
AcDbLine
 10
111.247207
 20
143.409368
 30
0.0
 11
111.247207
 21
156.509368
 31
0.0
  0
LINE
  5
13D
100
AcDbEntity
  8
ALPHA
100
AcDbLine
 10
111.247207
 20
80.616475
 30
0.0
 11
111.247207
 21
96.809368
 31
0.0
  0
LINE
  5
13E
100
AcDbEntity
  8
ALPHA
100
AcDbLine
 10
110.809884
 20
80.209368
 30
0.0
 11
110.809884
 21
80.159368
 31
0.0
  0
LINE
  5
13F
100
AcDbEntity
  8
ALPHA
100
AcDbLine
 10
110.747207
 20
143.409368
 30
0.0
 11
110.747207
 21
156.509368
 31
0.0
  0
LINE
  5
140
100
AcDbEntity
  8
ALPHA
100
AcDbLine
 10
110.747207
 20
80.209368
 30
0.0
 11
110.747207
 21
96.809368
 31
0.0
  0
LINE
  5
141
100
AcDbEntity
  8
ALPHA
100
AcDbLine
 10
110.634884
 20
185.509368
 30
0.0
 11
110.634884
 21
188.509368
 31
0.0
  0
LINE
  5
142
100
AcDbEntity
  8
ALPHA
100
AcDbLine
 10
110.634884
 20
180.209368
 30
0.0
 11
110.634884
 21
180.259368
 31
0.0
  0
LINE
  5
143
100
AcDbEntity
  8
ALPHA
100
AcDbLine
 10
110.534884
 20
207.359368
 30
0.0
 11
110.534884
 21
211.059368
 31
0.0
  0
LINE
  5
144
100
AcDbEntity
  8
ALPHA
100
AcDbLine
 10
110.134884
 20
185.509368
 30
0.0
 11
110.134884
 21
188.509368
 31
0.0
  0
LINE
  5
145
100
AcDbEntity
  8
ALPHA
100
AcDbLine
 10
110.134884
 20
180.259368
 30
0.0
 11
110.134884
 21
180.209368
 31
0.0
  0
LINE
  5
146
100
AcDbEntity
  8
ALPHA
100
AcDbLine
 10
109.672207
 20
150.509368
 30
0.0
 11
109.672207
 21
156.509368
 31
0.0
  0
LINE
  5
147
100
AcDbEntity
  8
ALPHA
100
AcDbLine
 10
109.672207
 20
80.209368
 30
0.0
 11
109.672207
 21
84.509368
 31
0.0
  0
LINE
  5
148
100
AcDbEntity
  8
ALPHA
100
AcDbLine
 10
109.172207
 20
150.509368
 30
0.0
 11
109.172207
 21
156.509368
 31
0.0
  0
LINE
  5
149
100
AcDbEntity
  8
ALPHA
100
AcDbLine
 10
109.172207
 20
84.509368
 30
0.0
 11
109.172207
 21
80.209368
 31
0.0
  0
LINE
  5
14A
100
AcDbEntity
  8
ALPHA
100
AcDbLine
 10
108.134884
 20
185.509368
 30
0.0
 11
108.134884
 21
188.509368
 31
0.0
  0
LINE
  5
14B
100
AcDbEntity
  8
ALPHA
100
AcDbLine
 10
108.134884
 20
180.209368
 30
0.0
 11
108.134884
 21
180.259368
 31
0.0
  0
LINE
  5
14C
100
AcDbEntity
  8
ALPHA
100
AcDbLine
 10
107.784884
 20
188.509368
 30
0.0
 11
107.784884
 21
185.509368
 31
0.0
  0
LINE
  5
14D
100
AcDbEntity
  8
ALPHA
100
AcDbLine
 10
107.672207
 20
95.941419
 30
0.0
 11
107.672207
 21
96.696837
 31
0.0
  0
LINE
  5
14E
100
AcDbEntity
  8
ALPHA
100
AcDbLine
 10
107.672207
 20
91.7219
 30
0.0
 11
107.672207
 21
92.477317
 31
0.0
  0
LINE
  5
14F
100
AcDbEntity
  8
ALPHA
100
AcDbLine
 10
107.484884
 20
180.209368
 30
0.0
 11
107.484884
 21
180.259368
 31
0.0
  0
LINE
  5
150
100
AcDbEntity
  8
ALPHA
100
AcDbLine
 10
107.184884
 20
273.209368
 30
0.0
 11
107.184884
 21
278.209368
 31
0.0
  0
LINE
  5
151
100
AcDbEntity
  8
ALPHA
100
AcDbLine
 10
107.184884
 20
253.209368
 30
0.0
 11
107.184884
 21
258.209368
 31
0.0
  0
LINE
  5
152
100
AcDbEntity
  8
ALPHA
100
AcDbLine
 10
107.172207
 20
93.834368
 30
0.0
 11
107.172207
 21
94.584368
 31
0.0
  0
LWPOLYLINE
  5
153
100
AcDbEntity
  8
ALPHA
100
AcDbPolyline
 90
        4
 70
     0
 43
0.0
 10
91.488437
 20
188.351719
 10
91.449503
 20
188.512507
 10
91.405651
 20
188.684999
 10
91.357372
 20
188.867724
  0
LWPOLYLINE
  5
159
100
AcDbEntity
  8
ALPHA
100
AcDbPolyline
 90
        6
 70
     0
 43
0.0
 10
110.747207
 20
153.855815
 10
110.901716
 20
153.838511
 10
111.0411
 20
153.788292
 10
111.151716
 20
153.710075
 10
111.222735
 20
153.611515
 10
111.247207
 20
153.502261
  0
LWPOLYLINE
  5
161
100
AcDbEntity
  8
ALPHA
100
AcDbPolyline
 90
        6
 70
     0
 43
0.0
 10
98.672207
 20
153.855815
 10
98.826716
 20
153.838511
 10
98.9661
 20
153.788292
 10
99.076716
 20
153.710075
 10
99.147735
 20
153.611515
 10
99.172207
 20
153.502261
  0
LINE
  5
169
100
AcDbEntity
  8
ALPHA
100
AcDbLine
 10
113.034884
 20
156.659368
 30
0.0
 11
96.034884
 21
156.659368
 31
0.0
  0
LINE
  5
16A
100
AcDbEntity
  8
ALPHA
100
AcDbLine
 10
97.097207
 20
156.509368
 30
0.0
 11
111.247207
 21
156.509368
 31
0.0
  0
LINE
  5
16B
100
AcDbEntity
  8
ALPHA
100
AcDbLine
 10
97.097207
 20
156.159368
 30
0.0
 11
96.034884
 21
156.159368
 31
0.0
  0
LINE
  5
16C
100
AcDbEntity
  8
ALPHA
100
AcDbLine
 10
113.034884
 20
156.159368
 30
0.0
 11
111.809884
 21
156.159368
 31
0.0
  0
LINE
  5
16D
100
AcDbEntity
  8
ALPHA
100
AcDbLine
 10
111.247207
 20
155.859368
 30
0.0
 11
111.309884
 21
155.859368
 31
0.0
  0
LINE
  5
16E
100
AcDbEntity
  8
ALPHA
100
AcDbLine
 10
111.322207
 20
155.209368
 30
0.0
 11
111.247207
 21
155.209368
 31
0.0
  0
LINE
  5
16F
100
AcDbEntity
  8
ALPHA
100
AcDbLine
 10
114.034884
 20
155.159368
 30
0.0
 11
114.534884
 21
155.159368
 31
0.0
  0
LINE
  5
170
100
AcDbEntity
  8
ALPHA
100
AcDbLine
 10
95.034884
 20
155.159368
 30
0.0
 11
94.534884
 21
155.159368
 31
0.0
  0
LINE
  5
171
100
AcDbEntity
  8
ALPHA
100
AcDbLine
 10
98.672207
 20
153.855815
 30
0.0
 11
97.597207
 21
153.855815
 31
0.0
  0
LINE
  5
172
100
AcDbEntity
  8
ALPHA
100
AcDbLine
 10
110.747207
 20
153.855815
 30
0.0
 11
109.672207
 21
153.855815
 31
0.0
  0
LINE
  5
173
100
AcDbEntity
  8
ALPHA
100
AcDbLine
 10
109.172207
 20
153.502261
 30
0.0
 11
111.247207
 21
153.502261
 31
0.0
  0
LINE
  5
174
100
AcDbEntity
  8
ALPHA
100
AcDbLine
 10
97.097207
 20
153.502261
 30
0.0
 11
99.172207
 21
153.502261
 31
0.0
  0
LWPOLYLINE
  5
175
100
AcDbEntity
  8
ALPHA
100
AcDbPolyline
 90
        6
 70
     0
 43
0.0
 10
97.597207
 20
153.855815
 10
97.442699
 20
153.838511
 10
97.303315
 20
153.788292
 10
97.192699
 20
153.710075
 10
97.121679
 20
153.611515
 10
97.097207
 20
153.502261
  0
LWPOLYLINE
  5
17D
100
AcDbEntity
  8
ALPHA
100
AcDbPolyline
 90
        6
 70
     0
 43
0.0
 10
109.672207
 20
153.855815
 10
109.517699
 20
153.838511
 10
109.378315
 20
153.788292
 10
109.267699
 20
153.710075
 10
109.196679
 20
153.611515
 10
109.172207
 20
153.502261
  0
LINE
  5
185
100
AcDbEntity
  8
ALPHA
100
AcDbLine
 10
119.588437
 20
191.218164
 30
0.0
 11
117.581331
 21
188.351719
 31
0.0
  0
LINE
  5
186
100
AcDbEntity
  8
ALPHA
100
AcDbLine
 10
119.346929
 20
191.66497
 30
0.0
 11
117.286646
 21
188.72258
 31
0.0
  0
LINE
  5
187
100
AcDbEntity
  8
ALPHA
100
AcDbLine
 10
105.472207
 20
84.209368
 30
0.0
 11
105.472207
 21
84.809368
 31
0.0
  0
LINE
  5
188
100
AcDbEntity
  8
ALPHA
100
AcDbLine
 10
104.772207
 20
151.309368
 30
0.0
 11
104.772207
 21
154.059016
 31
0.0
  0
LINE
  5
189
100
AcDbEntity
  8
ALPHA
100
AcDbLine
 10
104.772207
 20
146.95972
 30
0.0
 11
104.772207
 21
149.709368
 31
0.0
  0
LINE
  5
18A
100
AcDbEntity
  8
ALPHA
100
AcDbLine
 10
104.472207
 20
84.809368
 30
0.0
 11
104.472207
 21
85.809368
 31
0.0
  0
LINE
  5
18B
100
AcDbEntity
  8
ALPHA
100
AcDbLine
 10
104.472207
 20
83.209368
 30
0.0
 11
104.472207
 21
84.209368
 31
0.0
  0
LINE
  5
18C
100
AcDbEntity
  8
ALPHA
100
AcDbLine
 10
103.872207
 20
84.209368
 30
0.0
 11
103.872207
 21
83.209368
 31
0.0
  0
LINE
  5
18D
100
AcDbEntity
  8
ALPHA
100
AcDbLine
 10
103.872207
 20
85.809368
 30
0.0
 11
103.872207
 21
84.809368
 31
0.0
  0
LINE
  5
18E
100
AcDbEntity
  8
ALPHA
100
AcDbLine
 10
103.572207
 20
151.309368
 30
0.0
 11
103.572207
 21
154.059016
 31
0.0
  0
LINE
  5
18F
100
AcDbEntity
  8
ALPHA
100
AcDbLine
 10
103.572207
 20
146.95972
 30
0.0
 11
103.572207
 21
149.709368
 31
0.0
  0
LINE
  5
190
100
AcDbEntity
  8
ALPHA
100
AcDbLine
 10
103.422207
 20
95.941419
 30
0.0
 11
103.422207
 21
96.696837
 31
0.0
  0
LINE
  5
191
100
AcDbEntity
  8
ALPHA
100
AcDbLine
 10
103.422207
 20
91.7219
 30
0.0
 11
103.422207
 21
92.477317
 31
0.0
  0
LINE
  5
192
100
AcDbEntity
  8
ALPHA
100
AcDbLine
 10
102.872207
 20
84.809368
 30
0.0
 11
102.872207
 21
84.209368
 31
0.0
  0
LINE
  5
193
100
AcDbEntity
  8
ALPHA
100
AcDbLine
 10
101.884884
 20
258.209368
 30
0.0
 11
101.884884
 21
253.209368
 31
0.0
  0
LINE
  5
194
100
AcDbEntity
  8
ALPHA
100
AcDbLine
 10
101.884884
 20
278.209368
 30
0.0
 11
101.884884
 21
273.209368
 31
0.0
  0
LINE
  5
195
100
AcDbEntity
  8
ALPHA
100
AcDbLine
 10
101.584884
 20
180.209368
 30
0.0
 11
101.584884
 21
180.259368
 31
0.0
  0
LINE
  5
196
100
AcDbEntity
  8
ALPHA
100
AcDbLine
 10
101.284884
 20
188.509368
 30
0.0
 11
101.284884
 21
185.509368
 31
0.0
  0
LINE
  5
197
100
AcDbEntity
  8
ALPHA
100
AcDbLine
 10
100.934884
 20
185.509368
 30
0.0
 11
100.934884
 21
188.509368
 31
0.0
  0
LINE
  5
198
100
AcDbEntity
  8
ALPHA
100
AcDbLine
 10
100.934884
 20
180.259368
 30
0.0
 11
100.934884
 21
180.209368
 31
0.0
  0
LINE
  5
199
100
AcDbEntity
  8
ALPHA
100
AcDbLine
 10
99.172207
 20
150.509368
 30
0.0
 11
99.172207
 21
156.509368
 31
0.0
  0
LINE
  5
19A
100
AcDbEntity
  8
ALPHA
100
AcDbLine
 10
99.172207
 20
80.209368
 30
0.0
 11
99.172207
 21
84.509368
 31
0.0
  0
LINE
  5
19B
100
AcDbEntity
  8
ALPHA
100
AcDbLine
 10
98.934884
 20
185.509368
 30
0.0
 11
98.934884
 21
188.509368
 31
0.0
  0
LINE
  5
19C
100
AcDbEntity
  8
ALPHA
100
AcDbLine
 10
98.934884
 20
180.209368
 30
0.0
 11
98.934884
 21
180.259368
 31
0.0
  0
LINE
  5
19D
100
AcDbEntity
  8
ALPHA
100
AcDbLine
 10
98.672207
 20
150.509368
 30
0.0
 11
98.672207
 21
156.509368
 31
0.0
  0
LINE
  5
19E
100
AcDbEntity
  8
ALPHA
100
AcDbLine
 10
98.672207
 20
80.209368
 30
0.0
 11
98.672207
 21
84.509368
 31
0.0
  0
LINE
  5
19F
100
AcDbEntity
  8
ALPHA
100
AcDbLine
 10
98.534884
 20
211.059368
 30
0.0
 11
98.534884
 21
207.359368
 31
0.0
  0
LINE
  5
1A0
100
AcDbEntity
  8
ALPHA
100
AcDbLine
 10
98.434884
 20
185.509368
 30
0.0
 11
98.434884
 21
188.509368
 31
0.0
  0
LINE
  5
1A1
100
AcDbEntity
  8
ALPHA
100
AcDbLine
 10
98.434884
 20
180.259368
 30
0.0
 11
98.434884
 21
180.209368
 31
0.0
  0
LINE
  5
1A2
100
AcDbEntity
  8
ALPHA
100
AcDbLine
 10
98.259884
 20
80.209368
 30
0.0
 11
98.259884
 21
80.159368
 31
0.0
  0
LINE
  5
1A3
100
AcDbEntity
  8
ALPHA
100
AcDbLine
 10
97.597207
 20
143.409368
 30
0.0
 11
97.597207
 21
156.509368
 31
0.0
  0
LINE
  5
1A4
100
AcDbEntity
  8
ALPHA
100
AcDbLine
 10
97.597207
 20
80.209368
 30
0.0
 11
97.597207
 21
96.809368
 31
0.0
  0
LINE
  5
1A5
100
AcDbEntity
  8
ALPHA
100
AcDbLine
 10
97.259884
 20
156.509368
 30
0.0
 11
97.259884
 21
156.659368
 31
0.0
  0
LINE
  5
1A6
100
AcDbEntity
  8
ALPHA
100
AcDbLine
 10
97.097207
 20
143.409368
 30
0.0
 11
97.097207
 21
156.509368
 31
0.0
  0
LINE
  5
1A7
100
AcDbEntity
  8
ALPHA
100
AcDbLine
 10
97.097207
 20
96.809368
 30
0.0
 11
97.097207
 21
80.616475
 31
0.0
  0
LINE
  5
1A8
100
AcDbEntity
  8
ALPHA
100
AcDbLine
 10
97.034884
 20
286.359368
 30
0.0
 11
97.034884
 21
239.959368
 31
0.0
  0
LINE
  5
1A9
100
AcDbEntity
  8
ALPHA
100
AcDbLine
 10
97.022207
 20
149.744857
 30
0.0
 11
97.022207
 21
149.609368
 31
0.0
  0
LWPOLYLINE
  5
1AA
100
AcDbEntity
  8
ALPHA
100
AcDbPolyline
 90
       10
 70
     0
 43
0.0
 10
89.481331
 20
191.218164
 10
89.467035
 20
191.286694
 10
89.45575
 20
191.366115
 10
89.452124
 20
191.450191
 10
89.46092
 20
191.530597
 10
89.485347
 20
191.598162
 10
89.525083
 20
191.645871
 10
89.577037
 20
191.672135
 10
89.641945
 20
191.67892
 10
89.722839
 20
191.66497
  0
LINE
  5
1B6
100
AcDbEntity
  8
ALPHA
100
AcDbLine
 10
94.151503
 20
148.654823
 30
0.0
 11
94.649433
 21
148.609368
 31
0.0
  0
LINE
  5
1B7
100
AcDbEntity
  8
ALPHA
100
AcDbLine
 10
100.622559
 20
151.109368
 30
0.0
 11
103.372207
 21
151.109368
 31
0.0
  0
LINE
  5
1B8
100
AcDbEntity
  8
ALPHA
100
AcDbLine
 10
107.721855
 20
151.109368
 30
0.0
 11
104.972207
 21
151.109368
 31
0.0
  0
LINE
  5
1B9
100
AcDbEntity
  8
ALPHA
100
AcDbLine
 10
99.172207
 20
150.509368
 30
0.0
 11
98.672207
 21
150.509368
 31
0.0
  0
LINE
  5
1BA
100
AcDbEntity
  8
ALPHA
100
AcDbLine
 10
109.672207
 20
150.509368
 30
0.0
 11
109.172207
 21
150.509368
 31
0.0
  0
LINE
  5
1BB
100
AcDbEntity
  8
ALPHA
100
AcDbLine
 10
100.622559
 20
149.909368
 30
0.0
 11
103.372207
 21
149.909368
 31
0.0
  0
LINE
  5
1BC
100
AcDbEntity
  8
ALPHA
100
AcDbLine
 10
107.721855
 20
149.909368
 30
0.0
 11
104.972207
 21
149.909368
 31
0.0
  0
LINE
  5
1BD
100
AcDbEntity
  8
ALPHA
100
AcDbLine
 10
112.309884
 20
149.659368
 30
0.0
 11
114.534884
 21
149.659368
 31
0.0
  0
LINE
  5
1BE
100
AcDbEntity
  8
ALPHA
100
AcDbLine
 10
94.534884
 20
149.659368
 30
0.0
 11
96.759884
 21
149.659368
 31
0.0
  0
LINE
  5
1BF
100
AcDbEntity
  8
ALPHA
100
AcDbLine
 10
97.022207
 20
149.609368
 30
0.0
 11
94.172207
 21
149.609368
 31
0.0
  0
LINE
  5
1C0
100
AcDbEntity
  8
ALPHA
100
AcDbLine
 10
114.172207
 20
149.609368
 30
0.0
 11
111.322207
 21
149.609368
 31
0.0
  0
LINE
  5
1C1
100
AcDbEntity
  8
ALPHA
100
AcDbLine
 10
111.247207
 20
149.109368
 30
0.0
 11
113.694982
 21
149.109368
 31
0.0
  0
LINE
  5
1C2
100
AcDbEntity
  8
ALPHA
100
AcDbLine
 10
97.097207
 20
149.109368
 30
0.0
 11
94.649433
 21
149.109368
 31
0.0
  0
LINE
  5
1C3
100
AcDbEntity
  8
ALPHA
100
AcDbLine
 10
111.247207
 20
148.609368
 30
0.0
 11
113.694982
 21
148.609368
 31
0.0
  0
LINE
  5
1C4
100
AcDbEntity
  8
ALPHA
100
AcDbLine
 10
97.097207
 20
148.609368
 30
0.0
 11
94.649433
 21
148.609368
 31
0.0
  0
LINE
  5
1C5
100
AcDbEntity
  8
ALPHA
100
AcDbLine
 10
119.534884
 20
144.159368
 30
0.0
 11
124.084884
 21
144.159368
 31
0.0
  0
LINE
  5
1C6
100
AcDbEntity
  8
ALPHA
100
AcDbLine
 10
84.984884
 20
144.159368
 30
0.0
 11
89.534884
 21
144.159368
 31
0.0
  0
LINE
  5
1C7
100
AcDbEntity
  8
ALPHA
100
AcDbLine
 10
89.172207
 20
144.109368
 30
0.0
 11
84.672207
 21
144.109368
 31
0.0
  0
LINE
  5
1C8
100
AcDbEntity
  8
ALPHA
100
AcDbLine
 10
123.672207
 20
144.109368
 30
0.0
 11
119.172207
 21
144.109368
 31
0.0
  0
LINE
  5
1C9
100
AcDbEntity
  8
ALPHA
100
AcDbLine
 10
84.172207
 20
143.609368
 30
0.0
 11
89.172207
 21
143.609368
 31
0.0
  0
LINE
  5
1CA
100
AcDbEntity
  8
ALPHA
100
AcDbLine
 10
124.172207
 20
143.609368
 30
0.0
 11
119.172207
 21
143.609368
 31
0.0
  0
LINE
  5
1CB
100
AcDbEntity
  8
ALPHA
100
AcDbLine
 10
110.747207
 20
143.409368
 30
0.0
 11
122.472207
 21
143.409368
 31
0.0
  0
LINE
  5
1CC
100
AcDbEntity
  8
ALPHA
100
AcDbLine
 10
85.872207
 20
143.409368
 30
0.0
 11
97.597207
 21
143.409368
 31
0.0
  0
LINE
  5
1CD
100
AcDbEntity
  8
ALPHA
100
AcDbLine
 10
114.192911
 20
148.654823
 30
0.0
 11
113.694982
 21
148.609368
 31
0.0
  0
LWPOLYLINE
  5
1CE
100
AcDbEntity
  8
ALPHA
100
AcDbPolyline
 90
        6
 70
     0
 43
0.0
 10
117.712396
 20
188.867724
 10
117.619722
 20
188.756258
 10
117.543149
 20
188.661982
 10
117.484459
 20
188.587487
 10
117.447309
 20
188.536532
 10
117.434884
 20
188.512015
  0
LINE
  5
1D6
100
AcDbEntity
  8
ALPHA
100
AcDbLine
 10
96.597207
 20
142.409368
 30
0.0
 11
96.597207
 21
149.109368
 31
0.0
  0
LINE
  5
1D7
100
AcDbEntity
  8
ALPHA
100
AcDbLine
 10
96.597207
 20
83.509368
 30
0.0
 11
96.597207
 21
97.809368
 31
0.0
  0
LINE
  5
1D8
100
AcDbEntity
  8
ALPHA
100
AcDbLine
 10
96.434884
 20
185.509368
 30
0.0
 11
96.434884
 21
188.509368
 31
0.0
  0
LINE
  5
1D9
100
AcDbEntity
  8
ALPHA
100
AcDbLine
 10
96.434884
 20
180.209368
 30
0.0
 11
96.434884
 21
180.259368
 31
0.0
  0
LINE
  5
1DA
100
AcDbEntity
  8
ALPHA
100
AcDbLine
 10
96.034884
 20
156.159368
 30
0.0
 11
96.034884
 21
156.659368
 31
0.0
  0
LINE
  5
1DB
100
AcDbEntity
  8
ALPHA
100
AcDbLine
 10
96.034884
 20
80.159368
 30
0.0
 11
96.034884
 21
80.659368
 31
0.0
  0
LINE
  5
1DC
100
AcDbEntity
  8
ALPHA
100
AcDbLine
 10
96.034884
 20
233.759368
 30
0.0
 11
96.034884
 21
213.759368
 31
0.0
  0
LINE
  5
1DD
100
AcDbEntity
  8
ALPHA
100
AcDbLine
 10
95.434884
 20
83.209368
 30
0.0
 11
95.434884
 21
83.159368
 31
0.0
  0
LINE
  5
1DE
100
AcDbEntity
  8
ALPHA
100
AcDbLine
 10
95.434884
 20
149.659368
 30
0.0
 11
95.434884
 21
149.609368
 31
0.0
  0
LINE
  5
1DF
100
AcDbEntity
  8
ALPHA
100
AcDbLine
 10
95.034884
 20
81.659368
 30
0.0
 11
95.034884
 21
83.159368
 31
0.0
  0
LINE
  5
1E0
100
AcDbEntity
  8
ALPHA
100
AcDbLine
 10
95.034884
 20
155.159368
 30
0.0
 11
95.034884
 21
149.659368
 31
0.0
  0
LINE
  5
1E1
100
AcDbEntity
  8
ALPHA
100
AcDbLine
 10
94.672207
 20
83.509368
 30
0.0
 11
94.672207
 21
91.109368
 31
0.0
  0
LINE
  5
1E2
100
AcDbEntity
  8
ALPHA
100
AcDbLine
 10
94.649433
 20
149.109368
 30
0.0
 11
94.649433
 21
148.609368
 31
0.0
  0
LINE
  5
1E3
100
AcDbEntity
  8
ALPHA
100
AcDbLine
 10
94.534884
 20
149.609368
 30
0.0
 11
94.534884
 21
155.159368
 31
0.0
  0
LINE
  5
1E4
100
AcDbEntity
  8
ALPHA
100
AcDbLine
 10
94.534884
 20
81.659368
 30
0.0
 11
94.534884
 21
83.209368
 31
0.0
  0
LINE
  5
1E5
100
AcDbEntity
  8
ALPHA
100
AcDbLine
 10
94.172207
 20
91.109368
 30
0.0
 11
94.172207
 21
83.209368
 31
0.0
  0
LINE
  5
1E6
100
AcDbEntity
  8
ALPHA
100
AcDbLine
 10
94.172207
 20
149.609368
 30
0.0
 11
94.172207
 21
148.809368
 31
0.0
  0
LINE
  5
1E7
100
AcDbEntity
  8
ALPHA
100
AcDbLine
 10
93.534884
 20
180.209368
 30
0.0
 11
93.534884
 21
180.259368
 31
0.0
  0
LINE
  5
1E8
100
AcDbEntity
  8
ALPHA
100
AcDbLine
 10
92.534884
 20
78.659368
 30
0.0
 11
92.534884
 21
79.959368
 31
0.0
  0
LINE
  5
1E9
100
AcDbEntity
  8
ALPHA
100
AcDbLine
 10
92.184884
 20
152.669348
 30
0.0
 11
92.184884
 21
147.649388
 31
0.0
  0
LINE
  5
1EA
100
AcDbEntity
  8
ALPHA
100
AcDbLine
 10
92.034884
 20
237.959368
 30
0.0
 11
92.034884
 21
207.859368
 31
0.0
  0
LINE
  5
1EB
100
AcDbEntity
  8
ALPHA
100
AcDbLine
 10
91.783122
 20
185.296156
 30
0.0
 11
91.783122
 21
185.509368
 31
0.0
  0
LINE
  5
1EC
100
AcDbEntity
  8
ALPHA
100
AcDbLine
 10
91.783122
 20
188.72258
 30
0.0
 11
91.783122
 21
188.509368
 31
0.0
  0
LINE
  5
1ED
100
AcDbEntity
  8
ALPHA
100
AcDbLine
 10
91.634884
 20
185.506721
 30
0.0
 11
91.634884
 21
188.512056
 31
0.0
  0
LINE
  5
1EE
100
AcDbEntity
  8
ALPHA
100
AcDbLine
 10
91.488437
 20
185.667018
 30
0.0
 11
91.488437
 21
188.351719
 31
0.0
  0
LINE
  5
1EF
100
AcDbEntity
  8
ALPHA
100
AcDbLine
 10
90.384884
 20
180.259368
 30
0.0
 11
90.384884
 21
180.209368
 31
0.0
  0
LINE
  5
1F0
100
AcDbEntity
  8
ALPHA
100
AcDbLine
 10
90.184884
 20
180.259368
 30
0.0
 11
90.184884
 21
180.209368
 31
0.0
  0
LINE
  5
1F1
100
AcDbEntity
  8
ALPHA
100
AcDbLine
 10
89.959884
 20
180.209368
 30
0.0
 11
89.959884
 21
180.259368
 31
0.0
  0
LINE
  5
1F2
100
AcDbEntity
  8
ALPHA
100
AcDbLine
 10
89.722839
 20
191.66497
 30
0.0
 11
89.722839
 21
191.951758
 31
0.0
  0
LINE
  5
1F3
100
AcDbEntity
  8
ALPHA
100
AcDbLine
 10
89.722839
 20
182.353767
 30
0.0
 11
89.722839
 21
182.066978
 31
0.0
  0
LINE
  5
1F4
100
AcDbEntity
  8
ALPHA
100
AcDbLine
 10
89.481331
 20
182.800572
 30
0.0
 11
89.481331
 21
191.218164
 31
0.0
  0
LINE
  5
1F5
100
AcDbEntity
  8
ALPHA
100
AcDbLine
 10
89.172207
 20
143.609368
 30
0.0
 11
89.172207
 21
144.109368
 31
0.0
  0
LINE
  5
1F6
100
AcDbEntity
  8
ALPHA
100
AcDbLine
 10
89.172207
 20
96.109368
 30
0.0
 11
89.172207
 21
96.609368
 31
0.0
  0
LINE
  5
1F7
100
AcDbEntity
  8
ALPHA
100
AcDbLine
 10
89.127777
 20
182.800572
 30
0.0
 11
89.127777
 21
191.218164
 31
0.0
  0
LINE
  5
1F8
100
AcDbEntity
  8
ALPHA
100
AcDbLine
 10
89.034884
 20
161.359368
 30
0.0
 11
89.034884
 21
180.209368
 31
0.0
  0
LINE
  5
1F9
100
AcDbEntity
  8
ALPHA
100
AcDbLine
 10
88.534884
 20
180.259368
 30
0.0
 11
88.534884
 21
193.359368
 31
0.0
  0
LWPOLYLINE
  5
1FA
100
AcDbEntity
  8
ALPHA
100
AcDbPolyline
 90
       10
 70
     0
 43
0.0
 10
89.127777
 20
182.800572
 10
89.130875
 20
182.708768
 10
89.143537
 20
182.600245
 10
89.171233
 20
182.482002
 10
89.218782
 20
182.363973
 10
89.287995
 20
182.25792
 10
89.375492
 20
182.17396
 10
89.475318
 20
182.115604
 10
89.589534
 20
182.079754
 10
89.722839
 20
182.066978
  0
LWPOLYLINE
  5
206
100
AcDbEntity
  8
ALPHA
100
AcDbPolyline
 90
        4
 70
     0
 43
0.0
 10
97.126501
 20
80.209368
 10
97.110422
 20
80.340792
 10
97.100578
 20
80.476546
 10
97.097207
 20
80.616475
  0
LINE
  5
20C
100
AcDbEntity
  8
ALPHA
100
AcDbLine
 10
111.747207
 20
142.909368
 30
0.0
 11
122.472207
 21
142.909368
 31
0.0
  0
LINE
  5
20D
100
AcDbEntity
  8
ALPHA
100
AcDbLine
 10
96.597207
 20
142.909368
 30
0.0
 11
85.872207
 21
142.909368
 31
0.0
  0
LINE
  5
20E
100
AcDbEntity
  8
ALPHA
100
AcDbLine
 10
111.747207
 20
142.409368
 30
0.0
 11
123.472207
 21
142.409368
 31
0.0
  0
LINE
  5
20F
100
AcDbEntity
  8
ALPHA
100
AcDbLine
 10
84.872207
 20
142.409368
 30
0.0
 11
96.597207
 21
142.409368
 31
0.0
  0
LINE
  5
210
100
AcDbEntity
  8
ALPHA
100
AcDbLine
 10
121.572207
 20
141.509368
 30
0.0
 11
86.772207
 21
141.509368
 31
0.0
  0
LINE
  5
211
100
AcDbEntity
  8
ALPHA
100
AcDbLine
 10
87.372207
 20
140.909368
 30
0.0
 11
120.972207
 21
140.909368
 31
0.0
  0
LINE
  5
212
100
AcDbEntity
  8
ALPHA
100
AcDbLine
 10
120.422207
 20
140.859368
 30
0.0
 11
87.922207
 21
140.859368
 31
0.0
  0
LWPOLYLINE
  5
213
100
AcDbEntity
  8
ALPHA
100
AcDbPolyline
 90
        4
 70
     0
 43
0.0
 10
117.712396
 20
188.867724
 10
117.561371
 20
188.811198
 10
117.418643
 20
188.762654
 10
117.286646
 20
188.72258
  0
LWPOLYLINE
  5
219
100
AcDbEntity
  8
ALPHA
100
AcDbPolyline
 90
        4
 70
     0
 43
0.0
 10
91.488437
 20
185.667018
 10
91.449503
 20
185.506229
 10
91.405651
 20
185.333737
 10
91.357372
 20
185.151013
  0
LWPOLYLINE
  5
21F
100
AcDbEntity
  8
ALPHA
100
AcDbPolyline
 90
       10
 70
     0
 43
0.0
 10
89.481331
 20
182.800572
 10
89.467035
 20
182.732042
 10
89.45575
 20
182.652621
 10
89.452124
 20
182.568545
 10
89.46092
 20
182.488139
 10
89.485347
 20
182.420574
 10
89.525083
 20
182.372865
 10
89.577037
 20
182.346601
 10
89.641945
 20
182.339816
 10
89.722839
 20
182.353767
  0
LWPOLYLINE
  5
22B
100
AcDbEntity
  8
ALPHA
100
AcDbPolyline
 90
       10
 70
     0
 43
0.0
 10
89.127777
 20
191.218164
 10
89.130875
 20
191.309968
 10
89.143537
 20
191.418492
 10
89.171233
 20
191.536735
 10
89.218782
 20
191.654763
 10
89.287995
 20
191.760816
 10
89.375492
 20
191.844776
 10
89.475318
 20
191.903132
 10
89.589534
 20
191.938982
 10
89.722839
 20
191.951758
  0
LINE
  5
237
100
AcDbEntity
  8
ALPHA
100
AcDbLine
 10
88.034884
 20
161.659368
 30
0.0
 11
88.034884
 21
192.859368
 31
0.0
  0
LINE
  5
238
100
AcDbEntity
  8
ALPHA
100
AcDbLine
 10
87.922207
 20
140.859368
 30
0.0
 11
87.922207
 21
100.359368
 31
0.0
  0
LINE
  5
239
100
AcDbEntity
  8
ALPHA
100
AcDbLine
 10
87.372207
 20
99.309368
 30
0.0
 11
87.372207
 21
140.909368
 31
0.0
  0
LINE
  5
23A
100
AcDbEntity
  8
ALPHA
100
AcDbLine
 10
86.884884
 20
147.649388
 30
0.0
 11
86.884884
 21
152.669348
 31
0.0
  0
LINE
  5
23B
100
AcDbEntity
  8
ALPHA
100
AcDbLine
 10
86.772207
 20
141.509368
 30
0.0
 11
86.772207
 21
98.709368
 31
0.0
  0
LINE
  5
23C
100
AcDbEntity
  8
ALPHA
100
AcDbLine
 10
85.872207
 20
96.809368
 30
0.0
 11
85.872207
 21
143.409368
 31
0.0
  0
LINE
  5
23D
100
AcDbEntity
  8
ALPHA
100
AcDbLine
 10
85.372207
 20
142.409368
 30
0.0
 11
85.372207
 21
97.809368
 31
0.0
  0
LINE
  5
23E
100
AcDbEntity
  8
ALPHA
100
AcDbLine
 10
84.872207
 20
142.409368
 30
0.0
 11
84.872207
 21
97.809368
 31
0.0
  0
LINE
  5
23F
100
AcDbEntity
  8
ALPHA
100
AcDbLine
 10
84.672207
 20
96.109368
 30
0.0
 11
84.672207
 21
144.109368
 31
0.0
  0
LINE
  5
240
100
AcDbEntity
  8
ALPHA
100
AcDbLine
 10
84.484884
 20
144.068342
 30
0.0
 11
84.484884
 21
160.159368
 31
0.0
  0
LINE
  5
241
100
AcDbEntity
  8
ALPHA
100
AcDbLine
 10
84.484884
 20
81.659368
 30
0.0
 11
84.484884
 21
96.127496
 31
0.0
  0
LINE
  5
242
100
AcDbEntity
  8
ALPHA
100
AcDbLine
 10
84.172207
 20
143.609368
 30
0.0
 11
84.172207
 21
96.609368
 31
0.0
  0
LWPOLYLINE
  5
243
100
AcDbEntity
  8
ALPHA
100
AcDbPolyline
 90
        4
 70
     0
 43
0.0
 10
91.357372
 20
185.151013
 10
91.508397
 20
185.207538
 10
91.651124
 20
185.256083
 10
91.783122
 20
185.296156
  0
LWPOLYLINE
  5
249
100
AcDbEntity
  8
ALPHA
100
AcDbPolyline
 90
        6
 70
     0
 43
0.0
 10
91.357372
 20
185.151013
 10
91.45004
 20
185.262471
 10
91.526623
 20
185.356759
 10
91.585313
 20
185.431255
 10
91.622466
 20
185.482215
 10
91.634884
 20
185.506721
  0
LINE
  5
251
100
AcDbEntity
  8
ALPHA
100
AcDbLine
 10
89.722839
 20
182.353767
 30
0.0
 11
91.783122
 21
185.296156
 31
0.0
  0
LINE
  5
252
100
AcDbEntity
  8
ALPHA
100
AcDbLine
 10
89.481331
 20
182.800572
 30
0.0
 11
91.488437
 21
185.667018
 31
0.0
  0
LINE
  5
253
100
AcDbEntity
  8
ALPHA
100
AcDbLine
 10
96.534884
 20
207.359368
 30
0.0
 11
95.034884
 21
205.859368
 31
0.0
  0
LINE
  5
254
100
AcDbEntity
  8
ALPHA
100
AcDbLine
 10
87.922207
 20
100.359368
 30
0.0
 11
120.422207
 21
100.359368
 31
0.0
  0
LINE
  5
255
100
AcDbEntity
  8
ALPHA
100
AcDbLine
 10
120.972207
 20
99.309368
 30
0.0
 11
87.372207
 21
99.309368
 31
0.0
  0
LINE
  5
256
100
AcDbEntity
  8
ALPHA
100
AcDbLine
 10
86.772207
 20
98.709368
 30
0.0
 11
121.572207
 21
98.709368
 31
0.0
  0
LINE
  5
257
100
AcDbEntity
  8
ALPHA
100
AcDbLine
 10
111.747207
 20
97.809368
 30
0.0
 11
123.472207
 21
97.809368
 31
0.0
  0
LINE
  5
258
100
AcDbEntity
  8
ALPHA
100
AcDbLine
 10
84.872207
 20
97.809368
 30
0.0
 11
96.597207
 21
97.809368
 31
0.0
  0
LINE
  5
259
100
AcDbEntity
  8
ALPHA
100
AcDbLine
 10
85.872207
 20
97.309368
 30
0.0
 11
96.597207
 21
97.309368
 31
0.0
  0
LINE
  5
25A
100
AcDbEntity
  8
ALPHA
100
AcDbLine
 10
122.472207
 20
97.309368
 30
0.0
 11
111.747207
 21
97.309368
 31
0.0
  0
LINE
  5
25B
100
AcDbEntity
  8
ALPHA
100
AcDbLine
 10
110.747207
 20
96.809368
 30
0.0
 11
122.472207
 21
96.809368
 31
0.0
  0
LINE
  5
25C
100
AcDbEntity
  8
ALPHA
100
AcDbLine
 10
85.872207
 20
96.809368
 30
0.0
 11
97.597207
 21
96.809368
 31
0.0
  0
LINE
  5
25D
100
AcDbEntity
  8
ALPHA
100
AcDbLine
 10
119.172207
 20
96.609368
 30
0.0
 11
124.172207
 21
96.609368
 31
0.0
  0
LINE
  5
25E
100
AcDbEntity
  8
ALPHA
100
AcDbLine
 10
84.172207
 20
96.609368
 30
0.0
 11
89.172207
 21
96.609368
 31
0.0
  0
LINE
  5
25F
100
AcDbEntity
  8
ALPHA
100
AcDbLine
 10
124.084884
 20
96.159368
 30
0.0
 11
123.881196
 21
96.159368
 31
0.0
  0
LINE
  5
260
100
AcDbEntity
  8
ALPHA
100
AcDbLine
 10
89.172207
 20
96.109368
 30
0.0
 11
84.672207
 21
96.109368
 31
0.0
  0
LINE
  5
261
100
AcDbEntity
  8
ALPHA
100
AcDbLine
 10
123.672207
 20
96.109368
 30
0.0
 11
119.172207
 21
96.109368
 31
0.0
  0
LINE
  5
262
100
AcDbEntity
  8
ALPHA
100
AcDbLine
 10
119.172207
 20
95.809368
 30
0.0
 11
123.097207
 21
95.809368
 31
0.0
  0
LINE
  5
263
100
AcDbEntity
  8
ALPHA
100
AcDbLine
 10
85.247207
 20
95.809368
 30
0.0
 11
89.172207
 21
95.809368
 31
0.0
  0
LINE
  5
264
100
AcDbEntity
  8
ALPHA
100
AcDbLine
 10
107.172207
 20
94.584368
 30
0.0
 11
105.712858
 21
94.584368
 31
0.0
  0
LINE
  5
265
100
AcDbEntity
  8
ALPHA
100
AcDbLine
 10
105.712858
 20
93.834368
 30
0.0
 11
107.172207
 21
93.834368
 31
0.0
  0
LWPOLYLINE
  5
266
100
AcDbEntity
  8
ALPHA
100
AcDbPolyline
 90
        6
 70
     0
 43
0.0
 10
109.672207
 20
82.862922
 10
109.517699
 20
82.880226
 10
109.378315
 20
82.930444
 10
109.267699
 20
83.008661
 10
109.196679
 20
83.107221
 10
109.172207
 20
83.216475
  0
LINE
  5
26E
100
AcDbEntity
  8
ALPHA
100
AcDbLine
 10
113.672207
 20
91.109368
 30
0.0
 11
114.172207
 21
91.109368
 31
0.0
  0
LINE
  5
26F
100
AcDbEntity
  8
ALPHA
100
AcDbLine
 10
94.672207
 20
91.109368
 30
0.0
 11
94.172207
 21
91.109368
 31
0.0
  0
LINE
  5
270
100
AcDbEntity
  8
ALPHA
100
AcDbLine
 10
104.472207
 20
85.809368
 30
0.0
 11
103.872207
 21
85.809368
 31
0.0
  0
LINE
  5
271
100
AcDbEntity
  8
ALPHA
100
AcDbLine
 10
103.872207
 20
84.809368
 30
0.0
 11
102.872207
 21
84.809368
 31
0.0
  0
LINE
  5
272
100
AcDbEntity
  8
ALPHA
100
AcDbLine
 10
105.472207
 20
84.809368
 30
0.0
 11
104.472207
 21
84.809368
 31
0.0
  0
LINE
  5
273
100
AcDbEntity
  8
ALPHA
100
AcDbLine
 10
109.172207
 20
84.509368
 30
0.0
 11
109.672207
 21
84.509368
 31
0.0
  0
LINE
  5
274
100
AcDbEntity
  8
ALPHA
100
AcDbLine
 10
98.672207
 20
84.509368
 30
0.0
 11
99.172207
 21
84.509368
 31
0.0
  0
LINE
  5
275
100
AcDbEntity
  8
ALPHA
100
AcDbLine
 10
104.472207
 20
84.209368
 30
0.0
 11
105.472207
 21
84.209368
 31
0.0
  0
LINE
  5
276
100
AcDbEntity
  8
ALPHA
100
AcDbLine
 10
102.872207
 20
84.209368
 30
0.0
 11
103.872207
 21
84.209368
 31
0.0
  0
LINE
  5
277
100
AcDbEntity
  8
ALPHA
100
AcDbLine
 10
111.247207
 20
84.009368
 30
0.0
 11
114.172207
 21
84.009368
 31
0.0
  0
LINE
  5
278
100
AcDbEntity
  8
ALPHA
100
AcDbLine
 10
94.172207
 20
84.009368
 30
0.0
 11
97.097207
 21
84.009368
 31
0.0
  0
LINE
  5
279
100
AcDbEntity
  8
ALPHA
100
AcDbLine
 10
111.247207
 20
83.509368
 30
0.0
 11
113.672207
 21
83.509368
 31
0.0
  0
LINE
  5
27A
100
AcDbEntity
  8
ALPHA
100
AcDbLine
 10
97.097207
 20
83.509368
 30
0.0
 11
94.672207
 21
83.509368
 31
0.0
  0
LINE
  5
27B
100
AcDbEntity
  8
ALPHA
100
AcDbLine
 10
109.172207
 20
83.216475
 30
0.0
 11
111.247207
 21
83.216475
 31
0.0
  0
LINE
  5
27C
100
AcDbEntity
  8
ALPHA
100
AcDbLine
 10
97.097207
 20
83.216475
 30
0.0
 11
99.172207
 21
83.216475
 31
0.0
  0
LINE
  5
27D
100
AcDbEntity
  8
ALPHA
100
AcDbLine
 10
111.247207
 20
83.209368
 30
0.0
 11
114.172207
 21
83.209368
 31
0.0
  0
LINE
  5
27E
100
AcDbEntity
  8
ALPHA
100
AcDbLine
 10
103.872207
 20
83.209368
 30
0.0
 11
104.472207
 21
83.209368
 31
0.0
  0
LINE
  5
27F
100
AcDbEntity
  8
ALPHA
100
AcDbLine
 10
94.172207
 20
83.209368
 30
0.0
 11
97.097207
 21
83.209368
 31
0.0
  0
LINE
  5
280
100
AcDbEntity
  8
ALPHA
100
AcDbLine
 10
111.309884
 20
83.159368
 30
0.0
 11
114.534884
 21
83.159368
 31
0.0
  0
LINE
  5
281
100
AcDbEntity
  8
ALPHA
100
AcDbLine
 10
94.534884
 20
83.159368
 30
0.0
 11
97.097207
 21
83.159368
 31
0.0
  0
LWPOLYLINE
  5
282
100
AcDbEntity
  8
ALPHA
100
AcDbPolyline
 90
        6
 70
     0
 43
0.0
 10
98.672207
 20
82.862922
 10
98.826716
 20
82.880226
 10
98.9661
 20
82.930444
 10
99.076716
 20
83.008661
 10
99.147735
 20
83.107221
 10
99.172207
 20
83.216475
  0
LWPOLYLINE
  5
28A
100
AcDbEntity
  8
ALPHA
100
AcDbPolyline
 90
        6
 70
     0
 43
0.0
 10
97.597207
 20
82.862922
 10
97.442699
 20
82.880226
 10
97.303315
 20
82.930444
 10
97.192699
 20
83.008661
 10
97.121679
 20
83.107221
 10
97.097207
 20
83.216475
  0
LINE
  5
292
100
AcDbEntity
  8
ALPHA
100
AcDbLine
 10
109.672207
 20
82.862922
 30
0.0
 11
110.747207
 21
82.862922
 31
0.0
  0
LINE
  5
293
100
AcDbEntity
  8
ALPHA
100
AcDbLine
 10
97.597207
 20
82.862922
 30
0.0
 11
98.672207
 21
82.862922
 31
0.0
  0
LINE
  5
294
100
AcDbEntity
  8
ALPHA
100
AcDbLine
 10
114.034884
 20
81.659368
 30
0.0
 11
114.534884
 21
81.659368
 31
0.0
  0
LINE
  5
295
100
AcDbEntity
  8
ALPHA
100
AcDbLine
 10
95.034884
 20
81.659368
 30
0.0
 11
94.534884
 21
81.659368
 31
0.0
  0
LINE
  5
296
100
AcDbEntity
  8
ALPHA
100
AcDbLine
 10
111.247207
 20
80.659368
 30
0.0
 11
113.034884
 21
80.659368
 31
0.0
  0
LINE
  5
297
100
AcDbEntity
  8
ALPHA
100
AcDbLine
 10
97.097207
 20
80.659368
 30
0.0
 11
96.034884
 21
80.659368
 31
0.0
  0
LINE
  5
298
100
AcDbEntity
  8
ALPHA
100
AcDbLine
 10
97.126501
 20
80.209368
 30
0.0
 11
111.217913
 21
80.209368
 31
0.0
  0
LINE
  5
299
100
AcDbEntity
  8
ALPHA
100
AcDbLine
 10
85.984884
 20
80.159368
 30
0.0
 11
123.084884
 21
80.159368
 31
0.0
  0
LINE
  5
29A
100
AcDbEntity
  8
ALPHA
100
AcDbLine
 10
92.534884
 20
79.959368
 30
0.0
 11
116.534884
 21
79.959368
 31
0.0
  0
LINE
  5
29B
100
AcDbEntity
  8
ALPHA
100
AcDbLine
 10
92.534884
 20
78.659368
 30
0.0
 11
116.534884
 21
78.659368
 31
0.0
  0
LWPOLYLINE
  5
29C
100
AcDbEntity
  8
ALPHA
100
AcDbPolyline
 90
        6
 70
     0
 43
0.0
 10
110.747207
 20
82.862922
 10
110.901716
 20
82.880226
 10
111.0411
 20
82.930444
 10
111.151716
 20
83.008661
 10
111.222735
 20
83.107221
 10
111.247207
 20
83.216475
  0
INSERT
  5
322
100
AcDbEntity
  8
0
100
AcDbBlockReference
  2
SCH_ISO
 10
0.0
 20
0.0
 30
0.0
  0
ENDSEC
  0
SECTION
  2
OBJECTS
  0
DICTIONARY
  5
363
100
AcDbDictionary
  3
ACAD_GROUP
350
364
  3
ACAD_MLINESTYLE
350
371
  3
ACDBVARIABLEDICTIONARY
350
3B0
  0
DICTIONARY
  5
364
102
{ACAD_REACTORS
330
363
102
}
100
AcDbDictionary
  0
DICTIONARY
  5
371
102
{ACAD_REACTORS
330
363
102
}
100
AcDbDictionary
  3
STANDARD
350
372
  0
DICTIONARY
  5
3B0
102
{ACAD_REACTORS
330
363
102
}
100
AcDbDictionary
  3
DIMADEC
350
3B1
  0
MLINESTYLE
  5
372
102
{ACAD_REACTORS
330
371
102
}
100
AcDbMlineStyle
  2
STANDARD
 70
     0
  3

 62
   256
 51
90.0
 52
90.0
 71
     2
 49
0.5
 62
   256
  6
BYLAYER
 49
-0.5
 62
   256
  6
BYLAYER
  0
DICTIONARYVAR
  5
3B1
102
{ACAD_REACTORS
330
3B0
102
}
100
DictionaryVariables
280
     0
  1
0
  0
ENDSEC
  0
EOF
