  0
SECTION
  2
HEADER
  9
$ACADVER
  1
AC1014
  9
$ACADMAINTVER
 70
     9
  9
$DWGCODEPAGE
  3
ANSI_1252
  9
$INSBASE
 10
0.0
 20
0.0
 30
0.0
  9
$EXTMIN
 10
0.0
 20
-0.0594036109370222
 30
0.0
  9
$EXTMAX
 10
131.200008
 20
81.94059638906297
 30
0.0
  9
$LIMMIN
 10
0.0
 20
0.0
  9
$LIMMAX
 10
16.40000099999999
 20
10.25
  9
$ORTHOMODE
 70
     1
  9
$REGENMODE
 70
     1
  9
$FILLMODE
 70
     1
  9
$QTEXTMODE
 70
     0
  9
$MIRRTEXT
 70
     1
  9
$DRAGMODE
 70
     2
  9
$LTSCALE
 40
1.0
  9
$OSMODE
 70
   195
  9
$ATTMODE
 70
     1
  9
$TEXTSIZE
 40
0.2
  9
$TRACEWID
 40
0.05
  9
$TEXTSTYLE
  7
ROMANS
  9
$CLAYER
  8
0
  9
$CELTYPE
  6
BYLAYER
  9
$CECOLOR
 62
   256
  9
$CELTSCALE
 40
1.0
  9
$DELOBJ
 70
     1
  9
$DISPSILH
 70
     0
  9
$DIMSCALE
 40
0.0
  9
$DIMASZ
 40
0.07
  9
$DIMEXO
 40
0.0625
  9
$DIMDLI
 40
0.38
  9
$DIMRND
 40
0.001
  9
$DIMDLE
 40
0.0
  9
$DIMEXE
 40
0.0625
  9
$DIMTP
 40
0.0
  9
$DIMTM
 40
0.0
  9
$DIMTXT
 40
0.1
  9
$DIMCEN
 40
0.09
  9
$DIMTSZ
 40
0.0
  9
$DIMTOL
 70
     0
  9
$DIMLIM
 70
     0
  9
$DIMTIH
 70
     1
  9
$DIMTOH
 70
     1
  9
$DIMSE1
 70
     0
  9
$DIMSE2
 70
     0
  9
$DIMTAD
 70
     0
  9
$DIMZIN
 70
     4
  9
$DIMBLK
  1
SEARROW
  9
$DIMASO
 70
     1
  9
$DIMSHO
 70
     1
  9
$DIMPOST
  1
\P
  9
$DIMAPOST
  1

  9
$DIMALT
 70
     1
  9
$DIMALTD
 70
     0
  9
$DIMALTF
 40
25.4
  9
$DIMLFAC
 40
1.0
  9
$DIMTOFL
 70
     0
  9
$DIMTVP
 40
0.0
  9
$DIMTIX
 70
     0
  9
$DIMSOXD
 70
     0
  9
$DIMSAH
 70
     0
  9
$DIMBLK1
  1

  9
$DIMBLK2
  1

  9
$DIMSTYLE
  2
SCHNEIDERELECTRIC_DUAL_BEL
  9
$DIMCLRD
 70
   256
  9
$DIMCLRE
 70
   256
  9
$DIMCLRT
 70
   256
  9
$DIMTFAC
 40
1.0
  9
$DIMGAP
 40
0.04
  9
$DIMJUST
 70
     0
  9
$DIMSD1
 70
     0
  9
$DIMSD2
 70
     0
  9
$DIMTOLJ
 70
     1
  9
$DIMTZIN
 70
     0
  9
$DIMALTZ
 70
     4
  9
$DIMALTTZ
 70
     0
  9
$DIMFIT
 70
     3
  9
$DIMUPT
 70
     0
  9
$DIMUNIT
 70
     2
  9
$DIMDEC
 70
     2
  9
$DIMTDEC
 70
     2
  9
$DIMALTU
 70
     2
  9
$DIMALTTD
 70
     0
  9
$DIMTXSTY
  7
ROMANS
  9
$DIMAUNIT
 70
     0
  9
$LUNITS
 70
     2
  9
$LUPREC
 70
     4
  9
$SKETCHINC
 40
0.1
  9
$FILLETRAD
 40
0.5
  9
$AUNITS
 70
     0
  9
$AUPREC
 70
     0
  9
$MENU
  1
.
  9
$ELEVATION
 40
0.0
  9
$PELEVATION
 40
0.0
  9
$THICKNESS
 40
0.0
  9
$LIMCHECK
 70
     0
  9
$BLIPMODE
 70
     0
  9
$CHAMFERA
 40
0.5
  9
$CHAMFERB
 40
0.5
  9
$CHAMFERC
 40
1.0
  9
$CHAMFERD
 40
0.0
  9
$SKPOLY
 70
     0
  9
$TDCREATE
 40
2451764.576708576
  9
$TDUPDATE
 40
2452598.344580810
  9
$TDINDWG
 40
1.4600162616
  9
$TDUSRTIMER
 40
1.4600160301
  9
$USRTIMER
 70
     1
  9
$ANGBASE
 50
0.0
  9
$ANGDIR
 70
     0
  9
$PDMODE
 70
     0
  9
$PDSIZE
 40
0.0
  9
$PLINEWID
 40
0.0
  9
$COORDS
 70
     2
  9
$SPLFRAME
 70
     0
  9
$SPLINETYPE
 70
     6
  9
$SPLINESEGS
 70
     8
  9
$ATTDIA
 70
     0
  9
$ATTREQ
 70
     1
  9
$HANDLING
 70
 22529
  9
$HANDSEED
  5
64757
  9
$SURFTAB1
 70
     6
  9
$SURFTAB2
 70
     6
  9
$SURFTYPE
 70
     6
  9
$SURFU
 70
     6
  9
$SURFV
 70
     6
  9
$UCSNAME
  2

  9
$UCSORG
 10
0.0
 20
0.0
 30
0.0
  9
$UCSXDIR
 10
1.0
 20
0.0
 30
0.0
  9
$UCSYDIR
 10
0.0
 20
1.0
 30
0.0
  9
$PUCSNAME
  2

  9
$PUCSORG
 10
0.0
 20
0.0
 30
0.0
  9
$PUCSXDIR
 10
1.0
 20
0.0
 30
0.0
  9
$PUCSYDIR
 10
0.0
 20
1.0
 30
0.0
  9
$USERI1
 70
     0
  9
$USERI2
 70
     0
  9
$USERI3
 70
     0
  9
$USERI4
 70
     0
  9
$USERI5
 70
     0
  9
$USERR1
 40
0.0
  9
$USERR2
 40
0.0
  9
$USERR3
 40
0.0
  9
$USERR4
 40
0.0
  9
$USERR5
 40
0.0
  9
$WORLDVIEW
 70
     1
  9
$SHADEDGE
 70
     3
  9
$SHADEDIF
 70
    70
  9
$TILEMODE
 70
     0
  9
$MAXACTVP
 70
    48
  9
$PINSBASE
 10
0.0
 20
0.0
 30
0.0
  9
$PLIMCHECK
 70
     0
  9
$PEXTMIN
 10
-0.0006873553051179
 20
-0.1510877888644515
 30
-0.0000000000112498
  9
$PEXTMAX
 10
16.40084997196626
 20
10.25078135134674
 30
0.0000000000002956
  9
$PLIMMIN
 10
-0.4426441932288714
 20
-1.630172516165971
  9
$PLIMMAX
 10
16.84280796039644
 20
11.72676769854401
  9
$UNITMODE
 70
     0
  9
$VISRETAIN
 70
     1
  9
$PLINEGEN
 70
     0
  9
$PSLTSCALE
 70
     1
  9
$TREEDEPTH
 70
  3020
  9
$PICKSTYLE
 70
     1
  9
$CMLSTYLE
  2
STANDARD
  9
$CMLJUST
 70
     0
  9
$CMLSCALE
 40
1.0
  9
$PROXYGRAPHICS
 70
     1
  9
$MEASUREMENT
 70
     0
  0
ENDSEC
  0
SECTION
  2
CLASSES
  0
CLASS
  1
ACDBDICTIONARYWDFLT
  2
AcDbDictionaryWithDefault
  3
AutoCAD 2000
 90
        0
280
     0
281
     0
  0
CLASS
  1
ACDBPLACEHOLDER
  2
AcDbPlaceHolder
  3
AutoCAD 2000
 90
        0
280
     0
281
     0
  0
CLASS
  1
LAYOUT
  2
AcDbLayout
  3
AutoCAD 2000
 90
        0
280
     0
281
     0
  0
CLASS
  1
LONG_TRANSACTION
  2
AcDbLongTransaction
  3
AutoCAD 2000
 90
        0
280
     0
281
     0
  0
CLASS
  1
LWPOLYLINE
  2
AcDbPolyline
  3
AutoCAD 2000
 90
        0
280
     0
281
     1
  0
CLASS
  1
HATCH
  2
AcDbHatch
  3
AutoCAD 2000
 90
        0
280
     0
281
     1
  0
CLASS
  1
XRECORD
  2
AcDbXrecord
  3
AutoCAD 2000
 90
        0
280
     0
281
     0
  0
CLASS
  1
LONG_TRANSACTION
  2
AcDbLongTransaction
  3
AutoCAD 2000
 90
        0
280
     0
281
     0
  0
CLASS
  1
LWPOLYLINE
  2
AcDbPolyline
  3
AutoCAD 2000
 90
        0
280
     0
281
     1
  0
CLASS
  1
HATCH
  2
AcDbHatch
  3
AutoCAD 2000
 90
        0
280
     0
281
     1
  0
CLASS
  1
XRECORD
  2
AcDbXrecord
  3
AutoCAD 2000
 90
        0
280
     0
281
     0
  0
CLASS
  1
LONG_TRANSACTION
  2
AcDbLongTransaction
  3
AutoCAD 2000
 90
        0
280
     0
281
     0
  0
CLASS
  1
LWPOLYLINE
  2
AcDbPolyline
  3
AutoCAD 2000
 90
        0
280
     0
281
     1
  0
CLASS
  1
HATCH
  2
AcDbHatch
  3
AutoCAD 2000
 90
        0
280
     0
281
     1
  0
CLASS
  1
XRECORD
  2
AcDbXrecord
  3
AutoCAD 2000
 90
        0
280
     0
281
     0
  0
CLASS
  1
PLOTSETTINGS
  2
AcDbPlotSettings
  3
AutoCAD 2000
 90
        0
280
     0
281
     0
  0
CLASS
  1
ACME_DOCUMENT
  2
AcMeDbDoc
  3
AcMeServices
 90
        0
280
     0
281
     0
  0
CLASS
  1
AMGSETTINGSOBJ
  2
AmgSettingsObj
  3
"AcadM|Product Description: AutoCAD Mechanical 2000|Company: Autodesk"
 90
        0
280
     0
281
     0
  0
CLASS
  1
ACMESCOPE
  2
AcMeScope
  3
AcMeServices
 90
        0
280
     0
281
     0
  0
CLASS
  1
ACMECOMMANDHISTORY
  2
AcMeCommandHistory
  3
AcMeServices
 90
        0
280
     0
281
     0
  0
CLASS
  1
DICTIONARYVAR
  2
AcDbDictionaryVar
  3
AutoCAD 2000
 90
        0
280
     0
281
     0
  0
CLASS
  1
ACIMSYSVARMAN
  2
AcImSysVarManager
  3
AcMeServices
 90
        0
280
     0
281
     0
  0
CLASS
  1
ACIMREALSYSVAR
  2
AcImRealSysVar
  3
AcMeServices
 90
        0
280
     0
281
     0
  0
CLASS
  1
ACIMINTSYSVAR
  2
AcImIntSysVar
  3
AcMeServices
 90
        0
280
     0
281
     0
  0
CLASS
  1
ACMEDRAWINGMAN
  2
AcMeDrawingMan
  3
AcMeServices
 90
        0
280
     0
281
     0
  0
CLASS
  1
ACMEVIEW
  2
AcMeView
  3
AcMeServices
 90
        0
280
     0
281
     0
  0
CLASS
  1
ACDBENTITYCACHE
  2
AcMeEntityCache
  3
AcMeServices
 90
        0
280
     0
281
     0
  0
CLASS
  1
GSMANAGER
  2
AcMeGSManager
  3
AcMeServices
 90
        0
280
     0
281
     0
  0
CLASS
  1
AmdtInternalReactor
  2
AmdtInternalReactor
  3
AcMeServices
 90
        0
280
     0
281
     0
  0
CLASS
  1
ACMESTATEMGR
  2
AcMeStateMgr
  3
AcMeServices
 90
        0
280
     0
281
     0
  0
CLASS
  1
ACME_DATABASE
  2
AcMeDbDatabase
  3
AcMeServices
 90
        0
280
     0
281
     0
  0
CLASS
  1
ACRFINSADJUSTERMGR
  2
AcRfInsAdjusterMgr
  3
AcMeServices
 90
        0
280
     0
281
     0
  0
CLASS
  1
ACMDATADICTIONARY
  2
AcmDataDictionary
  3
"AcmSymBB|Product Description: AutoCAD Mechanical 2000|Company: Autodesk"
 90
        0
280
     0
281
     0
  0
CLASS
  1
ACMDATAENTRYBLOCK
  2
AcmDataEntryBlock
  3
"AcmSymBB|Product Description: AutoCAD Mechanical 2000|Company: Autodesk"
 90
        0
280
     0
281
     0
  0
CLASS
  1
AMGOBJPROPCFG
  2
AmgObjPropCfg
  3
"AmgLay|Product Description: AutoCAD Mechanical 2000|Company: Autodesk"
 90
        1
280
     0
281
     0
  0
CLASS
  1
ACAMGFILTERDAT
  2
AcAmgFilterDat
  3
"AcadM|Product Description: AutoCAD Mechanical 2000|Company: Autodesk"
 90
        0
280
     0
281
     0
  0
CLASS
  1
LAYER_INDEX
  2
AcDbLayerIndex
  3
AutoCAD 2000
 90
        0
280
     0
281
     0
  0
CLASS
  1
IDBUFFER
  2
AcDbIdBuffer
  3
AutoCAD 2000
 90
        0
280
     0
281
     0
  0
CLASS
  1
LONG_TRANSACTION
  2
AcDbLongTransaction
  3
AutoCAD 2000
 90
        0
280
     0
281
     0
  0
CLASS
  1
LWPOLYLINE
  2
AcDbPolyline
  3
AutoCAD 2000
 90
        0
280
     0
281
     1
  0
CLASS
  1
HATCH
  2
AcDbHatch
  3
AutoCAD 2000
 90
        0
280
     0
281
     1
  0
CLASS
  1
XRECORD
  2
AcDbXrecord
  3
AutoCAD 2000
 90
        0
280
     0
281
     0
  0
CLASS
  1
LONG_TRANSACTION
  2
AcDbLongTransaction
  3
AutoCAD 2000
 90
        0
280
     0
281
     0
  0
CLASS
  1
LWPOLYLINE
  2
AcDbPolyline
  3
AutoCAD 2000
 90
        0
280
     0
281
     1
  0
CLASS
  1
HATCH
  2
AcDbHatch
  3
AutoCAD 2000
 90
        0
280
     0
281
     1
  0
CLASS
  1
XRECORD
  2
AcDbXrecord
  3
AutoCAD 2000
 90
        0
280
     0
281
     0
  0
CLASS
  1
LONG_TRANSACTION
  2
AcDbLongTransaction
  3
AutoCAD 2000
 90
        0
280
     0
281
     0
  0
CLASS
  1
LWPOLYLINE
  2
AcDbPolyline
  3
AutoCAD 2000
 90
        0
280
     0
281
     1
  0
CLASS
  1
HATCH
  2
AcDbHatch
  3
AutoCAD 2000
 90
        0
280
     0
281
     1
  0
CLASS
  1
XRECORD
  2
AcDbXrecord
  3
AutoCAD 2000
 90
        0
280
     0
281
     0
  0
CLASS
  1
LONG_TRANSACTION
  2
AcDbLongTransaction
  3
AutoCAD 2000
 90
        0
280
     0
281
     0
  0
CLASS
  1
LWPOLYLINE
  2
AcDbPolyline
  3
AutoCAD 2000
 90
        0
280
     0
281
     1
  0
CLASS
  1
HATCH
  2
AcDbHatch
  3
AutoCAD 2000
 90
        0
280
     0
281
     1
  0
CLASS
  1
XRECORD
  2
AcDbXrecord
  3
AutoCAD 2000
 90
        0
280
     0
281
     0
  0
CLASS
  1
LONG_TRANSACTION
  2
AcDbLongTransaction
  3
AutoCAD 2000
 90
        0
280
     0
281
     0
  0
CLASS
  1
LWPOLYLINE
  2
AcDbPolyline
  3
AutoCAD 2000
 90
        0
280
     0
281
     1
  0
CLASS
  1
HATCH
  2
AcDbHatch
  3
AutoCAD 2000
 90
        0
280
     0
281
     1
  0
CLASS
  1
XRECORD
  2
AcDbXrecord
  3
AutoCAD 2000
 90
        0
280
     0
281
     0
  0
CLASS
  1
LONG_TRANSACTION
  2
AcDbLongTransaction
  3
AutoCAD 2000
 90
        0
280
     0
281
     0
  0
CLASS
  1
LWPOLYLINE
  2
AcDbPolyline
  3
AutoCAD 2000
 90
        0
280
     0
281
     1
  0
CLASS
  1
HATCH
  2
AcDbHatch
  3
AutoCAD 2000
 90
        0
280
     0
281
     1
  0
CLASS
  1
XRECORD
  2
AcDbXrecord
  3
AutoCAD 2000
 90
        0
280
     0
281
     0
  0
CLASS
  1
LONG_TRANSACTION
  2
AcDbLongTransaction
  3
AutoCAD 2000
 90
        0
280
     0
281
     0
  0
CLASS
  1
LWPOLYLINE
  2
AcDbPolyline
  3
AutoCAD 2000
 90
        0
280
     0
281
     1
  0
CLASS
  1
HATCH
  2
AcDbHatch
  3
AutoCAD 2000
 90
        0
280
     0
281
     1
  0
CLASS
  1
XRECORD
  2
AcDbXrecord
  3
AutoCAD 2000
 90
        0
280
     0
281
     0
  0
CLASS
  1
LONG_TRANSACTION
  2
AcDbLongTransaction
  3
AutoCAD 2000
 90
        0
280
     0
281
     0
  0
CLASS
  1
LWPOLYLINE
  2
AcDbPolyline
  3
AutoCAD 2000
 90
        0
280
     0
281
     1
  0
CLASS
  1
HATCH
  2
AcDbHatch
  3
AutoCAD 2000
 90
        0
280
     0
281
     1
  0
CLASS
  1
XRECORD
  2
AcDbXrecord
  3
AutoCAD 2000
 90
        0
280
     0
281
     0
  0
CLASS
  1
LONG_TRANSACTION
  2
AcDbLongTransaction
  3
AutoCAD 2000
 90
        0
280
     0
281
     0
  0
CLASS
  1
LWPOLYLINE
  2
AcDbPolyline
  3
AutoCAD 2000
 90
        0
280
     0
281
     1
  0
CLASS
  1
HATCH
  2
AcDbHatch
  3
AutoCAD 2000
 90
        0
280
     0
281
     1
  0
CLASS
  1
XRECORD
  2
AcDbXrecord
  3
AutoCAD 2000
 90
        0
280
     0
281
     0
  0
CLASS
  1
LONG_TRANSACTION
  2
AcDbLongTransaction
  3
AutoCAD 2000
 90
        0
280
     0
281
     0
  0
CLASS
  1
LWPOLYLINE
  2
AcDbPolyline
  3
AutoCAD 2000
 90
        0
280
     0
281
     1
  0
CLASS
  1
HATCH
  2
AcDbHatch
  3
AutoCAD 2000
 90
        0
280
     0
281
     1
  0
CLASS
  1
XRECORD
  2
AcDbXrecord
  3
AutoCAD 2000
 90
        0
280
     0
281
     0
  0
CLASS
  1
LONG_TRANSACTION
  2
AcDbLongTransaction
  3
AutoCAD 2000
 90
        0
280
     0
281
     0
  0
CLASS
  1
LWPOLYLINE
  2
AcDbPolyline
  3
AutoCAD 2000
 90
        0
280
     0
281
     1
  0
CLASS
  1
HATCH
  2
AcDbHatch
  3
AutoCAD 2000
 90
        0
280
     0
281
     1
  0
CLASS
  1
XRECORD
  2
AcDbXrecord
  3
AutoCAD 2000
 90
        0
280
     0
281
     0
  0
CLASS
  1
LONG_TRANSACTION
  2
AcDbLongTransaction
  3
AutoCAD 2000
 90
        0
280
     0
281
     0
  0
CLASS
  1
LWPOLYLINE
  2
AcDbPolyline
  3
AutoCAD 2000
 90
        0
280
     0
281
     1
  0
CLASS
  1
HATCH
  2
AcDbHatch
  3
AutoCAD 2000
 90
        0
280
     0
281
     1
  0
CLASS
  1
XRECORD
  2
AcDbXrecord
  3
AutoCAD 2000
 90
        0
280
     0
281
     0
  0
CLASS
  1
LONG_TRANSACTION
  2
AcDbLongTransaction
  3
AutoCAD 2000
 90
        0
280
     0
281
     0
  0
CLASS
  1
LWPOLYLINE
  2
AcDbPolyline
  3
AutoCAD 2000
 90
        0
280
     0
281
     1
  0
CLASS
  1
HATCH
  2
AcDbHatch
  3
AutoCAD 2000
 90
        0
280
     0
281
     1
  0
CLASS
  1
XRECORD
  2
AcDbXrecord
  3
AutoCAD 2000
 90
        0
280
     0
281
     0
  0
CLASS
  1
LONG_TRANSACTION
  2
AcDbLongTransaction
  3
AutoCAD 2000
 90
        0
280
     0
281
     0
  0
CLASS
  1
LWPOLYLINE
  2
AcDbPolyline
  3
AutoCAD 2000
 90
        0
280
     0
281
     1
  0
CLASS
  1
HATCH
  2
AcDbHatch
  3
AutoCAD 2000
 90
        0
280
     0
281
     1
  0
CLASS
  1
XRECORD
  2
AcDbXrecord
  3
AutoCAD 2000
 90
        0
280
     0
281
     0
  0
CLASS
  1
LONG_TRANSACTION
  2
AcDbLongTransaction
  3
AutoCAD 2000
 90
        0
280
     0
281
     0
  0
CLASS
  1
LWPOLYLINE
  2
AcDbPolyline
  3
AutoCAD 2000
 90
        0
280
     0
281
     1
  0
CLASS
  1
HATCH
  2
AcDbHatch
  3
AutoCAD 2000
 90
        0
280
     0
281
     1
  0
CLASS
  1
XRECORD
  2
AcDbXrecord
  3
AutoCAD 2000
 90
        0
280
     0
281
     0
  0
CLASS
  1
LONG_TRANSACTION
  2
AcDbLongTransaction
  3
AutoCAD 2000
 90
        0
280
     0
281
     0
  0
CLASS
  1
LWPOLYLINE
  2
AcDbPolyline
  3
AutoCAD 2000
 90
        0
280
     0
281
     1
  0
CLASS
  1
HATCH
  2
AcDbHatch
  3
AutoCAD 2000
 90
        0
280
     0
281
     1
  0
CLASS
  1
XRECORD
  2
AcDbXrecord
  3
AutoCAD 2000
 90
        0
280
     0
281
     0
  0
CLASS
  1
LONG_TRANSACTION
  2
AcDbLongTransaction
  3
AutoCAD 2000
 90
        0
280
     0
281
     0
  0
CLASS
  1
LWPOLYLINE
  2
AcDbPolyline
  3
AutoCAD 2000
 90
        0
280
     0
281
     1
  0
CLASS
  1
HATCH
  2
AcDbHatch
  3
AutoCAD 2000
 90
        0
280
     0
281
     1
  0
CLASS
  1
XRECORD
  2
AcDbXrecord
  3
AutoCAD 2000
 90
        0
280
     0
281
     0
  0
CLASS
  1
LONG_TRANSACTION
  2
AcDbLongTransaction
  3
AutoCAD 2000
 90
        0
280
     0
281
     0
  0
CLASS
  1
LWPOLYLINE
  2
AcDbPolyline
  3
AutoCAD 2000
 90
        0
280
     0
281
     1
  0
CLASS
  1
HATCH
  2
AcDbHatch
  3
AutoCAD 2000
 90
        0
280
     0
281
     1
  0
CLASS
  1
XRECORD
  2
AcDbXrecord
  3
AutoCAD 2000
 90
        0
280
     0
281
     0
  0
CLASS
  1
LONG_TRANSACTION
  2
AcDbLongTransaction
  3
AutoCAD 2000
 90
        0
280
     0
281
     0
  0
CLASS
  1
LWPOLYLINE
  2
AcDbPolyline
  3
AutoCAD 2000
 90
        0
280
     0
281
     1
  0
CLASS
  1
HATCH
  2
AcDbHatch
  3
AutoCAD 2000
 90
        0
280
     0
281
     1
  0
CLASS
  1
XRECORD
  2
AcDbXrecord
  3
AutoCAD 2000
 90
        0
280
     0
281
     0
  0
CLASS
  1
LONG_TRANSACTION
  2
AcDbLongTransaction
  3
AutoCAD 2000
 90
        0
280
     0
281
     0
  0
CLASS
  1
LWPOLYLINE
  2
AcDbPolyline
  3
AutoCAD 2000
 90
        0
280
     0
281
     1
  0
CLASS
  1
HATCH
  2
AcDbHatch
  3
AutoCAD 2000
 90
        0
280
     0
281
     1
  0
CLASS
  1
XRECORD
  2
AcDbXrecord
  3
AutoCAD 2000
 90
        0
280
     0
281
     0
  0
CLASS
  1
LONG_TRANSACTION
  2
AcDbLongTransaction
  3
AutoCAD 2000
 90
        0
280
     0
281
     0
  0
CLASS
  1
LWPOLYLINE
  2
AcDbPolyline
  3
AutoCAD 2000
 90
        0
280
     0
281
     1
  0
CLASS
  1
HATCH
  2
AcDbHatch
  3
AutoCAD 2000
 90
        0
280
     0
281
     1
  0
CLASS
  1
XRECORD
  2
AcDbXrecord
  3
AutoCAD 2000
 90
        0
280
     0
281
     0
  0
CLASS
  1
LONG_TRANSACTION
  2
AcDbLongTransaction
  3
AutoCAD 2000
 90
        0
280
     0
281
     0
  0
CLASS
  1
LWPOLYLINE
  2
AcDbPolyline
  3
AutoCAD 2000
 90
        0
280
     0
281
     1
  0
CLASS
  1
HATCH
  2
AcDbHatch
  3
AutoCAD 2000
 90
        0
280
     0
281
     1
  0
CLASS
  1
XRECORD
  2
AcDbXrecord
  3
AutoCAD 2000
 90
        0
280
     0
281
     0
  0
CLASS
  1
LONG_TRANSACTION
  2
AcDbLongTransaction
  3
AutoCAD 2000
 90
        0
280
     0
281
     0
  0
CLASS
  1
LWPOLYLINE
  2
AcDbPolyline
  3
AutoCAD 2000
 90
        0
280
     0
281
     1
  0
CLASS
  1
HATCH
  2
AcDbHatch
  3
AutoCAD 2000
 90
        0
280
     0
281
     1
  0
CLASS
  1
XRECORD
  2
AcDbXrecord
  3
AutoCAD 2000
 90
        0
280
     0
281
     0
  0
CLASS
  1
LONG_TRANSACTION
  2
AcDbLongTransaction
  3
AutoCAD 2000
 90
        0
280
     0
281
     0
  0
CLASS
  1
LWPOLYLINE
  2
AcDbPolyline
  3
AutoCAD 2000
 90
        0
280
     0
281
     1
  0
CLASS
  1
HATCH
  2
AcDbHatch
  3
AutoCAD 2000
 90
        0
280
     0
281
     1
  0
CLASS
  1
XRECORD
  2
AcDbXrecord
  3
AutoCAD 2000
 90
        0
280
     0
281
     0
  0
CLASS
  1
LONG_TRANSACTION
  2
AcDbLongTransaction
  3
AutoCAD 2000
 90
        0
280
     0
281
     0
  0
CLASS
  1
LWPOLYLINE
  2
AcDbPolyline
  3
AutoCAD 2000
 90
        0
280
     0
281
     1
  0
CLASS
  1
HATCH
  2
AcDbHatch
  3
AutoCAD 2000
 90
        0
280
     0
281
     1
  0
CLASS
  1
XRECORD
  2
AcDbXrecord
  3
AutoCAD 2000
 90
        0
280
     0
281
     0
  0
CLASS
  1
LONG_TRANSACTION
  2
AcDbLongTransaction
  3
AutoCAD 2000
 90
        0
280
     0
281
     0
  0
CLASS
  1
LWPOLYLINE
  2
AcDbPolyline
  3
AutoCAD 2000
 90
        0
280
     0
281
     1
  0
CLASS
  1
HATCH
  2
AcDbHatch
  3
AutoCAD 2000
 90
        0
280
     0
281
     1
  0
CLASS
  1
XRECORD
  2
AcDbXrecord
  3
AutoCAD 2000
 90
        0
280
     0
281
     0
  0
CLASS
  1
LONG_TRANSACTION
  2
AcDbLongTransaction
  3
AutoCAD 2000
 90
        0
280
     0
281
     0
  0
CLASS
  1
LWPOLYLINE
  2
AcDbPolyline
  3
AutoCAD 2000
 90
        0
280
     0
281
     1
  0
CLASS
  1
HATCH
  2
AcDbHatch
  3
AutoCAD 2000
 90
        0
280
     0
281
     1
  0
CLASS
  1
XRECORD
  2
AcDbXrecord
  3
AutoCAD 2000
 90
        0
280
     0
281
     0
  0
CLASS
  1
LONG_TRANSACTION
  2
AcDbLongTransaction
  3
AutoCAD 2000
 90
        0
280
     0
281
     0
  0
CLASS
  1
LWPOLYLINE
  2
AcDbPolyline
  3
AutoCAD 2000
 90
        0
280
     0
281
     1
  0
CLASS
  1
HATCH
  2
AcDbHatch
  3
AutoCAD 2000
 90
        0
280
     0
281
     1
  0
CLASS
  1
XRECORD
  2
AcDbXrecord
  3
AutoCAD 2000
 90
        0
280
     0
281
     0
  0
CLASS
  1
LONG_TRANSACTION
  2
AcDbLongTransaction
  3
AutoCAD 2000
 90
        0
280
     0
281
     0
  0
CLASS
  1
LWPOLYLINE
  2
AcDbPolyline
  3
AutoCAD 2000
 90
        0
280
     0
281
     1
  0
CLASS
  1
HATCH
  2
AcDbHatch
  3
AutoCAD 2000
 90
        0
280
     0
281
     1
  0
CLASS
  1
XRECORD
  2
AcDbXrecord
  3
AutoCAD 2000
 90
        0
280
     0
281
     0
  0
CLASS
  1
LONG_TRANSACTION
  2
AcDbLongTransaction
  3
AutoCAD 2000
 90
        0
280
     0
281
     0
  0
CLASS
  1
LWPOLYLINE
  2
AcDbPolyline
  3
AutoCAD 2000
 90
        0
280
     0
281
     1
  0
CLASS
  1
HATCH
  2
AcDbHatch
  3
AutoCAD 2000
 90
        0
280
     0
281
     1
  0
CLASS
  1
XRECORD
  2
AcDbXrecord
  3
AutoCAD 2000
 90
        0
280
     0
281
     0
  0
CLASS
  1
LONG_TRANSACTION
  2
AcDbLongTransaction
  3
AutoCAD 2000
 90
        0
280
     0
281
     0
  0
CLASS
  1
LWPOLYLINE
  2
AcDbPolyline
  3
AutoCAD 2000
 90
        0
280
     0
281
     1
  0
CLASS
  1
HATCH
  2
AcDbHatch
  3
AutoCAD 2000
 90
        0
280
     0
281
     1
  0
CLASS
  1
XRECORD
  2
AcDbXrecord
  3
AutoCAD 2000
 90
        0
280
     0
281
     0
  0
CLASS
  1
LONG_TRANSACTION
  2
AcDbLongTransaction
  3
AutoCAD 2000
 90
        0
280
     0
281
     0
  0
CLASS
  1
LWPOLYLINE
  2
AcDbPolyline
  3
AutoCAD 2000
 90
        0
280
     0
281
     1
  0
CLASS
  1
HATCH
  2
AcDbHatch
  3
AutoCAD 2000
 90
        0
280
     0
281
     1
  0
CLASS
  1
XRECORD
  2
AcDbXrecord
  3
AutoCAD 2000
 90
        0
280
     0
281
     0
  0
CLASS
  1
LONG_TRANSACTION
  2
AcDbLongTransaction
  3
AutoCAD 2000
 90
        0
280
     0
281
     0
  0
CLASS
  1
LWPOLYLINE
  2
AcDbPolyline
  3
AutoCAD 2000
 90
        0
280
     0
281
     1
  0
CLASS
  1
HATCH
  2
AcDbHatch
  3
AutoCAD 2000
 90
        0
280
     0
281
     1
  0
CLASS
  1
XRECORD
  2
AcDbXrecord
  3
AutoCAD 2000
 90
        0
280
     0
281
     0
  0
CLASS
  1
LONG_TRANSACTION
  2
AcDbLongTransaction
  3
AutoCAD 2000
 90
        0
280
     0
281
     0
  0
CLASS
  1
LWPOLYLINE
  2
AcDbPolyline
  3
AutoCAD 2000
 90
        0
280
     0
281
     1
  0
CLASS
  1
HATCH
  2
AcDbHatch
  3
AutoCAD 2000
 90
        0
280
     0
281
     1
  0
CLASS
  1
XRECORD
  2
AcDbXrecord
  3
AutoCAD 2000
 90
        0
280
     0
281
     0
  0
CLASS
  1
LONG_TRANSACTION
  2
AcDbLongTransaction
  3
AutoCAD 2000
 90
        0
280
     0
281
     0
  0
CLASS
  1
LWPOLYLINE
  2
AcDbPolyline
  3
AutoCAD 2000
 90
        0
280
     0
281
     1
  0
CLASS
  1
HATCH
  2
AcDbHatch
  3
AutoCAD 2000
 90
        0
280
     0
281
     1
  0
CLASS
  1
XRECORD
  2
AcDbXrecord
  3
AutoCAD 2000
 90
        0
280
     0
281
     0
  0
CLASS
  1
LONG_TRANSACTION
  2
AcDbLongTransaction
  3
AutoCAD 2000
 90
        0
280
     0
281
     0
  0
CLASS
  1
LWPOLYLINE
  2
AcDbPolyline
  3
AutoCAD 2000
 90
        0
280
     0
281
     1
  0
CLASS
  1
HATCH
  2
AcDbHatch
  3
AutoCAD 2000
 90
        0
280
     0
281
     1
  0
CLASS
  1
XRECORD
  2
AcDbXrecord
  3
AutoCAD 2000
 90
        0
280
     0
281
     0
  0
CLASS
  1
LONG_TRANSACTION
  2
AcDbLongTransaction
  3
AutoCAD 2000
 90
        0
280
     0
281
     0
  0
CLASS
  1
LWPOLYLINE
  2
AcDbPolyline
  3
AutoCAD 2000
 90
        0
280
     0
281
     1
  0
CLASS
  1
HATCH
  2
AcDbHatch
  3
AutoCAD 2000
 90
        0
280
     0
281
     1
  0
CLASS
  1
XRECORD
  2
AcDbXrecord
  3
AutoCAD 2000
 90
        0
280
     0
281
     0
  0
CLASS
  1
LONG_TRANSACTION
  2
AcDbLongTransaction
  3
AutoCAD 2000
 90
        0
280
     0
281
     0
  0
CLASS
  1
LWPOLYLINE
  2
AcDbPolyline
  3
AutoCAD 2000
 90
        0
280
     0
281
     1
  0
CLASS
  1
HATCH
  2
AcDbHatch
  3
AutoCAD 2000
 90
        0
280
     0
281
     1
  0
CLASS
  1
XRECORD
  2
AcDbXrecord
  3
AutoCAD 2000
 90
        0
280
     0
281
     0
  0
CLASS
  1
LONG_TRANSACTION
  2
AcDbLongTransaction
  3
AutoCAD 2000
 90
        0
280
     0
281
     0
  0
CLASS
  1
LWPOLYLINE
  2
AcDbPolyline
  3
AutoCAD 2000
 90
        0
280
     0
281
     1
  0
CLASS
  1
HATCH
  2
AcDbHatch
  3
AutoCAD 2000
 90
        0
280
     0
281
     1
  0
CLASS
  1
XRECORD
  2
AcDbXrecord
  3
AutoCAD 2000
 90
        0
280
     0
281
     0
  0
CLASS
  1
LONG_TRANSACTION
  2
AcDbLongTransaction
  3
AutoCAD 2000
 90
        0
280
     0
281
     0
  0
CLASS
  1
LWPOLYLINE
  2
AcDbPolyline
  3
AutoCAD 2000
 90
        0
280
     0
281
     1
  0
CLASS
  1
HATCH
  2
AcDbHatch
  3
AutoCAD 2000
 90
        0
280
     0
281
     1
  0
CLASS
  1
XRECORD
  2
AcDbXrecord
  3
AutoCAD 2000
 90
        0
280
     0
281
     0
  0
CLASS
  1
LONG_TRANSACTION
  2
AcDbLongTransaction
  3
AutoCAD 2000
 90
        0
280
     0
281
     0
  0
CLASS
  1
LWPOLYLINE
  2
AcDbPolyline
  3
AutoCAD 2000
 90
        0
280
     0
281
     1
  0
CLASS
  1
HATCH
  2
AcDbHatch
  3
AutoCAD 2000
 90
        0
280
     0
281
     1
  0
CLASS
  1
XRECORD
  2
AcDbXrecord
  3
AutoCAD 2000
 90
        0
280
     0
281
     0
  0
CLASS
  1
LONG_TRANSACTION
  2
AcDbLongTransaction
  3
AutoCAD 2000
 90
        0
280
     0
281
     0
  0
CLASS
  1
LWPOLYLINE
  2
AcDbPolyline
  3
AutoCAD 2000
 90
        0
280
     0
281
     1
  0
CLASS
  1
HATCH
  2
AcDbHatch
  3
AutoCAD 2000
 90
        0
280
     0
281
     1
  0
CLASS
  1
XRECORD
  2
AcDbXrecord
  3
AutoCAD 2000
 90
        0
280
     0
281
     0
  0
CLASS
  1
LONG_TRANSACTION
  2
AcDbLongTransaction
  3
AutoCAD 2000
 90
        0
280
     0
281
     0
  0
CLASS
  1
LWPOLYLINE
  2
AcDbPolyline
  3
AutoCAD 2000
 90
        0
280
     0
281
     1
  0
CLASS
  1
HATCH
  2
AcDbHatch
  3
AutoCAD 2000
 90
        0
280
     0
281
     1
  0
CLASS
  1
XRECORD
  2
AcDbXrecord
  3
AutoCAD 2000
 90
        0
280
     0
281
     0
  0
CLASS
  1
LONG_TRANSACTION
  2
AcDbLongTransaction
  3
AutoCAD 2000
 90
        0
280
     0
281
     0
  0
CLASS
  1
LWPOLYLINE
  2
AcDbPolyline
  3
AutoCAD 2000
 90
        0
280
     0
281
     1
  0
CLASS
  1
HATCH
  2
AcDbHatch
  3
AutoCAD 2000
 90
        0
280
     0
281
     1
  0
CLASS
  1
XRECORD
  2
AcDbXrecord
  3
AutoCAD 2000
 90
        0
280
     0
281
     0
  0
CLASS
  1
LONG_TRANSACTION
  2
AcDbLongTransaction
  3
AutoCAD 2000
 90
        0
280
     0
281
     0
  0
CLASS
  1
LWPOLYLINE
  2
AcDbPolyline
  3
AutoCAD 2000
 90
        0
280
     0
281
     1
  0
CLASS
  1
HATCH
  2
AcDbHatch
  3
AutoCAD 2000
 90
        0
280
     0
281
     1
  0
CLASS
  1
XRECORD
  2
AcDbXrecord
  3
AutoCAD 2000
 90
        0
280
     0
281
     0
  0
CLASS
  1
LONG_TRANSACTION
  2
AcDbLongTransaction
  3
AutoCAD 2000
 90
        0
280
     0
281
     0
  0
CLASS
  1
LWPOLYLINE
  2
AcDbPolyline
  3
AutoCAD 2000
 90
        0
280
     0
281
     1
  0
CLASS
  1
HATCH
  2
AcDbHatch
  3
AutoCAD 2000
 90
        0
280
     0
281
     1
  0
CLASS
  1
XRECORD
  2
AcDbXrecord
  3
AutoCAD 2000
 90
        0
280
     0
281
     0
  0
CLASS
  1
LONG_TRANSACTION
  2
AcDbLongTransaction
  3
AutoCAD 2000
 90
        0
280
     0
281
     0
  0
CLASS
  1
LWPOLYLINE
  2
AcDbPolyline
  3
AutoCAD 2000
 90
        0
280
     0
281
     1
  0
CLASS
  1
HATCH
  2
AcDbHatch
  3
AutoCAD 2000
 90
        0
280
     0
281
     1
  0
CLASS
  1
XRECORD
  2
AcDbXrecord
  3
AutoCAD 2000
 90
        0
280
     0
281
     0
  0
CLASS
  1
LONG_TRANSACTION
  2
AcDbLongTransaction
  3
AutoCAD 2000
 90
        0
280
     0
281
     0
  0
CLASS
  1
LWPOLYLINE
  2
AcDbPolyline
  3
AutoCAD 2000
 90
        0
280
     0
281
     1
  0
CLASS
  1
HATCH
  2
AcDbHatch
  3
AutoCAD 2000
 90
        0
280
     0
281
     1
  0
CLASS
  1
XRECORD
  2
AcDbXrecord
  3
AutoCAD 2000
 90
        0
280
     0
281
     0
  0
CLASS
  1
LONG_TRANSACTION
  2
AcDbLongTransaction
  3
AutoCAD 2000
 90
        0
280
     0
281
     0
  0
CLASS
  1
LWPOLYLINE
  2
AcDbPolyline
  3
AutoCAD 2000
 90
        0
280
     0
281
     1
  0
CLASS
  1
HATCH
  2
AcDbHatch
  3
AutoCAD 2000
 90
        0
280
     0
281
     1
  0
CLASS
  1
XRECORD
  2
AcDbXrecord
  3
AutoCAD 2000
 90
        0
280
     0
281
     0
  0
ENDSEC
  0
SECTION
  2
TABLES
  0
TABLE
  2
VPORT
  5
8
330
0
100
AcDbSymbolTable
 70
     1
  0
VPORT
  5
6423E
330
8
100
AcDbSymbolTableRecord
100
AcDbViewportTableRecord
  2
*ACTIVE
 70
     0
 10
0.0
 20
0.0
 11
1.0
 21
1.0
 12
65.60000430547384
 22
40.9405965799841
 13
0.0
 23
0.0
 14
0.5
 24
0.5
 15
0.5
 25
0.5
 16
0.0
 26
0.0
 36
1.0
 17
0.0
 27
0.0
 37
0.0
 40
82.69605829475219
 41
1.763713080168776
 42
50.0
 43
0.0
 44
0.0
 50
0.0
 51
0.0
 71
     0
 72
   100
 73
     1
 74
     2
 75
     0
 76
     0
 77
     0
 78
     0
  0
ENDTAB
  0
TABLE
  2
LTYPE
  5
5
330
0
100
AcDbSymbolTable
 70
     2
  0
LTYPE
  5
14
330
5
100
AcDbSymbolTableRecord
100
AcDbLinetypeTableRecord
  2
BYBLOCK
 70
     0
  3

 72
    65
 73
     0
 40
0.0
  0
LTYPE
  5
15
330
5
100
AcDbSymbolTableRecord
100
AcDbLinetypeTableRecord
  2
BYLAYER
 70
     0
  3

 72
    65
 73
     0
 40
0.0
  0
LTYPE
  5
16
330
5
100
AcDbSymbolTableRecord
100
AcDbLinetypeTableRecord
  2
CONTINUOUS
 70
     0
  3
Solid line
 72
    65
 73
     0
 40
0.0
  0
LTYPE
  5
18747
330
5
100
AcDbSymbolTableRecord
100
AcDbLinetypeTableRecord
  2
HIDDEN2
 70
     0
  3
Hidden (.5x) _ _ _ _ _ _ _ _ _ _ _ _ _ _ _ _ _
 72
    65
 73
     2
 40
0.1875
 49
0.125
 74
     0
 49
-0.0625
 74
     0
  0
ENDTAB
  0
TABLE
  2
LAYER
  5
2
330
0
100
AcDbSymbolTable
 70
    10
  0
LAYER
  5
10
330
2
100
AcDbSymbolTableRecord
100
AcDbLayerTableRecord
  2
0
 70
     0
 62
     7
  6
CONTINUOUS
  0
LAYER
  5
47
330
2
100
AcDbSymbolTableRecord
100
AcDbLayerTableRecord
  2
CONTINUOUS1
 70
     0
 62
     7
  6
CONTINUOUS
  0
LAYER
  5
48
330
2
100
AcDbSymbolTableRecord
100
AcDbLayerTableRecord
  2
CONTINUOUS2
 70
     0
 62
   254
  6
CONTINUOUS
  0
LAYER
  5
49
330
2
100
AcDbSymbolTableRecord
100
AcDbLayerTableRecord
  2
CONTINUOUS3
 70
     0
 62
   253
  6
CONTINUOUS
  0
LAYER
  5
4D
330
2
100
AcDbSymbolTableRecord
100
AcDbLayerTableRecord
  2
DIM
 70
     0
 62
     2
  6
CONTINUOUS
  0
LAYER
  5
55
330
2
100
AcDbSymbolTableRecord
100
AcDbLayerTableRecord
  2
TEXT1
 70
     0
 62
     3
  6
CONTINUOUS
  0
LAYER
  5
58
330
2
100
AcDbSymbolTableRecord
100
AcDbLayerTableRecord
  2
TITLEBLOCK
 70
     0
 62
     9
  6
CONTINUOUS
  0
LAYER
  5
59
330
2
100
AcDbSymbolTableRecord
100
AcDbLayerTableRecord
  2
VIEWPORT
 70
     0
 62
     9
  6
CONTINUOUS
  0
LAYER
  5
1875B
330
2
100
AcDbSymbolTableRecord
100
AcDbLayerTableRecord
  2
HIDDEN1
 70
     0
 62
     5
  6
HIDDEN2
  0
LAYER
  5
63534
330
2
100
AcDbSymbolTableRecord
100
AcDbLayerTableRecord
  2
DEFPOINTS
 70
     0
 62
     7
  6
CONTINUOUS
  0
ENDTAB
  0
TABLE
  2
STYLE
  5
3
330
0
100
AcDbSymbolTable
 70
     3
  0
STYLE
  5
11
330
3
100
AcDbSymbolTableRecord
100
AcDbTextStyleTableRecord
  2
STANDARD
 70
     0
 40
0.0
 41
1.0
 50
0.0
 71
     0
 42
0.2
  3
txt
  4

  0
STYLE
  5
36
330
3
100
AcDbSymbolTableRecord
100
AcDbTextStyleTableRecord
  2
ROMANS
 70
     0
 40
0.0
 41
1.0
 50
0.0
 71
     0
 42
0.2
  3
romans.shx
  4

  0
STYLE
  5
6CC
330
3
100
AcDbSymbolTableRecord
100
AcDbTextStyleTableRecord
  2
M_STANDARD
 70
     0
 40
0.0
 41
0.8
 50
0.0
 71
     0
 42
0.0
  3
MEDUSA.SHX
  4

  0
ENDTAB
  0
TABLE
  2
VIEW
  5
6
330
0
100
AcDbSymbolTable
 70
     0
  0
ENDTAB
  0
TABLE
  2
UCS
  5
7
330
0
100
AcDbSymbolTable
 70
     0
  0
ENDTAB
  0
TABLE
  2
APPID
  5
9
330
0
100
AcDbSymbolTable
 70
    11
  0
APPID
  5
12
330
9
100
AcDbSymbolTableRecord
100
AcDbRegAppTableRecord
  2
ACAD
 70
     0
  0
APPID
  5
6B
330
9
100
AcDbSymbolTableRecord
100
AcDbRegAppTableRecord
  2
DCO15
 70
     0
  0
APPID
  5
370
330
9
100
AcDbSymbolTableRecord
100
AcDbRegAppTableRecord
  2
MCAD_NO_VIS
 70
     0
  0
APPID
  5
371
330
9
100
AcDbSymbolTableRecord
100
AcDbRegAppTableRecord
  2
ACAD_TEMP_GRAPHIC
 70
     0
  0
APPID
  5
387
330
9
100
AcDbSymbolTableRecord
100
AcDbRegAppTableRecord
  2
GENIUS_GENSCREG_15
 70
     0
  0
APPID
  5
389
330
9
100
AcDbSymbolTableRecord
100
AcDbRegAppTableRecord
  2
GENIUS_GENODEF_13
 70
     0
  0
APPID
  5
38A
330
9
100
AcDbSymbolTableRecord
100
AcDbRegAppTableRecord
  2
GENIUS_GENOBJ-N-SDF_13
 70
     0
  0
APPID
  5
38B
330
9
100
AcDbSymbolTableRecord
100
AcDbRegAppTableRecord
  2
GENIUS_GENOENT_13
 70
     0
  0
APPID
  5
38C
330
9
100
AcDbSymbolTableRecord
100
AcDbRegAppTableRecord
  2
GENIUS_GENOREF_13
 70
     0
  0
APPID
  5
38D
330
9
100
AcDbSymbolTableRecord
100
AcDbRegAppTableRecord
  2
GENIUS_GENOLIS_13
 70
     0
  0
APPID
  5
6CE
330
9
100
AcDbSymbolTableRecord
100
AcDbRegAppTableRecord
  2
MED_PRIMTYPE
 70
     0
  0
ENDTAB
  0
TABLE
  2
DIMSTYLE
  5
A
330
0
100
AcDbSymbolTable
 70
     1
  0
DIMSTYLE
105
63945
102
{ACAD_REACTORS
330
63729
330
6371E
330
6371F
330
63724
330
63722
330
63723
330
63725
330
63726
330
63727
330
63728
330
63B4A
330
63720
102
}
330
A
100
AcDbSymbolTableRecord
100
AcDbDimStyleTableRecord
  2
SCHNEIDERELECTRIC_DUAL_BEL
 70
     0
  3
\P
  4

  5
SEARROW
  6

  7

 40
0.0
 41
0.07
 42
0.0625
 43
0.38
 44
0.0625
 45
0.001
 46
0.0
 47
0.0
 48
0.0
140
0.1
141
0.09
142
0.0
143
25.4
144
1.0
145
0.0
146
1.0
147
0.04
 71
     0
 72
     0
 73
     1
 74
     1
 75
     0
 76
     0
 77
     0
 78
     4
170
     1
171
     0
172
     0
173
     0
174
     0
175
     0
176
   256
177
   256
178
   256
270
     2
271
     2
272
     2
273
     2
274
     0
340
36
275
     0
280
     0
281
     0
282
     0
283
     1
284
     0
285
     4
286
     0
287
     3
288
     0
  0
ENDTAB
  0
TABLE
  2
BLOCK_RECORD
  5
1
330
0
100
AcDbSymbolTable
 70
    15
  0
BLOCK_RECORD
  5
1F
102
{ACAD_XDICTIONARY
360
73
102
}
330
1
100
AcDbSymbolTableRecord
100
AcDbBlockTableRecord
  2
*MODEL_SPACE
  0
BLOCK_RECORD
  5
1B
102
{ACAD_XDICTIONARY
360
75
102
}
330
1
100
AcDbSymbolTableRecord
100
AcDbBlockTableRecord
  2
*PAPER_SPACE
  0
BLOCK_RECORD
  5
841
330
1
100
AcDbSymbolTableRecord
100
AcDbBlockTableRecord
  2
LOGO-PAD
1001
ACAD
1000
DesignCenter Data
1002
{
1070
     1
1070
     1
1002
}
  0
BLOCK_RECORD
  5
AE5
330
1
100
AcDbSymbolTableRecord
100
AcDbBlockTableRecord
  2
TITLE-PAD
1001
ACAD
1000
DesignCenter Data
1002
{
1070
     1
1070
     1
1002
}
  0
BLOCK_RECORD
  5
61611
330
1
100
AcDbSymbolTableRecord
100
AcDbBlockTableRecord
  2
SEARROW
1001
ACAD
1000
DesignCenter Data
1002
{
1070
     1
1070
     1
1002
}
  0
BLOCK_RECORD
  5
634AB
330
1
100
AcDbSymbolTableRecord
100
AcDbBlockTableRecord
  2
M_PFN_2
  0
BLOCK_RECORD
  5
634AF
330
1
100
AcDbSymbolTableRecord
100
AcDbBlockTableRecord
  2
*D4
  0
BLOCK_RECORD
  5
634B8
330
1
100
AcDbSymbolTableRecord
100
AcDbBlockTableRecord
  2
*D5
  0
BLOCK_RECORD
  5
634C1
330
1
100
AcDbSymbolTableRecord
100
AcDbBlockTableRecord
  2
*D6
  0
BLOCK_RECORD
  5
634CF
330
1
100
AcDbSymbolTableRecord
100
AcDbBlockTableRecord
  2
*D7
  0
BLOCK_RECORD
  5
634DC
330
1
100
AcDbSymbolTableRecord
100
AcDbBlockTableRecord
  2
*D8
  0
BLOCK_RECORD
  5
634E9
330
1
100
AcDbSymbolTableRecord
100
AcDbBlockTableRecord
  2
*D9
  0
BLOCK_RECORD
  5
634F6
330
1
100
AcDbSymbolTableRecord
100
AcDbBlockTableRecord
  2
*D10
  0
BLOCK_RECORD
  5
634FF
330
1
100
AcDbSymbolTableRecord
100
AcDbBlockTableRecord
  2
*D11
  0
BLOCK_RECORD
  5
6350C
330
1
100
AcDbSymbolTableRecord
100
AcDbBlockTableRecord
  2
*D12
  0
BLOCK_RECORD
  5
63519
330
1
100
AcDbSymbolTableRecord
100
AcDbBlockTableRecord
  2
*D13
  0
BLOCK_RECORD
  5
63527
330
1
100
AcDbSymbolTableRecord
100
AcDbBlockTableRecord
  2
*D14
  0
ENDTAB
  0
ENDSEC
  0
SECTION
  2
BLOCKS
  0
BLOCK
  5
20
330
1F
100
AcDbEntity
  8
0
100
AcDbBlockBegin
  2
*MODEL_SPACE
 70
     0
 10
0.0
 20
0.0
 30
0.0
  3
*MODEL_SPACE
  1

  0
ENDBLK
  5
21
330
1F
100
AcDbEntity
  8
0
100
AcDbBlockEnd
  0
BLOCK
  5
1C
330
1B
100
AcDbEntity
 67
     1
  8
0
100
AcDbBlockBegin
  2
*PAPER_SPACE
 70
     0
 10
0.0
 20
0.0
 30
0.0
  3
*PAPER_SPACE
  1

  0
ENDBLK
  5
1D
330
1B
100
AcDbEntity
 67
     1
  8
0
100
AcDbBlockEnd
  0
BLOCK
  5
852
330
841
100
AcDbEntity
  8
0
100
AcDbBlockBegin
  2
LOGO-PAD
 70
     0
 10
0.0
 20
0.0
 30
0.0
  3
LOGO-PAD
  1

  0
HATCH
  5
842
330
841
100
AcDbEntity
  8
TITLEBLOCK
 62
     0
100
AcDbHatch
 10
0.0
 20
0.0
 30
0.0
210
0.0
220
0.0
230
1.0
  2
SOLID
 70
     1
 71
     0
 91
        2
 92
        1
 93
       11
 72
     2
 10
1.203771209334867
 20
0.3650136751459491
 40
0.021562648149145
 50
90.00000747299615
 51
179.9997683268519
 73
     1
 72
     1
 10
1.182208561185898
 20
0.3650137623336376
 11
1.182208392435807
 21
0.2795138227272444
 72
     2
 10
1.203771079023129
 20
0.2795136821032751
 40
0.0215626865877801
 50
179.9996263378447
 51
269.9998903896797
 73
     1
 72
     1
 10
1.203771037772394
 20
0.2579509955155343
 11
1.330521045577125
 21
0.2579511736405264
 72
     2
 10
1.330521265257171
 20
0.2795136382789064
 40
0.021562464639499
 50
269.9994162661957
 51
311.7040125634689
 73
     1
 72
     1
 10
1.344866398698837
 20
0.2634152834601535
 11
1.352083334663557
 21
0.2579511736405264
 72
     1
 10
1.352083334663557
 20
0.2579511736405264
 11
1.365099386916806
 21
0.2751416404960081
 72
     1
 10
1.365099386916806
 20
0.2751416404960081
 11
1.352083522163621
 21
0.284997066934386
 72
     1
 10
1.352083522163621
 20
0.284997066934386
 11
1.352083690913712
 21
0.3650136723335662
 72
     2
 10
1.330521042764654
 20
0.3650136751460369
 40
0.0215626481490576
 50
359.9999925267666
 51
449.9999925267678
 73
     1
 72
     1
 10
1.330521045577125
 20
0.3865763232950938
 11
1.203771206522485
 21
0.3865763232950938
 97
        0
 92
       16
 93
       10
 72
     2
 10
1.21455271481628
 20
0.3542325202904111
 40
0.0107811520434708
 50
90.00043844291294
 51
179.9999701074038
 73
     1
 72
     1
 10
1.203771562772811
 20
0.3542325259151993
 11
1.203771562772811
 21
0.2902950591455122
 72
     2
 10
1.214552849813946
 20
0.2902948416431456
 40
0.0107812870433294
 50
179.9988441113203
 51
269.9988441346395
 73
     1
 72
     1
 10
1.214552632315967
 20
0.2795135546020104
 11
1.323606134809704
 21
0.2795135546020104
 72
     1
 10
1.323606134809704
 20
0.2795135546020104
 11
1.280867956889135
 21
0.311873265117333
 72
     1
 10
1.280867956889135
 20
0.311873265117333
 11
1.293884009142384
 21
0.3290635557226322
 72
     1
 10
1.293884009142384
 20
0.3290635557226322
 11
1.330521045577125
 21
0.3013240413506308
 72
     1
 10
1.330521045577125
 20
0.3013240413506308
 11
1.330521045577125
 21
0.3542324377902786
 72
     2
 10
1.319739809158772
 20
0.3542324359152127
 40
0.0107812364183532
 50
0.0000099648460607
 51
90.00000996484372
 73
     1
 72
     1
 10
1.319739807283706
 20
0.3650136723335662
 11
1.214552632315967
 21
0.3650136723335662
 97
        0
 75
     0
 76
     1
 98
        1
 10
-7.279586802153931
 20
-0.4081141432880261
  0
HATCH
  5
843
330
841
100
AcDbEntity
  8
TITLEBLOCK
 62
     0
100
AcDbHatch
 10
0.0
 20
0.0
 30
0.0
210
0.0
220
0.0
230
1.0
  2
SOLID
 70
     1
 71
     0
 91
        1
 92
        1
 93
        4
 72
     1
 10
3.703333445713536
 20
0.1990762889281312
 11
1.018147379006204
 21
0.1990762889281312
 72
     1
 10
1.018147379006204
 20
0.1990762889281312
 11
1.018147379006204
 21
0.220706173683743
 72
     1
 10
1.018147379006204
 20
0.220706173683743
 11
3.703333445713536
 21
0.220706173683743
 72
     1
 10
3.703333445713536
 20
0.220706173683743
 11
3.703333445713536
 21
0.1990762889281312
 97
        0
 75
     0
 76
     1
 98
        1
 10
-7.279586802153931
 20
-0.4081141432880261
  0
HATCH
  5
844
330
841
100
AcDbEntity
  8
TITLEBLOCK
 62
     0
100
AcDbHatch
 10
0.0
 20
0.0
 30
0.0
210
0.0
220
0.0
230
1.0
  2
SOLID
 70
     1
 71
     0
 91
        4
 92
        1
 93
        4
 72
     1
 10
0.8306472632318495
 20
0.4814782717956759
 11
0.4556470182475714
 21
0.4814782717956759
 72
     1
 10
0.4556470182475714
 20
0.4814782717956759
 11
0.4556470182475714
 21
0.1064783844396073
 72
     1
 10
0.4556470182475714
 20
0.1064783844396073
 11
0.8306472632318495
 21
0.1064783844396073
 72
     1
 10
0.8306472632318495
 20
0.1064783844396073
 11
0.8306472632318495
 21
0.4814782717956759
 97
        0
 92
        0
 93
       10
 72
     1
 10
0.7368972019857374
 20
0.4177282462416896
 11
0.5193971779121789
 21
0.4177282462416896
 72
     1
 10
0.5193971779121789
 20
0.4177282462416896
 11
0.5193971779121789
 21
0.37460312508514
 72
     1
 10
0.5193971779121789
 20
0.37460312508514
 11
0.5531473465883146
 21
0.37460312508514
 72
     1
 10
0.5531473465883146
 20
0.37460312508514
 11
0.5531473465883146
 21
0.2133535311501431
 72
     1
 10
0.5531473465883146
 20
0.2133535311501431
 11
0.5193971779121789
 21
0.2133535311501431
 72
     1
 10
0.5193971779121789
 20
0.2133535311501431
 11
0.5193971779121789
 21
0.1702282758831428
 72
     1
 10
0.5193971779121789
 20
0.1702282758831428
 11
0.7368972019857374
 21
0.1702282758831428
 72
     1
 10
0.7368972019857374
 20
0.1702282758831428
 11
0.7668970141602749
 21
0.2002283115750982
 72
     1
 10
0.7668970141602749
 20
0.2002283115750982
 11
0.7668970141602749
 21
0.3877281658462506
 72
     1
 10
0.7668970141602749
 20
0.3877281658462506
 11
0.7368972019857374
 21
0.4177282462416896
 97
        0
 92
       16
 93
        4
 72
     1
 10
0.7987720492890098
 20
0.4496031025563197
 11
0.4875220533764768
 21
0.4496031025563197
 72
     1
 10
0.4875220533764768
 20
0.4496031025563197
 11
0.4875220533764768
 21
0.1383533301613751
 72
     1
 10
0.4875220533764768
 20
0.1383533301613751
 11
0.7987720492890098
 21
0.1383533301613751
 72
     1
 10
0.7987720492890098
 20
0.1383533301613751
 11
0.7987720492890098
 21
0.4496031025563197
 97
        0
 92
        0
 93
        4
 72
     1
 10
0.5962724677448641
 20
0.37460312508514
 11
0.5962724677448641
 21
0.2133535311501431
 72
     1
 10
0.5962724677448641
 20
0.2133535311501431
 11
0.7237719824106926
 21
0.2133535311501431
 72
     1
 10
0.7237719824106926
 20
0.2133535311501431
 11
0.7237719824106926
 21
0.37460312508514
 72
     1
 10
0.7237719824106926
 20
0.37460312508514
 11
0.5962724677448641
 21
0.37460312508514
 97
        0
 75
     0
 76
     1
 98
        1
 10
-7.279586802153931
 20
-0.313212194787444
  0
HATCH
  5
845
330
841
100
AcDbEntity
  8
TITLEBLOCK
 62
     0
100
AcDbHatch
 10
0.0
 20
0.0
 30
0.0
210
0.0
220
0.0
230
1.0
  2
SOLID
 70
     1
 71
     0
 91
        1
 92
        1
 93
       26
 72
     1
 10
1.050490193885575
 20
0.3650136723335662
 11
1.138990457951802
 21
0.3650136723335662
 72
     2
 10
1.138990281703138
 20
0.3542326140418093
 40
0.0107810582931976
 50
270.0009366709926
 51
360.0009366862294
 73
     0
 72
     1
 10
1.149771339994895
 20
0.3542324377902786
 11
1.171333797831589
 21
0.3542324377902786
 72
     1
 10
1.171333797831589
 20
0.3542324377902786
 11
1.171333797831589
 21
0.3650136723335662
 72
     2
 10
1.149771243432702
 20
0.365013768896207
 40
0.0215625543991033
 50
359.9997434148255
 51
449.9997434160159
 73
     1
 72
     1
 10
1.149771339994895
 20
0.3865763232950938
 11
1.039708786842066
 21
0.3865763232950938
 72
     2
 10
1.039709408398413
 20
0.3650142939052909
 40
0.0215620293987615
 50
90.00165163282177
 51
180.0014125206716
 73
     1
 72
     1
 10
1.018147379006204
 20
0.3650137623336376
 11
1.018147379006204
 21
0.3334199129435318
 72
     2
 10
1.039709363397143
 20
0.3334193363730153
 40
0.0215619843986475
 50
179.9984679027414
 51
269.9984679437668
 73
     1
 72
     1
 10
1.039708786842066
 20
0.3118573519820755
 11
1.138990457951802
 21
0.311857620107139
 72
     2
 10
1.138990280765661
 20
0.3010765608779043
 40
0.0107810592306907
 50
270.0009416531222
 51
360.0009416684906
 73
     0
 72
     1
 10
1.149771339994895
 20
0.3010763836888712
 11
1.149771508744986
 21
0.2902949691454408
 72
     2
 10
1.138990231076649
 20
0.2902948322713164
 40
0.0107812776692067
 50
359.9992725992319
 51
449.9997907459082
 73
     0
 72
     1
 10
1.138990270451738
 20
0.279513554602181
 11
1.050490193885575
 21
0.2795135546020104
 72
     2
 10
1.05049014888543
 20
0.2902951041454384
 40
0.0107815495435218
 50
89.99976085826782
 51
179.9997608594354
 73
     0
 72
     1
 10
1.039708599342002
 20
0.2902950591455122
 11
1.018147379006204
 21
0.2902950591455122
 72
     1
 10
1.018147379006204
 20
0.2902950591455122
 11
1.018147379006204
 21
0.2795138227272444
 72
     2
 10
1.039709273392517
 20
0.2795130680345569
 40
0.0215618943995203
 50
179.9979945776083
 51
269.9987071039827
 73
     1
 72
     1
 10
1.039708786842066
 20
0.2579511736405264
 11
1.149771339994895
 21
0.2579511736405264
 72
     2
 10
1.149771378432784
 20
0.2795135930396681
 40
0.0215624193991759
 50
269.9998978626289
 51
359.9996636967671
 73
     1
 72
     1
 10
1.171333797831589
 20
0.2795134664769192
 11
1.171333797831589
 21
0.3114825579869829
 72
     2
 10
1.149771333432362
 20
0.3114825645494808
 40
0.0215624643992288
 50
359.9999825621309
 51
449.9999825620359
 73
     1
 72
     1
 10
1.149771339994895
 20
0.3330450289487088
 11
1.050490193885575
 21
0.3330447608234748
 72
     2
 10
1.050490103885701
 20
0.3438262653667981
 40
0.0107815045436989
 50
89.99952171675776
 51
179.9999900368059
 73
     0
 72
     1
 10
1.039708599342002
 20
0.3438262634919964
 11
1.039708786842066
 21
0.3542325259151993
 72
     2
 10
1.050490107634269
 20
0.3542323515402983
 40
0.0107813207936133
 50
180.0009266903443
 51
270.0004583701697
 73
     0
 97
        0
 75
     0
 76
     1
 98
        1
 10
-7.279586802153931
 20
-0.4081141432880261
  0
HATCH
  5
846
330
841
100
AcDbEntity
  8
TITLEBLOCK
 62
     0
100
AcDbHatch
 10
0.0
 20
0.0
 30
0.0
210
0.0
220
0.0
230
1.0
  2
SOLID
 70
     1
 71
     0
 91
        1
 92
        1
 93
       18
 72
     2
 10
2.471082802883087
 20
0.3650137595211706
 40
0.021562563774099
 50
180.0000074732525
 51
269.9997683261728
 73
     0
 72
     1
 10
2.471082715695484
 20
0.3865763232950938
 11
2.586957622645552
 21
0.3865763232950938
 72
     2
 10
2.586957713583391
 20
0.3650135813961111
 40
0.0215627418991744
 50
269.9997583630888
 51
359.999758364108
 73
     0
 72
     1
 10
2.608520455482373
 20
0.3650136723335662
 11
2.608520455482373
 21
0.3542324377902786
 72
     1
 10
2.608520455482373
 20
0.3542324377902786
 11
2.586957622645552
 21
0.3542324377902786
 72
     2
 10
2.576176208103625
 20
0.3542322577916381
 40
0.0107814145434302
 50
0.0009565685814303
 51
90.00095658455173
 73
     1
 72
     1
 10
2.576176028101979
 20
0.3650136723335662
 11
2.481864141488966
 21
0.3650136723335662
 72
     2
 10
2.481864045863444
 20
0.3542323421656055
 40
0.0107813301683848
 50
89.99949181235312
 51
179.9994918168631
 73
     1
 72
     1
 10
2.471082715695484
 20
0.3542324377902786
 11
2.471082715695484
 21
0.2902950591455122
 72
     2
 10
2.481864090863785
 20
0.2902951097704553
 40
0.0107813751684203
 50
180.0002690376259
 51
270.0002690388874
 73
     1
 72
     1
 10
2.481864141488966
 20
0.2795137346021532
 11
2.576176028101979
 21
0.2795135546020104
 72
     2
 10
2.576176073102679
 20
0.2902951041456356
 40
0.010781549543719
 50
269.9997608553225
 51
359.9992825760937
 73
     1
 72
     1
 10
2.586957622645552
 20
0.2902949691454408
 11
2.608520455482373
 21
0.2902950591455122
 72
     1
 10
2.608520455482373
 20
0.2902950591455122
 11
2.608520099232048
 21
0.2795134664769192
 72
     2
 10
2.586957670458414
 20
0.2795136024145366
 40
0.0215624287740632
 50
0.0003612140281018
 51
90.00012704854281
 73
     0
 72
     1
 10
2.586957622645552
 20
0.2579511736405264
 11
2.471082715695484
 21
0.2579511736405264
 72
     2
 10
2.471082667882924
 20
0.2795136024144634
 40
0.02156242877399
 50
89.99987295225965
 51
179.9998729525419
 73
     0
 72
     1
 10
2.449520239108988
 20
0.2795135546020104
 11
2.449520239108988
 21
0.3650137623336376
 97
        0
 75
     0
 76
     1
 98
        1
 10
-7.279586802153931
 20
-0.4081141432880261
  0
HATCH
  5
847
330
841
100
AcDbEntity
  8
TITLEBLOCK
 62
     0
100
AcDbHatch
 10
0.0
 20
0.0
 30
0.0
210
0.0
220
0.0
230
1.0
  2
SOLID
 70
     1
 71
     0
 91
        1
 92
        1
 93
       12
 72
     1
 10
2.026708344139745
 20
0.3865765014202565
 11
1.890208311215626
 21
0.3865765014202565
 72
     1
 10
1.890208311215626
 20
0.3865765014202565
 11
1.890208311215626
 21
0.2579511736405264
 72
     1
 10
1.890208311215626
 20
0.2579511736405264
 11
2.026708344139745
 21
0.2579511736405264
 72
     1
 10
2.026708344139745
 20
0.2579511736405264
 11
2.026708344139745
 21
0.2795135546020104
 72
     1
 10
2.026708344139745
 20
0.2795135546020104
 11
1.911770600302059
 21
0.2795135546020104
 72
     1
 10
1.911770600302059
 20
0.2795135546020104
 11
1.911770600302059
 21
0.3114825579869829
 72
     1
 10
1.911770600302059
 20
0.3114825579869829
 11
2.026708344139745
 21
0.3114825579869829
 72
     1
 10
2.026708344139745
 20
0.3114825579869829
 11
2.026708344139745
 21
0.333044848948566
 72
     1
 10
2.026708344139745
 20
0.333044848948566
 11
1.911770600302059
 21
0.333044848948566
 72
     1
 10
1.911770600302059
 20
0.333044848948566
 11
1.911770600302059
 21
0.3650136723335662
 72
     1
 10
1.911770600302059
 20
0.3650136723335662
 11
2.026708344139745
 21
0.3650136723335662
 72
     1
 10
2.026708344139745
 20
0.3650136723335662
 11
2.026708344139745
 21
0.3865765014202565
 97
        0
 75
     0
 76
     1
 98
        1
 10
-7.279586802153931
 20
-0.4081141432880261
  0
HATCH
  5
848
330
841
100
AcDbEntity
  8
TITLEBLOCK
 62
     0
100
AcDbHatch
 10
0.0
 20
0.0
 30
0.0
210
0.0
220
0.0
230
1.0
  2
SOLID
 70
     1
 71
     0
 91
        2
 92
        1
 93
        8
 72
     1
 10
1.614830743814064
 20
0.3865765014202565
 11
1.531145595393223
 21
0.2579509955155343
 72
     1
 10
1.531145595393223
 20
0.2579509955155343
 11
1.556870855949323
 21
0.2579511736405264
 72
     1
 10
1.556870855949323
 20
0.2579511736405264
 11
1.570898996363819
 21
0.2795135546020104
 72
     1
 10
1.570898996363819
 20
0.2795135546020104
 11
1.673830432358027
 21
0.2795135546020104
 72
     1
 10
1.673830432358027
 20
0.2795135546020104
 11
1.687858760272586
 21
0.2579514417655899
 72
     1
 10
1.687858760272586
 20
0.2579514417655899
 11
1.713583120827973
 21
0.2579514417655899
 72
     1
 10
1.713583120827973
 20
0.2579514417655899
 11
1.629898141157394
 21
0.3865765014202565
 72
     1
 10
1.629898141157394
 20
0.3865765014202565
 11
1.614830743814064
 21
0.3865765014202565
 97
        0
 92
       16
 93
        3
 72
     1
 10
1.622364536235675
 20
0.3586169575295115
 11
1.659801223192726
 21
0.3010763836888712
 72
     1
 10
1.659801223192726
 20
0.3010763836888712
 11
1.584928205528949
 21
0.3010762055637086
 72
     1
 10
1.584928205528949
 20
0.3010762055637086
 11
1.622364348735612
 21
0.3586165994043766
 97
        0
 75
     0
 76
     1
 98
        1
 10
-7.279586802153931
 20
-0.4081141432880261
  0
HATCH
  5
849
330
841
100
AcDbEntity
  8
TITLEBLOCK
 62
     0
100
AcDbHatch
 10
0.0
 20
0.0
 30
0.0
210
0.0
220
0.0
230
1.0
  2
SOLID
 70
     1
 71
     0
 91
        1
 92
        1
 93
       12
 72
     1
 10
1.392021104504447
 20
0.3865765014202565
 11
1.370458815418015
 21
0.3865765014202565
 72
     1
 10
1.370458815418015
 20
0.3865765014202565
 11
1.370458627917951
 21
0.2795138227272444
 72
     2
 10
1.39202114575308
 20
0.2795135133528436
 40
0.0215625178373483
 50
179.999177932392
 51
269.9998903944058
 73
     1
 72
     1
 10
1.392021104504447
 20
0.2579509955155343
 11
1.509583287556818
 21
0.2579511736405264
 72
     2
 10
1.509583335369764
 20
0.2795136024146219
 40
0.0215624287741484
 50
269.9998729512306
 51
359.9996387857453
 73
     1
 72
     1
 10
1.531145764143484
 20
0.2795134664769192
 11
1.531146120393639
 21
0.3865765014202565
 72
     1
 10
1.531146120393639
 20
0.3865765014202565
 11
1.509583287556818
 21
0.3865765014202565
 72
     1
 10
1.509583287556818
 20
0.3865765014202565
 11
1.509583287556818
 21
0.2902950591455122
 72
     2
 10
1.498801916139266
 20
0.290294926019563
 40
0.0107813714183743
 50
359.9992925246018
 51
449.9992925333428
 73
     0
 72
     1
 10
1.49880204926357
 20
0.2795135546020104
 11
1.402802342797695
 21
0.2795135546020104
 72
     2
 10
1.402802382172719
 20
0.2902950197703451
 40
0.0107814651684066
 50
90.00020925010334
 51
180.0002092508632
 73
     0
 72
     1
 10
1.392020917004384
 20
0.2902950591455122
 11
1.392021104504447
 21
0.3865765014202565
 97
        0
 75
     0
 76
     1
 98
        1
 10
-7.279586802153931
 20
-0.4081141432880261
  0
HATCH
  5
84A
330
841
100
AcDbEntity
  8
TITLEBLOCK
 62
     0
100
AcDbHatch
 10
0.0
 20
0.0
 30
0.0
210
0.0
220
0.0
230
1.0
  2
SOLID
 70
     1
 71
     0
 91
        2
 92
        1
 93
       13
 72
     2
 10
1.851958289039648
 20
0.2899198104641797
 40
0.0215625675244637
 50
0.0002565813902296
 51
90.00070498518821
 73
     1
 72
     2
 10
1.851958289040149
 20
0.3330449455099156
 40
0.0215625675245372
 50
269.9992950134807
 51
359.9995092535441
 73
     1
 72
     1
 10
1.873520856563896
 20
0.3330447608234748
 11
1.873520856563896
 21
0.3650136657708798
 72
     2
 10
1.851957894958188
 20
0.3650135398162329
 40
0.0215629616060761
 50
0.0003346789653151
 51
89.99920945081219
 73
     1
 72
     1
 10
1.851958192477166
 20
0.3865765014202565
 11
1.720333350237904
 21
0.3865765014202565
 72
     1
 10
1.720333350237904
 20
0.3865765014202565
 11
1.720333350237904
 21
0.2579511736405264
 72
     1
 10
1.720333350237904
 20
0.2579511736405264
 11
1.741896183074725
 21
0.2579511736405264
 72
     1
 10
1.741896183074725
 20
0.2579511736405264
 11
1.741896183074725
 21
0.3007013215688856
 72
     1
 10
1.741896183074725
 20
0.3007013215688856
 11
1.841176785433827
 21
0.3007013215688856
 72
     2
 10
1.841176693559081
 20
0.2899201789011263
 40
0.0107811426681508
 50
270.0004882631974
 51
360.0004882673548
 73
     0
 72
     1
 10
1.851957836226841
 20
0.289920087025598
 11
1.851958192477166
 21
0.2579511736405264
 72
     1
 10
1.851958192477166
 20
0.2579511736405264
 11
1.873520856563896
 21
0.2579511736405264
 72
     1
 10
1.873520856563896
 20
0.2579511736405264
 11
1.873520856563896
 21
0.2899199070254552
 97
        0
 92
       16
 93
        6
 72
     2
 10
1.841176693559081
 20
0.3542325296658069
 40
0.0107811426681508
 50
270.0004882631974
 51
360.0004882673548
 73
     0
 72
     1
 10
1.851957836226841
 20
0.3542324377902786
 11
1.851958192477166
 21
0.333044848948566
 72
     2
 10
1.841176871684197
 20
0.333044935198247
 40
0.0107813207933138
 50
0.0004583615308307
 51
90.00045836519477
 73
     0
 72
     1
 10
1.841176785433827
 20
0.3222636144052784
 11
1.741896183074725
 21
0.3222638825303419
 72
     1
 10
1.741896183074725
 20
0.3222638825303419
 11
1.741896183074725
 21
0.3650136723335662
 72
     1
 10
1.741896183074725
 20
0.3650136723335662
 11
1.841176785433827
 21
0.3650136723335662
 97
        0
 75
     0
 76
     1
 98
        1
 10
-7.279586802153931
 20
-0.4081141432880261
  0
HATCH
  5
84B
330
841
100
AcDbEntity
  8
TITLEBLOCK
 62
     0
100
AcDbHatch
 10
0.0
 20
0.0
 30
0.0
210
0.0
220
0.0
230
1.0
  2
SOLID
 70
     1
 71
     0
 91
        2
 92
        1
 93
       10
 72
     1
 10
2.168832611988261
 20
0.3650136723335662
 11
2.168832611988261
 21
0.2795135546021492
 72
     1
 10
2.168832611988261
 20
0.2795135546021492
 11
2.148020079641632
 21
0.2795135546021492
 72
     1
 10
2.148020079641632
 20
0.2795135546021492
 11
2.148020079641632
 21
0.2579511736406499
 72
     1
 10
2.148020079641632
 20
0.2579511736406499
 11
2.314895263659607
 21
0.2579511736406499
 72
     2
 10
2.314895311472477
 20
0.2795136024147182
 40
0.0215624287741214
 50
269.9998729514336
 51
359.9996387859474
 73
     1
 72
     1
 10
2.336457740246171
 20
0.2795134664770916
 11
2.336457740246171
 21
0.3650136723335662
 72
     2
 10
2.314895087410214
 20
0.3650138485844006
 40
0.0215626528366775
 50
359.9995316703829
 51
449.999531674211
 73
     1
 72
     1
 10
2.314895263659607
 20
0.386576501420358
 11
2.148020079641632
 21
0.386576501420358
 72
     1
 10
2.148020079641632
 20
0.386576501420358
 11
2.148020079641632
 21
0.3650136723335662
 72
     1
 10
2.148020079641632
 20
0.3650136723335662
 11
2.168832611988261
 21
0.3650136723335662
 97
        0
 92
       16
 93
        6
 72
     1
 10
2.190395257324933
 20
0.3650136723335662
 11
2.304113856616218
 21
0.3650136723335662
 72
     2
 10
2.304113942866619
 20
0.3542323515405775
 40
0.0107813207933337
 50
269.9995416346447
 51
359.9995416383139
 73
     0
 72
     1
 10
2.314895263659607
 20
0.3542324377902877
 11
2.314895263659607
 21
0.2902949691455452
 72
     2
 10
2.304113807866077
 20
0.2902950103956483
 40
0.0107814557936096
 50
0.0002192149982456
 51
89.99974092762393
 73
     0
 72
     1
 10
2.304113856616218
 20
0.2795135546021492
 11
2.190395257324933
 21
0.2795135546021492
 72
     1
 10
2.190395257324933
 20
0.2795135546021492
 11
2.190395257324933
 21
0.3650136723335662
 97
        0
 75
     0
 76
     1
 98
        1
 10
-7.279586802153931
 20
-0.4081141432880261
  0
HATCH
  5
84C
330
841
100
AcDbEntity
  8
TITLEBLOCK
 62
     0
100
AcDbHatch
 10
0.0
 20
0.0
 30
0.0
210
0.0
220
0.0
230
1.0
  2
SOLID
 70
     1
 71
     0
 91
        2
 92
        1
 93
        8
 72
     1
 10
3.241392303571654
 20
0.3865765014202565
 11
3.157707226761072
 21
0.2579509955155343
 72
     1
 10
3.157707226761072
 20
0.2579509955155343
 11
3.183432299816939
 21
0.2579511736405264
 72
     1
 10
3.183432299816939
 20
0.2579511736405264
 11
3.197460983981823
 21
0.2795133764768478
 72
     1
 10
3.197460983981823
 20
0.2795133764768478
 11
3.30039082622498
 21
0.2795135546020104
 72
     1
 10
3.30039082622498
 20
0.2795135546020104
 11
3.314419679139785
 21
0.2579514417655899
 72
     1
 10
3.314419679139785
 20
0.2579514417655899
 11
3.340144583445731
 21
0.2579511736405264
 72
     1
 10
3.340144583445731
 20
0.2579511736405264
 11
3.256459603774981
 21
0.3865765014202565
 72
     1
 10
3.256459603774981
 20
0.3865765014202565
 11
3.241392303571654
 21
0.3865765014202565
 97
        0
 92
       16
 93
        3
 72
     1
 10
3.248925740352245
 20
0.358616778466603
 11
3.211489480646473
 21
0.3010762055637086
 72
     1
 10
3.211489480646473
 20
0.3010762055637086
 11
3.28636178580994
 21
0.3010763836888712
 72
     1
 10
3.28636178580994
 20
0.3010763836888712
 11
3.248925740352245
 21
0.358616778466603
 97
        0
 75
     0
 76
     1
 98
        1
 10
-7.279586802153931
 20
-0.4081141432880261
  0
HATCH
  5
84D
330
841
100
AcDbEntity
  8
TITLEBLOCK
 62
     0
100
AcDbHatch
 10
0.0
 20
0.0
 30
0.0
210
0.0
220
0.0
230
1.0
  2
SOLID
 70
     1
 71
     0
 91
        1
 92
        1
 93
       13
 72
     1
 10
2.838488736968525
 20
0.3865765014202565
 11
2.806145209588674
 21
0.3865765014202565
 72
     1
 10
2.806145209588674
 20
0.3865765014202565
 11
2.806145209588674
 21
0.2579511736405264
 72
     1
 10
2.806145209588674
 20
0.2579511736405264
 11
2.827707667425368
 21
0.2579511736405264
 72
     1
 10
2.827707667425368
 20
0.2579511736405264
 11
2.827707667425368
 21
0.3640633654626753
 72
     1
 10
2.827707667425368
 20
0.3640633654626753
 11
2.899718420719221
 21
0.2579514417655899
 72
     1
 10
2.899718420719221
 20
0.2579514417655899
 11
2.922570860648686
 21
0.2579511736405264
 72
     1
 10
2.922570860648686
 20
0.2579511736405264
 11
2.994582138942956
 21
0.3640642598382782
 72
     1
 10
2.994582138942956
 20
0.3640642598382782
 11
2.994582138942956
 21
0.2579511736405264
 72
     1
 10
2.994582138942956
 20
0.2579511736405264
 11
3.016144596779479
 21
0.2579511736405264
 72
     1
 10
3.016144596779479
 20
0.2579511736405264
 11
3.016144596779479
 21
0.3865765014202565
 72
     1
 10
3.016144596779479
 20
0.3865765014202565
 11
2.983801425649954
 21
0.3865765014202565
 72
     1
 10
2.983801425649954
 20
0.3865765014202565
 11
2.911144640683954
 21
0.2795135546020104
 72
     1
 10
2.911144640683954
 20
0.2795135546020104
 11
2.838488380718199
 21
0.3865765014202565
 97
        0
 75
     0
 76
     1
 98
        1
 10
-7.279586802153931
 20
-0.4081141432880261
  0
HATCH
  5
84E
330
841
100
AcDbEntity
  8
TITLEBLOCK
 62
     0
100
AcDbHatch
 10
0.0
 20
0.0
 30
0.0
210
0.0
220
0.0
230
1.0
  2
SOLID
 70
     1
 71
     0
 91
        2
 92
        1
 93
        8
 72
     1
 10
2.79358243888161
 20
0.2795134664769192
 11
2.793582795131936
 21
0.3650136723335662
 72
     2
 10
2.772020240733041
 20
0.3650137688961994
 40
0.0215625543991104
 50
359.9997434148459
 51
449.999743415997
 73
     1
 72
     1
 10
2.772020337295241
 20
0.3865763232950938
 11
2.640957676673206
 21
0.3865763232950938
 72
     2
 10
2.640957763860811
 20
0.3650137595211699
 40
0.0215625637741002
 50
90.00023167383188
 51
179.9999925267453
 73
     1
 72
     1
 10
2.61939520008671
 20
0.3650137623336376
 11
2.61939520008671
 21
0.2795135546020104
 72
     2
 10
2.640957628860649
 20
0.2795136024144641
 40
0.0215624287739915
 50
180.0001270474597
 51
270.0001270477355
 73
     1
 72
     1
 10
2.640957676673206
 20
0.2579511736405264
 11
2.772020337295241
 21
0.2579511736405264
 72
     2
 10
2.772020197607671
 20
0.2795134149140743
 40
0.0215622412740004
 50
270.000371181646
 51
360.000137014207
 73
     1
 97
        0
 92
       16
 93
        8
 72
     2
 10
2.651738913091431
 20
0.3542324359149649
 40
0.0107812364186015
 50
89.9999900344766
 51
179.999521702949
 73
     1
 72
     1
 10
2.640957676673206
 20
0.3542325259151993
 11
2.640957676673206
 21
0.2902950591455122
 72
     2
 10
2.651738958091508
 20
0.2902950160204556
 40
0.010781281418388
 50
179.9997708172488
 51
269.9997708181704
 73
     1
 72
     1
 10
2.651738914966625
 20
0.2795137346021532
 11
2.761238742751839
 21
0.2795135546020104
 72
     2
 10
2.761238956501978
 20
0.2902951041442614
 40
0.0107815495443698
 50
269.9988640797126
 51
359.9992825833961
 73
     1
 72
     1
 10
2.772020506045503
 20
0.2902949691454408
 11
2.772020337295241
 21
0.3542324377902786
 72
     2
 10
2.761239007127366
 20
0.3542323421656908
 40
0.0107813301682991
 50
0.0005081826837109
 51
90.00050818719378
 73
     1
 72
     1
 10
2.76123891150193
 20
0.3650136723335662
 11
2.651738914966625
 21
0.3650136723335662
 97
        0
 75
     0
 76
     1
 98
        1
 10
-7.279586802153931
 20
-0.4081141432880261
  0
HATCH
  5
84F
330
841
100
AcDbEntity
  8
TITLEBLOCK
 62
     0
100
AcDbHatch
 10
0.0
 20
0.0
 30
0.0
210
0.0
220
0.0
230
1.0
  2
SOLID
 70
     1
 71
     0
 91
        2
 92
        1
 93
        8
 72
     2
 10
3.162769048174736
 20
0.3650134554401196
 40
0.0215630459811904
 50
270.0005663490367
 51
359.9994236862867
 73
     0
 72
     1
 10
3.184332094154836
 20
0.3650136723335662
 11
3.184332094154836
 21
0.3222638825303419
 72
     2
 10
3.162769397256125
 20
0.3222640184675962
 40
0.0215626968991391
 50
0.0003612085718475
 51
90.00036121084693
 73
     0
 72
     1
 10
3.162769261318015
 20
0.3007013215688856
 11
3.052707420665665
 21
0.3007013215688856
 72
     1
 10
3.052707420665665
 20
0.3007013215688856
 11
3.052707420665665
 21
0.2579511736405264
 72
     1
 10
3.052707420665665
 20
0.2579511736405264
 11
3.031144250328662
 21
0.2579511736405264
 72
     1
 10
3.031144250328662
 20
0.2579511736405264
 11
3.031144250328662
 21
0.3865765014202565
 72
     1
 10
3.031144250328662
 20
0.3865765014202565
 11
3.162769261318015
 21
0.3865765014202565
 97
        0
 92
       16
 93
        6
 72
     2
 10
3.151988118650169
 20
0.3542325296657216
 40
0.0107811426682361
 50
270.0004882627443
 51
360.0004882669015
 73
     0
 72
     1
 10
3.162769261318015
 20
0.3542324377902786
 11
3.162769261318015
 21
0.333044848948566
 72
     2
 10
3.151988118650169
 20
0.333044757073123
 40
0.0107811426682367
 50
359.9995117330984
 51
449.9995117372556
 73
     0
 72
     1
 10
3.15198821052483
 20
0.3222636144052784
 11
3.052707420665665
 21
0.3222638825303419
 72
     1
 10
3.052707420665665
 20
0.3222638825303419
 11
3.052707420665665
 21
0.3650136723335662
 72
     1
 10
3.052707420665665
 20
0.3650136723335662
 11
3.15198821052483
 21
0.3650136723335662
 97
        0
 75
     0
 76
     1
 98
        1
 10
-7.279586802153931
 20
-0.4081141432880261
  0
HATCH
  5
850
330
841
100
AcDbEntity
  8
TITLEBLOCK
 62
     0
100
AcDbHatch
 10
0.0
 20
0.0
 30
0.0
210
0.0
220
0.0
230
1.0
  2
SOLID
 70
     1
 71
     0
 91
        1
 92
        1
 93
        9
 72
     1
 10
3.556847887515953
 20
0.3865763232950938
 11
3.525206566844968
 21
0.3865765014202565
 72
     1
 10
3.525206566844968
 20
0.3865765014202565
 11
3.60348814923547
 21
0.3136817019238036
 72
     1
 10
3.60348814923547
 20
0.3136817019238036
 11
3.603486349234383
 21
0.2579511736405264
 72
     1
 10
3.603486349234383
 20
0.2579511736405264
 11
3.625050607072164
 21
0.2579511736405264
 72
     1
 10
3.625050607072164
 20
0.2579511736405264
 11
3.625050607072164
 21
0.3136813437984982
 72
     1
 10
3.625050607072164
 20
0.3136813437984982
 11
3.703331833212512
 21
0.3865766795454191
 72
     1
 10
3.703331833212512
 20
0.3865766795454191
 11
3.671691225042007
 21
0.3865765014202565
 72
     1
 10
3.671691225042007
 20
0.3865765014202565
 11
3.61426955627898
 21
0.3331056458632473
 72
     1
 10
3.61426955627898
 20
0.3331056458632473
 11
3.556847887515953
 21
0.3865763232950938
 97
        0
 75
     0
 76
     1
 98
        1
 10
-7.279586802153931
 20
-0.4081141432880261
  0
HATCH
  5
851
330
841
100
AcDbEntity
  8
TITLEBLOCK
 62
     0
100
AcDbHatch
 10
0.0
 20
0.0
 30
0.0
210
0.0
220
0.0
230
1.0
  2
SOLID
 70
     1
 71
     0
 91
        1
 92
        1
 93
       10
 72
     1
 10
3.376247484495632
 20
0.3865765014202565
 11
3.345207161752892
 21
0.3865765014202565
 72
     1
 10
3.345207161752892
 20
0.3865765014202565
 11
3.345207161752892
 21
0.2579511736405264
 72
     1
 10
3.345207161752892
 20
0.2579511736405264
 11
3.366769638339558
 21
0.2579511736405264
 72
     1
 10
3.366769638339558
 20
0.2579511736405264
 11
3.366769638339558
 21
0.3659393041881229
 72
     1
 10
3.366769638339558
 20
0.3659393041881229
 11
3.48273627034943
 21
0.2579509955155343
 72
     1
 10
3.48273627034943
 20
0.2579509955155343
 11
3.515082122730785
 21
0.2579511736405264
 72
     1
 10
3.515082122730785
 20
0.2579511736405264
 11
3.515082122730785
 21
0.3865765014202565
 72
     1
 10
3.515082122730785
 20
0.3865765014202565
 11
3.49351767739277
 21
0.3865765014202565
 72
     1
 10
3.49351767739277
 20
0.3865765014202565
 11
3.49351767739277
 21
0.277374671329744
 72
     1
 10
3.49351767739277
 20
0.277374671329744
 11
3.376247484495632
 21
0.3865765014202565
 97
        0
 75
     0
 76
     1
 98
        1
 10
-7.279586802153931
 20
-0.4081141432880261
  0
ENDBLK
  5
853
330
841
100
AcDbEntity
  8
0
100
AcDbBlockEnd
  0
BLOCK
  5
AF5
330
AE5
100
AcDbEntity
  8
0
100
AcDbBlockBegin
  2
TITLE-PAD
 70
     2
 10
0.0
 20
0.0
 30
0.0
  3
TITLE-PAD
  1

  0
LWPOLYLINE
  5
B1D
330
AE5
100
AcDbEntity
  8
CONTINUOUS2
 62
     0
100
AcDbPolyline
 90
        7
 70
     1
 43
0.0
 10
16.40000099999999
 20
0.0
 10
16.40000099999999
 20
0.0
 10
16.40000099999999
 20
0.0
 10
8.002461
 20
0.0
 10
8.002461
 20
0.9120019999999993
 10
16.40000099999999
 20
0.9120019999999993
 10
16.40000099999999
 20
0.0
  0
INSERT
  5
B1E
330
AE5
100
AcDbEntity
  8
TITLEBLOCK
 62
     0
100
AcDbBlockReference
  2
LOGO-PAD
 10
12.245701
 20
0.3040000000000003
 30
0.0
  0
LINE
  5
B1F
330
AE5
100
AcDbEntity
  8
CONTINUOUS2
 62
     0
100
AcDbLine
 10
16.40000099999999
 20
0.3040000000000003
 30
0.0
 11
12.245701
 21
0.3040000000000003
 31
0.0
  0
LINE
  5
B20
330
AE5
100
AcDbEntity
  8
CONTINUOUS2
 62
     0
100
AcDbLine
 10
12.245701
 20
0.9120019999999993
 30
0.0
 11
12.245701
 21
0.0
 31
0.0
  0
TEXT
  5
B21
330
AE5
100
AcDbEntity
  8
TEXT1
  6
CONTINUOUS
 62
     0
100
AcDbText
 10
12.36897712113656
 20
0.0611566731182909
 30
0.0
 40
0.0699999951940822
  1
NO.
  7
ROMANS
 11
12.36897712113656
 21
0.096156670715332
 31
0.0
100
AcDbText
 73
     2
  0
TEXT
  5
B22
330
AE5
100
AcDbEntity
  8
TEXT1
  6
CONTINUOUS
 62
     0
100
AcDbText
 10
12.36897712113656
 20
0.1661566731182908
 30
0.0
 40
0.0699999951940822
  1
DWG#
  7
ROMANS
 11
12.36897712113656
 21
0.2011566707153319
 31
0.0
100
AcDbText
 73
     2
  0
ATTDEF
  5
B23
330
AE5
100
AcDbEntity
  8
TEXT1
 62
     0
100
AcDbText
 10
10.10183834893798
 20
0.7474460884590166
 30
0.0
 40
0.1
  1

  7
ROMANS
 72
     4
 11
10.10183834893798
 21
0.7474460884590166
 31
0.0
100
AcDbAttributeDefinition
  3
DESCRIPTION 1
  2
DESCRIPTION 1
 70
     0
  0
ATTDEF
  5
B24
330
AE5
100
AcDbEntity
  8
TEXT1
 62
     0
100
AcDbText
 10
10.10183834893798
 20
0.6017231711406717
 30
0.0
 40
0.1
  1

  7
ROMANS
 72
     4
 11
10.10183834893798
 21
0.6017231711406717
 31
0.0
100
AcDbAttributeDefinition
  3
DESCRIPTION 2
  2
DESCRIPTION 2
 70
     0
  0
ATTDEF
  5
B25
330
AE5
100
AcDbEntity
  8
TEXT1
 62
     0
100
AcDbText
 10
10.10183834893798
 20
0.4560002538223267
 30
0.0
 40
0.08
  1

  7
ROMANS
 72
     4
 11
10.10183834893798
 21
0.4560002538223267
 31
0.0
100
AcDbAttributeDefinition
  3
DESCRIPTION 3
  2
DESCRIPTION 3
 70
     0
  0
ATTDEF
  5
B26
330
AE5
100
AcDbEntity
  8
TEXT1
 62
     0
100
AcDbText
 10
10.10183834893798
 20
0.3202773365039833
 30
0.0
 40
0.08
  1

  7
ROMANS
 72
     4
 11
10.10183834893798
 21
0.3202773365039833
 31
0.0
100
AcDbAttributeDefinition
  3
DESCRIPTION 4
  2
DESCRIPTION 4
 70
     0
  0
ATTDEF
  5
B27
330
AE5
100
AcDbEntity
  8
TEXT1
 62
     0
100
AcDbText
 10
10.10183834893798
 20
0.1845544191856399
 30
0.0
 40
0.08
  1

  7
ROMANS
 72
     4
 11
10.10183834893798
 21
0.1845544191856399
 31
0.0
100
AcDbAttributeDefinition
  3
DESCRIPTION 5
  2
DESCRIPTION 5
 70
     0
  0
ATTDEF
  5
B28
330
AE5
100
AcDbEntity
  8
TEXT1
 62
     0
100
AcDbText
 10
12.74772367103195
 20
0.096540546036505
 30
0.0
 40
0.12
  1

 41
0.9512024731840066
  7
M_STANDARD
 11
12.74772367103195
 21
0.156540546036505
 31
0.0
100
AcDbAttributeDefinition
  3
DRAWING NUMBER
  2
DWGNO
 70
     0
 74
     2
  0
ATTDEF
  5
B29
330
AE5
100
AcDbEntity
  8
TEXT1
 62
     0
100
AcDbText
 10
16.35506454949325
 20
-0.1507193079929352
 30
0.0
 40
0.08
  1

  7
ROMANS
 72
     2
 11
16.35506454949325
 21
-0.1107193079929352
 31
0.0
100
AcDbAttributeDefinition
  3
REF DWG #
  2
REF
 70
     0
 74
     2
  0
ATTDEF
  5
B2A
330
AE5
100
AcDbEntity
  8
TEXT1
 62
     0
100
AcDbText
 10
0.0266402374038712
 20
-0.1507193079929352
 30
0.0
 40
0.08
  1

  7
ROMANS
 11
0.0266402374038712
 21
-0.1107193079929352
 31
0.0
100
AcDbAttributeDefinition
  3
DATE MODIFIED
  2
DATE
 70
     0
 74
     2
  0
LWPOLYLINE
  5
B2B
330
AE5
100
AcDbEntity
  8
CONTINUOUS3
 62
     0
100
AcDbPolyline
 90
        4
 70
   129
 43
0.0
 10
0.0
 20
0.0
 10
16.40000099999999
 20
0.0
 10
16.40000099999999
 20
10.25
 10
0.0
 20
10.25
  0
ENDBLK
  5
AF6
330
AE5
100
AcDbEntity
  8
0
100
AcDbBlockEnd
  0
BLOCK
  5
61613
330
61611
100
AcDbEntity
  8
0
100
AcDbBlockBegin
  2
SEARROW
 70
     0
 10
0.0
 20
0.0
 30
0.0
  3
SEARROW
  1

  0
LWPOLYLINE
  5
61612
330
61611
100
AcDbEntity
  8
0
  6
BYBLOCK
100
AcDbPolyline
 90
        2
 70
     0
 10
0.0
 20
0.0
 40
0.0
 41
0.5000000001500001
 10
-1.000000000300019
 20
0.0
 40
0.5000000001500001
 41
0.5000000001500001
  0
ENDBLK
  5
61614
330
61611
100
AcDbEntity
  8
0
100
AcDbBlockEnd
  0
BLOCK
  5
634AD
330
634AB
100
AcDbEntity
  8
0
100
AcDbBlockBegin
  2
M_PFN_2
 70
     0
 10
0.0
 20
0.0
 30
0.0
  3
M_PFN_2
  1

  0
POINT
  5
634AC
330
634AB
100
AcDbEntity
  8
0
  6
BYBLOCK
 62
     0
100
AcDbPoint
 10
0.0
 20
0.0
 30
0.0
  0
ENDBLK
  5
634AE
330
634AB
100
AcDbEntity
  8
0
100
AcDbBlockEnd
  0
BLOCK
  5
634B6
330
634AF
100
AcDbEntity
  8
0
100
AcDbBlockBegin
  2
*D4
 70
     1
 10
0.0
 20
0.0
 30
0.0
  3
*D4
  1

  0
LINE
  5
6465A
330
634AF
100
AcDbEntity
  8
DIM
100
AcDbLine
 10
62.1698127608953
 20
68.75237102410953
 30
0.0
 11
61.60981276089525
 21
68.75237102410953
 31
0.0
  0
LINE
  5
6465B
330
634AF
100
AcDbEntity
  8
DIM
100
AcDbLine
 10
61.60981276089525
 20
68.75237102410953
 30
0.0
 11
60.69008759604813
 21
69.5975340129247
 31
0.0
  0
MTEXT
  5
6465C
330
634AF
100
AcDbEntity
  8
DIM
100
AcDbMText
 10
63.70886037994293
 20
68.75237102410952
 30
0.0
 40
0.8
 41
0.0
 71
     5
 72
     1
  1
\A1;R.25\P[6]
  7
ROMANS
1001
ACAD
1000
MTEXTBEGIN
1070
    73
1070
     1
1070
    44
1040
1.0
1070
    74
1070
     0
1000
MTEXTEND
  0
INSERT
  5
6465D
330
634AF
100
AcDbEntity
  8
DIM
100
AcDbBlockReference
  2
SEARROW
 10
60.27774644816869
 20
69.97644663842755
 30
0.0
 41
0.5600000000000001
 42
0.5600000000000001
 43
0.5600000000000001
 50
137.4191669124791
  0
LINE
  5
6465E
330
634AF
100
AcDbEntity
  8
DIM
100
AcDbLine
 10
59.08626715515897
 20
70.88754664379462
 30
0.0
 11
59.48626715515898
 21
70.88754664379462
 31
0.0
  0
LINE
  5
6465F
330
634AF
100
AcDbEntity
  8
DIM
100
AcDbLine
 10
59.28626715515897
 20
70.68754664379461
 30
0.0
 11
59.28626715515897
 21
71.08754664379462
 31
0.0
  0
POINT
  5
64660
330
634AF
100
AcDbEntity
  8
DEFPOINTS
 62
     0
100
AcDbPoint
 10
60.27774644816869
 20
69.97644663842755
 30
0.0
  0
POINT
  5
64661
330
634AF
100
AcDbEntity
  8
DEFPOINTS
 62
     0
100
AcDbPoint
 10
59.28626715515896
 20
70.88754664379462
 30
0.0
  0
ENDBLK
  5
634B7
330
634AF
100
AcDbEntity
  8
0
100
AcDbBlockEnd
  0
BLOCK
  5
634BF
330
634B8
100
AcDbEntity
  8
0
100
AcDbBlockBegin
  2
*D5
 70
     1
 10
0.0
 20
0.0
 30
0.0
  3
*D5
  1

  0
LINE
  5
64662
330
634B8
100
AcDbEntity
  8
DIM
100
AcDbLine
 10
62.4350313105404
 20
74.45342406020789
 30
0.0
 11
61.71134946329599
 21
74.45342406020788
 31
0.0
  0
LINE
  5
64663
330
634B8
100
AcDbEntity
  8
DIM
100
AcDbLine
 10
61.71134946329599
 20
74.45342406020788
 30
0.0
 11
60.1890360604274
 21
73.11588222097909
 31
0.0
  0
MTEXT
  5
64664
330
634B8
100
AcDbEntity
  8
DIM
100
AcDbMText
 10
63.97407892958802
 20
74.45342406020789
 30
0.0
 40
0.8
 41
0.0
 71
     5
 72
     1
  1
\A1;R.16\P[4]
  7
ROMANS
1001
ACAD
1000
MTEXTBEGIN
1070
    73
1070
     1
1070
    44
1040
1.0
1070
    74
1070
     0
1000
MTEXTEND
  0
INSERT
  5
64665
330
634B8
100
AcDbEntity
  8
DIM
100
AcDbBlockReference
  2
SEARROW
 10
59.76834963655055
 20
72.74625682579402
 30
0.0
 41
0.5600000000000001
 42
0.5600000000000001
 43
0.5600000000000001
 50
221.3033314208829
  0
LINE
  5
64666
330
634B8
100
AcDbEntity
  8
DIM
100
AcDbLine
 10
59.08155534606447
 20
72.318547439937
 30
0.0
 11
59.48155534606448
 21
72.318547439937
 31
0.0
  0
LINE
  5
64667
330
634B8
100
AcDbEntity
  8
DIM
100
AcDbLine
 10
59.28155534606449
 20
72.11854743993701
 30
0.0
 11
59.28155534606448
 21
72.51854743993701
 31
0.0
  0
POINT
  5
64668
330
634B8
100
AcDbEntity
  8
DEFPOINTS
 62
     0
100
AcDbPoint
 10
59.76834963655055
 20
72.74625682579402
 30
0.0
  0
POINT
  5
64669
330
634B8
100
AcDbEntity
  8
DEFPOINTS
 62
     0
100
AcDbPoint
 10
59.2815553460645
 20
72.31854743993702
 30
0.0
  0
ENDBLK
  5
634C0
330
634B8
100
AcDbEntity
  8
0
100
AcDbBlockEnd
  0
BLOCK
  5
634CD
330
634C1
100
AcDbEntity
  8
0
100
AcDbBlockBegin
  2
*D6
 70
     1
 10
0.0
 20
0.0
 30
0.0
  3
*D6
  1

  0
LINE
  5
6474B
330
634C1
100
AcDbEntity
  8
DIM
100
AcDbLine
 10
58.57224025049885
 20
72.31854743993702
 30
0.0
 11
56.51525327261265
 21
72.31854743993702
 31
0.0
  0
LINE
  5
6474C
330
634C1
100
AcDbEntity
  8
DIM
100
AcDbLine
 10
58.57224025049879
 20
70.88754664379468
 30
0.0
 11
56.51525327261265
 21
70.88754664379468
 31
0.0
  0
LINE
  5
6474D
330
634C1
100
AcDbEntity
  8
DIM
100
AcDbLine
 10
57.01525327261265
 20
72.87854743993702
 30
0.0
 11
57.01525327261265
 21
73.43854743993702
 31
0.0
  0
LINE
  5
6474E
330
634C1
100
AcDbEntity
  8
DIM
100
AcDbLine
 10
57.01525327261265
 20
70.32754664379467
 30
0.0
 11
57.01525327261265
 21
69.76754664379467
 31
0.0
  0
LINE
  5
6474F
330
634C1
100
AcDbEntity
  8
DIM
100
AcDbLine
 10
56.45525327261265
 20
74.6219744068767
 30
0.0
 11
57.01525327261265
 21
74.6219744068767
 31
0.0
  0
LINE
  5
64750
330
634C1
100
AcDbEntity
  8
DIM
100
AcDbLine
 10
57.01525327261265
 20
74.6219744068767
 30
0.0
 11
57.01525327261265
 21
73.43854743993702
 31
0.0
  0
MTEXT
  5
64751
330
634C1
100
AcDbEntity
  8
DIM
100
AcDbMText
 10
55.31620565356503
 20
74.62197440687671
 30
0.0
 40
0.8
 41
0.0
 71
     5
 72
     1
  1
\A1;\P.25\P[6]
  7
ROMANS
  0
INSERT
  5
64752
330
634C1
100
AcDbEntity
  8
DIM
100
AcDbBlockReference
  2
SEARROW
 10
57.01525327261265
 20
72.31854743993702
 30
0.0
 41
0.5600000000000001
 42
0.5600000000000001
 43
0.5600000000000001
 50
270.0
  0
INSERT
  5
64753
330
634C1
100
AcDbEntity
  8
DIM
100
AcDbBlockReference
  2
SEARROW
 10
57.01525327261265
 20
70.88754664379468
 30
0.0
 41
0.5600000000000001
 42
0.5600000000000001
 43
0.5600000000000001
 50
90.0
  0
POINT
  5
64754
330
634C1
100
AcDbEntity
  8
DEFPOINTS
 62
     0
100
AcDbPoint
 10
59.07224025049885
 20
72.31854743993702
 30
0.0
  0
POINT
  5
64755
330
634C1
100
AcDbEntity
  8
DEFPOINTS
 62
     0
100
AcDbPoint
 10
59.07224025049879
 20
70.88754664379468
 30
0.0
  0
POINT
  5
64756
330
634C1
100
AcDbEntity
  8
DEFPOINTS
 62
     0
100
AcDbPoint
 10
57.01525327261265
 20
70.88754664379468
 30
0.0
  0
ENDBLK
  5
634CE
330
634C1
100
AcDbEntity
  8
0
100
AcDbBlockEnd
  0
BLOCK
  5
634DA
330
634CF
100
AcDbEntity
  8
0
100
AcDbBlockBegin
  2
*D7
 70
     1
 10
0.0
 20
0.0
 30
0.0
  3
*D7
  1

  0
LINE
  5
64676
330
634CF
100
AcDbEntity
  8
DIM
100
AcDbLine
 10
38.51094448652786
 20
64.70789384093183
 30
0.0
 11
38.51094448652786
 21
71.4659522546465
 31
0.0
  0
LINE
  5
64677
330
634CF
100
AcDbEntity
  8
DIM
100
AcDbLine
 10
47.87094448652787
 20
64.70789384093186
 30
0.0
 11
47.87094448652787
 21
71.4659522546465
 31
0.0
  0
LINE
  5
64678
330
634CF
100
AcDbEntity
  8
DIM
100
AcDbLine
 10
39.07094448652786
 20
70.96595225464651
 30
0.0
 11
39.853801629385
 21
70.96595225464651
 31
0.0
  0
LINE
  5
64679
330
634CF
100
AcDbEntity
  8
DIM
100
AcDbLine
 10
47.31094448652787
 20
70.96595225464651
 30
0.0
 11
44.30332543890881
 21
70.96595225464651
 31
0.0
  0
INSERT
  5
6467A
330
634CF
100
AcDbEntity
  8
DIM
100
AcDbBlockReference
  2
SEARROW
 10
38.51094448652786
 20
70.96595225464651
 30
0.0
 41
0.5600000000000001
 42
0.5600000000000001
 43
0.5600000000000001
 50
180.0
  0
INSERT
  5
6467B
330
634CF
100
AcDbEntity
  8
DIM
100
AcDbBlockReference
  2
SEARROW
 10
47.87094448652787
 20
70.96595225464651
 30
0.0
 41
0.5600000000000001
 42
0.5600000000000001
 43
0.5600000000000001
  0
MTEXT
  5
6467C
330
634CF
100
AcDbEntity
  8
DIM
100
AcDbMText
 10
42.0785635341469
 20
70.96595225464651
 30
0.0
 40
0.8
 41
0.0
 71
     5
 72
     1
  1
\A1;\P9.36\P [238]
  7
ROMANS
1001
ACAD
1000
MTEXTBEGIN
1070
    73
1070
     1
1070
    44
1040
1.0
1070
    74
1070
     0
1000
MTEXTEND
  0
POINT
  5
6467D
330
634CF
100
AcDbEntity
  8
DEFPOINTS
 62
     0
100
AcDbPoint
 10
38.51094448652786
 20
64.20789384093183
 30
0.0
  0
POINT
  5
6467E
330
634CF
100
AcDbEntity
  8
DEFPOINTS
 62
     0
100
AcDbPoint
 10
47.87094448652787
 20
64.20789384093186
 30
0.0
  0
POINT
  5
6467F
330
634CF
100
AcDbEntity
  8
DEFPOINTS
 62
     0
100
AcDbPoint
 10
47.87094448652787
 20
70.96595225464651
 30
0.0
  0
ENDBLK
  5
634DB
330
634CF
100
AcDbEntity
  8
0
100
AcDbBlockEnd
  0
BLOCK
  5
634E7
330
634DC
100
AcDbEntity
  8
0
100
AcDbBlockBegin
  2
*D8
 70
     1
 10
0.0
 20
0.0
 30
0.0
  3
*D8
  1

  0
LINE
  5
64680
330
634DC
100
AcDbEntity
  8
DIM
100
AcDbLine
 10
39.44094448652787
 20
64.97042510618875
 30
0.0
 11
39.44094448652787
 21
68.38706773326507
 31
0.0
  0
LINE
  5
64681
330
634DC
100
AcDbEntity
  8
DIM
100
AcDbLine
 10
46.94094448652786
 20
64.97042510618875
 30
0.0
 11
46.94094448652786
 21
68.38706773326507
 31
0.0
  0
LINE
  5
64682
330
634DC
100
AcDbEntity
  8
DIM
100
AcDbLine
 10
40.00094448652787
 20
67.88706773326507
 30
0.0
 11
40.72639937144952
 21
67.88706773326507
 31
0.0
  0
LINE
  5
64683
330
634DC
100
AcDbEntity
  8
DIM
100
AcDbLine
 10
46.38094448652786
 20
67.88706773326507
 30
0.0
 11
45.17592318097333
 21
67.88706773326507
 31
0.0
  0
INSERT
  5
64684
330
634DC
100
AcDbEntity
  8
DIM
100
AcDbBlockReference
  2
SEARROW
 10
39.44094448652787
 20
67.88706773326507
 30
0.0
 41
0.5600000000000001
 42
0.5600000000000001
 43
0.5600000000000001
 50
180.0
  0
INSERT
  5
64685
330
634DC
100
AcDbEntity
  8
DIM
100
AcDbBlockReference
  2
SEARROW
 10
46.94094448652786
 20
67.88706773326507
 30
0.0
 41
0.5600000000000001
 42
0.5600000000000001
 43
0.5600000000000001
  0
MTEXT
  5
64686
330
634DC
100
AcDbEntity
  8
DIM
100
AcDbMText
 10
42.95116127621143
 20
67.88706773326507
 30
0.0
 40
0.8
 41
0.0
 71
     5
 72
     1
  1
\A1;\P7.50\P [191]
  7
ROMANS
1001
ACAD
1000
MTEXTBEGIN
1070
    73
1070
     1
1070
    44
1040
1.0
1070
    74
1070
     0
1000
MTEXTEND
  0
POINT
  5
64687
330
634DC
100
AcDbEntity
  8
DEFPOINTS
 62
     0
100
AcDbPoint
 10
39.44094448652787
 20
64.47042510618875
 30
0.0
  0
POINT
  5
64688
330
634DC
100
AcDbEntity
  8
DEFPOINTS
 62
     0
100
AcDbPoint
 10
46.94094448652786
 20
64.47042510618875
 30
0.0
  0
POINT
  5
64689
330
634DC
100
AcDbEntity
  8
DEFPOINTS
 62
     0
100
AcDbPoint
 10
46.94094448652786
 20
67.88706773326507
 30
0.0
  0
ENDBLK
  5
634E8
330
634DC
100
AcDbEntity
  8
0
100
AcDbBlockEnd
  0
BLOCK
  5
634F4
330
634E9
100
AcDbEntity
  8
0
100
AcDbBlockBegin
  2
*D9
 70
     1
 10
0.0
 20
0.0
 30
0.0
  3
*D9
  1

  0
LINE
  5
6468A
330
634E9
100
AcDbEntity
  8
DIM
100
AcDbLine
 10
38.51094448652786
 20
64.70789384093183
 30
0.0
 11
38.51094448652786
 21
74.45466994808143
 31
0.0
  0
LINE
  5
6468B
330
634E9
100
AcDbEntity
  8
DIM
100
AcDbLine
 10
49.76094448652786
 20
50.36218244285153
 30
0.0
 11
49.76094448652786
 21
74.45466994808143
 31
0.0
  0
LINE
  5
6468C
330
634E9
100
AcDbEntity
  8
DIM
100
AcDbLine
 10
39.07094448652786
 20
73.95466994808143
 30
0.0
 11
43.81594448652786
 21
73.95466994808143
 31
0.0
  0
LINE
  5
6468D
330
634E9
100
AcDbEntity
  8
DIM
100
AcDbLine
 10
49.20094448652786
 20
73.95466994808143
 30
0.0
 11
48.26546829605167
 21
73.95466994808143
 31
0.0
  0
INSERT
  5
6468E
330
634E9
100
AcDbEntity
  8
DIM
100
AcDbBlockReference
  2
SEARROW
 10
38.51094448652786
 20
73.95466994808143
 30
0.0
 41
0.5600000000000001
 42
0.5600000000000001
 43
0.5600000000000001
 50
180.0
  0
INSERT
  5
6468F
330
634E9
100
AcDbEntity
  8
DIM
100
AcDbBlockReference
  2
SEARROW
 10
49.76094448652786
 20
73.95466994808143
 30
0.0
 41
0.5600000000000001
 42
0.5600000000000001
 43
0.5600000000000001
  0
MTEXT
  5
64690
330
634E9
100
AcDbEntity
  8
DIM
100
AcDbMText
 10
46.04070639128976
 20
73.95466994808143
 30
0.0
 40
0.8
 41
0.0
 71
     5
 72
     1
  1
\A1;\P11.25\P [286]
  7
ROMANS
1001
ACAD
1000
MTEXTBEGIN
1070
    73
1070
     1
1070
    44
1040
1.0
1070
    74
1070
     0
1000
MTEXTEND
  0
POINT
  5
64691
330
634E9
100
AcDbEntity
  8
DEFPOINTS
 62
     0
100
AcDbPoint
 10
38.51094448652786
 20
64.20789384093183
 30
0.0
  0
POINT
  5
64692
330
634E9
100
AcDbEntity
  8
DEFPOINTS
 62
     0
100
AcDbPoint
 10
49.76094448652786
 20
49.86218244285153
 30
0.0
  0
POINT
  5
64693
330
634E9
100
AcDbEntity
  8
DEFPOINTS
 62
     0
100
AcDbPoint
 10
49.76094448652786
 20
73.95466994808143
 30
0.0
  0
ENDBLK
  5
634F5
330
634E9
100
AcDbEntity
  8
0
100
AcDbBlockEnd
  0
BLOCK
  5
634FD
330
634F6
100
AcDbEntity
  8
0
100
AcDbBlockBegin
  2
*D10
 70
     1
 10
0.0
 20
0.0
 30
0.0
  3
*D10
  1

  0
LINE
  5
64694
330
634F6
100
AcDbEntity
  8
DIM
100
AcDbLine
 10
34.92365764077294
 20
67.44650578275255
 30
0.0
 11
35.48365764077294
 21
67.44650578275252
 31
0.0
  0
LINE
  5
64695
330
634F6
100
AcDbEntity
  8
DIM
100
AcDbLine
 10
35.48365764077294
 20
67.44650578275252
 30
0.0
 11
42.52394336477528
 21
64.72797996166787
 31
0.0
  0
MTEXT
  5
64696
330
634F6
100
AcDbEntity
  8
DIM
100
AcDbMText
 10
31.53699097410627
 20
67.44650578275254
 30
0.0
 40
0.8
 41
0.0
 71
     5
 72
     1
  1
\A1;.31 DIA\P[8]\P(2 HOLES)
  7
ROMANS
1001
ACAD
1000
MTEXTBEGIN
1070
    73
1070
     1
1070
    44
1040
1.0
1070
    74
1070
     0
1000
MTEXTEND
  0
INSERT
  5
64697
330
634F6
100
AcDbEntity
  8
DIM
100
AcDbBlockReference
  2
SEARROW
 10
43.04634983775629
 20
64.52625867625769
 30
0.0
 41
0.5600000000000001
 42
0.5600000000000001
 43
0.5600000000000001
 50
338.8865023973869
  0
POINT
  5
64698
330
634F6
100
AcDbEntity
  8
DEFPOINTS
 62
     0
100
AcDbPoint
 10
43.04634983775629
 20
64.52625867625769
 30
0.0
  0
POINT
  5
64699
330
634F6
100
AcDbEntity
  8
DEFPOINTS
 62
     0
100
AcDbPoint
 10
43.33553913529941
 20
64.4145915361199
 30
0.0
  0
ENDBLK
  5
634FE
330
634F6
100
AcDbEntity
  8
0
100
AcDbBlockEnd
  0
BLOCK
  5
6350A
330
634FF
100
AcDbEntity
  8
0
100
AcDbBlockBegin
  2
*D11
 70
     1
 10
0.0
 20
0.0
 30
0.0
  3
*D11
  1

  0
LINE
  5
6469A
330
634FF
100
AcDbEntity
  8
DIM
100
AcDbLine
 10
38.94094448652786
 20
64.47042510618875
 30
0.0
 11
29.27567936961208
 21
64.47042510618877
 31
0.0
  0
LINE
  5
6469B
330
634FF
100
AcDbEntity
  8
DIM
100
AcDbLine
 10
38.94094448652786
 20
43.06042506130682
 30
0.0
 11
29.27567936961207
 21
43.06042506130682
 31
0.0
  0
LINE
  5
6469C
330
634FF
100
AcDbEntity
  8
DIM
100
AcDbLine
 10
29.77567936961208
 20
63.91042510618876
 30
0.0
 11
29.77567936961207
 21
55.36161555993827
 31
0.0
  0
LINE
  5
6469D
330
634FF
100
AcDbEntity
  8
DIM
100
AcDbLine
 10
29.77567936961207
 20
43.62042506130683
 30
0.0
 11
29.77567936961207
 21
52.16923460755731
 31
0.0
  0
INSERT
  5
6469E
330
634FF
100
AcDbEntity
  8
DIM
100
AcDbBlockReference
  2
SEARROW
 10
29.77567936961208
 20
64.47042510618877
 30
0.0
 41
0.5600000000000001
 42
0.5600000000000001
 43
0.5600000000000001
 50
90.0
  0
INSERT
  5
6469F
330
634FF
100
AcDbEntity
  8
DIM
100
AcDbBlockReference
  2
SEARROW
 10
29.77567936961207
 20
43.06042506130682
 30
0.0
 41
0.5600000000000001
 42
0.5600000000000001
 43
0.5600000000000001
 50
270.0
  0
MTEXT
  5
646A0
330
634FF
100
AcDbEntity
  8
DIM
100
AcDbMText
 10
29.77567936961207
 20
53.7654250837478
 30
0.0
 40
0.8
 41
0.0
 71
     5
 72
     1
  1
\A1;21.41\P [544]
  7
ROMANS
1001
ACAD
1000
MTEXTBEGIN
1070
    73
1070
     1
1070
    44
1040
1.0
1070
    74
1070
     0
1000
MTEXTEND
  0
POINT
  5
646A1
330
634FF
100
AcDbEntity
  8
DEFPOINTS
 62
     0
100
AcDbPoint
 10
39.44094448652787
 20
64.47042510618875
 30
0.0
  0
POINT
  5
646A2
330
634FF
100
AcDbEntity
  8
DEFPOINTS
 62
     0
100
AcDbPoint
 10
39.44094448652787
 20
43.06042506130682
 30
0.0
  0
POINT
  5
646A3
330
634FF
100
AcDbEntity
  8
DEFPOINTS
 62
     0
100
AcDbPoint
 10
29.77567936961207
 20
43.06042506130682
 30
0.0
  0
ENDBLK
  5
6350B
330
634FF
100
AcDbEntity
  8
0
100
AcDbBlockEnd
  0
BLOCK
  5
63517
330
6350C
100
AcDbEntity
  8
0
100
AcDbBlockBegin
  2
*D12
 70
     1
 10
0.0
 20
0.0
 30
0.0
  3
*D12
  1

  0
LINE
  5
646A4
330
6350C
100
AcDbEntity
  8
DIM
100
AcDbLine
 10
38.01094448652786
 20
64.20789384093183
 30
0.0
 11
34.13155322792063
 21
64.20789384093183
 31
0.0
  0
LINE
  5
646A5
330
6350C
100
AcDbEntity
  8
DIM
100
AcDbLine
 10
38.01094448652786
 20
43.38789384093184
 30
0.0
 11
34.13155322792062
 21
43.38789384093184
 31
0.0
  0
LINE
  5
646A6
330
6350C
100
AcDbEntity
  8
DIM
100
AcDbLine
 10
34.63155322792062
 20
63.64789384093183
 30
0.0
 11
34.63155322792062
 21
55.06661553749729
 31
0.0
  0
LINE
  5
646A7
330
6350C
100
AcDbEntity
  8
DIM
100
AcDbLine
 10
34.63155322792061
 20
43.94789384093184
 30
0.0
 11
34.63155322792062
 21
51.87423458511634
 31
0.0
  0
INSERT
  5
646A8
330
6350C
100
AcDbEntity
  8
DIM
100
AcDbBlockReference
  2
SEARROW
 10
34.63155322792062
 20
64.20789384093183
 30
0.0
 41
0.5600000000000001
 42
0.5600000000000001
 43
0.5600000000000001
 50
90.0
  0
INSERT
  5
646A9
330
6350C
100
AcDbEntity
  8
DIM
100
AcDbBlockReference
  2
SEARROW
 10
34.63155322792061
 20
43.38789384093184
 30
0.0
 41
0.5600000000000001
 42
0.5600000000000001
 43
0.5600000000000001
 50
270.0
  0
MTEXT
  5
646AA
330
6350C
100
AcDbEntity
  8
DIM
100
AcDbMText
 10
34.63155322792061
 20
53.47042506130683
 30
0.0
 40
0.8
 41
0.0
 71
     5
 72
     1
  1
\A1;20.82\P [529]
  7
ROMANS
1001
ACAD
1000
MTEXTBEGIN
1070
    73
1070
     1
1070
    44
1040
1.0
1070
    74
1070
     0
1000
MTEXTEND
  0
POINT
  5
646AB
330
6350C
100
AcDbEntity
  8
DEFPOINTS
 62
     0
100
AcDbPoint
 10
38.51094448652786
 20
64.20789384093183
 30
0.0
  0
POINT
  5
646AC
330
6350C
100
AcDbEntity
  8
DEFPOINTS
 62
     0
100
AcDbPoint
 10
38.51094448652786
 20
43.38789384093184
 30
0.0
  0
POINT
  5
646AD
330
6350C
100
AcDbEntity
  8
DEFPOINTS
 62
     0
100
AcDbPoint
 10
34.63155322792061
 20
43.38789384093184
 30
0.0
  0
ENDBLK
  5
63518
330
6350C
100
AcDbEntity
  8
0
100
AcDbBlockEnd
  0
BLOCK
  5
63525
330
63519
100
AcDbEntity
  8
0
100
AcDbBlockBegin
  2
*D13
 70
     1
 10
0.0
 20
0.0
 30
0.0
  3
*D13
  1

  0
LINE
  5
646AE
330
63519
100
AcDbEntity
  8
DIM
100
AcDbLine
 10
38.01094448652786
 20
43.38789384093184
 30
0.0
 11
34.13155322792062
 21
43.38789384093184
 31
0.0
  0
LINE
  5
646AF
330
63519
100
AcDbEntity
  8
DIM
100
AcDbLine
 10
38.88412968279896
 20
42.23113320998884
 30
0.0
 11
34.13155322792062
 21
42.23113320998884
 31
0.0
  0
LINE
  5
646B0
330
63519
100
AcDbEntity
  8
DIM
100
AcDbLine
 10
34.63155322792061
 20
43.94789384093184
 30
0.0
 11
34.63155322792061
 21
44.50789384093183
 31
0.0
  0
LINE
  5
646B1
330
63519
100
AcDbEntity
  8
DIM
100
AcDbLine
 10
34.63155322792061
 20
41.67113320998883
 30
0.0
 11
34.63155322792061
 21
41.11113320998884
 31
0.0
  0
LINE
  5
646B2
330
63519
100
AcDbEntity
  8
DIM
100
AcDbLine
 10
34.63155322792061
 20
41.11113320998884
 30
0.0
 11
34.07155322792061
 21
41.11113320998884
 31
0.0
  0
INSERT
  5
646B3
330
63519
100
AcDbEntity
  8
DIM
100
AcDbBlockReference
  2
SEARROW
 10
34.63155322792061
 20
43.38789384093184
 30
0.0
 41
0.5600000000000001
 42
0.5600000000000001
 43
0.5600000000000001
 50
270.0
  0
INSERT
  5
646B4
330
63519
100
AcDbEntity
  8
DIM
100
AcDbBlockReference
  2
SEARROW
 10
34.63155322792061
 20
42.23113320998884
 30
0.0
 41
0.5600000000000001
 42
0.5600000000000001
 43
0.5600000000000001
 50
90.0
  0
MTEXT
  5
646B5
330
63519
100
AcDbEntity
  8
DIM
100
AcDbMText
 10
32.22774370411109
 20
41.11113320998884
 30
0.0
 40
0.8
 41
0.0
 71
     5
 72
     1
  1
\A1; \P1.16\P [29]
  7
ROMANS
1001
ACAD
1000
MTEXTBEGIN
1070
    73
1070
     1
1070
    44
1040
1.0
1070
    74
1070
     0
1000
MTEXTEND
  0
POINT
  5
646B6
330
63519
100
AcDbEntity
  8
DEFPOINTS
 62
     0
100
AcDbPoint
 10
38.51094448652786
 20
43.38789384093184
 30
0.0
  0
POINT
  5
646B7
330
63519
100
AcDbEntity
  8
DEFPOINTS
 62
     0
100
AcDbPoint
 10
39.38412968279895
 20
42.23113320998884
 30
0.0
  0
POINT
  5
646B8
330
63519
100
AcDbEntity
  8
DEFPOINTS
 62
     0
100
AcDbPoint
 10
34.63155322792061
 20
42.23113320998884
 30
0.0
  0
ENDBLK
  5
63526
330
63519
100
AcDbEntity
  8
0
100
AcDbBlockEnd
  0
BLOCK
  5
63532
330
63527
100
AcDbEntity
  8
0
100
AcDbBlockBegin
  2
*D14
 70
     1
 10
0.0
 20
0.0
 30
0.0
  3
*D14
  1

  0
LINE
  5
646B9
330
63527
100
AcDbEntity
  8
DIM
100
AcDbLine
 10
72.59091108729819
 20
64.70200975591025
 30
0.0
 11
72.59091108729819
 21
66.99544417862494
 31
0.0
  0
LINE
  5
646BA
330
63527
100
AcDbEntity
  8
DIM
100
AcDbLine
 10
79.56091108729819
 20
65.86200975475027
 30
0.0
 11
79.56091108729819
 21
66.99544417862494
 31
0.0
  0
LINE
  5
646BB
330
63527
100
AcDbEntity
  8
DIM
100
AcDbLine
 10
73.1509110872982
 20
66.49544417862493
 30
0.0
 11
73.85114918253627
 21
66.49544417862493
 31
0.0
  0
LINE
  5
646BC
330
63527
100
AcDbEntity
  8
DIM
100
AcDbLine
 10
79.00091108729819
 20
66.49544417862493
 30
0.0
 11
78.30067299206008
 21
66.49544417862493
 31
0.0
  0
INSERT
  5
646BD
330
63527
100
AcDbEntity
  8
DIM
100
AcDbBlockReference
  2
SEARROW
 10
72.59091108729819
 20
66.49544417862493
 30
0.0
 41
0.5600000000000001
 42
0.5600000000000001
 43
0.5600000000000001
 50
180.0
  0
INSERT
  5
646BE
330
63527
100
AcDbEntity
  8
DIM
100
AcDbBlockReference
  2
SEARROW
 10
79.56091108729819
 20
66.49544417862493
 30
0.0
 41
0.5600000000000001
 42
0.5600000000000001
 43
0.5600000000000001
  0
MTEXT
  5
646BF
330
63527
100
AcDbEntity
  8
DIM
100
AcDbMText
 10
76.07591108729818
 20
66.49544417862493
 30
0.0
 40
0.8
 41
0.0
 71
     5
 72
     1
  1
\A1;6.97\P [177]
  7
ROMANS
1001
ACAD
1000
MTEXTBEGIN
1070
    73
1070
     1
1070
    44
1040
1.0
1070
    74
1070
     0
1000
MTEXTEND
  0
POINT
  5
646C0
330
63527
100
AcDbEntity
  8
DEFPOINTS
 62
     0
100
AcDbPoint
 10
72.59091108729819
 20
64.20200975591026
 30
0.0
  0
POINT
  5
646C1
330
63527
100
AcDbEntity
  8
DEFPOINTS
 62
     0
100
AcDbPoint
 10
79.56091108729819
 20
65.36200975475027
 30
0.0
  0
POINT
  5
646C2
330
63527
100
AcDbEntity
  8
DEFPOINTS
 62
     0
100
AcDbPoint
 10
79.56091108729819
 20
66.49544417862493
 30
0.0
  0
ENDBLK
  5
63533
330
63527
100
AcDbEntity
  8
0
100
AcDbBlockEnd
  0
ENDSEC
  0
SECTION
  2
ENTITIES
  0
LWPOLYLINE
  5
BF7
330
1F
100
AcDbEntity
  8
VIEWPORT
100
AcDbPolyline
 90
        6
 70
     1
 43
0.0
 10
131.200008
 20
81.94059638906297
 10
131.200008
 20
7.236612389062972
 10
64.019688
 20
7.236612389062972
 10
64.019688
 20
-0.0594036109370222
 10
0.0
 20
-0.0594036109370222
 10
0.0
 20
81.94059638906297
1001
GENIUS_GENOREF_13
1005
0
1005
0
1005
0
1005
0
1005
0
1005
0
1005
0
1005
0
1005
0
1005
0
1005
0
1005
0
1005
0
1005
0
1005
0
1005
0
1005
0
1005
0
1005
0
1005
0
1005
0
1005
0
1005
0
1005
0
1005
0
1005
0
1005
0
1005
0
1005
0
1005
0
1005
0
1005
0
1005
0
1005
0
  0
VIEWPORT
  5
BF8
330
1F
100
AcDbEntity
  8
VIEWPORT
100
AcDbViewport
 10
65.60000399999999
 20
40.94059638906297
 30
0.0
 40
131.200008
 41
82.0
 69
     0
1001
ACAD
1000
MVIEW
1002
{
1070
    16
1010
0.0
1020
0.0
1030
0.0
1010
0.0
1020
0.0
1030
1.0
1040
0.0
1040
10.25
1040
8.193386135163109
1040
5.146330469914573
1040
50.0
1040
0.0
1040
0.0
1070
     0
1070
   100
1070
     1
1070
     2
1070
     0
1070
     0
1070
     0
1070
     0
1040
0.0
1040
0.0
1040
0.0
1040
0.5
1040
0.5
1040
0.5
1040
0.5
1070
     0
1002
{
1002
}
1002
}
1001
GENIUS_GENOREF_13
1005
0
1005
0
1005
0
1005
0
1005
0
1005
0
1005
0
1005
0
1005
0
1005
0
1005
0
1005
0
1005
0
1005
0
1005
0
1005
0
1005
0
1005
0
1005
0
1005
0
1005
0
1005
0
1005
0
1005
0
1005
0
1005
0
1005
0
1005
0
1005
0
1005
0
1005
0
1005
0
1005
0
1005
0
1001
GENIUS_GENSCREG_15
1000
PF
1040
0.0
1000
DF
1040
0.0
1000
MIN
1011
0.0
1021
-0.0594036109370222
1031
0.0
1000
MAX
1011
131.200008
1021
81.94059638906297
1031
0.0
1000
FLAGS
1070
     2
  0
TEXT
  5
EB24
330
1F
100
AcDbEntity
  8
TEXT1
100
AcDbText
 10
0.9929114833239971
 20
8.355836932141698
 30
0.0
 40
0.08
  1
 
  7
ROMANS
100
AcDbText
  0
TEXT
  5
EC02
330
1F
100
AcDbEntity
  8
TEXT1
 62
     6
100
AcDbText
 10
0.9754463221616305
 20
9.254997076848782
 30
0.0
 40
0.08
  1

  7
ROMANS
100
AcDbText
  0
TEXT
  5
EC03
330
1F
100
AcDbEntity
  8
TEXT1
 62
     6
100
AcDbText
 10
2.118646984089988
 20
9.259465931843973
 30
0.0
 40
0.08
  1

  7
ROMANS
100
AcDbText
  0
TEXT
  5
EC04
330
1F
100
AcDbEntity
  8
TEXT1
 62
     6
100
AcDbText
 10
2.106949392570278
 20
8.378941526820112
 30
0.0
 40
0.08
  1

  7
ROMANS
100
AcDbText
  0
TEXT
  5
EC05
330
1F
100
AcDbEntity
  8
TEXT1
 62
     6
100
AcDbText
 10
0.9699281936766688
 20
8.377949075304496
 30
0.0
 40
0.08
  1

  7
ROMANS
100
AcDbText
  0
TEXT
  5
115F3
330
1F
100
AcDbEntity
  8
TEXT1
 62
     6
100
AcDbText
 10
1.119620495505483
 20
7.657703590579114
 30
0.0
 40
0.08
  1

  7
ROMANS
100
AcDbText
  0
TEXT
  5
115F4
330
1F
100
AcDbEntity
  8
TEXT1
 62
     6
100
AcDbText
 10
2.059224140393478
 20
9.266409758261859
 30
0.0
 40
0.08
  1

  7
ROMANS
100
AcDbText
  0
TEXT
  5
120A1
330
1F
100
AcDbEntity
  8
TEXT1
100
AcDbText
 10
13.20920659387706
 20
2.243736705527569
 30
0.0
 40
0.08
  1

  7
ROMANS
100
AcDbText
  0
TEXT
  5
12248
330
1F
100
AcDbEntity
  8
TEXT1
100
AcDbText
 10
13.46920659387706
 20
2.083736705527569
 30
0.0
 40
0.08
  1

  7
ROMANS
100
AcDbText
  0
TEXT
  5
12A8A
330
1F
100
AcDbEntity
  8
TEXT1
100
AcDbText
 10
10.0534983779131
 20
2.254272487233485
 30
0.0
 40
0.08
  1

  7
ROMANS
100
AcDbText
  0
TEXT
  5
12A8B
330
1F
100
AcDbEntity
  8
TEXT1
100
AcDbText
 10
10.35628222227409
 20
1.942056058821058
 30
0.0
 40
0.08
  1

  7
ROMANS
100
AcDbText
  0
TEXT
  5
14F77
330
1F
100
AcDbEntity
  8
TEXT1
100
AcDbText
 10
0.9929114833239971
 20
8.355836932141698
 30
0.0
 40
0.12
  1
 
  7
ROMANS
100
AcDbText
  0
TEXT
  5
172B0
330
1F
100
AcDbEntity
  8
TEXT1
 62
     6
100
AcDbText
 10
1.119620495505483
 20
8.220108596909749
 30
0.0
 40
0.08
  1

  7
ROMANS
100
AcDbText
  0
TEXT
  5
63536
330
1F
100
AcDbEntity
  8
TEXT1
100
AcDbText
 10
112.3226090992414
 20
56.68747342038924
 30
0.0
 40
0.6400000000000001
  1
TERMINAL LUG DATA
  7
ROMANS
 72
     1
 11
117.1987995754318
 21
57.00747342038924
 31
0.0
100
AcDbText
 73
     2
  0
LINE
  5
63537
330
1F
100
AcDbEntity
  8
CONTINUOUS1
100
AcDbLine
 10
105.3191508750753
 20
55.88247342038925
 30
0.0
 11
129.200008
 21
55.88247342038925
 31
0.0
  0
TEXT
  5
63538
330
1F
100
AcDbEntity
  8
TEXT1
100
AcDbText
 10
118.8683556174161
 20
52.98309827485514
 30
0.0
 40
0.6400000000000001
  1
#12 AWG
  7
ROMANS
 72
     1
 11
121.0778794269399
 21
53.30309827485514
 31
0.0
100
AcDbText
 73
     2
  0
TEXT
  5
63539
330
1F
100
AcDbEntity
  8
TEXT1
100
AcDbText
 10
126.5373996397491
 20
52.98309827485514
 30
0.0
 40
0.6400000000000001
  1
AL
  7
ROMANS
 72
     1
 11
127.0707329730824
 21
53.30309827485514
 31
0.0
100
AcDbText
 73
     2
  0
TEXT
  5
6353A
330
1F
100
AcDbEntity
  8
TEXT1
100
AcDbText
 10
125.89583146902
 20
54.66247342038924
 30
0.0
 40
0.6400000000000001
  1
TYPE
  7
ROMANS
 72
     1
 11
127.0082124214009
 21
54.98247342038924
 31
0.0
100
AcDbText
 73
     2
  0
TEXT
  5
6353B
330
1F
100
AcDbEntity
  8
TEXT1
100
AcDbText
 10
118.7448826847822
 20
54.66247342038924
 30
0.0
 40
0.6400000000000001
  1
MIN WIRE
  7
ROMANS
 72
     1
 11
121.0153588752584
 21
54.98247342038924
 31
0.0
100
AcDbText
 73
     2
  0
TEXT
  5
6353C
330
1F
100
AcDbEntity
  8
TEXT1
100
AcDbText
 10
111.5667059883682
 20
54.66247342038924
 30
0.0
 40
0.6400000000000001
  1
MAX WIRE
  7
ROMANS
 72
     1
 11
113.9590869407491
 21
54.98247342038924
 31
0.0
100
AcDbText
 73
     2
  0
TEXT
  5
6353D
330
1F
100
AcDbEntity
  8
TEXT1
100
AcDbText
 10
111.4768455876687
 20
52.98309827485514
 30
0.0
 40
0.6400000000000001
  1
#1/0 AWG
  7
ROMANS
 72
     1
 11
114.0216074924306
 21
53.30309827485514
 31
0.0
100
AcDbText
 73
     2
  0
TEXT
  5
6353E
330
1F
100
AcDbEntity
  8
TEXT1
100
AcDbText
 10
107.1294610385732
 20
52.98309827485514
 30
0.0
 40
0.6400000000000001
  1
100
  7
ROMANS
 72
     1
 11
108.0894610385732
 21
53.30309827485514
 31
0.0
100
AcDbText
 73
     2
  0
TEXT
  5
6353F
330
1F
100
AcDbEntity
  8
TEXT1
100
AcDbText
 10
105.8936071535584
 20
54.66247342038924
 30
0.0
 40
0.6400000000000001
  1
AMPERES
  7
ROMANS
 72
     1
 11
108.0269404868917
 21
54.98247342038924
 31
0.0
100
AcDbText
 73
     2
  0
LINE
  5
63540
330
1F
100
AcDbEntity
  8
CONTINUOUS1
100
AcDbLine
 10
105.3191508750753
 20
54.08247342038926
 30
0.0
 11
129.200008
 21
54.08247342038926
 31
0.0
  0
LINE
  5
63541
330
1F
100
AcDbEntity
  8
CONTINUOUS1
100
AcDbLine
 10
110.7655991684036
 20
55.88247342038925
 30
0.0
 11
110.7655991684036
 21
51.31793177294154
 31
0.0
  0
LINE
  5
63542
330
1F
100
AcDbEntity
  8
CONTINUOUS1
100
AcDbLine
 10
124.6505712638931
 20
55.88247342038925
 30
0.0
 11
124.6505712638931
 21
51.31793177294154
 31
0.0
  0
LINE
  5
63543
330
1F
100
AcDbEntity
  8
CONTINUOUS1
100
AcDbLine
 10
117.2441508750753
 20
55.88247342038925
 30
0.0
 11
117.2441508750753
 21
51.31793177294154
 31
0.0
  0
LINE
  5
63544
330
1F
100
AcDbEntity
  8
CONTINUOUS1
100
AcDbLine
 10
45.67438095843684
 20
26.83661238906293
 30
0.0
 11
129.200008
 21
26.83661238906293
 31
0.0
  0
LINE
  5
63545
330
1F
100
AcDbEntity
  8
CONTINUOUS1
100
AcDbLine
 10
45.67438095843684
 20
23.31661238906293
 30
0.0
 11
116.9703833920981
 21
23.31661238906293
 31
0.0
  0
LINE
  5
63546
330
1F
100
AcDbEntity
  8
CONTINUOUS1
100
AcDbLine
 10
45.67438095843684
 20
21.55661238906294
 30
0.0
 11
129.200008
 21
21.55661238906294
 31
0.0
  0
LINE
  5
63547
330
1F
100
AcDbEntity
  8
CONTINUOUS1
100
AcDbLine
 10
22.76145105560103
 20
19.79661238906294
 30
0.0
 11
129.2000079999999
 21
19.79661238906294
 31
0.0
  0
LINE
  5
63548
330
1F
100
AcDbEntity
  8
CONTINUOUS1
100
AcDbLine
 10
119.8738734058426
 20
21.52161195781295
 30
0.0
 11
119.8738734058426
 21
9.236612389062997
 31
0.0
  0
LINE
  5
63549
330
1F
100
AcDbEntity
  8
CONTINUOUS1
100
AcDbLine
 10
125.9555965316105
 20
21.52161195781297
 30
0.0
 11
125.9555965316105
 21
9.236612389063026
 31
0.0
  0
LINE
  5
6354A
330
1F
100
AcDbEntity
  8
CONTINUOUS1
100
AcDbLine
 10
122.8126168386146
 20
26.69661195781293
 30
0.0
 11
122.8126168386146
 21
9.236612389062969
 31
0.0
  0
LINE
  5
6354B
330
1F
100
AcDbEntity
  8
CONTINUOUS1
100
AcDbLine
 10
116.9351299730706
 20
26.69661195781293
 30
0.0
 11
116.9351299730706
 21
9.236612389062969
 31
0.0
  0
LINE
  5
6354C
330
1F
100
AcDbEntity
  8
CONTINUOUS1
100
AcDbLine
 10
57.55117246087579
 20
23.24661282031294
 30
0.0
 11
57.55117246087579
 21
9.236612389062997
 31
0.0
  0
LINE
  5
6354D
330
1F
100
AcDbEntity
  8
CONTINUOUS1
100
AcDbLine
 10
81.30475546575373
 20
23.24661282031294
 30
0.0
 11
81.30475546575373
 21
9.236612389062997
 31
0.0
  0
LINE
  5
6354E
330
1F
100
AcDbEntity
  8
CONTINUOUS1
100
AcDbLine
 10
105.0583384706316
 20
23.31661238906293
 30
0.0
 11
105.0583384706316
 21
9.236612389062997
 31
0.0
  0
LINE
  5
6354F
330
1F
100
AcDbEntity
  8
CONTINUOUS1
100
AcDbLine
 10
69.42796396331473
 20
26.69661195781296
 30
0.0
 11
69.42796396331473
 21
9.236612389062997
 31
0.0
  0
LINE
  5
63550
330
1F
100
AcDbEntity
  8
CONTINUOUS1
100
AcDbLine
 10
93.18154696819268
 20
26.69661195781296
 30
0.0
 11
93.18154696819268
 21
9.236612389062997
 31
0.0
  0
LINE
  5
63551
330
1F
100
AcDbEntity
  8
CONTINUOUS1
100
AcDbLine
 10
45.67438095843684
 20
28.42161152656297
 30
0.0
 11
45.67438095843684
 21
9.236612389062997
 31
0.0
  0
LINE
  5
63552
330
1F
100
AcDbEntity
  8
CONTINUOUS1
100
AcDbLine
 10
41.46294215275704
 20
28.42161152656297
 30
0.0
 11
41.46294215275704
 21
9.236612389062997
 31
0.0
  0
LINE
  5
63553
330
1F
100
AcDbEntity
  8
CONTINUOUS1
100
AcDbLine
 10
36.1203070699776
 20
28.42161152656297
 30
0.0
 11
36.1203070699776
 21
9.236612389062997
 31
0.0
  0
LINE
  5
63554
330
1F
100
AcDbEntity
  8
CONTINUOUS1
100
AcDbLine
 10
27.96613600641288
 20
28.42161152656297
 30
0.0
 11
27.96613600641288
 21
9.236612389062997
 31
0.0
  0
TEXT
  5
63555
330
1F
100
AcDbEntity
  8
TEXT1
100
AcDbText
 10
23.45390794076479
 20
18.59661238906294
 30
0.0
 40
0.6400000000000001
  1
H223DS
  7
ROMANS
 72
     1
 11
25.3434317502886
 21
18.91661238906294
 31
0.0
100
AcDbText
 73
     2
  0
TEXT
  5
63556
330
1F
100
AcDbEntity
  8
TEXT1
100
AcDbText
 10
23.11866984552669
 20
16.83661238906294
 30
0.0
 40
0.6400000000000001
  1
H223NDS
  7
ROMANS
 72
     1
 11
25.3434317502886
 21
17.15661238906294
 31
0.0
100
AcDbText
 73
     2
  0
TEXT
  5
63557
330
1F
100
AcDbEntity
  8
TEXT1
100
AcDbText
 10
23.45390794076479
 20
11.55661238906294
 30
0.0
 40
0.6400000000000001
  1
H363DS
  7
ROMANS
 72
     1
 11
25.3434317502886
 21
11.87661238906294
 31
0.0
100
AcDbText
 73
     2
  0
TEXT
  5
63558
330
1F
100
AcDbEntity
  8
TEXT1
100
AcDbText
 10
23.11866984552669
 20
13.31661238906294
 30
0.0
 40
0.6400000000000001
  1
H323NDS
  7
ROMANS
 72
     1
 11
25.3434317502886
 21
13.63661238906294
 31
0.0
100
AcDbText
 73
     2
  0
TEXT
  5
63559
330
1F
100
AcDbEntity
  8
TEXT1
100
AcDbText
 10
23.11866984552669
 20
9.796612389062941
 30
0.0
 40
0.6400000000000001
  1
HU363DS
  7
ROMANS
 72
     1
 11
25.3434317502886
 21
10.11661238906294
 31
0.0
100
AcDbText
 73
     2
  0
TEXT
  5
6355A
330
1F
100
AcDbEntity
  8
TEXT1
100
AcDbText
 10
23.45390794076479
 20
15.07661238906294
 30
0.0
 40
0.6400000000000001
  1
H323DS
  7
ROMANS
 72
     1
 11
25.3434317502886
 21
15.39661238906294
 31
0.0
100
AcDbText
 73
     2
  0
TEXT
  5
6355B
330
1F
100
AcDbEntity
  8
TEXT1
100
AcDbText
 10
37.86887525092636
 20
17.71661238906293
 30
0.0
 40
0.6400000000000001
  1
100
  7
ROMANS
 72
     1
 11
38.82887525092636
 21
18.03661238906293
 31
0.0
100
AcDbText
 73
     2
  0
TEXT
  5
6355D
330
1F
100
AcDbEntity
  8
TEXT1
100
AcDbText
 10
37.86887525092636
 20
11.55661238906294
 30
0.0
 40
0.6400000000000001
  1
100
  7
ROMANS
 72
     1
 11
38.82887525092636
 21
11.87661238906294
 31
0.0
100
AcDbText
 73
     2
  0
TEXT
  5
6355F
330
1F
100
AcDbEntity
  8
TEXT1
100
AcDbText
 10
37.86887525092636
 20
9.796612389062941
 30
0.0
 40
0.6400000000000001
  1
100
  7
ROMANS
 72
     1
 11
38.82887525092636
 21
10.11661238906294
 31
0.0
100
AcDbText
 73
     2
  0
TEXT
  5
63560
330
1F
100
AcDbEntity
  8
TEXT1
100
AcDbText
 10
123.0339370334784
 20
56.99743781888183
 30
0.0
 40
0.6400000000000001
  1
+
  7
ROMANS
 72
     1
 11
123.4301275096689
 21
57.31743781888183
 31
0.0
100
AcDbText
 73
     2
  0
TEXT
  5
63561
330
1F
100
AcDbEntity
  8
TEXT1
100
AcDbText
 10
123.0122703698188
 20
56.58399751971455
 30
0.0
 40
0.6749999951424562
  1
+
  7
ROMANS
 72
     1
 11
123.4301275096689
 21
56.92149751728577
 31
0.0
100
AcDbText
 73
     2
  0
TEXT
  5
63562
330
1F
100
AcDbEntity
  8
TEXT1
100
AcDbText
 10
37.86887525092636
 20
14.19661238906294
 30
0.0
 40
0.6400000000000001
  1
100
  7
ROMANS
 72
     1
 11
38.82887525092636
 21
14.51661238906294
 31
0.0
100
AcDbText
 73
     2
  0
TEXT
  5
63563
330
1F
100
AcDbEntity
  8
TEXT1
100
AcDbText
 10
28.28821870199661
 20
16.83661238906294
 30
0.0
 40
0.6400000000000001
  1
240VAC,250VDC
  7
ROMANS
 72
     1
 11
32.05202822580614
 21
17.15661238906294
 31
0.0
100
AcDbText
 73
     2
  0
TEXT
  5
63564
330
1F
100
AcDbEntity
  8
TEXT1
100
AcDbText
 10
28.28821870199661
 20
18.59661238906294
 30
0.0
 40
0.6400000000000001
  1
240VAC,250VDC
  7
ROMANS
 72
     1
 11
32.05202822580614
 21
18.91661238906294
 31
0.0
100
AcDbText
 73
     2
  0
TEXT
  5
63565
330
1F
100
AcDbEntity
  8
TEXT1
100
AcDbText
 10
28.27298060675852
 20
11.55661238906294
 30
0.0
 40
0.6400000000000001
  1
600VAC,600VDC
  7
ROMANS
 72
     1
 11
32.05202822580614
 21
11.87661238906294
 31
0.0
100
AcDbText
 73
     2
  0
TEXT
  5
63566
330
1F
100
AcDbEntity
  8
TEXT1
100
AcDbText
 10
28.28821870199661
 20
13.31661238906294
 30
0.0
 40
0.6400000000000001
  1
240VAC,250VDC
  7
ROMANS
 72
     1
 11
32.05202822580614
 21
13.63661238906294
 31
0.0
100
AcDbText
 73
     2
  0
TEXT
  5
63567
330
1F
100
AcDbEntity
  8
TEXT1
100
AcDbText
 10
28.27298060675852
 20
9.796612389062941
 30
0.0
 40
0.6400000000000001
  1
600VAC,600VDC
  7
ROMANS
 72
     1
 11
32.05202822580614
 21
10.11661238906294
 31
0.0
100
AcDbText
 73
     2
  0
TEXT
  5
63568
330
1F
100
AcDbEntity
  8
TEXT1
100
AcDbText
 10
28.28821870199661
 20
15.07661238906294
 30
0.0
 40
0.6400000000000001
  1
240VAC,250VDC
  7
ROMANS
 72
     1
 11
32.05202822580614
 21
15.39661238906294
 31
0.0
100
AcDbText
 73
     2
  0
TEXT
  5
63569
330
1F
100
AcDbEntity
  8
TEXT1
100
AcDbText
 10
43.33848987441716
 20
17.71661238906293
 30
0.0
 40
0.6400000000000001
  1
A
  7
ROMANS
 72
     1
 11
43.61277558870288
 21
18.03661238906293
 31
0.0
100
AcDbText
 73
     2
  0
TEXT
  5
6356B
330
1F
100
AcDbEntity
  8
TEXT1
100
AcDbText
 10
43.27753749346477
 20
11.55661238906297
 30
0.0
 40
0.6400000000000001
  1
B
  7
ROMANS
 72
     1
 11
43.61277558870287
 21
11.87661238906297
 31
0.0
100
AcDbText
 73
     2
  0
TEXT
  5
6356D
330
1F
100
AcDbEntity
  8
TEXT1
100
AcDbText
 10
43.29277558870281
 20
9.796612389062941
 30
0.0
 40
0.6400000000000001
  1
C
  7
ROMANS
 72
     1
 11
43.61277558870281
 21
10.11661238906294
 31
0.0
100
AcDbText
 73
     2
  0
TEXT
  5
6356E
330
1F
100
AcDbEntity
  8
TEXT1
100
AcDbText
 10
43.27753749346478
 20
14.19661238906294
 30
0.0
 40
0.6400000000000001
  1
B
  7
ROMANS
 72
     1
 11
43.61277558870288
 21
14.51661238906294
 31
0.0
100
AcDbText
 73
     2
  0
TEXT
  5
6356F
330
1F
100
AcDbEntity
  8
TEXT1
100
AcDbText
 10
50.85873284718535
 20
17.71661238906293
 30
0.0
 40
0.6400000000000001
  1
-
  7
ROMANS
 72
     1
 11
51.25492332337582
 21
18.03661238906293
 31
0.0
100
AcDbText
 73
     2
  0
TEXT
  5
63570
330
1F
100
AcDbEntity
  8
TEXT1
100
AcDbText
 10
74.61231585206326
 20
17.71661238906293
 30
0.0
 40
0.6400000000000001
  1
-
  7
ROMANS
 72
     1
 11
75.00850632825373
 21
18.03661238906293
 31
0.0
100
AcDbText
 73
     2
  0
TEXT
  5
63571
330
1F
100
AcDbEntity
  8
TEXT1
100
AcDbText
 10
98.36589885694122
 20
17.71661238906293
 30
0.0
 40
0.6400000000000001
  1
-
  7
ROMANS
 72
     1
 11
98.76208933313169
 21
18.03661238906293
 31
0.0
100
AcDbText
 73
     2
  0
TEXT
  5
63572
330
1F
100
AcDbEntity
  8
TEXT1
100
AcDbText
 10
62.7355243496243
 20
17.71661238906293
 30
0.0
 40
0.6400000000000001
  1
-
  7
ROMANS
 72
     1
 11
63.13171482581477
 21
18.03661238906293
 31
0.0
100
AcDbText
 73
     2
  0
TEXT
  5
63573
330
1F
100
AcDbEntity
  8
TEXT1
100
AcDbText
 10
86.48910735450227
 20
17.71661238906293
 30
0.0
 40
0.6400000000000001
  1
-
  7
ROMANS
 72
     1
 11
86.88529783069274
 21
18.03661238906293
 31
0.0
100
AcDbText
 73
     2
  0
TEXT
  5
63574
330
1F
100
AcDbEntity
  8
TEXT1
100
AcDbText
 10
110.2426903593801
 20
17.71661238906293
 30
0.0
 40
0.6400000000000001
  1
-
  7
ROMANS
 72
     1
 11
110.6388808355706
 21
18.03661238906293
 31
0.0
100
AcDbText
 73
     2
  0
TEXT
  5
63575
330
1F
100
AcDbEntity
  8
TEXT1
100
AcDbText
 10
45.98699358941366
 20
17.71661238906293
 30
0.0
 40
0.6400000000000001
  1
7 1/2
  7
ROMANS
 72
     1
 11
47.55651739893746
 21
18.03661238906293
 31
0.0
100
AcDbText
 73
     2
  0
TEXT
  5
63576
330
1F
100
AcDbEntity
  8
TEXT1
100
AcDbText
 10
70.91390992762495
 20
17.71661238906293
 30
0.0
 40
0.6400000000000001
  1
-
  7
ROMANS
 72
     1
 11
71.31010040381543
 21
18.03661238906293
 31
0.0
100
AcDbText
 73
     2
  0
TEXT
  5
63577
330
1F
100
AcDbEntity
  8
TEXT1
100
AcDbText
 10
94.66749293250286
 20
17.71661238906293
 30
0.0
 40
0.6400000000000001
  1
-
  7
ROMANS
 72
     1
 11
95.06368340869332
 21
18.03661238906293
 31
0.0
100
AcDbText
 73
     2
  0
TEXT
  5
63578
330
1F
100
AcDbEntity
  8
TEXT1
100
AcDbText
 10
58.77807080613838
 20
17.71661238906293
 30
0.0
 40
0.6400000000000001
  1
15
  7
ROMANS
 72
     1
 11
59.43330890137647
 21
18.03661238906293
 31
0.0
100
AcDbText
 73
     2
  0
TEXT
  5
63579
330
1F
100
AcDbEntity
  8
TEXT1
100
AcDbText
 10
82.79070143006391
 20
17.71661238906293
 30
0.0
 40
0.6400000000000001
  1
-
  7
ROMANS
 72
     1
 11
83.18689190625438
 21
18.03661238906293
 31
0.0
100
AcDbText
 73
     2
  0
TEXT
  5
6357A
330
1F
100
AcDbEntity
  8
TEXT1
100
AcDbText
 10
106.5442844349417
 20
17.71661238906293
 30
0.0
 40
0.6400000000000001
  1
-
  7
ROMANS
 72
     1
 11
106.9404749111322
 21
18.03661238906293
 31
0.0
100
AcDbText
 73
     2
  0
TEXT
  5
63587
330
1F
100
AcDbEntity
  8
TEXT1
100
AcDbText
 10
50.85873284718536
 20
11.556612389063
 30
0.0
 40
0.6400000000000001
  1
-
  7
ROMANS
 72
     1
 11
51.25492332337583
 21
11.876612389063
 31
0.0
100
AcDbText
 73
     2
  0
TEXT
  5
63588
330
1F
100
AcDbEntity
  8
TEXT1
100
AcDbText
 10
74.61231585206326
 20
11.556612389063
 30
0.0
 40
0.6400000000000001
  1
-
  7
ROMANS
 72
     1
 11
75.00850632825373
 21
11.876612389063
 31
0.0
100
AcDbText
 73
     2
  0
TEXT
  5
63589
330
1F
100
AcDbEntity
  8
TEXT1
100
AcDbText
 10
98.36589885694122
 20
11.556612389063
 30
0.0
 40
0.6400000000000001
  1
-
  7
ROMANS
 72
     1
 11
98.76208933313169
 21
11.876612389063
 31
0.0
100
AcDbText
 73
     2
  0
TEXT
  5
6358A
330
1F
100
AcDbEntity
  8
TEXT1
100
AcDbText
 10
62.7355243496243
 20
11.556612389063
 30
0.0
 40
0.6400000000000001
  1
-
  7
ROMANS
 72
     1
 11
63.13171482581478
 21
11.876612389063
 31
0.0
100
AcDbText
 73
     2
  0
TEXT
  5
6358B
330
1F
100
AcDbEntity
  8
TEXT1
100
AcDbText
 10
86.48910735450227
 20
11.556612389063
 30
0.0
 40
0.6400000000000001
  1
-
  7
ROMANS
 72
     1
 11
86.88529783069274
 21
11.876612389063
 31
0.0
100
AcDbText
 73
     2
  0
TEXT
  5
6358C
330
1F
100
AcDbEntity
  8
TEXT1
100
AcDbText
 10
110.2426903593801
 20
11.556612389063
 30
0.0
 40
0.6400000000000001
  1
-
  7
ROMANS
 72
     1
 11
110.6388808355706
 21
11.876612389063
 31
0.0
100
AcDbText
 73
     2
  0
TEXT
  5
6358D
330
1F
100
AcDbEntity
  8
TEXT1
100
AcDbText
 10
47.160326922747
 20
11.55661238906297
 30
0.0
 40
0.6400000000000001
  1
-
  7
ROMANS
 72
     1
 11
47.55651739893747
 21
11.87661238906297
 31
0.0
100
AcDbText
 73
     2
  0
TEXT
  5
6358E
330
1F
100
AcDbEntity
  8
TEXT1
100
AcDbText
 10
70.65486230857733
 20
11.556612389063
 30
0.0
 40
0.6400000000000001
  1
10
  7
ROMANS
 72
     1
 11
71.31010040381543
 21
11.876612389063
 31
0.0
100
AcDbText
 73
     2
  0
TEXT
  5
6358F
330
1F
100
AcDbEntity
  8
TEXT1
100
AcDbText
 10
94.66749293250286
 20
11.556612389063
 30
0.0
 40
0.6400000000000001
  1
-
  7
ROMANS
 72
     1
 11
95.06368340869332
 21
11.876612389063
 31
0.0
100
AcDbText
 73
     2
  0
TEXT
  5
63590
330
1F
100
AcDbEntity
  8
TEXT1
100
AcDbText
 10
59.037118425186
 20
11.556612389063
 30
0.0
 40
0.6400000000000001
  1
-
  7
ROMANS
 72
     1
 11
59.43330890137648
 21
11.876612389063
 31
0.0
100
AcDbText
 73
     2
  0
TEXT
  5
63591
330
1F
100
AcDbEntity
  8
TEXT1
100
AcDbText
 10
82.57736809673057
 20
11.556612389063
 30
0.0
 40
0.6400000000000001
  1
30
  7
ROMANS
 72
     1
 11
83.18689190625438
 21
11.876612389063
 31
0.0
100
AcDbText
 73
     2
  0
TEXT
  5
63592
330
1F
100
AcDbEntity
  8
TEXT1
100
AcDbText
 10
106.5442844349417
 20
11.556612389063
 30
0.0
 40
0.6400000000000001
  1
-
  7
ROMANS
 72
     1
 11
106.9404749111322
 21
11.876612389063
 31
0.0
100
AcDbText
 73
     2
  0
TEXT
  5
6359F
330
1F
100
AcDbEntity
  8
TEXT1
100
AcDbText
 10
50.85873284718529
 20
9.796612389062941
 30
0.0
 40
0.6400000000000001
  1
-
  7
ROMANS
 72
     1
 11
51.25492332337577
 21
10.11661238906294
 31
0.0
100
AcDbText
 73
     2
  0
TEXT
  5
635A0
330
1F
100
AcDbEntity
  8
TEXT1
100
AcDbText
 10
74.61231585206326
 20
9.796612389062969
 30
0.0
 40
0.6400000000000001
  1
-
  7
ROMANS
 72
     1
 11
75.00850632825373
 21
10.11661238906297
 31
0.0
100
AcDbText
 73
     2
  0
TEXT
  5
635A1
330
1F
100
AcDbEntity
  8
TEXT1
100
AcDbText
 10
98.36589885694117
 20
9.796612389062969
 30
0.0
 40
0.6400000000000001
  1
-
  7
ROMANS
 72
     1
 11
98.76208933313163
 21
10.11661238906297
 31
0.0
100
AcDbText
 73
     2
  0
TEXT
  5
635A2
330
1F
100
AcDbEntity
  8
TEXT1
100
AcDbText
 10
62.73552434962424
 20
9.796612389062941
 30
0.0
 40
0.6400000000000001
  1
-
  7
ROMANS
 72
     1
 11
63.13171482581472
 21
10.11661238906294
 31
0.0
100
AcDbText
 73
     2
  0
TEXT
  5
635A3
330
1F
100
AcDbEntity
  8
TEXT1
100
AcDbText
 10
86.4891073545022
 20
9.796612389062969
 30
0.0
 40
0.6400000000000001
  1
-
  7
ROMANS
 72
     1
 11
86.88529783069268
 21
10.11661238906297
 31
0.0
100
AcDbText
 73
     2
  0
TEXT
  5
635A4
330
1F
100
AcDbEntity
  8
TEXT1
100
AcDbText
 10
110.2426903593801
 20
9.796612389062969
 30
0.0
 40
0.6400000000000001
  1
-
  7
ROMANS
 72
     1
 11
110.6388808355706
 21
10.11661238906297
 31
0.0
100
AcDbText
 73
     2
  0
TEXT
  5
635A5
330
1F
100
AcDbEntity
  8
TEXT1
100
AcDbText
 10
47.16032692274699
 20
9.796612389062941
 30
0.0
 40
0.6400000000000001
  1
-
  7
ROMANS
 72
     1
 11
47.55651739893746
 21
10.11661238906294
 31
0.0
100
AcDbText
 73
     2
  0
TEXT
  5
635A6
330
1F
100
AcDbEntity
  8
TEXT1
100
AcDbText
 10
70.9139099276249
 20
9.796612389062969
 30
0.0
 40
0.6400000000000001
  1
-
  7
ROMANS
 72
     1
 11
71.31010040381537
 21
10.11661238906297
 31
0.0
100
AcDbText
 73
     2
  0
TEXT
  5
635A7
330
1F
100
AcDbEntity
  8
TEXT1
100
AcDbText
 10
94.66749293250286
 20
9.796612389062969
 30
0.0
 40
0.6400000000000001
  1
-
  7
ROMANS
 72
     1
 11
95.06368340869332
 21
10.11661238906297
 31
0.0
100
AcDbText
 73
     2
  0
TEXT
  5
635A8
330
1F
100
AcDbEntity
  8
TEXT1
100
AcDbText
 10
58.82378509185261
 20
9.796612389062941
 30
0.0
 40
0.6400000000000001
  1
20
  7
ROMANS
 72
     1
 11
59.43330890137641
 21
10.11661238906294
 31
0.0
100
AcDbText
 73
     2
  0
TEXT
  5
635A9
330
1F
100
AcDbEntity
  8
TEXT1
100
AcDbText
 10
82.57736809673057
 20
9.796612389062969
 30
0.0
 40
0.6400000000000001
  1
40
  7
ROMANS
 72
     1
 11
83.18689190625438
 21
10.11661238906297
 31
0.0
100
AcDbText
 73
     2
  0
TEXT
  5
635AA
330
1F
100
AcDbEntity
  8
TEXT1
100
AcDbText
 10
106.3309511016084
 20
9.796612389062969
 30
0.0
 40
0.6400000000000001
  1
40
  7
ROMANS
 72
     1
 11
106.9404749111322
 21
10.11661238906297
 31
0.0
100
AcDbText
 73
     2
  0
TEXT
  5
635AB
330
1F
100
AcDbEntity
  8
TEXT1
100
AcDbText
 10
50.85873284718536
 20
14.19661238906294
 30
0.0
 40
0.6400000000000001
  1
-
  7
ROMANS
 72
     1
 11
51.25492332337583
 21
14.51661238906294
 31
0.0
100
AcDbText
 73
     2
  0
TEXT
  5
635AC
330
1F
100
AcDbEntity
  8
TEXT1
100
AcDbText
 10
74.61231585206326
 20
14.19661238906294
 30
0.0
 40
0.6400000000000001
  1
-
  7
ROMANS
 72
     1
 11
75.00850632825373
 21
14.51661238906294
 31
0.0
100
AcDbText
 73
     2
  0
TEXT
  5
635AD
330
1F
100
AcDbEntity
  8
TEXT1
100
AcDbText
 10
98.36589885694122
 20
14.19661238906294
 30
0.0
 40
0.6400000000000001
  1
-
  7
ROMANS
 72
     1
 11
98.76208933313169
 21
14.51661238906294
 31
0.0
100
AcDbText
 73
     2
  0
TEXT
  5
635AE
330
1F
100
AcDbEntity
  8
TEXT1
100
AcDbText
 10
62.7355243496243
 20
14.19661238906294
 30
0.0
 40
0.6400000000000001
  1
-
  7
ROMANS
 72
     1
 11
63.13171482581478
 21
14.51661238906294
 31
0.0
100
AcDbText
 73
     2
  0
TEXT
  5
635AF
330
1F
100
AcDbEntity
  8
TEXT1
100
AcDbText
 10
86.48910735450227
 20
14.19661238906294
 30
0.0
 40
0.6400000000000001
  1
-
  7
ROMANS
 72
     1
 11
86.88529783069274
 21
14.51661238906294
 31
0.0
100
AcDbText
 73
     2
  0
TEXT
  5
635B0
330
1F
100
AcDbEntity
  8
TEXT1
100
AcDbText
 10
110.2426903593801
 20
14.19661238906294
 30
0.0
 40
0.6400000000000001
  1
-
  7
ROMANS
 72
     1
 11
110.6388808355706
 21
14.51661238906294
 31
0.0
100
AcDbText
 73
     2
  0
TEXT
  5
635B1
330
1F
100
AcDbEntity
  8
TEXT1
100
AcDbText
 10
45.98699358941366
 20
14.19661238906294
 30
0.0
 40
0.6400000000000001
  1
7 1/2
  7
ROMANS
 72
     1
 11
47.55651739893747
 21
14.51661238906294
 31
0.0
100
AcDbText
 73
     2
  0
TEXT
  5
635B2
330
1F
100
AcDbEntity
  8
TEXT1
100
AcDbText
 10
70.91390992762495
 20
14.19661238906294
 30
0.0
 40
0.6400000000000001
  1
-
  7
ROMANS
 72
     1
 11
71.31010040381543
 21
14.51661238906294
 31
0.0
100
AcDbText
 73
     2
  0
TEXT
  5
635B3
330
1F
100
AcDbEntity
  8
TEXT1
100
AcDbText
 10
94.66749293250286
 20
14.19661238906294
 30
0.0
 40
0.6400000000000001
  1
-
  7
ROMANS
 72
     1
 11
95.06368340869332
 21
14.51661238906294
 31
0.0
100
AcDbText
 73
     2
  0
TEXT
  5
635B4
330
1F
100
AcDbEntity
  8
TEXT1
100
AcDbText
 10
58.77807080613838
 20
14.19661238906294
 30
0.0
 40
0.6400000000000001
  1
15
  7
ROMANS
 72
     1
 11
59.43330890137648
 21
14.51661238906294
 31
0.0
100
AcDbText
 73
     2
  0
TEXT
  5
635B5
330
1F
100
AcDbEntity
  8
TEXT1
100
AcDbText
 10
82.79070143006391
 20
14.19661238906294
 30
0.0
 40
0.6400000000000001
  1
-
  7
ROMANS
 72
     1
 11
83.18689190625438
 21
14.51661238906294
 31
0.0
100
AcDbText
 73
     2
  0
TEXT
  5
635B6
330
1F
100
AcDbEntity
  8
TEXT1
100
AcDbText
 10
106.5442844349417
 20
14.19661238906294
 30
0.0
 40
0.6400000000000001
  1
-
  7
ROMANS
 72
     1
 11
106.9404749111322
 21
14.51661238906294
 31
0.0
100
AcDbText
 73
     2
  0
TEXT
  5
635B7
330
1F
100
AcDbEntity
  8
TEXT1
100
AcDbText
 10
50.38573820828069
 20
20.33911282031294
 30
0.0
 40
0.6400000000000001
  1
2
  7
ROMANS
 72
     1
 11
50.69050011304259
 21
20.65911282031294
 31
0.0
100
AcDbText
 73
     2
  0
TEXT
  5
635B8
330
1F
100
AcDbEntity
  8
TEXT1
100
AcDbText
 10
74.13932121315858
 20
20.33911282031297
 30
0.0
 40
0.6400000000000001
  1
2
  7
ROMANS
 72
     1
 11
74.44408311792049
 21
20.65911282031297
 31
0.0
100
AcDbText
 73
     2
  0
TEXT
  5
635B9
330
1F
100
AcDbEntity
  8
TEXT1
100
AcDbText
 10
97.89290421803654
 20
20.33911282031297
 30
0.0
 40
0.6400000000000001
  1
2
  7
ROMANS
 72
     1
 11
98.19766612279844
 21
20.65911282031297
 31
0.0
100
AcDbText
 73
     2
  0
TEXT
  5
635BA
330
1F
100
AcDbEntity
  8
TEXT1
100
AcDbText
 10
62.26252971071963
 20
20.33911282031294
 30
0.0
 40
0.6400000000000001
  1
2
  7
ROMANS
 72
     1
 11
62.56729161548154
 21
20.65911282031294
 31
0.0
100
AcDbText
 73
     2
  0
TEXT
  5
635BB
330
1F
100
AcDbEntity
  8
TEXT1
100
AcDbText
 10
86.01611271559752
 20
20.33911282031297
 30
0.0
 40
0.6400000000000001
  1
2
  7
ROMANS
 72
     1
 11
86.32087462035944
 21
20.65911282031297
 31
0.0
100
AcDbText
 73
     2
  0
TEXT
  5
635BC
330
1F
100
AcDbEntity
  8
TEXT1
100
AcDbText
 10
109.7696957204754
 20
20.33911282031297
 30
0.0
 40
0.6400000000000001
  1
2
  7
ROMANS
 72
     1
 11
110.0744576252373
 21
20.65911282031297
 31
0.0
100
AcDbText
 73
     2
  0
TEXT
  5
635BD
330
1F
100
AcDbEntity
  8
TEXT1
100
AcDbText
 10
46.7330465695566
 20
20.33911282031294
 30
0.0
 40
0.6400000000000001
  1
1
  7
ROMANS
 72
     1
 11
46.99209418860422
 21
20.65911282031294
 31
0.0
100
AcDbText
 73
     2
  0
TEXT
  5
635BE
330
1F
100
AcDbEntity
  8
TEXT1
100
AcDbText
 10
70.48662957443456
 20
20.33911282031297
 30
0.0
 40
0.6400000000000001
  1
1
  7
ROMANS
 72
     1
 11
70.74567719348218
 21
20.65911282031297
 31
0.0
100
AcDbText
 73
     2
  0
TEXT
  5
635BF
330
1F
100
AcDbEntity
  8
TEXT1
100
AcDbText
 10
94.24021257931245
 20
20.33911282031297
 30
0.0
 40
0.6400000000000001
  1
1
  7
ROMANS
 72
     1
 11
94.49926019836007
 21
20.65911282031297
 31
0.0
100
AcDbText
 73
     2
  0
TEXT
  5
635C0
330
1F
100
AcDbEntity
  8
TEXT1
100
AcDbText
 10
58.60983807199556
 20
20.33911282031294
 30
0.0
 40
0.6400000000000001
  1
1
  7
ROMANS
 72
     1
 11
58.86888569104318
 21
20.65911282031294
 31
0.0
100
AcDbText
 73
     2
  0
TEXT
  5
635C1
330
1F
100
AcDbEntity
  8
TEXT1
100
AcDbText
 10
82.36342107687351
 20
20.33911282031297
 30
0.0
 40
0.6400000000000001
  1
1
  7
ROMANS
 72
     1
 11
82.62246869592113
 21
20.65911282031297
 31
0.0
100
AcDbText
 73
     2
  0
TEXT
  5
635C2
330
1F
100
AcDbEntity
  8
TEXT1
100
AcDbText
 10
106.1170040817514
 20
20.33911282031297
 30
0.0
 40
0.6400000000000001
  1
1
  7
ROMANS
 72
     1
 11
106.376051700799
 21
20.65911282031297
 31
0.0
100
AcDbText
 73
     2
  0
TEXT
  5
635C3
330
1F
100
AcDbEntity
  8
TEXT1
100
AcDbText
 10
51.17494700010429
 20
20.33911282031294
 30
0.0
 40
0.6400000000000001
  1
Ø
  7
ROMANS
 72
     1
 11
51.51018509534239
 21
20.65911282031294
 31
0.0
100
AcDbText
 73
     2
  0
TEXT
  5
635C4
330
1F
100
AcDbEntity
  8
TEXT1
100
AcDbText
 10
74.92853000498219
 20
20.33911282031297
 30
0.0
 40
0.6400000000000001
  1
Ø
  7
ROMANS
 72
     1
 11
75.26376810022028
 21
20.65911282031297
 31
0.0
100
AcDbText
 73
     2
  0
TEXT
  5
635C5
330
1F
100
AcDbEntity
  8
TEXT1
100
AcDbText
 10
98.68211300986015
 20
20.33911282031297
 30
0.0
 40
0.6400000000000001
  1
Ø
  7
ROMANS
 72
     1
 11
99.01735110509825
 21
20.65911282031297
 31
0.0
100
AcDbText
 73
     2
  0
TEXT
  5
635C6
330
1F
100
AcDbEntity
  8
TEXT1
100
AcDbText
 10
63.05173850254324
 20
20.33911282031294
 30
0.0
 40
0.6400000000000001
  1
Ø
  7
ROMANS
 72
     1
 11
63.38697659778134
 21
20.65911282031294
 31
0.0
100
AcDbText
 73
     2
  0
TEXT
  5
635C7
330
1F
100
AcDbEntity
  8
TEXT1
100
AcDbText
 10
86.80532150742115
 20
20.33911282031297
 30
0.0
 40
0.6400000000000001
  1
Ø
  7
ROMANS
 72
     1
 11
87.14055960265923
 21
20.65911282031297
 31
0.0
100
AcDbText
 73
     2
  0
TEXT
  5
635C8
330
1F
100
AcDbEntity
  8
TEXT1
100
AcDbText
 10
110.5589045122991
 20
20.33911282031297
 30
0.0
 40
0.6400000000000001
  1
Ø
  7
ROMANS
 72
     1
 11
110.8941426075371
 21
20.65911282031297
 31
0.0
100
AcDbText
 73
     2
  0
TEXT
  5
635C9
330
1F
100
AcDbEntity
  8
TEXT1
100
AcDbText
 10
47.47654107566593
 20
20.33911282031294
 30
0.0
 40
0.6400000000000001
  1
Ø
  7
ROMANS
 72
     1
 11
47.81177917090403
 21
20.65911282031294
 31
0.0
100
AcDbText
 73
     2
  0
TEXT
  5
635CA
330
1F
100
AcDbEntity
  8
TEXT1
100
AcDbText
 10
71.23012408054389
 20
20.33911282031297
 30
0.0
 40
0.6400000000000001
  1
Ø
  7
ROMANS
 72
     1
 11
71.56536217578199
 21
20.65911282031297
 31
0.0
100
AcDbText
 73
     2
  0
TEXT
  5
635CB
330
1F
100
AcDbEntity
  8
TEXT1
100
AcDbText
 10
94.98370708542179
 20
20.33911282031297
 30
0.0
 40
0.6400000000000001
  1
Ø
  7
ROMANS
 72
     1
 11
95.31894518065987
 21
20.65911282031297
 31
0.0
100
AcDbText
 73
     2
  0
TEXT
  5
635CC
330
1F
100
AcDbEntity
  8
TEXT1
100
AcDbText
 10
59.35333257810488
 20
20.33911282031294
 30
0.0
 40
0.6400000000000001
  1
Ø
  7
ROMANS
 72
     1
 11
59.68857067334297
 21
20.65911282031294
 31
0.0
100
AcDbText
 73
     2
  0
TEXT
  5
635CD
330
1F
100
AcDbEntity
  8
TEXT1
100
AcDbText
 10
83.10691558298284
 20
20.33911282031297
 30
0.0
 40
0.6400000000000001
  1
Ø
  7
ROMANS
 72
     1
 11
83.44215367822092
 21
20.65911282031297
 31
0.0
100
AcDbText
 73
     2
  0
TEXT
  5
635CE
330
1F
100
AcDbEntity
  8
TEXT1
100
AcDbText
 10
106.8604985878607
 20
20.33911282031297
 30
0.0
 40
0.6400000000000001
  1
Ø
  7
ROMANS
 72
     1
 11
107.1957366830988
 21
20.65911282031297
 31
0.0
100
AcDbText
 73
     2
  0
TEXT
  5
635CF
330
1F
100
AcDbEntity
  8
TEXT1
100
AcDbText
 10
36.89363715568826
 20
22.99661238906293
 30
0.0
 40
0.6400000000000001
  1
RATINGS
  7
ROMANS
 72
     1
 11
38.82887525092636
 21
23.31661238906293
 31
0.0
100
AcDbText
 73
     2
  0
TEXT
  5
635D0
330
1F
100
AcDbEntity
  8
TEXT1
100
AcDbText
 10
30.11679013056804
 20
22.99661238906293
 30
0.0
 40
0.6400000000000001
  1
RATINGS
  7
ROMANS
 72
     1
 11
32.05202822580614
 21
23.31661238906293
 31
0.0
100
AcDbText
 73
     2
  0
TEXT
  5
635D1
330
1F
100
AcDbEntity
  8
TEXT1
100
AcDbText
 10
23.41001347743516
 20
22.99661238906293
 30
0.0
 40
0.6400000000000001
  1
NUMBER
  7
ROMANS
 72
     1
 11
25.39096585838754
 21
23.31661238906293
 31
0.0
100
AcDbText
 73
     2
  0
TEXT
  5
635D2
330
1F
100
AcDbEntity
  8
TEXT1
100
AcDbText
 10
36.39078001283112
 20
23.83223652656294
 30
0.0
 40
0.6400000000000001
  1
AMPERAGE
  7
ROMANS
 72
     1
 11
38.82887525092636
 21
24.15223652656294
 31
0.0
100
AcDbText
 73
     2
  0
TEXT
  5
635D3
330
1F
100
AcDbEntity
  8
TEXT1
100
AcDbText
 10
30.07107584485376
 20
23.83223652656294
 30
0.0
 40
0.6400000000000001
  1
VOLTAGE
  7
ROMANS
 72
     1
 11
32.05202822580614
 21
24.15223652656294
 31
0.0
100
AcDbText
 73
     2
  0
TEXT
  5
635D4
330
1F
100
AcDbEntity
  8
TEXT1
100
AcDbText
 10
23.36429919172087
 20
23.83223652656294
 30
0.0
 40
0.6400000000000001
  1
CATALOG
  7
ROMANS
 72
     1
 11
25.39096585838754
 21
24.15223652656294
 31
0.0
100
AcDbText
 73
     2
  0
TEXT
  5
635D5
330
1F
100
AcDbEntity
  8
TEXT1
100
AcDbText
 10
42.5613470172743
 20
22.99661238906293
 30
0.0
 40
0.6400000000000001
  1
DIAG
  7
ROMANS
 72
     1
 11
43.61277558870287
 21
23.31661238906293
 31
0.0
100
AcDbText
 73
     2
  0
TEXT
  5
635D6
330
1F
100
AcDbEntity
  8
TEXT1
100
AcDbText
 10
42.04325177917906
 20
23.83223652656294
 30
0.0
 40
0.6400000000000001
  1
WIRING
  7
ROMANS
 72
     1
 11
43.61277558870287
 21
24.15223652656294
 31
0.0
100
AcDbText
 73
     2
  0
TEXT
  5
635D7
330
1F
100
AcDbEntity
  8
TEXT1
100
AcDbText
 10
50.59382932353193
 20
22.06067424516386
 30
0.0
 40
0.646876287798167
  1
STD
  7
ROMANS
 72
     1
 11
51.47173285697229
 21
22.38411238906294
 31
0.0
100
AcDbText
 73
     2
  0
TEXT
  5
635D8
330
1F
100
AcDbEntity
  8
TEXT1
100
AcDbText
 10
74.51007697215039
 20
22.06067424516386
 30
0.0
 40
0.646876287798167
  1
STD
 41
0.8930501245289262
  7
M_STANDARD
 72
     1
 11
75.22531586185024
 21
22.38411238906294
 31
0.0
100
AcDbText
 73
     2
  0
TEXT
  5
635D9
330
1F
100
AcDbEntity
  8
TEXT1
100
AcDbText
 10
98.26365997702829
 20
22.06067424516386
 30
0.0
 40
0.646876287798167
  1
STD
 41
0.8930501245289262
  7
M_STANDARD
 72
     1
 11
98.97889886672814
 21
22.38411238906294
 31
0.0
100
AcDbText
 73
     2
  0
TEXT
  5
635DA
330
1F
100
AcDbEntity
  8
TEXT1
100
AcDbText
 10
62.52324871744992
 20
22.06067424516386
 30
0.0
 40
0.646876287798167
  1
MAX
 41
0.8930501245289262
  7
M_STANDARD
 72
     1
 11
63.3485243594113
 21
22.38411238906294
 31
0.0
100
AcDbText
 73
     2
  0
TEXT
  5
635DB
330
1F
100
AcDbEntity
  8
TEXT1
100
AcDbText
 10
86.27683172232783
 20
22.06067424516386
 30
0.0
 40
0.646876287798167
  1
MAX
 41
0.8930501245289262
  7
M_STANDARD
 72
     1
 11
87.10210736428919
 21
22.38411238906294
 31
0.0
100
AcDbText
 73
     2
  0
TEXT
  5
635DC
330
1F
100
AcDbEntity
  8
TEXT1
100
AcDbText
 10
110.0304147272057
 20
22.06067424516386
 30
0.0
 40
0.646876287798167
  1
MAX
 41
0.8930501245289262
  7
M_STANDARD
 72
     1
 11
110.855690369167
 21
22.38411238906294
 31
0.0
100
AcDbText
 73
     2
  0
TEXT
  5
635DD
330
1F
100
AcDbEntity
  8
TEXT1
100
AcDbText
 10
54.12891784751349
 20
17.71661238906293
 30
0.0
 40
0.6400000000000001
  1
15
  7
ROMANS
 72
     1
 11
54.78415594275158
 21
18.03661238906293
 31
0.0
100
AcDbText
 73
     2
  0
TEXT
  5
635DE
330
1F
100
AcDbEntity
  8
TEXT1
100
AcDbText
 10
78.14154847143908
 20
17.71661238906293
 30
0.0
 40
0.6400000000000001
  1
-
  7
ROMANS
 72
     1
 11
78.53773894762955
 21
18.03661238906293
 31
0.0
100
AcDbText
 73
     2
  0
TEXT
  5
635DF
330
1F
100
AcDbEntity
  8
TEXT1
100
AcDbText
 10
101.8951314763169
 20
17.71661238906293
 30
0.0
 40
0.6400000000000001
  1
-
  7
ROMANS
 72
     1
 11
102.2913219525074
 21
18.03661238906293
 31
0.0
100
AcDbText
 73
     2
  0
TEXT
  5
635E0
330
1F
100
AcDbEntity
  8
TEXT1
100
AcDbText
 10
66.05142363566679
 20
17.71661238906293
 30
0.0
 40
0.6400000000000001
  1
30
  7
ROMANS
 72
     1
 11
66.6609474451906
 21
18.03661238906293
 31
0.0
100
AcDbText
 73
     2
  0
TEXT
  5
635E1
330
1F
100
AcDbEntity
  8
TEXT1
100
AcDbText
 10
90.01833997387803
 20
17.71661238906293
 30
0.0
 40
0.6400000000000001
  1
-
  7
ROMANS
 72
     1
 11
90.4145304500685
 21
18.03661238906293
 31
0.0
100
AcDbText
 73
     2
  0
TEXT
  5
635E2
330
1F
100
AcDbEntity
  8
TEXT1
100
AcDbText
 10
113.7719229787559
 20
17.71661238906293
 30
0.0
 40
0.6400000000000001
  1
-
  7
ROMANS
 72
     1
 11
114.1681134549463
 21
18.03661238906293
 31
0.0
100
AcDbText
 73
     2
  0
TEXT
  5
635E9
330
1F
100
AcDbEntity
  8
TEXT1
100
AcDbText
 10
54.38796546656112
 20
11.556612389063
 30
0.0
 40
0.6400000000000001
  1
-
  7
ROMANS
 72
     1
 11
54.78415594275159
 21
11.876612389063
 31
0.0
100
AcDbText
 73
     2
  0
TEXT
  5
635EA
330
1F
100
AcDbEntity
  8
TEXT1
100
AcDbText
 10
77.92821513810574
 20
11.556612389063
 30
0.0
 40
0.6400000000000001
  1
25
  7
ROMANS
 72
     1
 11
78.53773894762955
 21
11.876612389063
 31
0.0
100
AcDbText
 73
     2
  0
TEXT
  5
635EB
330
1F
100
AcDbEntity
  8
TEXT1
100
AcDbText
 10
101.6817981429836
 20
11.556612389063
 30
0.0
 40
0.6400000000000001
  1
30
  7
ROMANS
 72
     1
 11
102.2913219525074
 21
11.876612389063
 31
0.0
100
AcDbText
 73
     2
  0
TEXT
  5
635EC
330
1F
100
AcDbEntity
  8
TEXT1
100
AcDbText
 10
66.26475696900013
 20
11.556612389063
 30
0.0
 40
0.6400000000000001
  1
-
  7
ROMANS
 72
     1
 11
66.6609474451906
 21
11.876612389063
 31
0.0
100
AcDbText
 73
     2
  0
TEXT
  5
635ED
330
1F
100
AcDbEntity
  8
TEXT1
100
AcDbText
 10
89.78976854530658
 20
11.556612389063
 30
0.0
 40
0.6400000000000001
  1
60
  7
ROMANS
 72
     1
 11
90.4145304500685
 21
11.876612389063
 31
0.0
100
AcDbText
 73
     2
  0
TEXT
  5
635EE
330
1F
100
AcDbEntity
  8
TEXT1
100
AcDbText
 10
113.5585896454225
 20
11.556612389063
 30
0.0
 40
0.6400000000000001
  1
75
  7
ROMANS
 72
     1
 11
114.1681134549463
 21
11.876612389063
 31
0.0
100
AcDbText
 73
     2
  0
TEXT
  5
635F5
330
1F
100
AcDbEntity
  8
TEXT1
100
AcDbText
 10
54.38796546656111
 20
9.796612389062941
 30
0.0
 40
0.6400000000000001
  1
-
  7
ROMANS
 72
     1
 11
54.78415594275158
 21
10.11661238906294
 31
0.0
100
AcDbText
 73
     2
  0
TEXT
  5
635F6
330
1F
100
AcDbEntity
  8
TEXT1
100
AcDbText
 10
78.14154847143902
 20
9.796612389062969
 30
0.0
 40
0.6400000000000001
  1
-
  7
ROMANS
 72
     1
 11
78.53773894762949
 21
10.11661238906297
 31
0.0
100
AcDbText
 73
     2
  0
TEXT
  5
635F7
330
1F
100
AcDbEntity
  8
TEXT1
100
AcDbText
 10
101.8951314763169
 20
9.796612389062969
 30
0.0
 40
0.6400000000000001
  1
-
  7
ROMANS
 72
     1
 11
102.2913219525074
 21
10.11661238906297
 31
0.0
100
AcDbText
 73
     2
  0
TEXT
  5
635F8
330
1F
100
AcDbEntity
  8
TEXT1
100
AcDbText
 10
66.05142363566674
 20
9.796612389062941
 30
0.0
 40
0.6400000000000001
  1
40
  7
ROMANS
 72
     1
 11
66.66094744519054
 21
10.11661238906294
 31
0.0
100
AcDbText
 73
     2
  0
TEXT
  5
635F9
330
1F
100
AcDbEntity
  8
TEXT1
100
AcDbText
 10
89.80500664054469
 20
9.796612389062969
 30
0.0
 40
0.6400000000000001
  1
75
  7
ROMANS
 72
     1
 11
90.4145304500685
 21
10.11661238906297
 31
0.0
100
AcDbText
 73
     2
  0
TEXT
  5
635FA
330
1F
100
AcDbEntity
  8
TEXT1
100
AcDbText
 10
113.5585896454225
 20
9.796612389062969
 30
0.0
 40
0.6400000000000001
  1
75
  7
ROMANS
 72
     1
 11
114.1681134549463
 21
10.11661238906297
 31
0.0
100
AcDbText
 73
     2
  0
TEXT
  5
635FB
330
1F
100
AcDbEntity
  8
TEXT1
100
AcDbText
 10
54.1289178475135
 20
14.19661238906294
 30
0.0
 40
0.6400000000000001
  1
15
  7
ROMANS
 72
     1
 11
54.78415594275159
 21
14.51661238906294
 31
0.0
100
AcDbText
 73
     2
  0
TEXT
  5
635FC
330
1F
100
AcDbEntity
  8
TEXT1
100
AcDbText
 10
78.14154847143908
 20
14.19661238906294
 30
0.0
 40
0.6400000000000001
  1
-
  7
ROMANS
 72
     1
 11
78.53773894762955
 21
14.51661238906294
 31
0.0
100
AcDbText
 73
     2
  0
TEXT
  5
635FD
330
1F
100
AcDbEntity
  8
TEXT1
100
AcDbText
 10
101.8951314763169
 20
14.19661238906294
 30
0.0
 40
0.6400000000000001
  1
-
  7
ROMANS
 72
     1
 11
102.2913219525074
 21
14.51661238906294
 31
0.0
100
AcDbText
 73
     2
  0
TEXT
  5
635FE
330
1F
100
AcDbEntity
  8
TEXT1
100
AcDbText
 10
66.05142363566679
 20
14.19661238906294
 30
0.0
 40
0.6400000000000001
  1
30
  7
ROMANS
 72
     1
 11
66.6609474451906
 21
14.51661238906294
 31
0.0
100
AcDbText
 73
     2
  0
TEXT
  5
635FF
330
1F
100
AcDbEntity
  8
TEXT1
100
AcDbText
 10
90.01833997387803
 20
14.19661238906294
 30
0.0
 40
0.6400000000000001
  1
-
  7
ROMANS
 72
     1
 11
90.4145304500685
 21
14.51661238906294
 31
0.0
100
AcDbText
 73
     2
  0
TEXT
  5
63600
330
1F
100
AcDbEntity
  8
TEXT1
100
AcDbText
 10
113.7719229787559
 20
14.19661238906294
 30
0.0
 40
0.6400000000000001
  1
-
  7
ROMANS
 72
     1
 11
114.1681134549463
 21
14.51661238906294
 31
0.0
100
AcDbText
 73
     2
  0
TEXT
  5
63601
330
1F
100
AcDbEntity
  8
TEXT1
100
AcDbText
 10
54.13997212140643
 20
20.33911282031294
 30
0.0
 40
0.6400000000000001
  1
3
  7
ROMANS
 72
     1
 11
54.44473402616833
 21
20.65911282031294
 31
0.0
100
AcDbText
 73
     2
  0
TEXT
  5
63602
330
1F
100
AcDbEntity
  8
TEXT1
100
AcDbText
 10
77.89355512628438
 20
20.33911282031297
 30
0.0
 40
0.6400000000000001
  1
3
  7
ROMANS
 72
     1
 11
78.19831703104629
 21
20.65911282031297
 31
0.0
100
AcDbText
 73
     2
  0
TEXT
  5
63603
330
1F
100
AcDbEntity
  8
TEXT1
100
AcDbText
 10
101.6471381311622
 20
20.33911282031297
 30
0.0
 40
0.6400000000000001
  1
3
  7
ROMANS
 72
     1
 11
101.9519000359241
 21
20.65911282031297
 31
0.0
100
AcDbText
 73
     2
  0
TEXT
  5
63604
330
1F
100
AcDbEntity
  8
TEXT1
100
AcDbText
 10
66.01676362384537
 20
20.33911282031294
 30
0.0
 40
0.6400000000000001
  1
3
  7
ROMANS
 72
     1
 11
66.32152552860728
 21
20.65911282031294
 31
0.0
100
AcDbText
 73
     2
  0
TEXT
  5
63605
330
1F
100
AcDbEntity
  8
TEXT1
100
AcDbText
 10
89.77034662872332
 20
20.33911282031297
 30
0.0
 40
0.6400000000000001
  1
3
  7
ROMANS
 72
     1
 11
90.07510853348524
 21
20.65911282031297
 31
0.0
100
AcDbText
 73
     2
  0
TEXT
  5
63606
330
1F
100
AcDbEntity
  8
TEXT1
100
AcDbText
 10
113.5239296336012
 20
20.33911282031297
 30
0.0
 40
0.6400000000000001
  1
3
  7
ROMANS
 72
     1
 11
113.8286915383631
 21
20.65911282031297
 31
0.0
100
AcDbText
 73
     2
  0
TEXT
  5
63607
330
1F
100
AcDbEntity
  8
TEXT1
100
AcDbText
 10
54.92918091323004
 20
20.33911282031294
 30
0.0
 40
0.6400000000000001
  1
Ø
  7
ROMANS
 72
     1
 11
55.26441900846814
 21
20.65911282031294
 31
0.0
100
AcDbText
 73
     2
  0
TEXT
  5
63608
330
1F
100
AcDbEntity
  8
TEXT1
100
AcDbText
 10
78.68276391810799
 20
20.33911282031297
 30
0.0
 40
0.6400000000000001
  1
Ø
  7
ROMANS
 72
     1
 11
79.01800201334609
 21
20.65911282031297
 31
0.0
100
AcDbText
 73
     2
  0
TEXT
  5
63609
330
1F
100
AcDbEntity
  8
TEXT1
100
AcDbText
 10
102.4363469229858
 20
20.33911282031297
 30
0.0
 40
0.6400000000000001
  1
Ø
  7
ROMANS
 72
     1
 11
102.7715850182239
 21
20.65911282031297
 31
0.0
100
AcDbText
 73
     2
  0
TEXT
  5
6360A
330
1F
100
AcDbEntity
  8
TEXT1
100
AcDbText
 10
66.80597241566899
 20
20.33911282031294
 30
0.0
 40
0.6400000000000001
  1
Ø
  7
ROMANS
 72
     1
 11
67.14121051090709
 21
20.65911282031294
 31
0.0
100
AcDbText
 73
     2
  0
TEXT
  5
6360B
330
1F
100
AcDbEntity
  8
TEXT1
100
AcDbText
 10
90.55955542054695
 20
20.33911282031297
 30
0.0
 40
0.6400000000000001
  1
Ø
  7
ROMANS
 72
     1
 11
90.89479351578503
 21
20.65911282031297
 31
0.0
100
AcDbText
 73
     2
  0
TEXT
  5
6360C
330
1F
100
AcDbEntity
  8
TEXT1
100
AcDbText
 10
114.3131384254248
 20
20.33911282031297
 30
0.0
 40
0.6400000000000001
  1
Ø
  7
ROMANS
 72
     1
 11
114.6483765206629
 21
20.65911282031297
 31
0.0
100
AcDbText
 73
     2
  0
TEXT
  5
6360D
330
1F
100
AcDbEntity
  8
TEXT1
100
AcDbText
 10
55.76831531801865
 20
24.68911195781299
 30
0.0
 40
0.6400000000000001
  1
240VAC
  7
ROMANS
 72
     1
 11
57.55117246087579
 21
25.00911195781299
 31
0.0
100
AcDbText
 73
     2
  0
TEXT
  5
6360E
330
1F
100
AcDbEntity
  8
TEXT1
100
AcDbText
 10
79.5218983228966
 20
24.68911195781299
 30
0.0
 40
0.6400000000000001
  1
480VAC
  7
ROMANS
 72
     1
 11
81.30475546575373
 21
25.00911195781299
 31
0.0
100
AcDbText
 73
     2
  0
TEXT
  5
6360F
330
1F
100
AcDbEntity
  8
TEXT1
100
AcDbText
 10
103.2602432325363
 20
24.68911195781299
 30
0.0
 40
0.6400000000000001
  1
600VAC
  7
ROMANS
 72
     1
 11
105.0583384706316
 21
25.00911195781299
 31
0.0
100
AcDbText
 73
     2
  0
TEXT
  5
63610
330
1F
100
AcDbEntity
  8
TEXT1
100
AcDbText
 10
81.96790476796065
 20
27.39661238906293
 30
0.0
 40
0.6400000000000001
  1
HORSEPOWER RATINGS
  7
ROMANS
 72
     1
 11
87.43838095843685
 21
27.71661238906293
 31
0.0
100
AcDbText
 73
     2
  0
TEXT
  5
63611
330
1F
100
AcDbEntity
  8
TEXT1
100
AcDbText
 10
117.4043319491775
 20
17.71661238906293
 30
0.0
 40
0.6400000000000001
  1
20
  7
ROMANS
 72
     1
 11
118.0138557587014
 21
18.03661238906293
 31
0.0
100
AcDbText
 73
     2
  0
TEXT
  5
63612
330
1F
100
AcDbEntity
  8
TEXT1
100
AcDbText
 10
124.0686695152881
 20
17.71661238906293
 30
0.0
 40
0.6400000000000001
  1
-
  7
ROMANS
 72
     1
 11
124.4648599914786
 21
18.03661238906293
 31
0.0
100
AcDbText
 73
     2
  0
TEXT
  5
63613
330
1F
100
AcDbEntity
  8
TEXT1
100
AcDbText
 10
120.9994898146694
 20
17.71661238906293
 30
0.0
 40
0.6400000000000001
  1
-
  7
ROMANS
 72
     1
 11
121.3956802908598
 21
18.03661238906293
 31
0.0
100
AcDbText
 73
     2
  0
TEXT
  5
63614
330
1F
100
AcDbEntity
  8
TEXT1
100
AcDbText
 10
127.1215431870997
 20
17.71661238906293
 30
0.0
 40
0.6400000000000001
  1
-
  7
ROMANS
 72
     1
 11
127.5177336632902
 21
18.03661238906293
 31
0.0
100
AcDbText
 73
     2
  0
TEXT
  5
63616
330
1F
100
AcDbEntity
  8
TEXT1
100
AcDbText
 10
118.0819505174315
 20
11.556612389063
 30
0.0
 40
0.6400000000000001
  1
-
  7
ROMANS
 72
     1
 11
118.478140993622
 21
11.876612389063
 31
0.0
100
AcDbText
 73
     2
  0
TEXT
  5
63618
330
1F
100
AcDbEntity
  8
TEXT1
100
AcDbText
 10
118.0819505174315
 20
9.796612389062969
 30
0.0
 40
0.6400000000000001
  1
-
  7
ROMANS
 72
     1
 11
118.478140993622
 21
10.11661238906297
 31
0.0
100
AcDbText
 73
     2
  0
TEXT
  5
63619
330
1F
100
AcDbEntity
  8
TEXT1
100
AcDbText
 10
117.4043319491775
 20
14.19661238906294
 30
0.0
 40
0.6400000000000001
  1
20
  7
ROMANS
 72
     1
 11
118.0138557587014
 21
14.51661238906294
 31
0.0
100
AcDbText
 73
     2
  0
TEXT
  5
6361B
330
1F
100
AcDbEntity
  8
TEXT1
100
AcDbText
 10
123.3910509470341
 20
11.55661238906297
 30
0.0
 40
0.6400000000000001
  1
40
  7
ROMANS
 72
     1
 11
124.0005747565579
 21
11.87661238906297
 31
0.0
100
AcDbText
 73
     2
  0
TEXT
  5
6361D
330
1F
100
AcDbEntity
  8
TEXT1
100
AcDbText
 10
124.0686695152881
 20
9.796612389062941
 30
0.0
 40
0.6400000000000001
  1
-
  7
ROMANS
 72
     1
 11
124.4648599914786
 21
10.11661238906294
 31
0.0
100
AcDbText
 73
     2
  0
TEXT
  5
6361E
330
1F
100
AcDbEntity
  8
TEXT1
100
AcDbText
 10
124.0686695152881
 20
14.19661238906294
 30
0.0
 40
0.6400000000000001
  1
-
  7
ROMANS
 72
     1
 11
124.4648599914786
 21
14.51661238906294
 31
0.0
100
AcDbText
 73
     2
  0
TEXT
  5
63620
330
1F
100
AcDbEntity
  8
TEXT1
100
AcDbText
 10
120.9994898146693
 20
11.556612389063
 30
0.0
 40
0.6400000000000001
  1
-
  7
ROMANS
 72
     1
 11
121.3956802908598
 21
11.876612389063
 31
0.0
100
AcDbText
 73
     2
  0
TEXT
  5
63622
330
1F
100
AcDbEntity
  8
TEXT1
100
AcDbText
 10
120.3218712464153
 20
9.796612389062969
 30
0.0
 40
0.6400000000000001
  1
20
  7
ROMANS
 72
     1
 11
120.9313950559391
 21
10.11661238906297
 31
0.0
100
AcDbText
 73
     2
  0
TEXT
  5
63623
330
1F
100
AcDbEntity
  8
TEXT1
100
AcDbText
 10
120.9994898146694
 20
14.19661238906294
 30
0.0
 40
0.6400000000000001
  1
-
  7
ROMANS
 72
     1
 11
121.3956802908598
 21
14.51661238906294
 31
0.0
100
AcDbText
 73
     2
  0
TEXT
  5
63625
330
1F
100
AcDbEntity
  8
TEXT1
100
AcDbText
 10
126.5832101893219
 20
11.55661238906297
 30
0.0
 40
0.6400000000000001
  1
50
  7
ROMANS
 72
     1
 11
127.1927339988457
 21
11.87661238906297
 31
0.0
100
AcDbText
 73
     2
  0
TEXT
  5
63627
330
1F
100
AcDbEntity
  8
TEXT1
100
AcDbText
 10
126.5832101893219
 20
9.796612389062941
 30
0.0
 40
0.6400000000000001
  1
50
  7
ROMANS
 72
     1
 11
127.1927339988457
 21
10.11661238906294
 31
0.0
100
AcDbText
 73
     2
  0
TEXT
  5
63628
330
1F
100
AcDbEntity
  8
TEXT1
100
AcDbText
 10
127.1215431870997
 20
14.19661238906294
 30
0.0
 40
0.6400000000000001
  1
-
  7
ROMANS
 72
     1
 11
127.5177336632902
 21
14.51661238906294
 31
0.0
100
AcDbText
 73
     2
  0
TEXT
  5
63629
330
1F
100
AcDbEntity
  8
TEXT1
100
AcDbText
 10
117.5987436548526
 20
20.42536195781297
 30
0.0
 40
0.6400000000000001
  1
STD
  7
ROMANS
 72
     1
 11
118.467315083424
 21
20.74536195781297
 31
0.0
100
AcDbText
 73
     2
  0
TEXT
  5
6362A
330
1F
100
AcDbEntity
  8
TEXT1
100
AcDbText
 10
123.6406477628428
 20
20.42536195781294
 30
0.0
 40
0.6400000000000001
  1
STD
  7
ROMANS
 72
     1
 11
124.5092191914142
 21
20.74536195781294
 31
0.0
100
AcDbText
 73
     2
  0
TEXT
  5
6362B
330
1F
100
AcDbEntity
  8
TEXT1
100
AcDbText
 10
120.4356802908598
 20
20.42536195781297
 30
0.0
 40
0.6400000000000001
  1
MAX
  7
ROMANS
 72
     1
 11
121.3956802908598
 21
20.74536195781297
 31
0.0
100
AcDbText
 73
     2
  0
TEXT
  5
6362C
330
1F
100
AcDbEntity
  8
TEXT1
100
AcDbText
 10
126.5998221252718
 20
20.42536195781294
 30
0.0
 40
0.6400000000000001
  1
MAX
  7
ROMANS
 72
     1
 11
127.5598221252719
 21
20.74536195781294
 31
0.0
100
AcDbText
 73
     2
  0
TEXT
  5
6362D
330
1F
100
AcDbEntity
  8
TEXT1
100
AcDbText
 10
118.9595876915569
 20
23.87661238906293
 30
0.0
 40
0.6400000000000001
  1
250
  7
ROMANS
 72
     1
 11
119.8738734058426
 21
24.19661238906293
 31
0.0
100
AcDbText
 73
     2
  0
TEXT
  5
6362E
330
1F
100
AcDbEntity
  8
TEXT1
100
AcDbText
 10
125.370806516862
 20
23.87661238906293
 30
0.0
 40
0.6400000000000001
  1
600
  7
ROMANS
 72
     1
 11
126.3003303263859
 21
24.19661238906293
 31
0.0
100
AcDbText
 73
     2
  0
TEXT
  5
6362F
330
1F
100
AcDbEntity
  8
TEXT1
100
AcDbText
 10
118.9900638820331
 20
22.91061195781294
 30
0.0
 40
0.6400000000000001
  1
VDC
  7
ROMANS
 72
     1
 11
119.8738734058426
 21
23.23061195781294
 31
0.0
100
AcDbText
 73
     2
  0
TEXT
  5
63630
330
1F
100
AcDbEntity
  8
TEXT1
100
AcDbText
 10
125.4165208025763
 20
22.91061195781294
 30
0.0
 40
0.6400000000000001
  1
VDC
  7
ROMANS
 72
     1
 11
126.3003303263859
 21
23.23061195781294
 31
0.0
100
AcDbText
 73
     2
  0
LWPOLYLINE
  5
63631
330
1F
100
AcDbEntity
  8
CONTINUOUS1
100
AcDbPolyline
 90
        4
 70
   129
 43
0.0
 10
129.200008
 20
58.13247342038924
 10
105.3191508750753
 20
58.13247342038924
 10
105.3191508750753
 20
51.31793177294154
 10
129.200008
 20
51.31793177294154
  0
LWPOLYLINE
  5
63632
330
1F
100
AcDbEntity
  8
CONTINUOUS1
100
AcDbPolyline
 90
        4
 70
   129
 43
0.0
 10
129.200008
 20
9.236612389062969
 10
22.76145105560104
 20
9.236612389062941
 10
22.76145105560103
 20
28.59661238906293
 10
129.200008
 20
28.59661238906293
  0
TEXT
  5
63633
330
1F
100
AcDbEntity
  8
TEXT1
100
AcDbText
 10
2.021690633846446
 20
13.94059638906298
 30
0.0
 40
0.6400000000000001
  1
NOTES:
  7
ROMANS
 11
2.021690633846446
 21
14.26059638906298
 31
0.0
100
AcDbText
 73
     2
  0
TEXT
  5
63634
330
1F
100
AcDbEntity
  8
TEXT1
100
AcDbText
 10
1.999999999999992
 20
12.18059638906298
 30
0.0
 40
0.6400000000000001
  1
UL LISTED - E2875
  7
ROMANS
 11
1.999999999999992
 21
12.50059638906298
 31
0.0
100
AcDbText
 73
     2
  0
TEXT
  5
63635
330
1F
100
AcDbEntity
  8
TEXT1
100
AcDbText
 10
2.018795549985952
 20
11.30059638906298
 30
0.0
 40
0.6400000000000001
  1
ALL NEUTRALS - INSULATED
  7
ROMANS
 11
2.018795549985952
 21
11.62059638906298
 31
0.0
100
AcDbText
 73
     2
  0
TEXT
  5
63636
330
1F
100
AcDbEntity
  8
TEXT1
100
AcDbText
 10
2.0
 20
1.620596389062972
 30
0.0
 40
0.6400000000000001
  1
LUGS SUITABLE FOR 60°C OR 75°C CONDUCTORS ONLY.
  7
ROMANS
 11
2.0
 21
1.940596389062972
 31
0.0
100
AcDbText
 73
     2
  0
TEXT
  5
63637
330
1F
100
AcDbEntity
  8
TEXT1
100
AcDbText
 10
0.7419791806908833
 20
1.845758812627996
 30
0.0
 40
0.6400000000000001
  1
+
  7
ROMANS
 72
     1
 11
1.138169656881359
 21
2.165758812627996
 31
0.0
100
AcDbText
 73
     2
  0
TEXT
  5
63638
330
1F
100
AcDbEntity
  8
TEXT1
100
AcDbText
 10
0.7419791806908833
 20
1.44981851103194
 30
0.0
 40
0.6400000000000001
  1
+
  7
ROMANS
 72
     1
 11
1.138169656881359
 21
1.76981851103194
 31
0.0
100
AcDbText
 73
     2
  0
TEXT
  5
63639
330
1F
100
AcDbEntity
  8
TEXT1
100
AcDbText
 10
2.0
 20
10.42059638906298
 30
0.0
 40
0.6400000000000001
  1
SHORT CIRCUIT CURRENT RATINGS:
  7
ROMANS
 11
2.0
 21
10.74059638906298
 31
0.0
100
AcDbText
 73
     2
  0
TEXT
  5
6363A
330
1F
100
AcDbEntity
  8
TEXT1
100
AcDbText
 10
2.018795549985952
 20
2.500596389062978
 30
0.0
 40
0.6400000000000001
  1
NOT FOR CORNER GROUNDED DELTA SYSTEMS.
  7
ROMANS
 11
2.018795549985952
 21
2.820596389062977
 31
0.0
100
AcDbText
 73
     2
  0
TEXT
  5
6363B
330
1F
100
AcDbEntity
  8
TEXT1
100
AcDbText
 10
2.0
 20
3.380596389062977
 30
0.0
 40
0.6400000000000001
  1
   POLES FOR UNGROUNDED CONDUCTORS.
  7
ROMANS
 11
2.0
 21
3.700596389062977
 31
0.0
100
AcDbText
 73
     2
  0
TEXT
  5
6363C
330
1F
100
AcDbEntity
  8
TEXT1
100
AcDbText
 10
2.018795549985952
 20
4.260596389062977
 30
0.0
 40
0.6400000000000001
  1
IF CORNER GROUNDED DELTA SYSTEMS, INSTALL NEUTRAL AND USE OUTER SWITCHING
  7
ROMANS
 11
2.018795549985952
 21
4.580596389062978
 31
0.0
100
AcDbText
 73
     2
  0
TEXT
  5
6363D
330
1F
100
AcDbEntity
  8
TEXT1
100
AcDbText
 10
2.018795549985952
 20
5.140596389062977
 30
0.0
 40
0.6400000000000001
  1
USE OUTER SWITCHING POLES
  7
ROMANS
 11
2.018795549985952
 21
5.460596389062978
 31
0.0
100
AcDbText
 73
     2
  0
TEXT
  5
6363E
330
1F
100
AcDbEntity
  8
TEXT1
100
AcDbText
 10
0.8453125683544158
 20
5.179631139576429
 30
0.0
 40
0.6400000000000001
  1
*
  7
ROMANS
 11
0.8453125683544158
 21
5.499631139576429
 31
0.0
100
AcDbText
 73
     2
  0
TEXT
  5
6363F
330
1F
100
AcDbEntity
  8
TEXT1
100
AcDbText
 10
49.26968207997694
 20
17.74861394388055
 30
0.0
 40
0.6400000000000001
  1
*
  7
ROMANS
 11
49.26968207997694
 21
18.06861394388055
 31
0.0
100
AcDbText
 73
     2
  0
TEXT
  5
63640
330
1F
100
AcDbEntity
  8
TEXT1
100
AcDbText
 10
60.29384187706844
 20
17.74861394388055
 30
0.0
 40
0.6400000000000001
  1
*
  7
ROMANS
 11
60.29384187706844
 21
18.06861394388055
 31
0.0
100
AcDbText
 73
     2
  0
TEXT
  5
63643
330
1F
100
AcDbEntity
  8
TEXT1
100
AcDbText
 10
60.29384187706844
 20
9.828613943880553
 30
0.0
 40
0.6400000000000001
  1
*
  7
ROMANS
 11
60.29384187706844
 21
10.14861394388055
 31
0.0
100
AcDbText
 73
     2
  0
TEXT
  5
63644
330
1F
100
AcDbEntity
  8
TEXT1
100
AcDbText
 10
72.17063337950745
 20
11.58861394388058
 30
0.0
 40
0.6400000000000001
  1
*
  7
ROMANS
 11
72.17063337950745
 21
11.90861394388058
 31
0.0
100
AcDbText
 73
     2
  0
TEXT
  5
63645
330
1F
100
AcDbEntity
  8
TEXT1
100
AcDbText
 10
84.0474248819464
 20
11.58861394388058
 30
0.0
 40
0.6400000000000001
  1
*
  7
ROMANS
 11
84.0474248819464
 21
11.90861394388058
 31
0.0
100
AcDbText
 73
     2
  0
TEXT
  5
63646
330
1F
100
AcDbEntity
  8
TEXT1
100
AcDbText
 10
84.04742488194633
 20
9.828613943880553
 30
0.0
 40
0.6400000000000001
  1
*
  7
ROMANS
 11
84.04742488194633
 21
10.14861394388055
 31
0.0
100
AcDbText
 73
     2
  0
TEXT
  5
63647
330
1F
100
AcDbEntity
  8
TEXT1
100
AcDbText
 10
128.0532669745377
 20
9.828613943880553
 30
0.0
 40
0.6400000000000001
  1
*
  7
ROMANS
 11
128.0532669745377
 21
10.14861394388055
 31
0.0
100
AcDbText
 73
     2
  0
TEXT
  5
63648
330
1F
100
AcDbEntity
  8
TEXT1
100
AcDbText
 10
128.0532669745377
 20
11.58861394388058
 30
0.0
 40
0.6400000000000001
  1
*
  7
ROMANS
 11
128.0532669745377
 21
11.90861394388058
 31
0.0
100
AcDbText
 73
     2
  0
TEXT
  5
63649
330
1F
100
AcDbEntity
  8
TEXT1
100
AcDbText
 10
124.8611077322499
 20
11.58861394388058
 30
0.0
 40
0.6400000000000001
  1
*
  7
ROMANS
 11
124.8611077322499
 21
11.90861394388058
 31
0.0
100
AcDbText
 73
     2
  0
TEXT
  5
6364A
330
1F
100
AcDbEntity
  8
TEXT1
100
AcDbText
 10
121.7919280316312
 20
9.828613943880553
 30
0.0
 40
0.6400000000000001
  1
*
  7
ROMANS
 11
121.7919280316312
 21
10.14861394388055
 31
0.0
100
AcDbText
 73
     2
  0
TEXT
  5
6364C
330
1F
100
AcDbEntity
  8
TEXT1
100
AcDbText
 10
107.8010078868242
 20
9.828613943880553
 30
0.0
 40
0.6400000000000001
  1
*
  7
ROMANS
 11
107.8010078868242
 21
10.14861394388055
 31
0.0
100
AcDbText
 73
     2
  0
TEXT
  5
6364D
330
1F
100
AcDbEntity
  8
TEXT1
100
AcDbText
 10
118.8743887343934
 20
14.22861394388055
 30
0.0
 40
0.6400000000000001
  1
*
  7
ROMANS
 11
118.8743887343934
 21
14.54861394388055
 31
0.0
100
AcDbText
 73
     2
  0
TEXT
  5
6364F
330
1F
100
AcDbEntity
  8
TEXT1
100
AcDbText
 10
118.8743887343934
 20
17.74861394388055
 30
0.0
 40
0.6400000000000001
  1
*
  7
ROMANS
 11
118.8743887343934
 21
18.06861394388055
 31
0.0
100
AcDbText
 73
     2
  0
TEXT
  5
63650
330
1F
100
AcDbEntity
  8
TEXT1
100
AcDbText
 10
49.26968207997695
 20
14.22861394388055
 30
0.0
 40
0.6400000000000001
  1
*
  7
ROMANS
 11
49.26968207997695
 21
14.54861394388055
 31
0.0
100
AcDbText
 73
     2
  0
TEXT
  5
63651
330
1F
100
AcDbEntity
  8
TEXT1
100
AcDbText
 10
60.29384187706845
 20
14.22861394388055
 30
0.0
 40
0.6400000000000001
  1
*
  7
ROMANS
 11
60.29384187706845
 21
14.54861394388055
 31
0.0
100
AcDbText
 73
     2
  0
TEXT
  5
63654
330
1F
100
AcDbEntity
  8
TEXT1
100
AcDbText
 10
2.000000000000007
 20
13.06059638906298
 30
0.0
 40
0.6400000000000001
  1
FINISH - TYPE 304 STAINLESS STEEL
  7
ROMANS
 11
2.000000000000007
 21
13.38059638906298
 31
0.0
100
AcDbText
 73
     2
  0
TEXT
  5
63655
330
1F
100
AcDbEntity
  8
TEXT1
100
AcDbText
 10
122.5906077324068
 20
30.56512591009608
 30
0.0
 40
0.8
  1
INCHES
 41
0.9255744609279442
  7
M_STANDARD
 11
122.5906077324068
 21
30.96512591009608
 31
0.0
100
AcDbText
 73
     2
  0
TEXT
  5
63656
330
1F
100
AcDbEntity
  8
TEXT1
100
AcDbText
 10
122.5373277317201
 20
29.44512591009608
 30
0.0
 40
0.6400000000000001
  1
MILLIMETERS
 41
0.8995609042237081
  7
M_STANDARD
 11
122.5373277317201
 21
29.76512591009608
 31
0.0
100
AcDbText
 73
     2
  0
TEXT
  5
63657
330
1F
100
AcDbEntity
  8
TEXT1
100
AcDbText
 10
113.1676892887269
 20
30.14429239874353
 30
0.0
 40
0.6400000000000001
  1
DUAL DIMENSIONS:
 41
0.9397680245047371
  7
M_STANDARD
 11
113.1676892887269
 21
30.46429239874353
 31
0.0
100
AcDbText
 73
     2
  0
TEXT
  5
63658
330
1F
100
AcDbEntity
  8
TEXT1
100
AcDbText
 10
98.37789301749927
 20
65.88188392568405
 30
0.0
 40
0.6400000000000001
  1
A
  7
ROMANS
 72
     1
 11
98.65217873178497
 21
66.20188392568405
 31
0.0
100
AcDbText
 73
     2
  0
LINE
  5
63659
330
1F
100
AcDbEntity
  8
HIDDEN1
100
AcDbLine
 10
102.1625377081827
 20
67.82547622793014
 30
0.0
 11
103.6225377081827
 21
67.82547622793014
 31
0.0
  0
LINE
  5
6365A
330
1F
100
AcDbEntity
  8
CONTINUOUS1
100
AcDbLine
 10
103.3384468637076
 20
66.93342304159163
 30
0.0
 11
103.8395393930045
 21
68.50911884237287
 31
0.0
  0
LINE
  5
6365B
330
1F
100
AcDbEntity
  8
CONTINUOUS1
100
AcDbLine
 10
101.8789253793326
 20
66.93342304159163
 30
0.0
 11
102.3800179086295
 21
68.50911884237287
 31
0.0
  0
LWPOLYLINE
  5
6365C
330
1F
100
AcDbEntity
  8
CONTINUOUS1
100
AcDbPolyline
 90
        5
 70
   128
 43
0.0
 10
103.3428902230826
 20
63.32493724752244
 10
103.3428902230826
 20
64.16918792653511
 42
-1.002526647105324
 10
103.345309628318
 20
65.12915802526855
 42
0.9836376677443109
 10
103.3384468637076
 20
66.08917236257553
 10
103.3384468637076
 20
66.93342304159163
  0
LWPOLYLINE
  5
6365D
330
1F
100
AcDbEntity
  8
CONTINUOUS1
100
AcDbPolyline
 90
        5
 70
   128
 43
0.0
 10
101.8833687387076
 20
63.32493724752244
 10
101.8833687387076
 20
64.16918792653511
 42
-1.002526647105354
 10
101.885788143943
 20
65.12915802526855
 42
0.9836376677443936
 10
101.8789253793326
 20
66.08917236257553
 10
101.8789253793326
 20
66.93342304159163
  0
LINE
  5
6365E
330
1F
100
AcDbEntity
  8
CONTINUOUS1
100
AcDbLine
 10
103.3428902230826
 20
69.35336952138557
 30
0.0
 11
103.3428902230826
 21
68.50911884237287
 31
0.0
  0
LINE
  5
6365F
330
1F
100
AcDbEntity
  8
CONTINUOUS1
100
AcDbLine
 10
101.8833687387076
 20
69.35336952138557
 30
0.0
 11
101.8833687387076
 21
68.50911884237287
 31
0.0
  0
CIRCLE
  5
63660
330
1F
100
AcDbEntity
  8
CONTINUOUS1
100
AcDbCircle
 10
101.9024162850943
 20
69.65821380544316
 30
0.0
 40
0.3054387770829994
  0
CIRCLE
  5
63661
330
1F
100
AcDbEntity
  8
HIDDEN1
100
AcDbCircle
 10
100.4428620905098
 20
69.65821380544319
 30
0.0
 40
0.3054387770830012
  0
CIRCLE
  5
63662
330
1F
100
AcDbEntity
  8
HIDDEN1
100
AcDbCircle
 10
100.4238167367545
 20
63.01949847044404
 30
0.0
 40
0.3054387770830012
  0
LINE
  5
63663
330
1F
100
AcDbEntity
  8
HIDDEN1
100
AcDbLine
 10
100.4238167367545
 20
63.32493724752241
 30
0.0
 11
100.4238168618814
 21
64.98003532384372
 31
0.0
  0
TEXT
  5
63664
330
1F
100
AcDbEntity
  8
TEXT1
100
AcDbText
 10
100.0897976504538
 20
65.23313264150154
 30
0.0
 40
0.6399999999999999
  1
N
  7
ROMANS
 72
     1
 11
100.4250357456919
 21
65.55313264150154
 31
0.0
100
AcDbText
 73
     2
  0
TEXT
  5
63665
330
1F
100
AcDbEntity
  8
TEXT1
100
AcDbText
 10
100.0897976504538
 20
66.05123471850046
 30
0.0
 40
0.6400000000000001
  1
/
  7
ROMANS
 72
     1
 11
100.4250357456919
 21
66.37123471850045
 31
0.0
100
AcDbText
 73
     2
  0
LWPOLYLINE
  5
63666
330
1F
100
AcDbEntity
  8
HIDDEN1
100
AcDbPolyline
 90
        4
 70
   129
 43
0.0
 10
99.97253880512714
 20
67.69896161704436
 10
100.8629587074144
 20
67.69896161704436
 10
100.8629587074144
 20
64.98003532384372
 10
99.97253880512714
 20
64.98003532384372
  0
TEXT
  5
63667
330
1F
100
AcDbEntity
  8
TEXT1
100
AcDbText
 10
100.12027384093
 20
66.78902924855425
 30
0.0
 40
0.6399999999999999
  1
S
  7
ROMANS
 72
     1
 11
100.4250357456919
 21
67.10902924855425
 31
0.0
100
AcDbText
 73
     2
  0
LINE
  5
63668
330
1F
100
AcDbEntity
  8
HIDDEN1
100
AcDbLine
 10
100.4238167367545
 20
67.69896161704436
 30
0.0
 11
100.423814544123
 21
69.35336952138557
 31
0.0
  0
CIRCLE
  5
63669
330
1F
100
AcDbEntity
  8
CONTINUOUS1
100
AcDbCircle
 10
103.3619377694694
 20
69.65821380544316
 30
0.0
 40
0.305438777082971
  0
CIRCLE
  5
6366A
330
1F
100
AcDbEntity
  8
CONTINUOUS1
100
AcDbCircle
 10
103.3428902230826
 20
63.01949847044404
 30
0.0
 40
0.305438777082971
  0
CIRCLE
  5
6366B
330
1F
100
AcDbEntity
  8
CONTINUOUS1
100
AcDbCircle
 10
101.8833687387076
 20
63.01949847044404
 30
0.0
 40
0.3054387770830012
  0
TEXT
  5
6366C
330
1F
100
AcDbEntity
  8
TEXT1
100
AcDbText
 10
106.9988920399668
 20
65.88188392568405
 30
0.0
 40
0.6399999999999999
  1
B
  7
ROMANS
 72
     1
 11
107.3341301352049
 21
66.20188392568405
 31
0.0
100
AcDbText
 73
     2
  0
LINE
  5
6366D
330
1F
100
AcDbEntity
  8
HIDDEN1
100
AcDbLine
 10
110.8449377081827
 20
67.82547622793014
 30
0.0
 11
113.7633377081827
 21
67.82547622793014
 31
0.0
  0
LINE
  5
6366E
330
1F
100
AcDbEntity
  8
CONTINUOUS1
100
AcDbLine
 10
112.0203982671276
 20
66.93342304159163
 30
0.0
 11
112.5214907964245
 21
68.50911884237287
 31
0.0
  0
LINE
  5
6366F
330
1F
100
AcDbEntity
  8
CONTINUOUS1
100
AcDbLine
 10
113.4799502690807
 20
66.93342304159163
 30
0.0
 11
113.9810427983776
 21
68.50911884237287
 31
0.0
  0
LINE
  5
63670
330
1F
100
AcDbEntity
  8
CONTINUOUS1
100
AcDbLine
 10
110.5608767827526
 20
66.93342304159163
 30
0.0
 11
111.0619693120495
 21
68.50911884237287
 31
0.0
  0
LWPOLYLINE
  5
63671
330
1F
100
AcDbEntity
  8
CONTINUOUS1
100
AcDbPolyline
 90
        5
 70
   128
 43
0.0
 10
112.0248416265026
 20
63.32493724752244
 10
112.0248416265026
 20
64.16918792653511
 42
-1.002526647105324
 10
112.027261031738
 20
65.12915802526855
 42
0.9836376677443109
 10
112.0203982671276
 20
66.08917236257553
 10
112.0203982671276
 20
66.93342304159163
  0
LWPOLYLINE
  5
63672
330
1F
100
AcDbEntity
  8
CONTINUOUS1
100
AcDbPolyline
 90
        5
 70
   128
 43
0.0
 10
113.4843936284557
 20
63.32493724752244
 10
113.4843936284557
 20
64.16918792653511
 42
-1.002526647105324
 10
113.4868130336911
 20
65.12915802526855
 42
0.9836376677443936
 10
113.4799502690807
 20
66.08917236257553
 10
113.4799502690807
 20
66.93342304159163
  0
LWPOLYLINE
  5
63673
330
1F
100
AcDbEntity
  8
CONTINUOUS1
100
AcDbPolyline
 90
        5
 70
   128
 43
0.0
 10
110.5653201421276
 20
63.32493724752244
 10
110.5653201421276
 20
64.16918792653511
 42
-1.002526647105354
 10
110.567739547363
 20
65.12915802526855
 42
0.9836376677443936
 10
110.5608767827526
 20
66.08917236257553
 10
110.5608767827526
 20
66.93342304159163
  0
LINE
  5
63674
330
1F
100
AcDbEntity
  8
CONTINUOUS1
100
AcDbLine
 10
112.0248416265026
 20
69.35336952138557
 30
0.0
 11
112.0248416265026
 21
68.50911884237287
 31
0.0
  0
LINE
  5
63675
330
1F
100
AcDbEntity
  8
CONTINUOUS1
100
AcDbLine
 10
113.4843936284557
 20
69.35336952138557
 30
0.0
 11
113.4843936284557
 21
68.50911884237287
 31
0.0
  0
LINE
  5
63676
330
1F
100
AcDbEntity
  8
CONTINUOUS1
100
AcDbLine
 10
110.5653201421276
 20
69.35336952138557
 30
0.0
 11
110.5653201421276
 21
68.50911884237287
 31
0.0
  0
CIRCLE
  5
63677
330
1F
100
AcDbEntity
  8
CONTINUOUS1
100
AcDbCircle
 10
110.5843676885143
 20
69.65821380544316
 30
0.0
 40
0.3054387770829994
  0
CIRCLE
  5
63678
330
1F
100
AcDbEntity
  8
HIDDEN1
100
AcDbCircle
 10
109.1248134939297
 20
69.65821380544319
 30
0.0
 40
0.3054387770830012
  0
CIRCLE
  5
63679
330
1F
100
AcDbEntity
  8
HIDDEN1
100
AcDbCircle
 10
109.1057681401745
 20
63.01949847044404
 30
0.0
 40
0.3054387770830012
  0
LINE
  5
6367A
330
1F
100
AcDbEntity
  8
HIDDEN1
100
AcDbLine
 10
109.1057681401745
 20
63.32493724752241
 30
0.0
 11
109.1057682653013
 21
64.98003532384372
 31
0.0
  0
TEXT
  5
6367B
330
1F
100
AcDbEntity
  8
TEXT1
100
AcDbText
 10
108.7717490538737
 20
65.23313264150154
 30
0.0
 40
0.6399999999999999
  1
N
  7
ROMANS
 72
     1
 11
109.1069871491118
 21
65.55313264150154
 31
0.0
100
AcDbText
 73
     2
  0
TEXT
  5
6367C
330
1F
100
AcDbEntity
  8
TEXT1
100
AcDbText
 10
108.7717490538737
 20
66.05123471850046
 30
0.0
 40
0.6399999999999999
  1
/
  7
ROMANS
 72
     1
 11
109.1069871491118
 21
66.37123471850045
 31
0.0
100
AcDbText
 73
     2
  0
LWPOLYLINE
  5
6367D
330
1F
100
AcDbEntity
  8
HIDDEN1
100
AcDbPolyline
 90
        4
 70
   129
 43
0.0
 10
108.6544902085471
 20
67.69896161704436
 10
109.5449101108343
 20
67.69896161704436
 10
109.5449101108343
 20
64.98003532384372
 10
108.6544902085471
 20
64.98003532384372
  0
TEXT
  5
6367E
330
1F
100
AcDbEntity
  8
TEXT1
100
AcDbText
 10
108.8022252443499
 20
66.78902924855425
 30
0.0
 40
0.6399999999999999
  1
S
  7
ROMANS
 72
     1
 11
109.1069871491118
 21
67.10902924855425
 31
0.0
100
AcDbText
 73
     2
  0
LINE
  5
6367F
330
1F
100
AcDbEntity
  8
HIDDEN1
100
AcDbLine
 10
109.1057681401745
 20
67.69896161704436
 30
0.0
 11
109.1057659475429
 21
69.35336952138557
 31
0.0
  0
CIRCLE
  5
63680
330
1F
100
AcDbEntity
  8
CONTINUOUS1
100
AcDbCircle
 10
112.0438891728893
 20
69.65821380544316
 30
0.0
 40
0.305438777082971
  0
CIRCLE
  5
63681
330
1F
100
AcDbEntity
  8
CONTINUOUS1
100
AcDbCircle
 10
113.5034411748425
 20
69.65821380544316
 30
0.0
 40
0.3054387770829994
  0
CIRCLE
  5
63682
330
1F
100
AcDbEntity
  8
CONTINUOUS1
100
AcDbCircle
 10
112.0248416265026
 20
63.01949847044404
 30
0.0
 40
0.305438777082971
  0
CIRCLE
  5
63683
330
1F
100
AcDbEntity
  8
CONTINUOUS1
100
AcDbCircle
 10
113.4843936284557
 20
63.01949847044404
 30
0.0
 40
0.3054387770829994
  0
CIRCLE
  5
63684
330
1F
100
AcDbEntity
  8
CONTINUOUS1
100
AcDbCircle
 10
110.5653201421276
 20
63.01949847044404
 30
0.0
 40
0.3054387770830012
  0
TEXT
  5
63685
330
1F
100
AcDbEntity
  8
TEXT1
100
AcDbText
 10
117.9825997053222
 20
65.88188392568405
 30
0.0
 40
0.6399999999999999
  1
C
  7
ROMANS
 72
     1
 11
118.3025997053222
 21
66.20188392568405
 31
0.0
100
AcDbText
 73
     2
  0
LINE
  5
63686
330
1F
100
AcDbEntity
  8
HIDDEN1
100
AcDbLine
 10
121.6505377081827
 20
66.42091622793016
 30
0.0
 11
124.5697377081827
 21
66.42091622793016
 31
0.0
  0
LINE
  5
63687
330
1F
100
AcDbEntity
  8
HIDDEN1
100
AcDbLine
 10
119.9073581586913
 20
64.29327790471534
 30
0.0
 11
119.9073574246919
 21
64.96141594475962
 31
0.0
  0
LWPOLYLINE
  5
63688
330
1F
100
AcDbEntity
  8
CONTINUOUS1
100
AcDbPolyline
 90
        3
 70
   128
 43
0.0
 10
122.8264346967773
 20
64.68458923269351
 10
122.8264346967773
 20
65.52883991170701
 10
123.3275272260741
 20
67.10453571248824
  0
LWPOLYLINE
  5
63689
330
1F
100
AcDbEntity
  8
CONTINUOUS1
100
AcDbPolyline
 90
        3
 70
   128
 43
0.0
 10
124.285992802246
 20
64.68458923269351
 10
124.285992802246
 20
65.52883991170701
 10
124.7870853315429
 20
67.10453571248824
  0
LINE
  5
6368A
330
1F
100
AcDbEntity
  8
HIDDEN1
100
AcDbLine
 10
119.907357299565
 20
67.68034223796026
 30
0.0
 11
119.9073551069335
 21
68.30676947240958
 31
0.0
  0
LINE
  5
6368B
330
1F
100
AcDbEntity
  8
CONTINUOUS1
100
AcDbLine
 10
122.8264316450194
 20
67.07119831014451
 30
0.0
 11
122.8264316450194
 21
67.91544898915801
 31
0.0
  0
LINE
  5
6368C
330
1F
100
AcDbEntity
  8
CONTINUOUS1
100
AcDbLine
 10
124.2859897504882
 20
67.07119831014451
 30
0.0
 11
124.2859897504882
 21
67.91544898915801
 31
0.0
  0
LWPOLYLINE
  5
6368D
330
1F
100
AcDbEntity
  8
CONTINUOUS1
100
AcDbPolyline
 90
        3
 70
   128
 43
0.0
 10
121.3669162641601
 20
64.68459381033021
 10
121.3669162641601
 20
65.52884448934371
 10
121.868008793457
 20
67.10454029012497
  0
LINE
  5
6368E
330
1F
100
AcDbEntity
  8
CONTINUOUS1
100
AcDbLine
 10
121.3669132124022
 20
67.07120288778121
 30
0.0
 11
121.3669132124022
 21
67.91545356679474
 31
0.0
  0
CIRCLE
  5
6368F
330
1F
100
AcDbEntity
  8
HIDDEN1
100
AcDbCircle
 10
119.9264026533203
 20
68.6116137564672
 30
0.0
 40
0.3054387770830012
  0
TEXT
  5
63690
330
1F
100
AcDbEntity
  8
TEXT1
100
AcDbText
 10
119.5733382132643
 20
65.21451326241744
 30
0.0
 40
0.6399999999999999
  1
N
  7
ROMANS
 72
     1
 11
119.9085763085024
 21
65.53451326241743
 31
0.0
100
AcDbText
 73
     2
  0
TEXT
  5
63691
330
1F
100
AcDbEntity
  8
TEXT1
100
AcDbText
 10
119.5733382132643
 20
66.03261533941635
 30
0.0
 40
0.6399999999999999
  1
/
  7
ROMANS
 72
     1
 11
119.9085763085024
 21
66.35261533941634
 31
0.0
100
AcDbText
 73
     2
  0
TEXT
  5
63692
330
1F
100
AcDbEntity
  8
TEXT1
100
AcDbText
 10
119.6038144037405
 20
66.77040986947016
 30
0.0
 40
0.6399999999999999
  1
S
  7
ROMANS
 72
     1
 11
119.9085763085024
 21
67.09040986947015
 31
0.0
100
AcDbText
 73
     2
  0
LWPOLYLINE
  5
63693
330
1F
100
AcDbEntity
  8
HIDDEN1
100
AcDbPolyline
 90
        4
 70
   129
 43
0.0
 10
119.4560793679376
 20
67.68034223796026
 10
120.3464992702249
 20
67.68034223796026
 10
120.3464992702249
 20
64.96141594475962
 10
119.4560793679376
 20
64.96141594475962
  0
CIRCLE
  5
63694
330
1F
100
AcDbEntity
  8
CONTINUOUS1
100
AcDbCircle
 10
122.8454791914062
 20
68.22029327321563
 30
0.0
 40
0.3054387770830012
  0
CIRCLE
  5
63695
330
1F
100
AcDbEntity
  8
CONTINUOUS1
100
AcDbCircle
 10
121.385960758789
 20
68.22029785085233
 30
0.0
 40
0.3054387770829994
  0
CIRCLE
  5
63696
330
1F
100
AcDbEntity
  8
CONTINUOUS1
100
AcDbCircle
 10
124.3050372968749
 20
68.22029327321563
 30
0.0
 40
0.3054387770830012
  0
CIRCLE
  5
63697
330
1F
100
AcDbEntity
  8
CONTINUOUS1
100
AcDbCircle
 10
122.8264346967773
 20
64.37915045561512
 30
0.0
 40
0.3054387770829994
  0
CIRCLE
  5
63698
330
1F
100
AcDbEntity
  8
CONTINUOUS1
100
AcDbCircle
 10
121.36691626416
 20
64.37915503325185
 30
0.0
 40
0.3054387770830012
  0
CIRCLE
  5
63699
330
1F
100
AcDbEntity
  8
CONTINUOUS1
100
AcDbCircle
 10
124.285992802246
 20
64.37915045561512
 30
0.0
 40
0.3054387770829994
  0
CIRCLE
  5
6369A
330
1F
100
AcDbEntity
  8
HIDDEN1
100
AcDbCircle
 10
119.9073581586913
 20
63.98783912763697
 30
0.0
 40
0.3054387770829994
  0
TEXT
  5
6369B
330
1F
100
AcDbEntity
  8
TEXT1
100
AcDbText
 10
108.2379497031648
 20
77.01721832204636
 30
0.0
 40
0.8
  1
WIRING DIAGRAMS
  7
ROMANS
 72
     1
 11
113.47604494126
 21
77.41721832204636
 31
0.0
100
AcDbText
 73
     2
  0
TEXT
  5
6369C
330
1F
100
AcDbEntity
  8
TEXT1
100
AcDbText
 10
118.5337611207855
 20
73.906182250269
 30
0.0
 40
0.8
  1
NOT FUSIBLE
  7
ROMANS
 72
     1
 11
122.4956658826903
 21
74.30618225026901
 31
0.0
100
AcDbText
 73
     2
  0
TEXT
  5
6369D
330
1F
100
AcDbEntity
  8
TEXT1
100
AcDbText
 10
104.2393526060837
 20
73.906182250269
 30
0.0
 40
0.8
  1
FUSIBLE
  7
ROMANS
 72
     1
 11
106.6584002251313
 21
74.30618225026901
 31
0.0
100
AcDbText
 73
     2
  0
LINE
  5
6369E
330
1F
100
AcDbEntity
  8
CONTINUOUS1
100
AcDbLine
 10
96.98134500613399
 20
75.8241950981694
 30
0.0
 11
129.200008
 21
75.8241950981694
 31
0.0
  0
LINE
  5
6369F
330
1F
100
AcDbEntity
  8
CONTINUOUS1
100
AcDbLine
 10
96.98134500613399
 20
72.77686614919478
 30
0.0
 11
129.200008
 21
72.77686614919478
 31
0.0
  0
LINE
  5
636A0
330
1F
100
AcDbEntity
  8
CONTINUOUS1
100
AcDbLine
 10
115.7930297742919
 20
75.8241950981694
 30
0.0
 11
115.7930297742919
 21
60.1324734203893
 31
0.0
  0
LWPOLYLINE
  5
636A1
330
1F
100
AcDbEntity
  8
CONTINUOUS1
100
AcDbPolyline
 90
        4
 70
   129
 43
0.0
 10
96.98134500613399
 20
79.54059638906297
 10
129.200008
 20
79.54059638906297
 10
129.200008
 20
60.13247342038924
 10
96.98134500613399
 20
60.13247342038924
  0
HATCH
  5
636A2
330
1F
100
AcDbEntity
  8
TEXT1
100
AcDbHatch
 10
0.0
 20
0.0
 30
0.0
210
0.0
220
0.0
230
1.0
  2
_U
 70
     0
 71
     0
 91
        1
 92
        0
 93
        3
 72
     1
 10
1.103474044376071
 20
3.258906894862029
 11
0.7034740443760726
 21
2.458906894862032
 72
     1
 10
0.703474044376037
 20
2.458906894862018
 11
1.503474044376034
 21
2.458906894862018
 72
     1
 10
1.503474044376048
 20
2.458906894862018
 11
1.103474044376042
 21
3.258906894862015
 97
        0
 75
     0
 76
     0
 52
45.00000000000296
 41
0.0016
 77
     0
 78
     1
 53
45.00000000000296
 43
-3.466534505696017
 44
-2.793078767102833
 45
-0.0011313708498985
 46
0.0011313708498984
 79
     0
 98
        1
 10
-3.466534505696017
 20
-2.793078767102833
  0
HATCH
  5
636A3
330
1F
100
AcDbEntity
  8
TEXT1
100
AcDbHatch
 10
0.0
 20
0.0
 30
0.0
210
0.0
220
0.0
230
1.0
  2
_U
 70
     0
 71
     0
 91
        1
 92
        0
 93
        3
 72
     1
 10
91.63913203698777
 20
10.55516795235079
 11
91.23913203698776
 21
9.755167952350793
 72
     1
 10
91.23913203698775
 20
9.755167952350779
 11
92.03913203698775
 21
9.755167952350779
 72
     1
 10
92.03913203698775
 20
9.755167952350779
 11
91.63913203698774
 21
10.55516795235077
 97
        0
 75
     0
 76
     0
 52
45.00000000000296
 41
0.0016
 77
     0
 78
     1
 53
45.00000000000296
 43
-2.399753962890635
 44
-2.779373405004401
 45
-0.0011313708498985
 46
0.0011313708498984
 79
     0
 98
        1
 10
-2.399753962890635
 20
-2.779373405004401
  0
HATCH
  5
636A4
330
1F
100
AcDbEntity
  8
TEXT1
100
AcDbHatch
 10
0.0
 20
0.0
 30
0.0
210
0.0
220
0.0
230
1.0
  2
_U
 70
     0
 71
     0
 91
        1
 92
        0
 93
        4
 72
     1
 10
0.8784740443760483
 20
4.529195796153433
 11
1.103474044376071
 21
4.918907227856425
 72
     1
 10
1.103474044376071
 20
4.918907227856439
 11
1.328474044376036
 21
4.529195796153447
 72
     1
 10
1.328474044376036
 20
4.529195796153433
 11
1.103474044376071
 21
4.139484364450441
 72
     1
 10
1.103474044376071
 20
4.139484364450455
 11
0.8784740443760483
 21
4.529195796153447
 97
        0
 75
     0
 76
     0
 52
45.00000000000296
 41
0.0016
 77
     0
 78
     1
 53
45.00000000000297
 43
-1.06654250569602
 44
-1.033094767102821
 45
-0.0011313708498985
 46
0.0011313708498984
 79
     0
 98
        1
 10
-3.466534505696017
 20
-3.43307876710281
  0
HATCH
  5
636A5
330
1F
100
AcDbEntity
  8
TEXT1
100
AcDbHatch
 10
0.0
 20
0.0
 30
0.0
210
0.0
220
0.0
230
1.0
  2
_U
 70
     0
 71
     0
 91
        1
 92
        0
 93
        4
 72
     1
 10
55.64265810909002
 20
18.0372480196131
 11
55.86765810909005
 21
18.42695945131609
 72
     1
 10
55.86765810909005
 20
18.42695945131607
 11
56.09265810909001
 21
18.03724801961308
 72
     1
 10
56.09265810909001
 20
18.0372480196131
 11
55.86765810909005
 21
17.64753658791011
 72
     1
 10
55.86765810909005
 20
17.64753658791009
 11
55.64265810909002
 21
18.03724801961308
 97
        0
 75
     0
 76
     0
 52
45.00000000000296
 41
0.0016
 77
     0
 78
     1
 53
45.00000000000296
 43
-2.399753962890635
 44
-0.8593734050043764
 45
-0.0011313708498985
 46
0.0011313708498984
 79
     0
 98
        1
 10
-2.399753962890635
 20
-0.8593734050043764
  0
HATCH
  5
636A6
330
1F
100
AcDbEntity
  8
TEXT1
100
AcDbHatch
 10
0.0
 20
0.0
 30
0.0
210
0.0
220
0.0
230
1.0
  2
_U
 70
     0
 71
     0
 91
        1
 92
        0
 93
        4
 72
     1
 10
67.51944961152898
 20
18.0372480196131
 11
67.74444961152901
 21
18.42695945131609
 72
     1
 10
67.74444961152901
 20
18.42695945131607
 11
67.96944961152897
 21
18.03724801961308
 72
     1
 10
67.96944961152897
 20
18.0372480196131
 11
67.74444961152901
 21
17.64753658791011
 72
     1
 10
67.74444961152901
 20
17.64753658791009
 11
67.51944961152898
 21
18.03724801961308
 97
        0
 75
     0
 76
     0
 52
45.00000000000296
 41
0.0016
 77
     0
 78
     1
 53
45.00000000000296
 43
-2.399753962890635
 44
-0.8593734050043764
 45
-0.0011313708498985
 46
0.0011313708498984
 79
     0
 98
        1
 10
-2.399753962890635
 20
-0.8593734050043764
  0
HATCH
  5
636A9
330
1F
100
AcDbEntity
  8
TEXT1
100
AcDbHatch
 10
0.0
 20
0.0
 30
0.0
210
0.0
220
0.0
230
1.0
  2
_U
 70
     0
 71
     0
 91
        1
 92
        0
 93
        4
 72
     1
 10
67.51944961152893
 20
10.1172480196131
 11
67.74444961152894
 21
10.50695945131609
 72
     1
 10
67.74444961152894
 20
10.50695945131608
 11
67.96944961152892
 21
10.11724801961309
 72
     1
 10
67.96944961152897
 20
10.1172480196131
 11
67.74444961152901
 21
9.727536587910114
 72
     1
 10
67.74444961152894
 20
9.727536587910128
 11
67.51944961152893
 21
10.11724801961312
 97
        0
 75
     0
 76
     0
 52
45.00000000000296
 41
0.0016
 77
     0
 78
     1
 53
45.00000000000296
 43
-2.399753962890635
 44
-2.779373405004401
 45
-0.0011313708498985
 46
0.0011313708498984
 79
     0
 98
        1
 10
-2.399753962890635
 20
-2.779373405004401
  0
HATCH
  5
636AA
330
1F
100
AcDbEntity
  8
TEXT1
100
AcDbHatch
 10
0.0
 20
0.0
 30
0.0
210
0.0
220
0.0
230
1.0
  2
_U
 70
     0
 71
     0
 91
        1
 92
        0
 93
        4
 72
     1
 10
79.39624111396793
 20
11.87724801961313
 11
79.62124111396795
 21
12.26695945131612
 72
     1
 10
79.62124111396795
 20
12.26695945131614
 11
79.84624111396792
 21
11.87724801961315
 72
     1
 10
79.84624111396792
 20
11.87724801961313
 11
79.62124111396795
 21
11.48753658791014
 72
     1
 10
79.62124111396795
 20
11.48753658791015
 11
79.39624111396793
 21
11.87724801961315
 97
        0
 75
     0
 76
     0
 52
45.00000000000296
 41
0.0016
 77
     0
 78
     1
 53
45.00000000000296
 43
-2.399753962890628
 44
-2.219373405004359
 45
-0.0011313708498985
 46
0.0011313708498984
 79
     0
 98
        1
 10
-2.399753962890628
 20
-2.219373405004359
  0
HATCH
  5
636AB
330
1F
100
AcDbEntity
  8
TEXT1
100
AcDbHatch
 10
0.0
 20
0.0
 30
0.0
210
0.0
220
0.0
230
1.0
  2
_U
 70
     0
 71
     0
 91
        1
 92
        0
 93
        4
 72
     1
 10
91.27303261640694
 20
11.87724801961313
 11
91.49803261640697
 21
12.26695945131612
 72
     1
 10
91.49803261640697
 20
12.26695945131614
 11
91.72303261640692
 21
11.87724801961315
 72
     1
 10
91.72303261640687
 20
11.87724801961313
 11
91.49803261640689
 21
11.48753658791014
 72
     1
 10
91.49803261640697
 20
11.48753658791015
 11
91.27303261640694
 21
11.87724801961315
 97
        0
 75
     0
 76
     0
 52
45.00000000000296
 41
0.0016
 77
     0
 78
     1
 53
45.00000000000296
 43
-2.399753962890628
 44
-2.219373405004359
 45
-0.0011313708498985
 46
0.0011313708498984
 79
     0
 98
        1
 10
-2.399753962890628
 20
-2.219373405004359
  0
HATCH
  5
636AC
330
1F
100
AcDbEntity
  8
TEXT1
100
AcDbHatch
 10
0.0
 20
0.0
 30
0.0
210
0.0
220
0.0
230
1.0
  2
_U
 70
     0
 71
     0
 91
        1
 92
        0
 93
        4
 72
     1
 10
55.64265810909003
 20
14.5172480196131
 11
55.86765810909006
 21
14.90695945131609
 72
     1
 10
55.86765810909006
 20
14.90695945131608
 11
56.09265810909002
 21
14.51724801961309
 72
     1
 10
56.09265810909002
 20
14.5172480196131
 11
55.86765810909006
 21
14.12753658791011
 72
     1
 10
55.86765810909006
 20
14.1275365879101
 11
55.64265810909003
 21
14.51724801961309
 97
        0
 75
     0
 76
     0
 52
45.00000000000296
 41
0.0016
 77
     0
 78
     1
 53
45.00000000000296
 43
-2.399753962890628
 44
-1.979373405004393
 45
-0.0011313708498985
 46
0.0011313708498984
 79
     0
 98
        1
 10
-2.399753962890628
 20
-1.979373405004393
  0
HATCH
  5
636AD
330
1F
100
AcDbEntity
  8
TEXT1
100
AcDbHatch
 10
0.0
 20
0.0
 30
0.0
210
0.0
220
0.0
230
1.0
  2
_U
 70
     0
 71
     0
 91
        1
 92
        0
 93
        4
 72
     1
 10
67.51944961152898
 20
14.5172480196131
 11
67.74444961152901
 21
14.90695945131609
 72
     1
 10
67.74444961152901
 20
14.90695945131608
 11
67.96944961152897
 21
14.51724801961309
 72
     1
 10
67.96944961152897
 20
14.5172480196131
 11
67.74444961152901
 21
14.12753658791011
 72
     1
 10
67.74444961152901
 20
14.1275365879101
 11
67.51944961152898
 21
14.51724801961309
 97
        0
 75
     0
 76
     0
 52
45.00000000000296
 41
0.0016
 77
     0
 78
     1
 53
45.00000000000296
 43
-2.399753962890628
 44
-1.979373405004393
 45
-0.0011313708498985
 46
0.0011313708498984
 79
     0
 98
        1
 10
-2.399753962890628
 20
-1.979373405004393
  0
HATCH
  5
636B0
330
1F
100
AcDbEntity
  8
TEXT1
100
AcDbHatch
 10
0.0
 20
0.0
 30
0.0
210
0.0
220
0.0
230
1.0
  2
_U
 70
     0
 71
     0
 91
        1
 92
        0
 93
        4
 72
     1
 10
0.8784740443760483
 20
4.529195796153433
 11
1.103474044376071
 21
4.918907227856425
 72
     1
 10
1.103474044376071
 20
4.918907227856439
 11
1.328474044376036
 21
4.529195796153447
 72
     1
 10
1.328474044376036
 20
4.529195796153433
 11
1.103474044376071
 21
4.139484364450441
 72
     1
 10
1.103474044376071
 20
4.139484364450455
 11
0.8784740443760483
 21
4.529195796153447
 97
        0
 75
     0
 76
     0
 52
45.00000000000296
 41
0.0016
 77
     0
 78
     1
 53
45.00000000000296
 43
-3.466534505696017
 44
-3.43307876710281
 45
-0.0011313708498985
 46
0.0011313708498984
 79
     0
 98
        1
 10
-3.466534505696017
 20
-3.43307876710281
  0
HATCH
  5
636B1
330
1F
100
AcDbEntity
  8
TEXT1
100
AcDbHatch
 10
0.0
 20
0.0
 30
0.0
210
0.0
220
0.0
230
1.0
  2
_U
 70
     0
 71
     0
 91
        1
 92
        0
 93
        4
 72
     1
 10
55.64265810909002
 20
18.0372480196131
 11
55.86765810909005
 21
18.42695945131609
 72
     1
 10
55.86765810909005
 20
18.42695945131607
 11
56.09265810909001
 21
18.03724801961308
 72
     1
 10
56.09265810909001
 20
18.0372480196131
 11
55.86765810909005
 21
17.64753658791011
 72
     1
 10
55.86765810909005
 20
17.64753658791009
 11
55.64265810909002
 21
18.03724801961308
 97
        0
 75
     0
 76
     0
 52
45.00000000000296
 41
0.0016
 77
     0
 78
     1
 53
45.00000000000296
 43
-2.399753962890635
 44
-0.8593734050043764
 45
-0.0011313708498985
 46
0.0011313708498984
 79
     0
 98
        1
 10
-2.399753962890635
 20
-0.8593734050043764
  0
HATCH
  5
636B2
330
1F
100
AcDbEntity
  8
TEXT1
100
AcDbHatch
 10
0.0
 20
0.0
 30
0.0
210
0.0
220
0.0
230
1.0
  2
_U
 70
     0
 71
     0
 91
        1
 92
        0
 93
        4
 72
     1
 10
67.51944961152898
 20
18.0372480196131
 11
67.74444961152901
 21
18.42695945131609
 72
     1
 10
67.74444961152901
 20
18.42695945131607
 11
67.96944961152897
 21
18.03724801961308
 72
     1
 10
67.96944961152897
 20
18.0372480196131
 11
67.74444961152901
 21
17.64753658791011
 72
     1
 10
67.74444961152901
 20
17.64753658791009
 11
67.51944961152898
 21
18.03724801961308
 97
        0
 75
     0
 76
     0
 52
45.00000000000296
 41
0.0016
 77
     0
 78
     1
 53
45.00000000000296
 43
-2.399753962890635
 44
-0.8593734050043764
 45
-0.0011313708498985
 46
0.0011313708498984
 79
     0
 98
        1
 10
-2.399753962890635
 20
-0.8593734050043764
  0
HATCH
  5
636B5
330
1F
100
AcDbEntity
  8
TEXT1
100
AcDbHatch
 10
0.0
 20
0.0
 30
0.0
210
0.0
220
0.0
230
1.0
  2
_U
 70
     0
 71
     0
 91
        1
 92
        0
 93
        4
 72
     1
 10
67.51944961152893
 20
10.1172480196131
 11
67.74444961152894
 21
10.50695945131609
 72
     1
 10
67.74444961152894
 20
10.50695945131608
 11
67.96944961152892
 21
10.11724801961309
 72
     1
 10
67.96944961152897
 20
10.1172480196131
 11
67.74444961152901
 21
9.727536587910114
 72
     1
 10
67.74444961152894
 20
9.727536587910128
 11
67.51944961152893
 21
10.11724801961312
 97
        0
 75
     0
 76
     0
 52
45.00000000000296
 41
0.0016
 77
     0
 78
     1
 53
45.00000000000296
 43
-2.399753962890635
 44
-2.779373405004401
 45
-0.0011313708498985
 46
0.0011313708498984
 79
     0
 98
        1
 10
-2.399753962890635
 20
-2.779373405004401
  0
HATCH
  5
636B6
330
1F
100
AcDbEntity
  8
TEXT1
100
AcDbHatch
 10
0.0
 20
0.0
 30
0.0
210
0.0
220
0.0
230
1.0
  2
_U
 70
     0
 71
     0
 91
        1
 92
        0
 93
        4
 72
     1
 10
79.39624111396793
 20
11.87724801961313
 11
79.62124111396795
 21
12.26695945131612
 72
     1
 10
79.62124111396795
 20
12.26695945131614
 11
79.84624111396792
 21
11.87724801961315
 72
     1
 10
79.84624111396792
 20
11.87724801961313
 11
79.62124111396795
 21
11.48753658791014
 72
     1
 10
79.62124111396795
 20
11.48753658791015
 11
79.39624111396793
 21
11.87724801961315
 97
        0
 75
     0
 76
     0
 52
45.00000000000296
 41
0.0016
 77
     0
 78
     1
 53
45.00000000000296
 43
-2.399753962890628
 44
-2.219373405004359
 45
-0.0011313708498985
 46
0.0011313708498984
 79
     0
 98
        1
 10
-2.399753962890628
 20
-2.219373405004359
  0
HATCH
  5
636B7
330
1F
100
AcDbEntity
  8
TEXT1
100
AcDbHatch
 10
0.0
 20
0.0
 30
0.0
210
0.0
220
0.0
230
1.0
  2
_U
 70
     0
 71
     0
 91
        1
 92
        0
 93
        4
 72
     1
 10
91.27303261640694
 20
11.87724801961313
 11
91.49803261640697
 21
12.26695945131612
 72
     1
 10
91.49803261640697
 20
12.26695945131614
 11
91.72303261640692
 21
11.87724801961315
 72
     1
 10
91.72303261640687
 20
11.87724801961313
 11
91.49803261640689
 21
11.48753658791014
 72
     1
 10
91.49803261640697
 20
11.48753658791015
 11
91.27303261640694
 21
11.87724801961315
 97
        0
 75
     0
 76
     0
 52
45.00000000000296
 41
0.0016
 77
     0
 78
     1
 53
45.00000000000296
 43
-2.399753962890628
 44
-2.219373405004359
 45
-0.0011313708498985
 46
0.0011313708498984
 79
     0
 98
        1
 10
-2.399753962890628
 20
-2.219373405004359
  0
HATCH
  5
636B8
330
1F
100
AcDbEntity
  8
TEXT1
100
AcDbHatch
 10
0.0
 20
0.0
 30
0.0
210
0.0
220
0.0
230
1.0
  2
_U
 70
     0
 71
     0
 91
        1
 92
        0
 93
        4
 72
     1
 10
55.64265810909003
 20
14.5172480196131
 11
55.86765810909006
 21
14.90695945131609
 72
     1
 10
55.86765810909006
 20
14.90695945131608
 11
56.09265810909002
 21
14.51724801961309
 72
     1
 10
56.09265810909002
 20
14.5172480196131
 11
55.86765810909006
 21
14.12753658791011
 72
     1
 10
55.86765810909006
 20
14.1275365879101
 11
55.64265810909003
 21
14.51724801961309
 97
        0
 75
     0
 76
     0
 52
45.00000000000296
 41
0.0016
 77
     0
 78
     1
 53
45.00000000000296
 43
-2.399753962890628
 44
-1.979373405004393
 45
-0.0011313708498985
 46
0.0011313708498984
 79
     0
 98
        1
 10
-2.399753962890628
 20
-1.979373405004393
  0
HATCH
  5
636B9
330
1F
100
AcDbEntity
  8
TEXT1
100
AcDbHatch
 10
0.0
 20
0.0
 30
0.0
210
0.0
220
0.0
230
1.0
  2
_U
 70
     0
 71
     0
 91
        1
 92
        0
 93
        4
 72
     1
 10
67.51944961152898
 20
14.5172480196131
 11
67.74444961152901
 21
14.90695945131609
 72
     1
 10
67.74444961152901
 20
14.90695945131608
 11
67.96944961152897
 21
14.51724801961309
 72
     1
 10
67.96944961152897
 20
14.5172480196131
 11
67.74444961152901
 21
14.12753658791011
 72
     1
 10
67.74444961152901
 20
14.1275365879101
 11
67.51944961152898
 21
14.51724801961309
 97
        0
 75
     0
 76
     0
 52
45.00000000000296
 41
0.0016
 77
     0
 78
     1
 53
45.00000000000296
 43
-2.399753962890628
 44
-1.979373405004393
 45
-0.0011313708498985
 46
0.0011313708498984
 79
     0
 98
        1
 10
-2.399753962890628
 20
-1.979373405004393
  0
LWPOLYLINE
  5
636BC
330
1F
100
AcDbEntity
  8
TEXT1
100
AcDbPolyline
 90
        4
 70
   129
 43
0.0
 10
0.8784740443760483
 20
4.529195796153433
 10
1.103474044376071
 20
4.918907227856439
 10
1.328474044376036
 20
4.529195796153433
 10
1.103474044376071
 20
4.139484364450455
  0
LWPOLYLINE
  5
636BD
330
1F
100
AcDbEntity
  8
TEXT1
100
AcDbPolyline
 90
        3
 70
   129
 43
0.0
 10
1.103474044376071
 20
3.258906894862029
 10
0.703474044376037
 20
2.458906894862018
 10
1.503474044376048
 20
2.458906894862018
  0
LWPOLYLINE
  5
636BE
330
1F
100
AcDbEntity
  8
TEXT1
100
AcDbPolyline
 90
        3
 70
   129
 43
0.0
 10
91.63913203698777
 20
10.55516795235079
 10
91.23913203698775
 20
9.755167952350779
 10
92.03913203698775
 20
9.755167952350779
  0
LINE
  5
636BF
330
1F
100
AcDbEntity
  8
CONTINUOUS1
100
AcDbLine
 10
46.94896460811615
 20
65.36789383977186
 30
0.0
 11
39.44094448652787
 21
65.36789383977184
 31
0.0
  0
LINE
  5
636C0
330
1F
100
AcDbEntity
  8
CONTINUOUS1
100
AcDbLine
 10
46.94094458379995
 20
42.22789385702184
 30
0.0
 11
39.44094448652787
 21
42.22789385702187
 31
0.0
  0
LWPOLYLINE
  5
636C1
330
1F
100
AcDbEntity
  8
CONTINUOUS1
100
AcDbPolyline
 90
        4
 70
   129
 43
0.0
 10
38.51094448652786
 20
64.20789384093183
 10
38.51094448652786
 20
43.38789384093184
 10
47.87094448652787
 20
43.38789384093185
 10
47.87094448652787
 20
64.20789384093186
  0
LWPOLYLINE
  5
636C2
330
1F
100
AcDbEntity
  8
CONTINUOUS1
100
AcDbPolyline
 90
        4
 70
   128
 43
0.0
 10
73.30321605814311
 20
49.24319916265562
 10
73.30321605814311
 20
48.46011007125869
 10
73.98081411539632
 20
47.32916480551309
 10
73.98081411539632
 20
47.03385230580841
  0
LINE
  5
636C3
330
1F
100
AcDbEntity
  8
CONTINUOUS1
100
AcDbLine
 10
73.82583146685135
 20
47.58783864728173
 30
0.0
 11
73.82520718447648
 21
47.03385230580841
 31
0.0
  0
LINE
  5
636C4
330
1F
100
AcDbEntity
  8
CONTINUOUS1
100
AcDbLine
 10
73.82520718447648
 20
44.40498627176387
 30
0.0
 11
73.82520718447648
 21
43.96449336005932
 31
0.0
  0
LWPOLYLINE
  5
636C5
330
1F
100
AcDbEntity
  8
CONTINUOUS1
100
AcDbPolyline
 90
        5
 70
   128
 43
0.0
 10
73.30321605814308
 20
64.02700975608526
 10
79.26574151884335
 20
64.02700975608526
 10
79.26574151884335
 20
43.49008111517722
 10
79.26574151884335
 20
43.67587429534753
 10
73.51733157463641
 20
43.67724710684253
  0
LWPOLYLINE
  5
636C6
330
1F
100
AcDbEntity
  8
CONTINUOUS1
100
AcDbPolyline
 90
        8
 70
   128
 43
0.0
 10
79.26574151884335
 20
44.19309287007177
 10
79.44292901866621
 20
44.19309287007177
 10
79.44292901866621
 20
43.67412669559073
 10
79.56091108729819
 20
43.41449621460038
 10
79.56091108729819
 20
42.22200975707028
 10
79.3837235874754
 20
42.22200975707028
 10
79.38372358747537
 20
43.37612567088874
 10
79.26574151884335
 20
43.63575615187911
  0
LWPOLYLINE
  5
636C7
330
1F
100
AcDbEntity
  8
CONTINUOUS1
100
AcDbPolyline
 90
        8
 70
   128
 43
0.0
 10
79.26574151884335
 20
63.88134357875832
 10
79.38372358747537
 20
64.1409740597487
 10
79.38372358747537
 20
65.36200975475027
 10
79.56091108729819
 20
65.36200975475027
 10
79.56091108729819
 20
64.10260351603707
 10
79.44292901866621
 20
63.8429730350467
 10
79.44292901866621
 20
63.0295693608601
 10
79.26574151884335
 20
63.0295693608601
  0
LWPOLYLINE
  5
636C8
330
1F
100
AcDbEntity
  8
CONTINUOUS1
100
AcDbPolyline
 90
        4
 70
   129
 43
0.0
 10
73.51896606270833
 20
59.98273656641702
 10
73.51896606270833
 20
62.61160260046157
 10
77.4912843115332
 20
62.61160260046157
 10
77.4912843115332
 20
59.98273656641702
  0
LWPOLYLINE
  5
636C9
330
1F
100
AcDbEntity
  8
CONTINUOUS1
100
AcDbPolyline
 90
        4
 70
   129
 43
0.0
 10
73.5189660627083
 20
44.40498627176387
 10
73.5189660627083
 20
47.03385230580841
 10
77.49128431153318
 20
47.03385230580841
 10
77.49128431153318
 20
44.40498627176387
  0
LWPOLYLINE
  5
636CA
330
1F
100
AcDbEntity
  8
CONTINUOUS1
100
AcDbPolyline
 90
        7
 70
   128
 43
0.0
 10
46.65159214706976
 20
64.20789384093237
 42
-0.2207052456901512
 10
46.7991944866696
 20
64.40793081250126
 10
46.7991944866696
 20
64.47042510618877
 42
-0.4142135623731098
 10
46.94094448652786
 20
64.61217510604702
 42
-0.4142135623730804
 10
47.08269448638612
 20
64.47042510618877
 10
47.08269448638612
 20
64.40793081250126
 42
-0.2207052456889696
 10
47.23029682598571
 20
64.20789384093365
  0
LWPOLYLINE
  5
636CB
330
1F
100
AcDbEntity
  8
CONTINUOUS1
100
AcDbPolyline
 90
        3
 70
   128
 43
0.0
 10
46.64569114659521
 20
43.38789385586131
 42
0.2794899940491016
 10
46.79919458394171
 20
43.12291939987626
 10
46.79919458394171
 20
43.06042510618875
  0
LWPOLYLINE
  5
636CC
330
1F
100
AcDbEntity
  8
CONTINUOUS1
100
AcDbPolyline
 90
        7
 70
   128
 43
0.0
 10
39.73029682598603
 20
64.20789384093201
 42
0.220705245690425
 10
39.5826944863861
 20
64.40793081250125
 10
39.5826944863861
 20
64.47042510618877
 42
0.4142135623731098
 10
39.44094448652787
 20
64.61217510604702
 42
0.4142135623731098
 10
39.2991944866696
 20
64.47042510618877
 10
39.2991944866696
 20
64.40793081250125
 42
0.2207052456904488
 10
39.15159214706967
 20
64.20789384093204
  0
LWPOLYLINE
  5
636CD
330
1F
100
AcDbEntity
  8
CONTINUOUS1
100
AcDbPolyline
 90
        6
 70
   128
 43
0.0
 10
39.7361979237326
 20
43.38789385586129
 42
-0.2794899940490628
 10
39.5826944863861
 20
43.12291939987626
 10
39.5826944863861
 20
43.06042510618875
 42
-1.000000316627377
 10
39.2991944866696
 20
43.06042510618875
 10
39.2991944866696
 20
43.12291939987626
 42
-0.2794899940490653
 10
39.1456910493231
 20
43.38789385586129
  0
LWPOLYLINE
  5
636D2
330
1F
100
AcDbEntity
  8
CONTINUOUS1
100
AcDbPolyline
 90
        4
 70
   129
 43
0.0
 10
59.92955534606451
 20
72.0718590737267
 42
-3.910975933074993
 10
58.63355534606452
 20
72.0718590737267
 10
58.63355534606452
 20
72.31854727372663
 42
-1.000000256497534
 10
59.92955534606451
 20
72.31854727372663
  0
CIRCLE
  5
636D3
330
1F
100
AcDbEntity
  8
CONTINUOUS1
100
AcDbCircle
 10
47.25485645464018
 20
43.08667509123246
 30
0.0
 40
0.1511678219470554
  0
LWPOLYLINE
  5
636D4
330
1F
100
AcDbEntity
  8
CONTINUOUS1
100
AcDbPolyline
 90
        3
 70
   128
 43
0.0
 10
46.94896460811615
 20
65.36789383977186
 42
-0.4142135907736359
 10
47.66834585739677
 20
64.64819572244564
 10
47.66834585739677
 20
64.20789384093186
  0
ARC
  5
636D5
330
1F
100
AcDbEntity
  8
CONTINUOUS1
100
AcDbCircle
 10
46.94078618467007
 20
42.94743350544767
 30
0.0
 40
0.719539665860782
100
AcDbArc
 50
270.012613066578
 51
346.1398138421949
  0
LWPOLYLINE
  5
636D6
330
1F
100
AcDbEntity
  8
CONTINUOUS1
100
AcDbPolyline
 90
        9
 70
   128
 43
0.0
 10
38.72156323724722
 20
64.20789384093186
 10
38.72156323724722
 20
64.64819572244564
 42
-0.0581818188981614
 10
38.83951191909905
 20
64.93971018472357
 42
-0.0330977179868841
 10
38.91904691754986
 20
65.06396425519797
 42
-0.0369943124500655
 10
39.00990177558331
 20
65.16987133139934
 42
-0.0417554048623306
 10
39.10994278706333
 20
65.25494420919534
 42
-0.0470468294333371
 10
39.21682051108301
 20
65.31718497096997
 42
-0.052081872590763
 10
39.32802494806192
 20
65.35513190627439
 42
-0.0556406716952595
 10
39.44094448652787
 20
65.36789383977186
  0
LWPOLYLINE
  5
636D7
330
1F
100
AcDbEntity
  8
CONTINUOUS1
100
AcDbPolyline
 90
        9
 70
   128
 43
0.0
 10
38.72156323724722
 20
43.38789385586184
 10
38.72156323724722
 20
42.94759197434807
 42
0.0581818170867718
 10
38.83951191909905
 20
42.65607701478933
 42
0.0330977647773299
 10
38.91904691754986
 20
42.53182281625301
 42
0.0369944014423309
 10
39.00990177558331
 20
42.42591569702752
 42
0.0417555422820373
 10
39.10994278706333
 20
42.34084286225561
 42
0.0470470127540684
 10
39.21682051108304
 20
42.27860222854292
 42
0.0520820807465239
 10
39.32802494806192
 20
42.24065550333074
 42
0.0556408612739348
 10
39.44094448652787
 20
42.22789385702184
  0
TEXT
  5
636D8
330
1F
100
AcDbEntity
  8
TEXT1
100
AcDbText
 10
46.07701546567922
 20
63.22741067819162
 30
0.0
 40
0.4
  1
ON
  7
ROMANS
 72
     1
 11
46.48653927520304
 21
63.42741067819162
 31
0.0
100
AcDbText
 73
     2
  0
TEXT
  5
636D9
330
1F
100
AcDbEntity
  8
TEXT1
100
AcDbText
 10
45.89151663623446
 20
43.96837700367203
 30
0.0
 40
0.4
  1
OFF
  7
ROMANS
 72
     1
 11
46.46294520766303
 21
44.16837700367203
 31
0.0
100
AcDbText
 73
     2
  0
LWPOLYLINE
  5
636DA
330
1F
100
AcDbEntity
  8
CONTINUOUS1
100
AcDbPolyline
 90
        4
 70
   128
 43
0.0
 10
46.80299203980057
 20
43.38789384093184
 10
46.80299203980057
 20
42.77506529571353
 10
47.70672086947975
 20
42.77506529571353
 10
47.70672086947975
 20
43.38789384093184
  0
LWPOLYLINE
  5
636DB
330
1F
100
AcDbEntity
  8
CONTINUOUS1
100
AcDbPolyline
 90
        4
 70
   128
 43
0.0
 10
73.98081411539632
 20
59.98273656641702
 10
73.98081411539632
 20
59.68742406671237
 10
73.30321605814311
 20
58.6385353919455
 10
73.30321605814311
 20
50.72911869342493
  0
LINE
  5
636DC
330
1F
100
AcDbEntity
  8
CONTINUOUS1
100
AcDbLine
 10
73.82106206006338
 20
59.44013569299905
 30
0.0
 11
73.82520718447648
 21
59.98273656641702
 31
0.0
  0
LINE
  5
636DD
330
1F
100
AcDbEntity
  8
CONTINUOUS1
100
AcDbLine
 10
73.82106206006338
 20
62.61160260046157
 30
0.0
 11
73.82106206006338
 21
63.14684567462469
 31
0.0
  0
LWPOLYLINE
  5
636DE
330
1F
100
AcDbEntity
  8
CONTINUOUS1
100
AcDbPolyline
 90
        6
 70
   128
 43
0.0
 10
72.59091108729819
 20
49.62545649367705
 10
72.59091108729819
 20
43.38200975591029
 10
73.30321605814311
 20
43.38200975591028
 10
73.30321605814302
 20
43.47747850581483
 10
73.98081411539632
 20
44.10967377205916
 10
73.98081411539632
 20
44.40498627176387
  0
LWPOLYLINE
  5
636DF
330
1F
100
AcDbEntity
  8
CONTINUOUS1
100
AcDbPolyline
 90
        7
 70
   128
 43
0.0
 10
73.9760613555348
 20
62.61160260046157
 10
73.9753947691425
 20
62.91249274286206
 10
73.30321605814308
 20
63.93319051024461
 10
73.30321605814308
 20
64.20200975591026
 10
72.59091108729819
 20
64.20200975591026
 10
72.59091108729819
 20
49.85629835782995
 10
72.59091108729819
 20
49.85518713292211
  0
LWPOLYLINE
  5
636E0
330
1F
100
AcDbEntity
  8
CONTINUOUS1
100
AcDbPolyline
 90
        4
 70
   129
 43
0.0
 10
47.96513449555824
 20
59.9886206514386
 10
48.44324996150347
 20
59.9886206514386
 10
48.44324996150347
 20
62.61748668548317
 10
47.96513449555824
 20
62.61748668548317
  0
LWPOLYLINE
  5
636E1
330
1F
100
AcDbEntity
  8
CONTINUOUS1
100
AcDbPolyline
 90
        4
 70
   129
 43
0.0
 10
47.96513449555824
 20
44.41087035678544
 10
48.44324996150347
 20
44.41087035678544
 10
48.44324996150347
 20
46.7444238911253
 10
47.96513449555824
 20
46.7444238911253
  0
LWPOLYLINE
  5
636E2
330
1F
100
AcDbEntity
  8
CONTINUOUS1
100
AcDbPolyline
 90
        3
 70
   128
 43
0.0
 10
47.87094448652787
 20
62.99154918510914
 10
48.11675809463785
 20
62.99154918510914
 10
48.11675809463785
 20
62.61748668548317
  0
LWPOLYLINE
  5
636E3
330
1F
100
AcDbEntity
  8
CONTINUOUS1
100
AcDbPolyline
 90
        3
 70
   128
 43
0.0
 10
47.87094448652787
 20
47.03973639082998
 10
48.11675809463785
 20
47.03973639082998
 10
48.11675809463785
 20
46.74442389112532
  0
LWPOLYLINE
  5
636E4
330
1F
100
AcDbEntity
  8
CONTINUOUS1
100
AcDbPolyline
 90
        3
 70
   128
 43
0.0
 10
48.11675809463785
 20
59.9886206514386
 10
48.11675809463785
 20
59.69330815173394
 10
47.87094448652787
 20
59.69330815173394
  0
LWPOLYLINE
  5
636E5
330
1F
100
AcDbEntity
  8
CONTINUOUS1
100
AcDbPolyline
 90
        3
 70
   128
 43
0.0
 10
48.11675809463785
 20
44.41087035678544
 10
48.11675809463785
 20
44.11555785708078
 10
47.87094448652787
 20
44.11555785708078
  0
LWPOLYLINE
  5
636E6
330
1F
100
AcDbEntity
  8
CONTINUOUS1
100
AcDbPolyline
 90
        6
 70
   128
 43
0.0
 10
73.99882905488019
 20
43.67732225561497
 10
73.99882905488019
 20
43.55531102354715
 10
73.4297394294872
 20
43.55531102354715
 10
73.4297394294872
 20
42.76918121069197
 10
73.27798733583211
 20
42.76918121069197
 10
73.27798733583211
 20
43.38200975591028
  0
LWPOLYLINE
  5
636E7
330
1F
100
AcDbEntity
  8
CONTINUOUS1
100
AcDbPolyline
 90
        4
 70
   128
 43
0.0
 10
79.25777848370569
 20
55.78322498278877
 10
79.57882075285295
 20
55.4621827136415
 10
79.57882075285297
 20
46.18605275984666
 10
79.26059114968154
 20
45.83098048444527
  0
CIRCLE
  5
636E8
330
1F
100
AcDbEntity
  8
CONTINUOUS1
100
AcDbCircle
 10
43.19094448652786
 20
43.06042510618875
 30
0.0
 40
0.1550000000000011
  0
CIRCLE
  5
636E9
330
1F
100
AcDbEntity
  8
CONTINUOUS1
100
AcDbCircle
 10
43.19094448652786
 20
64.47042510618877
 30
0.0
 40
0.1550000000000011
  0
LINE
  5
636EA
330
1F
100
AcDbEntity
  8
CONTINUOUS1
100
AcDbLine
 10
74.31305894969776
 20
48.93243046666053
 30
0.0
 11
75.20300261501879
 21
51.05638079883784
 31
0.0
  0
LWPOLYLINE
  5
636EB
330
1F
100
AcDbEntity
  8
CONTINUOUS1
100
AcDbPolyline
 90
        4
 70
   129
 43
0.0
 10
72.495192613281
 20
49.67682366069801
 10
72.59150742437967
 20
49.85629835782995
 10
74.42741553879651
 20
48.87106118478994
 10
74.32547799264856
 20
48.69460391948983
  0
LWPOLYLINE
  5
636EC
330
1F
100
AcDbEntity
  8
CONTINUOUS1
100
AcDbPolyline
 90
        4
 70
   129
 43
0.0
 10
73.84223832615131
 20
51.78663279272015
 10
73.93855313724992
 20
51.96610748985208
 10
75.40145603735218
 20
51.18104297251018
 10
75.30514122625354
 20
51.00156827537823
  0
LINE
  5
636ED
330
1F
100
AcDbEntity
  8
CONTINUOUS1
100
AcDbLine
 10
72.70586401347841
 20
49.79492907595938
 30
0.0
 11
73.94437693738609
 21
51.7318202692605
 31
0.0
  0
LINE
  5
636EE
330
1F
100
AcDbEntity
  8
CONTINUOUS1
100
AcDbLine
 10
74.26986226377326
 20
51.82358928688992
 30
0.0
 11
74.81052186287326
 21
52.86218671353644
 31
0.0
  0
LINE
  5
636EF
330
1F
100
AcDbEntity
  8
CONTINUOUS1
100
AcDbLine
 10
75.48510998227232
 20
52.30000266223892
 30
0.0
 11
75.02117785012583
 21
51.42259134535789
 31
0.0
  0
LWPOLYLINE
  5
636F0
330
1F
100
AcDbEntity
  8
CONTINUOUS1
100
AcDbPolyline
 90
       19
 70
   128
 43
0.0
 10
73.66845383518884
 20
57.86421584516461
 10
73.77510072304406
 20
58.16139974824359
 10
74.61343409959173
 20
58.46652814369793
 10
76.78957962845789
 20
57.90423301279714
 42
-0.0420873931951598
 10
77.31691679114084
 20
57.6106878227234
 42
-0.0467016927738778
 10
77.76063974596752
 20
57.24832441918793
 42
-0.0522949384787484
 10
78.10453508130885
 20
56.8303833770966
 42
-0.0580677349110015
 10
78.33603703610032
 20
56.37213605006858
 10
78.36694262830912
 20
56.28722363334001
 42
-0.0580677496555104
 10
78.48415747774257
 20
55.7873794149765
 42
-0.0522949237484375
 10
78.48936566740639
 20
55.24616640506463
 42
-0.0467016591350835
 10
78.38237689269286
 20
54.68336025238084
 42
-0.0420873502133143
 10
78.16710046914502
 20
54.11952560818233
 10
76.86151262246872
 20
52.28998316493254
 10
76.02317924592211
 20
51.98485476947747
 42
-0.0933684496746078
 10
74.66984265015222
 20
53.01012921238169
 42
-0.0896891690542554
 10
73.75120777140484
 20
54.47937134097736
 42
-0.089361730889051
 10
73.4004607526283
 20
56.1795664998317
 42
-0.0925097427270519
 10
73.66845383518884
 20
57.86421584516461
  0
LWPOLYLINE
  5
636F1
330
1F
100
AcDbEntity
  8
CONTINUOUS1
100
AcDbPolyline
 90
       14
 70
   129
 43
0.0
 10
75.18302839227243
 20
53.3404220921297
 42
0.0669163528174119
 10
75.16099135341193
 20
53.33453209227375
 42
0.0629553093411022
 10
75.14058738634904
 20
53.32282338645718
 42
0.0587683503385779
 10
75.12300068534043
 20
53.30597551813045
 42
0.0553093514769362
 10
75.10925193769967
 20
53.28496629464089
 10
75.0932588172214
 20
53.24642374070251
 42
0.4369759709143732
 10
75.14245238700548
 20
53.11298913052091
 10
75.84154934677636
 20
52.61098400731214
 42
0.3918117904056668
 10
75.96504354613862
 20
52.6566098892377
 10
76.20344037640492
 20
53.28040408180156
 42
0.1347926387491281
 10
76.21409809287055
 20
53.33233878434782
 42
0.1355041491536089
 10
76.19675491094941
 20
53.38228602548015
 42
0.1370371766222431
 10
76.15637751672938
 20
53.41594207080934
 42
0.1377613660190153
 10
76.1045290618313
 20
53.42366860754642
  0
LINE
  5
636F2
330
1F
100
AcDbEntity
  8
CONTINUOUS1
100
AcDbLine
 10
76.86151262246861
 20
52.2899831649328
 30
0.0
 11
74.61343409959164
 21
58.46652814369821
 31
0.0
  0
LWPOLYLINE
  5
636F3
330
1F
100
AcDbEntity
  8
CONTINUOUS1
100
AcDbPolyline
 90
       12
 70
   128
 43
0.0
 10
74.93134177859352
 20
57.59308397416931
 10
76.57358625768987
 20
57.21949110704619
 42
-0.0375993912749609
 10
76.95843595055857
 20
56.99459541809416
 42
-0.0435683228270321
 10
77.27771250192725
 20
56.7309488895584
 42
-0.0510896406124803
 10
77.52162300125073
 20
56.43663813744136
 42
-0.0592742806425685
 10
77.68268617973342
 20
56.12069031658928
 10
77.70485128414566
 20
56.05979219271677
 42
-0.0592742885341135
 10
77.7845570507107
 20
55.71423277374286
 42
-0.0510896327310204
 10
77.78689006448468
 20
55.33199503393715
 42
-0.0435683062690837
 10
77.7117787668295
 20
54.9248030412804
 42
-0.0375993712642045
 10
77.56152698562019
 20
54.50514626529901
 10
76.54363559421932
 20
53.16334312221099
  0
LINE
  5
636F4
330
1F
100
AcDbEntity
  8
CONTINUOUS1
100
AcDbLine
 10
75.96007352083702
 20
54.76666674167905
 30
0.0
 11
77.37586195599774
 21
54.26039921034448
 31
0.0
  0
CIRCLE
  5
636F5
330
1F
100
AcDbEntity
  8
CONTINUOUS1
100
AcDbCircle
 10
76.829942669913
 20
55.7757133578148
 30
0.0
 40
0.6494504356451089
  0
CIRCLE
  5
636F6
330
1F
100
AcDbEntity
  8
CONTINUOUS1
100
AcDbCircle
 10
76.829942669913
 20
55.7757133578148
 30
0.0
 40
0.1818461219806291
  0
LINE
  5
636F7
330
1F
100
AcDbEntity
  8
CONTINUOUS1
100
AcDbLine
 10
75.51498157957451
 20
55.98954679987896
 30
0.0
 11
76.27411594663309
 21
57.28742149304819
 31
0.0
  0
LWPOLYLINE
  5
636F8
330
1F
100
AcDbEntity
  8
CONTINUOUS1
100
AcDbPolyline
 90
        4
 70
   129
 43
0.0
 10
48.3382879481655
 20
49.68270774571959
 10
49.76094448652786
 20
49.68270774571959
 10
49.76094448652786
 20
48.70048800451143
 10
48.3382879481655
 20
48.70048800451143
  0
LWPOLYLINE
  5
636F9
330
1F
100
AcDbEntity
  8
CONTINUOUS1
100
AcDbPolyline
 90
        4
 70
   129
 43
0.0
 10
48.3382879481655
 20
49.86218244285153
 10
49.76094448652786
 20
49.86218244285153
 10
49.76094448652786
 20
49.68270774571959
 10
48.3382879481655
 20
49.68270774571959
  0
LINE
  5
636FA
330
1F
100
AcDbEntity
  8
CONTINUOUS1
100
AcDbLine
 10
48.47622748172681
 20
51.79251687774172
 30
0.0
 11
48.44873614265317
 21
49.86218244285153
 31
0.0
  0
LINE
  5
636FB
330
1F
100
AcDbEntity
  8
CONTINUOUS1
100
AcDbLine
 10
49.63613941574092
 20
49.86218244285153
 30
0.0
 11
49.62300495296656
 21
51.79251687774172
 31
0.0
  0
LWPOLYLINE
  5
636FC
330
1F
100
AcDbEntity
  8
CONTINUOUS1
100
AcDbPolyline
 90
        6
 70
   128
 43
0.0
 10
49.63348057968279
 20
51.00745236039981
 10
49.73212846352994
 20
51.00745236039981
 10
49.73212846352994
 20
51.79251687774172
 10
48.36710397116341
 20
51.79251687774172
 10
48.36710397116341
 20
51.00745236039981
 10
48.45430591528604
 20
51.00768293521564
  0
LWPOLYLINE
  5
636FD
330
1F
100
AcDbEntity
  8
CONTINUOUS1
100
AcDbPolyline
 90
        4
 70
   129
 43
0.0
 10
48.36710397116341
 20
51.97199157487368
 10
49.73212846352994
 20
51.97199157487368
 10
49.73212846352994
 20
51.79251687774172
 10
48.36710397116341
 20
51.79251687774172
  0
LWPOLYLINE
  5
636FE
330
1F
100
AcDbEntity
  8
CONTINUOUS1
100
AcDbPolyline
 90
        6
 70
   128
 43
0.0
 10
48.68605566185092
 20
51.97199157487368
 10
48.68605566185092
 20
53.87724239988333
 10
47.87094448652787
 20
54.69235357520638
 10
47.87094448652787
 20
54.52265955139451
 10
48.56606386688669
 20
53.82754017103566
 10
48.56606386688669
 20
51.97199157487368
  0
LINE
  5
636FF
330
1F
100
AcDbEntity
  8
CONTINUOUS1
100
AcDbLine
 10
47.87094448652787
 20
57.5989680591909
 30
0.0
 11
48.91966047797644
 21
57.5989680591909
 31
0.0
  0
LINE
  5
63700
330
1F
100
AcDbEntity
  8
CONTINUOUS1
100
AcDbLine
 10
47.87094448652787
 20
58.47241222871955
 30
0.0
 11
48.91966047797644
 21
58.47241222871955
 31
0.0
  0
LINE
  5
63701
330
1F
100
AcDbEntity
  8
CONTINUOUS1
100
AcDbLine
 10
48.68605566185092
 20
53.16922720723258
 30
0.0
 11
48.91966047797644
 21
53.16922720723258
 31
0.0
  0
LINE
  5
63702
330
1F
100
AcDbEntity
  8
CONTINUOUS1
100
AcDbLine
 10
47.87094448652787
 20
53.16922720723258
 30
0.0
 11
48.56606386688669
 21
53.16922720723258
 31
0.0
  0
LINE
  5
63703
330
1F
100
AcDbEntity
  8
CONTINUOUS1
100
AcDbLine
 10
48.68605566185092
 20
52.29586724995413
 30
0.0
 11
48.91966047797644
 21
52.29586724995413
 31
0.0
  0
LINE
  5
63704
330
1F
100
AcDbEntity
  8
CONTINUOUS1
100
AcDbLine
 10
47.87094448652787
 20
52.29586724995413
 30
0.0
 11
48.56606386688669
 21
52.29586724995413
 31
0.0
  0
LINE
  5
63705
330
1F
100
AcDbEntity
  8
CONTINUOUS1
100
AcDbLine
 10
48.91966047797644
 20
58.47241222871955
 30
0.0
 11
48.91966047797644
 21
51.97199157487368
 31
0.0
  0
INSERT
  5
63706
330
1F
100
AcDbEntity
  8
CONTINUOUS1
100
AcDbBlockReference
  2
M_PFN_2
 10
38.51094448652786
 20
43.38789384093184
 30
0.0
 41
4.0
 42
4.0
 43
4.0
 50
180.0000000000117
  0
INSERT
  5
63707
330
1F
100
AcDbEntity
  8
CONTINUOUS1
100
AcDbBlockReference
  2
M_PFN_2
 10
39.44094448903685
 20
42.22789385702187
 30
0.0
 41
4.0
 42
4.0
 43
4.0
 50
180.0000000000117
  0
INSERT
  5
63708
330
1F
100
AcDbEntity
  8
CONTINUOUS1
100
AcDbBlockReference
  2
M_PFN_2
 10
38.51094448652786
 20
43.38789384093184
 30
0.0
 41
4.0
 42
4.0
 43
4.0
 50
180.0000000000117
  0
INSERT
  5
63709
330
1F
100
AcDbEntity
  8
CONTINUOUS1
100
AcDbBlockReference
  2
M_PFN_2
 10
38.51094448652786
 20
64.20789384093183
 30
0.0
 41
4.0
 42
4.0
 43
4.0
 50
180.0000000000117
  0
INSERT
  5
6370A
330
1F
100
AcDbEntity
  8
CONTINUOUS1
100
AcDbBlockReference
  2
M_PFN_2
 10
39.44094448903685
 20
42.22789385702187
 30
0.0
 41
4.0
 42
4.0
 43
4.0
 50
180.0000000000117
  0
INSERT
  5
6370B
330
1F
100
AcDbEntity
  8
CONTINUOUS1
100
AcDbBlockReference
  2
M_PFN_2
 10
39.89504146133403
 20
65.36789383977184
 30
0.0
 41
4.0
 42
4.0
 43
4.0
 50
180.0000000000117
  0
INSERT
  5
6370C
330
1F
100
AcDbEntity
  8
CONTINUOUS1
100
AcDbBlockReference
  2
M_PFN_2
 10
49.76094448652786
 20
49.86218244285153
 30
0.0
 41
4.0
 42
4.0
 43
4.0
 50
90.00000000000612
  0
INSERT
  5
6370D
330
1F
100
AcDbEntity
  8
CONTINUOUS1
100
AcDbBlockReference
  2
M_PFN_2
 10
38.51094448652786
 20
63.77480076446831
 30
0.0
 41
4.0
 42
4.0
 43
4.0
 50
90.00000000000612
  0
INSERT
  5
6370E
330
1F
100
AcDbEntity
  8
CONTINUOUS1
100
AcDbBlockReference
  2
M_PFN_2
 10
47.87094448652787
 20
64.20789384093186
 30
0.0
 41
4.0
 42
4.0
 43
4.0
 50
90.00000000000612
  0
INSERT
  5
6370F
330
1F
100
AcDbEntity
  8
CONTINUOUS1
100
AcDbBlockReference
  2
M_PFN_2
 10
38.51094448652786
 20
64.20789384093183
 30
0.0
 41
4.0
 42
4.0
 43
4.0
 50
90.00000000000612
  0
INSERT
  5
63710
330
1F
100
AcDbEntity
  8
CONTINUOUS1
100
AcDbBlockReference
  2
M_PFN_2
 10
46.94094448652786
 20
64.53536259060495
 30
0.0
 41
4.0
 42
4.0
 43
4.0
 50
90.00000000000612
  0
INSERT
  5
63711
330
1F
100
AcDbEntity
  8
CONTINUOUS1
100
AcDbBlockReference
  2
M_PFN_2
 10
39.44094448652787
 20
64.53536259060495
 30
0.0
 41
4.0
 42
4.0
 43
4.0
 50
90.00000000000612
  0
INSERT
  5
63714
330
1F
100
AcDbEntity
  8
CONTINUOUS1
100
AcDbBlockReference
  2
M_PFN_2
 10
79.56091108729819
 20
65.36200975475027
 30
0.0
 41
4.0
 42
4.0
 43
4.0
 50
90.00000000000612
  0
INSERT
  5
63715
330
1F
100
AcDbEntity
  8
CONTINUOUS1
100
AcDbBlockReference
  2
M_PFN_2
 10
72.59091108729819
 20
64.20200975591026
 30
0.0
 41
4.0
 42
4.0
 43
4.0
 50
90.00000000000612
  0
LWPOLYLINE
  5
63718
330
1F
100
AcDbEntity
  8
TEXT1
100
AcDbPolyline
 90
        4
 70
   129
 43
0.0
 10
0.8784740443760483
 20
4.529195796153433
 10
1.103474044376071
 20
4.918907227856439
 10
1.328474044376036
 20
4.529195796153433
 10
1.103474044376071
 20
4.139484364450455
  0
TEXT
  5
63719
330
1F
100
AcDbEntity
  8
TEXT1
100
AcDbText
 10
2.0
 20
9.540596389062979
 30
0.0
 40
0.6400000000000001
  1
 10,000 RMS SYMMETRICAL AMPERES
  7
ROMANS
 11
2.0
 21
9.86059638906298
 31
0.0
100
AcDbText
 73
     2
  0
TEXT
  5
6371A
330
1F
100
AcDbEntity
  8
TEXT1
100
AcDbText
 10
2.0
 20
8.660596389062979
 30
0.0
 40
0.6400000000000001
  1
 WHEN USED IN CONJUNCTION
  7
ROMANS
 11
2.0
 21
8.980596389062979
 31
0.0
100
AcDbText
 73
     2
  0
TEXT
  5
6371B
330
1F
100
AcDbEntity
  8
TEXT1
100
AcDbText
 10
2.0
 20
7.780596389062978
 30
0.0
 40
0.6400000000000001
  1
 WITH CLASS H OR K FUSES
  7
ROMANS
 11
2.0
 21
8.100596389062978
 31
0.0
100
AcDbText
 73
     2
  0
TEXT
  5
6371C
330
1F
100
AcDbEntity
  8
TEXT1
100
AcDbText
 10
2.0
 20
6.916612389062971
 30
0.0
 40
0.6400000000000001
  1
 200,000 RMS SYMMETRICAL AMPERES
  7
ROMANS
 11
2.0
 21
7.236612389062972
 31
0.0
100
AcDbText
 73
     2
  0
TEXT
  5
6371D
330
1F
100
AcDbEntity
  8
TEXT1
100
AcDbText
 10
2.0
 20
6.020596389062977
 30
0.0
 40
0.6400000000000001
  1
 WHEN USED IN CONJUNCTION WITH CLASS R, J OR T FUSES
  7
ROMANS
 11
2.0
 21
6.340596389062977
 31
0.0
100
AcDbText
 73
     2
  0
DIMENSION
  5
6371E
330
1F
100
AcDbEntity
  8
DIM
100
AcDbDimension
  2
*D4
 10
59.28626715515896
 20
70.88754664379462
 30
0.0
 11
63.70886037994293
 21
68.75237102410952
 31
0.0
 70
   164
  1
R.25\P[6]
  3
SCHNEIDERELECTRIC_DUAL_BEL
100
AcDbRadialDimension
 15
60.27774644816869
 25
69.97644663842755
 35
0.0
 40
0.0
1001
ACAD
1000
DSTYLE
1002
{
1070
   141
1040
0.025
1070
    40
1040
8.0
1002
}
  0
DIMENSION
  5
6371F
330
1F
100
AcDbEntity
  8
DIM
100
AcDbDimension
  2
*D5
 10
59.2815553460645
 20
72.31854743993702
 30
0.0
 11
63.97407892958802
 21
74.45342406020789
 31
0.0
 70
   164
  1
R.16\P[4]
  3
SCHNEIDERELECTRIC_DUAL_BEL
100
AcDbRadialDimension
 15
59.76834963655055
 25
72.74625682579402
 35
0.0
 40
0.0
1001
ACAD
1000
DSTYLE
1002
{
1070
   141
1040
0.025
1070
    40
1040
8.0
1002
}
  0
DIMENSION
  5
63720
330
1F
100
AcDbEntity
  8
DIM
100
AcDbDimension
  2
*D6
 10
57.01525327261265
 20
70.88754664379468
 30
0.0
 11
56.63279357553523
 21
74.62197440687671
 31
0.0
 70
   160
  1
\P.25\P[6]
  3
SCHNEIDERELECTRIC_DUAL_BEL
100
AcDbAlignedDimension
 13
59.07224025049885
 23
72.31854743993702
 33
0.0
 14
59.07224025049879
 24
70.88754664379468
 34
0.0
 50
90.0
100
AcDbRotatedDimension
1001
ACAD
1000
DSTYLE
1002
{
1070
   287
1070
     4
1070
   287
1070
     4
1070
   287
1070
     4
1070
   287
1070
     4
1070
   287
1070
     4
1070
   287
1070
     4
1070
   287
1070
     4
1070
   287
1070
     4
1070
   287
1070
     4
1070
   287
1070
     4
1070
    40
1040
8.0
1070
   279
1070
     1
1002
}
  0
DIMENSION
  5
63722
330
1F
100
AcDbEntity
  8
DIM
100
AcDbDimension
  2
*D7
 10
47.87094448652787
 20
70.96595225464651
 30
0.0
 11
42.0785635341469
 21
70.96595225464651
 31
0.0
 70
   160
  1
\P<>
  3
SCHNEIDERELECTRIC_DUAL_BEL
100
AcDbAlignedDimension
 13
38.51094448652786
 23
64.20789384093183
 33
0.0
 14
47.87094448652787
 24
64.20789384093186
 34
0.0
100
AcDbRotatedDimension
1001
ACAD
1000
DSTYLE
1002
{
1070
    40
1040
8.0
1002
}
  0
DIMENSION
  5
63723
330
1F
100
AcDbEntity
  8
DIM
100
AcDbDimension
  2
*D8
 10
46.94094448652786
 20
67.88706773326507
 30
0.0
 11
42.95116127621143
 21
67.88706773326507
 31
0.0
 70
   160
  1
\P<>
  3
SCHNEIDERELECTRIC_DUAL_BEL
100
AcDbAlignedDimension
 13
39.44094448652787
 23
64.47042510618875
 33
0.0
 14
46.94094448652786
 24
64.47042510618875
 34
0.0
100
AcDbRotatedDimension
1001
ACAD
1000
DSTYLE
1002
{
1070
    40
1040
8.0
1002
}
  0
DIMENSION
  5
63724
330
1F
100
AcDbEntity
  8
DIM
100
AcDbDimension
  2
*D9
 10
49.76094448652786
 20
73.95466994808143
 30
0.0
 11
46.04070639128976
 21
73.95466994808143
 31
0.0
 70
   160
  1
\P<>
  3
SCHNEIDERELECTRIC_DUAL_BEL
100
AcDbAlignedDimension
 13
38.51094448652786
 23
64.20789384093183
 33
0.0
 14
49.76094448652786
 24
49.86218244285153
 34
0.0
100
AcDbRotatedDimension
1001
ACAD
1000
DSTYLE
1002
{
1070
    40
1040
8.0
1002
}
  0
DIMENSION
  5
63725
330
1F
100
AcDbEntity
  8
DIM
100
AcDbDimension
  2
*D10
 10
43.33553913529941
 20
64.4145915361199
 30
0.0
 11
31.53699097410627
 21
67.44650578275254
 31
0.0
 70
   163
  1
.31 DIA\P[8]\P(2 HOLES)
  3
SCHNEIDERELECTRIC_DUAL_BEL
100
AcDbDiametricDimension
 15
43.04634983775629
 25
64.52625867625769
 35
0.0
 40
0.0
1001
ACAD
1000
DSTYLE
1002
{
1070
   141
1040
0.0
1070
    40
1040
8.0
1002
}
  0
DIMENSION
  5
63726
330
1F
100
AcDbEntity
  8
DIM
100
AcDbDimension
  2
*D11
 10
29.77567936961207
 20
43.06042506130682
 30
0.0
 11
29.77567936961207
 21
53.7654250837478
 31
0.0
 70
   160
  3
SCHNEIDERELECTRIC_DUAL_BEL
100
AcDbAlignedDimension
 13
39.44094448652787
 23
64.47042510618875
 33
0.0
 14
39.44094448652787
 24
43.06042506130682
 34
0.0
 50
90.0
100
AcDbRotatedDimension
1001
ACAD
1000
DSTYLE
1002
{
1070
    40
1040
8.0
1002
}
  0
DIMENSION
  5
63727
330
1F
100
AcDbEntity
  8
DIM
100
AcDbDimension
  2
*D12
 10
34.63155322792061
 20
43.38789384093184
 30
0.0
 11
34.63155322792061
 21
53.47042506130683
 31
0.0
 70
   160
  3
SCHNEIDERELECTRIC_DUAL_BEL
100
AcDbAlignedDimension
 13
38.51094448652786
 23
64.20789384093183
 33
0.0
 14
38.51094448652786
 24
43.38789384093184
 34
0.0
 50
90.0
100
AcDbRotatedDimension
1001
ACAD
1000
DSTYLE
1002
{
1070
    40
1040
8.0
1002
}
  0
DIMENSION
  5
63728
330
1F
100
AcDbEntity
  8
DIM
100
AcDbDimension
  2
*D13
 10
34.63155322792061
 20
42.23113320998884
 30
0.0
 11
32.22774370411109
 21
41.11113320998884
 31
0.0
 70
   160
  1
 \P<>
  3
SCHNEIDERELECTRIC_DUAL_BEL
100
AcDbAlignedDimension
 13
38.51094448652786
 23
43.38789384093184
 33
0.0
 14
39.38412968279895
 24
42.23113320998884
 34
0.0
 50
90.0
100
AcDbRotatedDimension
1001
ACAD
1000
DSTYLE
1002
{
1070
    40
1040
8.0
1002
}
  0
DIMENSION
  5
63729
330
1F
100
AcDbEntity
  8
DIM
100
AcDbDimension
  2
*D14
 10
79.56091108729819
 20
66.49544417862493
 30
0.0
 11
76.07591108729818
 21
66.49544417862493
 31
0.0
 70
   160
  3
SCHNEIDERELECTRIC_DUAL_BEL
100
AcDbAlignedDimension
 13
72.59091108729819
 23
64.20200975591026
 33
0.0
 14
79.56091108729819
 24
65.36200975475027
 34
0.0
100
AcDbRotatedDimension
1001
ACAD
1000
DSTYLE
1002
{
1070
    40
1040
8.0
1002
}
  0
TEXT
  5
6372A
330
1F
100
AcDbEntity
  8
DIM
100
AcDbText
 10
56.53243095205783
 20
64.07565158872876
 30
0.0
 40
0.8
  1
(4 HOLES)
  7
ROMANS
 72
     1
 11
59.75147857110545
 21
64.47565158872876
 31
0.0
100
AcDbText
 73
     2
  0
LEADER
  5
63B4A
330
1F
100
AcDbEntity
  8
DIM
100
AcDbLeader
  3
SCHNEIDERELECTRIC_DUAL_BEL
 73
     0
 74
     0
 75
     1
 40
0.2
 76
     3
 10
47.04117687266083
 20
64.57065749232173
 30
0.0
 10
55.36251086987943
 20
71.61861412520266
 30
0.0
 10
55.92251086987943
 20
71.61861412520266
 30
0.0
340
63B4B
213
1.904476436003456
223
0.1366285235270027
233
0.0
1001
ACAD
1000
DSTYLE
1002
{
1070
     5
1000
SEARROW
1070
    40
1040
8.0
1070
   342
1005
61611
1002
}
  0
MTEXT
  5
63B4B
102
{ACAD_REACTORS
330
63B4A
102
}
330
1F
100
AcDbEntity
  8
0
100
AcDbMText
 10
54.33803443387597
 20
71.48198560167566
 30
0.0
 40
0.2
 41
0.0
 71
     1
 72
     1
  1

  7
ROMANS
1001
ACAD
1000
MTEXTBEGIN
1070
    73
1070
     1
1070
    44
1040
1.0
1070
    74
1070
     0
1000
MTEXTEND
  0
LWPOLYLINE
  5
63CCD
330
1F
100
AcDbEntity
  8
CONTINUOUS1
100
AcDbPolyline
 90
        2
 70
     0
 43
0.0
 10
22.76145105560104
 20
10.99661238906294
 10
129.200008
 20
10.99661238906294
  0
LWPOLYLINE
  5
63CCE
330
1F
100
AcDbEntity
  8
TEXT1
100
AcDbPolyline
 90
        2
 70
     0
 43
0.0
 10
22.76145105560104
 20
12.75661238906294
 10
36.1203070699776
 20
12.75661238906294
  0
LWPOLYLINE
  5
63CCF
330
1F
100
AcDbEntity
  8
CONTINUOUS1
100
AcDbPolyline
 90
        2
 70
     0
 43
0.0
 10
22.76145105560104
 20
12.75661238906294
 10
129.200008
 20
12.75661238906294
  0
LWPOLYLINE
  5
63CD0
330
1F
100
AcDbEntity
  8
CONTINUOUS1
100
AcDbPolyline
 90
        2
 70
     0
 43
0.0
 10
22.76145105560104
 20
14.51661238906294
 10
36.1203070699776
 20
14.51661238906294
  0
LWPOLYLINE
  5
63CD1
330
1F
100
AcDbEntity
  8
CONTINUOUS1
100
AcDbPolyline
 90
        2
 70
     0
 43
0.0
 10
22.76145105560104
 20
16.27661238906294
 10
129.200008
 20
16.27661238906294
  0
LWPOLYLINE
  5
63CD2
330
1F
100
AcDbEntity
  8
CONTINUOUS1
100
AcDbPolyline
 90
        2
 70
     0
 43
0.0
 10
22.76145105560104
 20
18.03661238906294
 10
36.1203070699776
 20
18.03661238906294
  0
LINE
  5
6401E
330
1F
100
AcDbEntity
  8
0
100
AcDbLine
 10
50.04258477841016
 20
21.55661238906294
 30
0.0
 11
50.04258477841017
 21
9.236612389062951
 31
0.0
  0
LINE
  5
6401F
330
1F
100
AcDbEntity
  8
0
100
AcDbLine
 10
52.5899587114535
 20
21.55661238906294
 30
0.0
 11
52.58995871145351
 21
9.236612389062951
 31
0.0
  0
LINE
  5
64020
330
1F
100
AcDbEntity
  8
0
100
AcDbLine
 10
64.25425112381697
 20
21.55661238906294
 30
0.0
 11
64.25425112381697
 21
9.236612389062951
 31
0.0
  0
LINE
  5
64021
330
1F
100
AcDbEntity
  8
0
100
AcDbLine
 10
61.70687719077363
 20
21.55661238906294
 30
0.0
 11
61.70687719077363
 21
9.236612389062951
 31
0.0
  0
LINE
  5
64022
330
1F
100
AcDbEntity
  8
0
100
AcDbLine
 10
76.18668768952796
 20
21.55661238906294
 30
0.0
 11
76.18668768952796
 21
9.236612389062951
 31
0.0
  0
LINE
  5
64023
330
1F
100
AcDbEntity
  8
0
100
AcDbLine
 10
73.63931375648462
 20
21.55661238906294
 30
0.0
 11
73.63931375648462
 21
9.236612389062951
 31
0.0
  0
LINE
  5
64024
330
1F
100
AcDbEntity
  8
0
100
AcDbLine
 10
87.98505217856519
 20
21.55661238906294
 30
0.0
 11
87.98505217856519
 21
9.236612389062951
 31
0.0
  0
LINE
  5
64025
330
1F
100
AcDbEntity
  8
0
100
AcDbLine
 10
85.43767824552185
 20
21.55661238906294
 30
0.0
 11
85.43767824552185
 21
9.236612389062951
 31
0.0
  0
LINE
  5
64026
330
1F
100
AcDbEntity
  8
0
100
AcDbLine
 10
99.98452526221042
 20
21.55661238906294
 30
0.0
 11
99.98452526221042
 21
9.236612389062951
 31
0.0
  0
LINE
  5
64027
330
1F
100
AcDbEntity
  8
0
100
AcDbLine
 10
97.43715132916708
 20
21.55661238906294
 30
0.0
 11
97.43715132916708
 21
9.236612389062951
 31
0.0
  0
LINE
  5
64028
330
1F
100
AcDbEntity
  8
0
100
AcDbLine
 10
111.7828897512476
 20
21.55661238906294
 30
0.0
 11
111.7828897512476
 21
9.236612389062951
 31
0.0
  0
LINE
  5
64029
330
1F
100
AcDbEntity
  8
0
100
AcDbLine
 10
109.2355158182042
 20
21.55661238906294
 30
0.0
 11
109.2355158182042
 21
9.236612389062951
 31
0.0
  0
TEXT
  5
6423A
330
1F
100
AcDbEntity
  8
TEXT1
100
AcDbText
 10
107.1294610385732
 20
51.77730691847567
 30
0.0
 40
0.6400000000000001
  1
100
  7
ROMANS
 72
     1
 11
108.0894610385732
 21
52.09730691847567
 31
0.0
100
AcDbText
 73
     2
  0
TEXT
  5
6423B
330
1F
100
AcDbEntity
  8
TEXT1
100
AcDbText
 10
111.4768455876687
 20
51.77730691847567
 30
0.0
 40
0.6400000000000001
  1
#1/0 AWG
  7
ROMANS
 72
     1
 11
114.0216074924306
 21
52.09730691847567
 31
0.0
100
AcDbText
 73
     2
  0
TEXT
  5
6423C
330
1F
100
AcDbEntity
  8
TEXT1
100
AcDbText
 10
118.8683556174161
 20
51.77730691847567
 30
0.0
 40
0.6400000000000001
  1
#14 AWG
  7
ROMANS
 72
     1
 11
121.0778794269399
 21
52.09730691847567
 31
0.0
100
AcDbText
 73
     2
  0
TEXT
  5
6423D
330
1F
100
AcDbEntity
  8
TEXT1
100
AcDbText
 10
126.4307329730824
 20
51.77730691847567
 30
0.0
 40
0.6400000000000001
  1
CU
  7
ROMANS
 72
     1
 11
127.0707329730824
 21
52.09730691847567
 31
0.0
100
AcDbText
 73
     2
  0
VIEWPORT
  5
32
330
1B
100
AcDbEntity
 67
     1
  8
0
100
AcDbViewport
 10
8.200081883583784
 20
5.048297591189022
 30
0.0
 40
22.12902763517218
 41
14.13164274716317
 68
     1
 69
     1
1001
ACAD
1000
MVIEW
1002
{
1070
    16
1010
0.0
1020
0.0
1030
0.0
1010
0.0
1020
0.0
1030
1.0
1040
0.0
1040
14.13164274716317
1040
8.200081883583784
1040
5.048297591189022
1040
50.0
1040
0.0
1040
0.0
1070
     0
1070
   100
1070
     1
1070
     0
1070
     0
1070
     0
1070
     0
1070
     0
1040
0.0
1040
0.0
1040
0.0
1040
0.5
1040
0.5
1040
0.5
1040
0.5
1070
     0
1002
{
1002
}
1002
}
1001
GENIUS_GENOREF_13
1005
0
1005
0
1005
0
1005
0
1005
0
1005
0
1005
0
1005
0
1005
0
1005
0
1005
0
1005
0
1001
GENIUS_GENSCREG_15
1000
PF
1040
1.0
1000
DF
1040
1.0
1000
MIN
1011
-1.092313485762716
1021
-0.4872937060788445
1031
0.0
1000
MAX
1011
17.48771534209376
1021
10.6120688506603
1031
0.0
1000
FLAGS
1070
     2
  0
LWPOLYLINE
  5
175
330
1B
100
AcDbEntity
 67
     1
  8
VIEWPORT
100
AcDbPolyline
 90
        6
 70
     1
 43
0.0
 10
16.40000099999999
 20
10.25
 10
16.40000099999999
 20
0.9120019999999993
 10
8.002461
 20
0.9120019999999993
 10
8.002461
 20
0.0
 10
0.0
 20
0.0
 10
0.0
 20
10.25
1001
GENIUS_GENOREF_13
1005
0
1005
0
1005
0
1005
0
1005
0
1005
0
1005
0
1005
0
1005
0
1005
0
1005
0
1005
0
1005
0
1005
0
1005
0
1005
0
1005
0
1005
0
1005
0
1005
0
1005
0
1005
0
1005
0
1005
0
1005
0
1005
0
1005
0
1005
0
1005
0
1005
0
1005
0
1005
0
1005
0
1005
0
  0
VIEWPORT
  5
177
330
1B
100
AcDbEntity
 67
     1
  8
VIEWPORT
100
AcDbViewport
 10
8.200000499999999
 20
5.125
 30
0.0
 40
16.40000099999999
 41
10.25
 68
     2
 69
     2
1001
ACAD
1000
MVIEW
1002
{
1070
    16
1010
0.0
1020
0.0
1030
0.0
1010
0.0
1020
0.0
1030
1.0
1040
0.0
1040
82.0
1040
65.60000522196053
1040
40.94059715278826
1040
50.0
1040
0.0
1040
0.0
1070
     0
1070
   100
1070
     1
1070
     2
1070
     0
1070
     0
1070
     0
1070
     0
1040
0.0
1040
0.0
1040
0.0
1040
0.5
1040
0.5
1040
0.5
1040
0.5
1070
     0
1002
{
1002
}
1002
}
1001
GENIUS_GENOREF_13
1005
0
1005
0
1005
0
1005
0
1005
0
1005
0
1005
0
1005
0
1005
0
1005
0
1005
0
1005
0
1005
0
1005
0
1005
0
1005
0
1005
0
1005
0
1005
0
1005
0
1005
0
1005
0
1005
0
1005
0
1005
0
1005
0
1005
0
1005
0
1005
0
1005
0
1005
0
1005
0
1005
0
1005
0
1001
GENIUS_GENSCREG_15
1000
PF
1040
0.0
1000
DF
1040
0.0
1000
MIN
1011
0.0
1021
0.0
1031
0.0
1000
MAX
1011
16.40000099999999
1021
10.25
1031
0.0
1000
FLAGS
1070
     2
  0
INSERT
  5
B2C
330
1B
100
AcDbEntity
 67
     1
  8
TITLEBLOCK
100
AcDbBlockReference
 66
     1
  2
TITLE-PAD
 10
0.0
 20
0.0
 30
0.0
  0
ATTRIB
  5
B2D
330
B2C
100
AcDbEntity
 67
     1
  8
TEXT1
 62
     0
100
AcDbText
 10
10.10183834893798
 20
0.7474460884590166
 30
0.0
 40
0.1
  1

  7
ROMANS
 72
     4
 11
10.10183834893798
 21
0.7474460884590166
 31
0.0
100
AcDbAttribute
  2
DESCRIPTION 1
 70
     0
  0
ATTRIB
  5
B2E
330
B2C
100
AcDbEntity
 67
     1
  8
TEXT1
 62
     0
100
AcDbText
 10
8.923266920366559
 20
0.5517231711406715
 30
0.0
 40
0.1
  1
HEAVY DUTY SAFETY SWITCHES
  7
ROMANS
 72
     4
 11
10.10183834893798
 21
0.6017231711406717
 31
0.0
100
AcDbAttribute
  2
DESCRIPTION 2
 70
     0
  0
ATTRIB
  5
B2F
330
B2C
100
AcDbEntity
 67
     1
  8
TEXT1
 62
     0
100
AcDbText
 10
9.63326692036656
 20
0.4160002538223268
 30
0.0
 40
0.08
  1
VISIBLE BLADES
  7
ROMANS
 72
     4
 11
10.10183834893798
 21
0.4560002538223267
 31
0.0
100
AcDbAttribute
  2
DESCRIPTION 3
 70
     0
  0
ATTRIB
  5
B30
330
B2C
100
AcDbEntity
 67
     1
  8
TEXT1
 62
     0
100
AcDbText
 10
9.343743110842749
 20
0.2802773365039832
 30
0.0
 40
0.08
  1
100 AMPERE-SERIES F6
  7
ROMANS
 72
     4
 11
10.10183834893798
 21
0.3202773365039833
 31
0.0
100
AcDbAttribute
  2
DESCRIPTION 4
 70
     0
  0
ATTRIB
  5
B31
330
B2C
100
AcDbEntity
 67
     1
  8
TEXT1
 62
     0
100
AcDbText
 10
8.353266920366561
 20
0.1521734668046874
 30
0.0
 40
0.08
  1
ENCLOSURE-NEMA TYPE 4, 4X AND 5 STAINLESS STEEL
  7
ROMANS
 72
     4
 11
10.10183834893798
 21
0.1845544191856399
 31
0.0
100
AcDbAttribute
  2
DESCRIPTION 5
 70
     0
  0
ATTRIB
  5
B32
330
B2C
100
AcDbEntity
 67
     1
  8
TEXT1
 62
     0
100
AcDbText
 10
12.74772367103195
 20
0.096540546036505
 30
0.0
 40
0.12
  1
3182
 41
0.9512024731840066
  7
M_STANDARD
 11
12.74772367103195
 21
0.156540546036505
 31
0.0
100
AcDbAttribute
  2
DWGNO
 70
     0
 74
     2
  0
ATTRIB
  5
B33
330
B2C
100
AcDbEntity
 67
     1
  8
TEXT1
 62
     0
100
AcDbText
 10
16.06173121615992
 20
-0.1507193079929352
 30
0.0
 40
0.08
  1
3182
  7
ROMANS
 72
     2
 11
16.35506454949325
 21
-0.1107193079929352
 31
0.0
100
AcDbAttribute
  2
REF
 70
     0
 74
     2
  0
ATTRIB
  5
B34
330
B2C
100
AcDbEntity
 67
     1
  8
TEXT1
 62
     0
100
AcDbText
 10
0.0266402374038712
 20
-0.1507193079929352
 30
0.0
 40
0.08
  1
NOVEMBER 2002
  7
ROMANS
 11
0.0266402374038712
 21
-0.1107193079929352
 31
0.0
100
AcDbAttribute
  2
DATE
 70
     0
 74
     2
  0
SEQEND
  5
B35
330
B2C
100
AcDbEntity
 67
     1
  8
0
  0
ENDSEC
  0
SECTION
  2
OBJECTS
  0
DICTIONARY
  5
C
330
0
100
AcDbDictionary
  3
ACAD_GROUP
350
D
  3
ACAD_LAYOUT
350
1A
  3
ACAD_MLINESTYLE
350
17
  3
ACAD_PLOTSETTINGS
350
19
  3
ACAD_PLOTSTYLENAME
350
E
  3
ACADDIM
350
63B49
  3
ACDBHEADERROUNDTRIPXREC
350
64728
  3
ACDBVARIABLEDICTIONARY
350
374
  3
ACMDICTIONARY
350
383
  3
AMG
350
36B
  3
AMGSNAPSETTINGS
350
399
  3
ASE_INDEX_DICTIONARY
350
6A
  3
DWGPROPS
350
1265F
  0
DICTIONARY
  5
73
330
1F
100
AcDbDictionary
280
     1
  3
ACAD_INDEX
360
63323
  3
ACAD_LAYOUTSELFREF
360
6474A
  0
DICTIONARY
  5
75
330
1B
100
AcDbDictionary
280
     1
  3
ACAD_LAYOUTSELFREF
360
64749
  0
DICTIONARY
  5
D
102
{ACAD_REACTORS
330
C
102
}
330
C
100
AcDbDictionary
  0
DICTIONARY
  5
1A
102
{ACAD_REACTORS
330
C
102
}
330
C
100
AcDbDictionary
  0
DICTIONARY
  5
17
102
{ACAD_REACTORS
330
C
102
}
330
C
100
AcDbDictionary
  3
STANDARD
350
18
  0
DICTIONARY
  5
19
102
{ACAD_REACTORS
330
C
102
}
330
C
100
AcDbDictionary
  3
A_SIZE_PAPER
350
2FF
  3
B_SIZE_PAPER
350
2FD
  3
D_SIZE_PAPER
350
2FE
  0
ACDBDICTIONARYWDFLT
  5
E
102
{ACAD_REACTORS
330
C
102
}
330
C
100
AcDbDictionary
281
     1
  3
Normal
350
F
100
AcDbDictionaryWithDefault
340
F
  0
XRECORD
  5
63B49
102
{ACAD_REACTORS
330
C
102
}
330
C
100
AcDbXrecord
 90
   990106
  3

 60
     0
 61
     0
 62
     1
 63
     3
 64
     0
 65
     0
 66
     0
 67
     3
 68
     1
 69
     0
 70
     0
 71
     0
 72
     0
 40
0.0
170
     0
340
63B4B
  0
DICTIONARY
  5
64728
102
{ACAD_REACTORS
330
C
102
}
330
C
100
AcDbDictionary
  3
CEPSNTYPE
350
64732
  3
DIMSTYLEDATA
350
64736
  3
FINGERPRINTGUID
350
64733
  3
HYPERLINKBASE
350
6472B
  3
INSUNITS
350
64731
  3
LAYOUTDICT
350
6472D
  3
LWETCUNION
350
64730
  3
PLOTSETDICT
350
6472E
  3
PLOTSTYLNAMDICT
350
6472F
  3
PSVPSCALE
350
64735
  3
PUCSBASE
350
64739
  3
PUCSORGBACK
350
6473F
  3
PUCSORGBOTTOM
350
6473B
  3
PUCSORGFRONT
350
6473E
  3
PUCSORGLEFT
350
6473C
  3
PUCSORGRIGHT
350
6473D
  3
PUCSORGTOP
350
6473A
  3
PUCSORTHOREF
350
64737
  3
PUCSORTHOVIEW
350
64738
  3
STYLESHEET
350
6472C
  3
TSTACKALIGN
350
64729
  3
TSTACKSIZE
350
6472A
  3
UCSBASE
350
64742
  3
UCSORGBACK
350
64748
  3
UCSORGBOTTOM
350
64744
  3
UCSORGFRONT
350
64747
  3
UCSORGLEFT
350
64745
  3
UCSORGRIGHT
350
64746
  3
UCSORGTOP
350
64743
  3
UCSORTHOREF
350
64740
  3
UCSORTHOVIEW
350
64741
  3
VERSIONGUID
350
64734
  0
DICTIONARY
  5
374
102
{ACAD_REACTORS
330
C
102
}
330
C
100
AcDbDictionary
  3
DIMASSOC
350
64655
  3
INDEXCTL
350
375
  3
SORTENTS
350
18D16
  0
DICTIONARY
  5
383
102
{ACAD_REACTORS
330
C
102
}
330
C
100
AcDbDictionary
  0
DICTIONARY
  5
36B
102
{ACAD_REACTORS
330
C
102
}
330
C
100
AcDbDictionary
  3
ACMGSETTINGS
350
36C
  0
DICTIONARY
  5
399
102
{ACAD_REACTORS
330
C
102
}
330
C
100
AcDbDictionary
  0
DICTIONARY
  5
6A
102
{ACAD_REACTORS
330
C
102
}
330
C
100
AcDbDictionary
  3
ASEBLOCKHIERARCHYINDEXRECORD
350
6C
1001
DCO15
1040
1379130883.246999
  0
XRECORD
  5
1265F
102
{ACAD_REACTORS
330
C
102
}
330
C
100
AcDbXrecord
  1
DWGPROPS COOKIE
  2

  3

  4

  6

  7

  8
mgp706
  9

300
AmdtFileType=84
301
=
302
=
303
=
304
=
305
=
306
=
307
=
308
=
309
=
 40
0.486704212962963
 41
2451764.535041909
 42
2451892.488387812
  1

 90
        1
  0
DICTIONARY
  5
63323
102
{ACAD_REACTORS
330
73
102
}
330
73
100
AcDbDictionary
  3
*A1
350
63324
  0
XRECORD
  5
6474A
102
{ACAD_REACTORS
330
73
102
}
330
73
100
AcDbXrecord
340
1F
  0
XRECORD
  5
64749
102
{ACAD_REACTORS
330
75
102
}
330
75
100
AcDbXrecord
340
1B
  0
MLINESTYLE
  5
18
102
{ACAD_REACTORS
330
17
102
}
330
17
100
AcDbMlineStyle
  2
STANDARD
 70
     0
  3

 62
   256
 51
90.0
 52
90.0
 71
     2
 49
0.5
 62
   256
  6
BYLAYER
 49
-0.5
 62
   256
  6
BYLAYER
  0
PLOTSETTINGS
  5
2FF
102
{ACAD_REACTORS
330
19
102
}
330
19
100
AcDbPlotSettings
  1
A Size Paper
  2
none_device
  4
ANSI_A_(8.50_x_11.00_Inches)
  6

 40
6.349999904632568
 41
19.04999923706054
 42
6.350006103515625
 43
19.04998779296875
 44
215.8999938964843
 45
279.3999938964843
 46
19.04999999999999
 47
-9.651999999999999
 48
0.0
 49
0.0
140
0.0
141
0.0
142
1.0
143
1.6
 70
   740
 72
     0
 73
     1
 74
     1
  7
monochrome.ctb
 75
     0
147
0.625
148
0.0034886547032954
149
0.0199946439100934
  0
PLOTSETTINGS
  5
2FD
102
{ACAD_REACTORS
330
19
102
}
330
19
100
AcDbPlotSettings
  1
B Size Paper
  2
none_device
  4
ANSI_B_(11.00_x_17.00_Inches)
  6

 40
6.349999904632568
 41
19.04999923706054
 42
6.350006103515625
 43
19.04998779296875
 44
279.3999938964843
 45
431.7999877929687
 46
1.27
 47
-11.43
 48
0.0
 49
0.0
140
0.0
141
0.0
142
1.0
143
1.0
 70
   756
 72
     0
 73
     1
 74
     1
  7
monochrome.ctb
 75
    16
147
1.0
148
0.0034886547032954
149
0.0199946439100934
  0
PLOTSETTINGS
  5
2FE
102
{ACAD_REACTORS
330
19
102
}
330
19
100
AcDbPlotSettings
  1
D Size Paper
  2
none_device
  4
ANSI_D_(22.00_x_34.00_Inches)
  6

 40
6.349999904632568
 41
19.04999923706054
 42
6.3499755859375
 43
19.04998779296875
 44
558.7999877929687
 45
863.5999755859375
 46
8.889999999999998
 47
-3.809999999999999
 48
0.0
 49
0.0
140
0.0
141
0.0
142
1.0
143
0.5
 70
   740
 72
     0
 73
     1
 74
     1
  7
monochrome.ctb
 75
     0
147
2.0
148
0.0034886547032954
149
0.0199946439100934
  0
ACDBPLACEHOLDER
  5
F
102
{ACAD_REACTORS
330
E
102
}
330
E
100
AcDbPlaceHolder
280
     0
  0
XRECORD
  5
64732
102
{ACAD_REACTORS
330
64728
102
}
330
64728
100
AcDbXrecord
 90
        0
  0
XRECORD
  5
64736
102
{ACAD_REACTORS
330
64728
102
}
330
64728
100
AcDbXrecord
1000
DSTYLE
1002
{
1070
    79
 70
     1
1070
   148
 40
0.1
1070
   341
340
61611
1070
   342
340
61611
1070
   371
 70
    -1
1070
   372
 70
    -1
1002
}
  0
XRECORD
  5
64733
102
{ACAD_REACTORS
330
64728
102
}
330
64728
100
AcDbXrecord
  1
{4E694E3A-6C64-11D4-81E3-0004AC4461C9}
  0
XRECORD
  5
6472B
102
{ACAD_REACTORS
330
64728
102
}
330
64728
100
AcDbXrecord
  1

  0
XRECORD
  5
64731
102
{ACAD_REACTORS
330
64728
102
}
330
64728
100
AcDbXrecord
 90
        1
  0
XRECORD
  5
6472D
102
{ACAD_REACTORS
330
64728
102
}
330
64728
100
AcDbXrecord
340
1A
  0
XRECORD
  5
64730
102
{ACAD_REACTORS
330
64728
102
}
330
64728
100
AcDbXrecord
 90
    10269
  0
XRECORD
  5
6472E
102
{ACAD_REACTORS
330
64728
102
}
330
64728
100
AcDbXrecord
340
19
  0
XRECORD
  5
6472F
102
{ACAD_REACTORS
330
64728
102
}
330
64728
100
AcDbXrecord
340
E
  0
XRECORD
  5
64735
102
{ACAD_REACTORS
330
64728
102
}
330
64728
100
AcDbXrecord
 40
1.0
  0
XRECORD
  5
64739
102
{ACAD_REACTORS
330
64728
102
}
330
64728
100
AcDbXrecord
340
0
  0
XRECORD
  5
6473F
102
{ACAD_REACTORS
330
64728
102
}
330
64728
100
AcDbXrecord
 10
0.0
 20
0.0
 30
0.0
  0
XRECORD
  5
6473B
102
{ACAD_REACTORS
330
64728
102
}
330
64728
100
AcDbXrecord
 10
0.0
 20
0.0
 30
0.0
  0
XRECORD
  5
6473E
102
{ACAD_REACTORS
330
64728
102
}
330
64728
100
AcDbXrecord
 10
0.0
 20
0.0
 30
0.0
  0
XRECORD
  5
6473C
102
{ACAD_REACTORS
330
64728
102
}
330
64728
100
AcDbXrecord
 10
0.0
 20
0.0
 30
0.0
  0
XRECORD
  5
6473D
102
{ACAD_REACTORS
330
64728
102
}
330
64728
100
AcDbXrecord
 10
0.0
 20
0.0
 30
0.0
  0
XRECORD
  5
6473A
102
{ACAD_REACTORS
330
64728
102
}
330
64728
100
AcDbXrecord
 10
0.0
 20
0.0
 30
0.0
  0
XRECORD
  5
64737
102
{ACAD_REACTORS
330
64728
102
}
330
64728
100
AcDbXrecord
340
0
  0
XRECORD
  5
64738
102
{ACAD_REACTORS
330
64728
102
}
330
64728
100
AcDbXrecord
 70
     0
  0
XRECORD
  5
6472C
102
{ACAD_REACTORS
330
64728
102
}
330
64728
100
AcDbXrecord
  1

  0
XRECORD
  5
64729
102
{ACAD_REACTORS
330
64728
102
}
330
64728
100
AcDbXrecord
 90
        1
  0
XRECORD
  5
6472A
102
{ACAD_REACTORS
330
64728
102
}
330
64728
100
AcDbXrecord
 90
       70
  0
XRECORD
  5
64742
102
{ACAD_REACTORS
330
64728
102
}
330
64728
100
AcDbXrecord
340
0
  0
XRECORD
  5
64748
102
{ACAD_REACTORS
330
64728
102
}
330
64728
100
AcDbXrecord
 10
0.0
 20
0.0
 30
0.0
  0
XRECORD
  5
64744
102
{ACAD_REACTORS
330
64728
102
}
330
64728
100
AcDbXrecord
 10
0.0
 20
0.0
 30
0.0
  0
XRECORD
  5
64747
102
{ACAD_REACTORS
330
64728
102
}
330
64728
100
AcDbXrecord
 10
0.0
 20
0.0
 30
0.0
  0
XRECORD
  5
64745
102
{ACAD_REACTORS
330
64728
102
}
330
64728
100
AcDbXrecord
 10
0.0
 20
0.0
 30
0.0
  0
XRECORD
  5
64746
102
{ACAD_REACTORS
330
64728
102
}
330
64728
100
AcDbXrecord
 10
0.0
 20
0.0
 30
0.0
  0
XRECORD
  5
64743
102
{ACAD_REACTORS
330
64728
102
}
330
64728
100
AcDbXrecord
 10
0.0
 20
0.0
 30
0.0
  0
XRECORD
  5
64740
102
{ACAD_REACTORS
330
64728
102
}
330
64728
100
AcDbXrecord
340
0
  0
XRECORD
  5
64741
102
{ACAD_REACTORS
330
64728
102
}
330
64728
100
AcDbXrecord
 70
     0
  0
XRECORD
  5
64734
102
{ACAD_REACTORS
330
64728
102
}
330
64728
100
AcDbXrecord
  1
{5E4A66FA-FBC2-11D6-B162-000347E5A8BF}
  0
DICTIONARYVAR
  5
64655
102
{ACAD_REACTORS
330
374
102
}
330
374
100
DictionaryVariables
280
     0
  1
1
  0
DICTIONARYVAR
  5
375
102
{ACAD_REACTORS
330
374
102
}
330
374
100
DictionaryVariables
280
     0
  1
1
  0
DICTIONARYVAR
  5
18D16
102
{ACAD_REACTORS
330
374
102
}
330
374
100
DictionaryVariables
280
     0
  1
96
  0
DICTIONARY
  5
36C
102
{ACAD_REACTORS
330
36B
102
}
330
36B
100
AcDbDictionary
  3
DWGSETTINGS
350
1264B
  0
XRECORD
  5
6C
102
{ACAD_REACTORS
330
6A
102
}
330
6A
100
AcDbXrecord
  0
LAYER_INDEX
  5
63324
102
{ACAD_REACTORS
330
63323
102
}
330
63323
100
AcDbIndex
 40
2452598.34458081
100
AcDbLayerIndex
  8
0
360
63325
 90
       13
  8
CONTINUOUS1
360
63326
 90
      149
  8
CONTINUOUS2
360
63327
 90
        0
  8
CONTINUOUS3
360
63328
 90
        0
  8
DIM
360
63329
 90
       13
  8
TEXT1
360
6332A
 90
      274
  8
TITLEBLOCK
360
6332B
 90
        0
  8
VIEWPORT
360
6332C
 90
        2
  8
HIDDEN1
360
6332D
 90
       18
  8
Defpoints
360
6332E
 90
        0
  0
XRECORD
  5
1264B
102
{ACAD_REACTORS
330
36C
102
}
330
36C
100
AcDbXrecord
  1
VERSION
140
15.0
  1
PRODUCT
  2
AutoCAD Mechanical 2000
  0
IDBUFFER
  5
63325
330
0
100
AcDbIdBuffer
330
63B4B
330
6401E
330
6401F
330
64020
330
64021
330
64022
330
64023
330
64024
330
64025
330
64026
330
64027
330
64028
330
64029
  0
IDBUFFER
  5
63326
330
0
100
AcDbIdBuffer
330
63537
330
63540
330
63541
330
63542
330
63543
330
63544
330
63545
330
63546
330
63547
330
63548
330
63549
330
6354A
330
6354B
330
6354C
330
6354D
330
6354E
330
6354F
330
63550
330
63551
330
63552
330
63553
330
63554
330
63631
330
63632
330
6365A
330
6365B
330
6365C
330
6365D
330
6365E
330
6365F
330
63660
330
63669
330
6366A
330
6366B
330
6366E
330
6366F
330
63670
330
63671
330
63672
330
63673
330
63674
330
63675
330
63676
330
63677
330
63680
330
63681
330
63682
330
63683
330
63684
330
63688
330
63689
330
6368B
330
6368C
330
6368D
330
6368E
330
63694
330
63695
330
63696
330
63697
330
63698
330
63699
330
6369E
330
6369F
330
636A0
330
636A1
330
636BF
330
636C0
330
636C1
330
636C2
330
636C3
330
636C4
330
636C5
330
636C6
330
636C7
330
636C8
330
636C9
330
636CA
330
636CB
330
636CC
330
636CD
330
636D2
330
636D3
330
636D4
330
636D5
330
636D6
330
636D7
330
636DA
330
636DB
330
636DC
330
636DD
330
636DE
330
636DF
330
636E0
330
636E1
330
636E2
330
636E3
330
636E4
330
636E5
330
636E6
330
636E7
330
636E8
330
636E9
330
636EA
330
636EB
330
636EC
330
636ED
330
636EE
330
636EF
330
636F0
330
636F1
330
636F2
330
636F3
330
636F4
330
636F5
330
636F6
330
636F7
330
636F8
330
636F9
330
636FA
330
636FB
330
636FC
330
636FD
330
636FE
330
636FF
330
63700
330
63701
330
63702
330
63703
330
63704
330
63705
330
63706
330
63707
330
63708
330
63709
330
6370A
330
6370B
330
6370C
330
6370D
330
6370E
330
6370F
330
63710
330
63711
330
63714
330
63715
330
63CCD
330
63CCF
330
63CD0
330
63CD1
330
63CD2
  0
IDBUFFER
  5
63327
330
0
100
AcDbIdBuffer
  0
IDBUFFER
  5
63328
330
0
100
AcDbIdBuffer
  0
IDBUFFER
  5
63329
330
0
100
AcDbIdBuffer
330
6371E
330
6371F
330
63720
330
63722
330
63723
330
63724
330
63725
330
63726
330
63727
330
63728
330
63729
330
6372A
330
63B4A
  0
IDBUFFER
  5
6332A
330
0
100
AcDbIdBuffer
330
EB24
330
EC02
330
EC03
330
EC04
330
EC05
330
115F3
330
115F4
330
120A1
330
12248
330
12A8A
330
12A8B
330
14F77
330
172B0
330
63536
330
63538
330
63539
330
6353A
330
6353B
330
6353C
330
6353D
330
6353E
330
6353F
330
63555
330
63556
330
63557
330
63558
330
63559
330
6355A
330
6355B
330
6355D
330
6355F
330
63560
330
63561
330
63562
330
63563
330
63564
330
63565
330
63566
330
63567
330
63568
330
63569
330
6356B
330
6356D
330
6356E
330
6356F
330
63570
330
63571
330
63572
330
63573
330
63574
330
63575
330
63576
330
63577
330
63578
330
63579
330
6357A
330
63587
330
63588
330
63589
330
6358A
330
6358B
330
6358C
330
6358D
330
6358E
330
6358F
330
63590
330
63591
330
63592
330
6359F
330
635A0
330
635A1
330
635A2
330
635A3
330
635A4
330
635A5
330
635A6
330
635A7
330
635A8
330
635A9
330
635AA
330
635AB
330
635AC
330
635AD
330
635AE
330
635AF
330
635B0
330
635B1
330
635B2
330
635B3
330
635B4
330
635B5
330
635B6
330
635B7
330
635B8
330
635B9
330
635BA
330
635BB
330
635BC
330
635BD
330
635BE
330
635BF
330
635C0
330
635C1
330
635C2
330
635C3
330
635C4
330
635C5
330
635C6
330
635C7
330
635C8
330
635C9
330
635CA
330
635CB
330
635CC
330
635CD
330
635CE
330
635CF
330
635D0
330
635D1
330
635D2
330
635D3
330
635D4
330
635D5
330
635D6
330
635D7
330
635D8
330
635D9
330
635DA
330
635DB
330
635DC
330
635DD
330
635DE
330
635DF
330
635E0
330
635E1
330
635E2
330
635E9
330
635EA
330
635EB
330
635EC
330
635ED
330
635EE
330
635F5
330
635F6
330
635F7
330
635F8
330
635F9
330
635FA
330
635FB
330
635FC
330
635FD
330
635FE
330
635FF
330
63600
330
63601
330
63602
330
63603
330
63604
330
63605
330
63606
330
63607
330
63608
330
63609
330
6360A
330
6360B
330
6360C
330
6360D
330
6360E
330
6360F
330
63610
330
63611
330
63612
330
63613
330
63614
330
63616
330
63618
330
63619
330
6361B
330
6361D
330
6361E
330
63620
330
63622
330
63623
330
63625
330
63627
330
63628
330
63629
330
6362A
330
6362B
330
6362C
330
6362D
330
6362E
330
6362F
330
63630
330
63633
330
63634
330
63635
330
63636
330
63637
330
63638
330
63639
330
6363A
330
6363B
330
6363C
330
6363D
330
6363E
330
6363F
330
63640
330
63643
330
63644
330
63645
330
63646
330
63647
330
63648
330
63649
330
6364A
330
6364C
330
6364D
330
6364F
330
63650
330
63651
330
63654
330
63655
330
63656
330
63657
330
63658
330
63664
330
63665
330
63667
330
6366C
330
6367B
330
6367C
330
6367E
330
63685
330
63690
330
63691
330
63692
330
6369B
330
6369C
330
6369D
330
636A2
330
636A3
330
636A4
330
636A5
330
636A6
330
636A9
330
636AA
330
636AB
330
636AC
330
636AD
330
636B0
330
636B1
330
636B2
330
636B5
330
636B6
330
636B7
330
636B8
330
636B9
330
636BC
330
636BD
330
636BE
330
636D8
330
636D9
330
63718
330
63719
330
6371A
330
6371B
330
6371C
330
6371D
330
63CCE
330
6423A
330
6423B
330
6423C
330
6423D
  0
IDBUFFER
  5
6332B
330
0
100
AcDbIdBuffer
  0
IDBUFFER
  5
6332C
330
0
100
AcDbIdBuffer
330
BF7
330
BF8
  0
IDBUFFER
  5
6332D
330
0
100
AcDbIdBuffer
330
63659
330
63661
330
63662
330
63663
330
63666
330
63668
330
6366D
330
63678
330
63679
330
6367A
330
6367D
330
6367F
330
63686
330
63687
330
6368A
330
6368F
330
63693
330
6369A
  0
IDBUFFER
  5
6332E
330
0
100
AcDbIdBuffer
  0
ENDSEC
  0
EOF
