  0
SECTION
  2
HEADER
  9
$ACADVER
  1
AC1014
  9
$ACADMAINTVER
 70
     0
  9
$DWGCODEPAGE
  3
ANSI_1252
  9
$INSBASE
 10
680.470242
 20
-29.879874
 30
0.0
  9
$EXTMIN
 10
665.327107
 20
-61.154951
 30
0.0
  9
$EXTMAX
 10
712.29219
 20
12.256598
 30
0.0
  9
$LIMMIN
 10
0.0
 20
0.0
  9
$LIMMAX
 10
210.0
 20
297.0
  9
$ORTHOMODE
 70
     1
  9
$REGENMODE
 70
     1
  9
$FILLMODE
 70
     1
  9
$QTEXTMODE
 70
     0
  9
$MIRRTEXT
 70
     1
  9
$DRAGMODE
 70
     2
  9
$LTSCALE
 40
10.0
  9
$OSMODE
 70
     0
  9
$ATTMODE
 70
     1
  9
$TEXTSIZE
 40
2.9
  9
$TRACEWID
 40
0.05
  9
$TEXTSTYLE
  7
ROMANS
  9
$CLAYER
  8
AXE
  9
$CELTYPE
  6
BYLAYER
  9
$CECOLOR
 62
   256
  9
$CELTSCALE
 40
1.0
  9
$DELOBJ
 70
     1
  9
$DISPSILH
 70
     0
  9
$DIMSCALE
 40
1.0
  9
$DIMASZ
 40
3.0
  9
$DIMEXO
 40
0.0625
  9
$DIMDLI
 40
0.38
  9
$DIMRND
 40
0.01
  9
$DIMDLE
 40
0.0
  9
$DIMEXE
 40
0.18
  9
$DIMTP
 40
0.0
  9
$DIMTM
 40
0.0
  9
$DIMTXT
 40
2.5
  9
$DIMCEN
 40
0.09
  9
$DIMTSZ
 40
0.0
  9
$DIMTOL
 70
     0
  9
$DIMLIM
 70
     0
  9
$DIMTIH
 70
     0
  9
$DIMTOH
 70
     0
  9
$DIMSE1
 70
     0
  9
$DIMSE2
 70
     0
  9
$DIMTAD
 70
     1
  9
$DIMZIN
 70
    12
  9
$DIMBLK
  1
_OPEN
  9
$DIMASO
 70
     1
  9
$DIMSHO
 70
     1
  9
$DIMPOST
  1

  9
$DIMAPOST
  1

  9
$DIMALT
 70
     0
  9
$DIMALTD
 70
     2
  9
$DIMALTF
 40
25.4
  9
$DIMLFAC
 40
1.0
  9
$DIMTOFL
 70
     1
  9
$DIMTVP
 40
0.0
  9
$DIMTIX
 70
     0
  9
$DIMSOXD
 70
     0
  9
$DIMSAH
 70
     0
  9
$DIMBLK1
  1

  9
$DIMBLK2
  1

  9
$DIMSTYLE
  2
SC_STAND
  9
$DIMCLRD
 70
     0
  9
$DIMCLRE
 70
     0
  9
$DIMCLRT
 70
     0
  9
$DIMTFAC
 40
1.0
  9
$DIMGAP
 40
1.0
  9
$DIMJUST
 70
     0
  9
$DIMSD1
 70
     0
  9
$DIMSD2
 70
     0
  9
$DIMTOLJ
 70
     1
  9
$DIMTZIN
 70
    12
  9
$DIMALTZ
 70
    12
  9
$DIMALTTZ
 70
    12
  9
$DIMFIT
 70
     5
  9
$DIMUPT
 70
     0
  9
$DIMUNIT
 70
     2
  9
$DIMDEC
 70
     4
  9
$DIMTDEC
 70
     4
  9
$DIMALTU
 70
     2
  9
$DIMALTTD
 70
     2
  9
$DIMTXSTY
  7
ROMANS
  9
$DIMAUNIT
 70
     0
  9
$LUNITS
 70
     2
  9
$LUPREC
 70
     4
  9
$SKETCHINC
 40
0.1
  9
$FILLETRAD
 40
0.0
  9
$AUNITS
 70
     0
  9
$AUPREC
 70
     0
  9
$MENU
  1
.
  9
$ELEVATION
 40
0.0
  9
$PELEVATION
 40
0.0
  9
$THICKNESS
 40
0.0
  9
$LIMCHECK
 70
     0
  9
$BLIPMODE
 70
     1
  9
$CHAMFERA
 40
1.0
  9
$CHAMFERB
 40
1.0
  9
$CHAMFERC
 40
0.0
  9
$CHAMFERD
 40
0.0
  9
$SKPOLY
 70
     0
  9
$TDCREATE
 40
2451255.658637384
  9
$TDUPDATE
 40
2451387.895967442
  9
$TDINDWG
 40
0.4012710648
  9
$TDUSRTIMER
 40
0.4012710648
  9
$USRTIMER
 70
     1
  9
$ANGBASE
 50
0.0
  9
$ANGDIR
 70
     0
  9
$PDMODE
 70
     0
  9
$PDSIZE
 40
0.0
  9
$PLINEWID
 40
0.0
  9
$COORDS
 70
     1
  9
$SPLFRAME
 70
     0
  9
$SPLINETYPE
 70
     6
  9
$SPLINESEGS
 70
     8
  9
$ATTDIA
 70
     1
  9
$ATTREQ
 70
     1
  9
$HANDLING
 70
     1
  9
$HANDSEED
  5
ED
  9
$SURFTAB1
 70
     6
  9
$SURFTAB2
 70
     6
  9
$SURFTYPE
 70
     6
  9
$SURFU
 70
     6
  9
$SURFV
 70
     6
  9
$UCSNAME
  2

  9
$UCSORG
 10
0.0
 20
0.0
 30
0.0
  9
$UCSXDIR
 10
1.0
 20
0.0
 30
0.0
  9
$UCSYDIR
 10
0.0
 20
1.0
 30
0.0
  9
$PUCSNAME
  2

  9
$PUCSORG
 10
0.0
 20
0.0
 30
0.0
  9
$PUCSXDIR
 10
1.0
 20
0.0
 30
0.0
  9
$PUCSYDIR
 10
0.0
 20
1.0
 30
0.0
  9
$USERI1
 70
     0
  9
$USERI2
 70
     0
  9
$USERI3
 70
     0
  9
$USERI4
 70
     0
  9
$USERI5
 70
     0
  9
$USERR1
 40
0.0
  9
$USERR2
 40
0.0
  9
$USERR3
 40
0.0
  9
$USERR4
 40
0.0
  9
$USERR5
 40
0.0
  9
$WORLDVIEW
 70
     1
  9
$SHADEDGE
 70
     3
  9
$SHADEDIF
 70
    70
  9
$TILEMODE
 70
     1
  9
$MAXACTVP
 70
    16
  9
$PINSBASE
 10
0.0
 20
0.0
 30
0.0
  9
$PLIMCHECK
 70
     0
  9
$PEXTMIN
 10
0.0
 20
0.0
 30
0.0
  9
$PEXTMAX
 10
420.0
 20
297.0
 30
0.0
  9
$PLIMMIN
 10
0.0
 20
0.0
  9
$PLIMMAX
 10
420.0
 20
297.0
  9
$UNITMODE
 70
     0
  9
$VISRETAIN
 70
     0
  9
$PLINEGEN
 70
     0
  9
$PSLTSCALE
 70
     1
  9
$TREEDEPTH
 70
  3020
  9
$PICKSTYLE
 70
     1
  9
$CMLSTYLE
  2
STANDARD
  9
$CMLJUST
 70
     0
  9
$CMLSCALE
 40
1.0
  9
$PROXYGRAPHICS
 70
     1
  9
$MEASUREMENT
 70
     0
  0
ENDSEC
  0
SECTION
  2
CLASSES
  0
CLASS
  1
DICTIONARYVAR
  2
AcDbDictionaryVar
  3
"AutoCAD"
 90
        0
280
     0
281
     0
  0
CLASS
  1
LWPOLYLINE
  2
AcDbPolyline
  3
"AutoCAD"
 90
        0
280
     0
281
     1
  0
ENDSEC
  0
SECTION
  2
TABLES
  0
TABLE
  2
VPORT
  5
C1
100
AcDbSymbolTable
 70
     1
  0
VPORT
  5
E8
100
AcDbSymbolTableRecord
100
AcDbViewportTableRecord
  2
*ACTIVE
 70
     0
 10
0.0
 20
0.0
 11
1.0
 21
1.0
 12
623.519575
 22
-21.915648
 13
0.0
 23
0.0
 14
1.0
 24
1.0
 15
0.0
 25
0.0
 16
0.0
 26
0.0
 36
1.0
 17
0.0
 27
0.0
 37
0.0
 40
106.24754
 41
1.671053
 42
50.0
 43
0.0
 44
0.0
 50
0.0
 51
0.0
 71
     0
 72
   100
 73
     1
 74
     1
 75
     0
 76
     0
 77
     0
 78
     0
  0
ENDTAB
  0
TABLE
  2
LTYPE
  5
BE
100
AcDbSymbolTable
 70
     2
  0
LTYPE
  5
CA
100
AcDbSymbolTableRecord
100
AcDbLinetypeTableRecord
  2
BYBLOCK
 70
     0
  3

 72
    65
 73
     0
 40
0.0
  0
LTYPE
  5
CB
100
AcDbSymbolTableRecord
100
AcDbLinetypeTableRecord
  2
BYLAYER
 70
     0
  3

 72
    65
 73
     0
 40
0.0
  0
LTYPE
  5
CC
100
AcDbSymbolTableRecord
100
AcDbLinetypeTableRecord
  2
CONTINUOUS
 70
     0
  3
Solid line
 72
    65
 73
     0
 40
0.0
  0
LTYPE
  5
D8
100
AcDbSymbolTableRecord
100
AcDbLinetypeTableRecord
  2
AXES2
 70
     0
  3
___ _ ___ _ ___ _ ___ _ ___ _ ___ _ ___ _ ___ _
 72
    65
 73
     4
 40
1.125
 49
0.75
 74
     0
 49
-0.125
 74
     0
 49
0.125
 74
     0
 49
-0.125
 74
     0
  0
ENDTAB
  0
TABLE
  2
LAYER
  5
BB
100
AcDbSymbolTable
 70
     5
  0
LAYER
  5
C7
100
AcDbSymbolTableRecord
100
AcDbLayerTableRecord
  2
0
 70
     0
 62
   255
  6
CONTINUOUS
  0
LAYER
  5
DB
100
AcDbSymbolTableRecord
100
AcDbLayerTableRecord
  2
AXE
 70
     0
 62
    80
  6
AXES2
  0
LAYER
  5
DC
100
AcDbSymbolTableRecord
100
AcDbLayerTableRecord
  2
COTATION1
 70
     0
 62
     2
  6
CONTINUOUS
  0
LAYER
  5
DD
100
AcDbSymbolTableRecord
100
AcDbLayerTableRecord
  2
ALPHA
 70
     0
 62
   254
  6
CONTINUOUS
  0
LAYER
  5
DE
100
AcDbSymbolTableRecord
100
AcDbLayerTableRecord
  2
DEFPOINTS
 70
     0
 62
     7
  6
CONTINUOUS
  0
ENDTAB
  0
TABLE
  2
STYLE
  5
BC
100
AcDbSymbolTable
 70
     2
  0
STYLE
  5
C8
100
AcDbSymbolTableRecord
100
AcDbTextStyleTableRecord
  2
STANDARD
 70
     0
 40
0.0
 41
1.0
 50
0.0
 71
     0
 42
0.2
  3
txt
  4

  0
STYLE
  5
D7
100
AcDbSymbolTableRecord
100
AcDbTextStyleTableRecord
  2
ROMANS
 70
     0
 40
0.0
 41
1.0
 50
0.0
 71
     0
 42
2.9
  3
romans.shx
  4

  0
ENDTAB
  0
TABLE
  2
VIEW
  5
BF
100
AcDbSymbolTable
 70
     0
  0
ENDTAB
  0
TABLE
  2
UCS
  5
C0
100
AcDbSymbolTable
 70
     0
  0
ENDTAB
  0
TABLE
  2
APPID
  5
C2
100
AcDbSymbolTable
 70
     1
  0
APPID
  5
C9
100
AcDbSymbolTableRecord
100
AcDbRegAppTableRecord
  2
ACAD
 70
     0
  0
ENDTAB
  0
TABLE
  2
DIMSTYLE
  5
C3
100
AcDbSymbolTable
 70
     1
  0
DIMSTYLE
105
DA
102
{ACAD_REACTORS
330
22
102
}
100
AcDbSymbolTableRecord
100
AcDbDimStyleTableRecord
  2
SC_STAND
 70
     0
  3

  4

  5

  6

  7

 40
1.0
 41
3.0
 42
0.0625
 43
0.38
 44
0.18
 45
0.01
 46
0.0
 47
0.0
 48
0.0
140
2.5
141
0.09
142
0.0
143
25.4
144
1.0
145
0.0
146
1.0
147
1.0
 71
     0
 72
     0
 73
     0
 74
     0
 75
     0
 76
     0
 77
     1
 78
    12
170
     0
171
     2
172
     1
173
     0
174
     0
175
     0
176
     0
177
     0
178
     0
270
     2
271
     4
272
     4
273
     2
274
     2
340
D7
275
     0
280
     0
281
     0
282
     0
283
     1
284
    12
285
    12
286
    12
287
     5
288
     0
  0
ENDTAB
  0
TABLE
  2
BLOCK_RECORD
  5
BA
100
AcDbSymbolTable
 70
     2
  0
BLOCK_RECORD
  5
D0
100
AcDbSymbolTableRecord
100
AcDbBlockTableRecord
  2
*MODEL_SPACE
  0
BLOCK_RECORD
  5
CD
100
AcDbSymbolTableRecord
100
AcDbBlockTableRecord
  2
*PAPER_SPACE
  0
BLOCK_RECORD
  5
D5
100
AcDbSymbolTableRecord
100
AcDbBlockTableRecord
  2
*D0
  0
BLOCK_RECORD
  5
D6
100
AcDbSymbolTableRecord
100
AcDbBlockTableRecord
  2
_OPEN
  0
ENDTAB
  0
ENDSEC
  0
SECTION
  2
BLOCKS
  0
BLOCK
  5
E1
100
AcDbEntity
  8
0
100
AcDbBlockBegin
  2
*MODEL_SPACE
 70
     0
 10
0.0
 20
0.0
 30
0.0
  3
*MODEL_SPACE
  1

  0
ENDBLK
  5
E2
100
AcDbEntity
  8
0
100
AcDbBlockEnd
  0
BLOCK
  5
DF
100
AcDbEntity
 67
     1
  8
0
100
AcDbBlockBegin
  2
*PAPER_SPACE
 70
     0
 10
0.0
 20
0.0
 30
0.0
  3
*PAPER_SPACE
  1

  0
ENDBLK
  5
E0
100
AcDbEntity
 67
     1
  8
0
100
AcDbBlockEnd
  0
BLOCK
  5
35
100
AcDbEntity
  8
0
100
AcDbBlockBegin
  2
*D0
 70
     1
 10
0.0
 20
0.0
 30
0.0
  3
*D0
  1

  0
LINE
  5
25
100
AcDbEntity
  8
0
  6
BYBLOCK
 62
     0
100
AcDbLine
 10
692.464599
 20
-36.870578
 30
0.0
 11
692.464599
 21
-60.834951
 31
0.0
  0
LINE
  5
26
100
AcDbEntity
  8
0
  6
BYBLOCK
 62
     0
100
AcDbLine
 10
668.464599
 20
-36.870578
 30
0.0
 11
668.464599
 21
-60.834951
 31
0.0
  0
LINE
  5
27
100
AcDbEntity
  8
0
  6
BYBLOCK
 62
     0
100
AcDbLine
 10
689.464599
 20
-60.654951
 30
0.0
 11
671.464599
 21
-60.654951
 31
0.0
  0
INSERT
  5
28
100
AcDbEntity
  8
0
  6
BYBLOCK
 62
     0
100
AcDbBlockReference
  2
_OPEN
 10
692.464599
 20
-60.654951
 30
0.0
 41
3.0
 42
3.0
 43
3.0
  0
INSERT
  5
2F
100
AcDbEntity
  8
0
  6
BYBLOCK
 62
     0
100
AcDbBlockReference
  2
_OPEN
 10
668.464599
 20
-60.654951
 30
0.0
 41
3.0
 42
3.0
 43
3.0
 50
180.0
  0
TEXT
  5
30
100
AcDbEntity
  8
0
  6
BYBLOCK
 62
     0
100
AcDbText
 10
678.381266
 20
-59.654951
 30
0.0
 40
2.5
  1
24
100
AcDbText
  0
POINT
  5
31
100
AcDbEntity
  8
DEFPOINTS
  6
BYBLOCK
 62
     0
100
AcDbPoint
 10
692.464599
 20
-36.808078
 30
0.0
  0
POINT
  5
33
100
AcDbEntity
  8
DEFPOINTS
  6
BYBLOCK
 62
     0
100
AcDbPoint
 10
668.464599
 20
-36.808078
 30
0.0
  0
POINT
  5
34
100
AcDbEntity
  8
DEFPOINTS
  6
BYBLOCK
 62
     0
100
AcDbPoint
 10
668.464599
 20
-60.654951
 30
0.0
  0
ENDBLK
  5
36
100
AcDbEntity
  8
0
100
AcDbBlockEnd
  0
BLOCK
  5
2D
100
AcDbEntity
  8
0
100
AcDbBlockBegin
  2
_OPEN
 70
     0
 10
0.0
 20
0.0
 30
0.0
  3
_OPEN
  1

  0
LINE
  5
2A
100
AcDbEntity
  8
0
  6
BYBLOCK
 62
     0
100
AcDbLine
 10
-1.0
 20
0.166667
 30
0.0
 11
0.0
 21
0.0
 31
0.0
  0
LINE
  5
2B
100
AcDbEntity
  8
0
  6
BYBLOCK
 62
     0
100
AcDbLine
 10
0.0
 20
0.0
 30
0.0
 11
-1.0
 21
-0.166667
 31
0.0
  0
LINE
  5
2C
100
AcDbEntity
  8
0
  6
BYBLOCK
 62
     0
100
AcDbLine
 10
0.0
 20
0.0
 30
0.0
 11
-1.0
 21
0.0
 31
0.0
  0
ENDBLK
  5
2E
100
AcDbEntity
  8
0
100
AcDbBlockEnd
  0
ENDSEC
  0
SECTION
  2
ENTITIES
  0
LINE
  5
21
100
AcDbEntity
  8
AXE
100
AcDbLine
 10
680.464599
 20
-46.534097
 30
0.0
 11
680.464599
 21
6.671325
 31
0.0
  0
DIMENSION
  5
22
100
AcDbEntity
  8
COTATION1
100
AcDbDimension
  2
*D0
 10
668.464599
 20
-60.654951
 30
0.0
 11
680.464599
 21
-58.404951
 31
0.0
  3
SC_STAND
100
AcDbAlignedDimension
 13
692.464599
 23
-36.808078
 33
0.0
 14
668.464599
 24
-36.808078
 34
0.0
100
AcDbRotatedDimension
1001
ACAD
1000
DSTYLE
1002
{
1070
   284
1070
     0
1070
   340
1005
E
1070
   287
1070
     3
1070
     5
1000
_OPEN
1070
   285
1070
     0
1070
   286
1070
     0
1002
}
  0
LINE
  5
37
100
AcDbEntity
  8
AXE
100
AcDbLine
 10
665.84645
 20
-29.879874
 30
0.0
 11
712.29219
 21
-29.879874
 31
0.0
  0
LWPOLYLINE
  5
38
100
AcDbEntity
  8
ALPHA
100
AcDbPolyline
 90
        6
 70
     1
 43
0.0
 10
668.464599
 20
-36.808078
 10
680.464599
 20
-43.736281
 10
692.464599
 20
-36.808078
 10
692.464599
 20
-22.951671
 10
680.464599
 20
-16.023468
 10
668.464599
 20
-22.951671
  0
CIRCLE
  5
40
100
AcDbEntity
  8
ALPHA
100
AcDbCircle
 10
680.464599
 20
-29.879874
 30
0.0
 40
12.0
  0
LWPOLYLINE
  5
41
100
AcDbEntity
  8
ALPHA
100
AcDbPolyline
 90
       33
 70
   129
 43
0.0
 10
680.464599
 20
-35.799426
 10
681.532554
 20
-35.692452
 10
682.56191
 20
-35.375397
 10
683.515464
 20
-34.859718
 10
684.358751
 20
-34.164056
 10
685.061294
 20
-33.313551
 10
685.597701
 20
-32.338945
 10
685.948583
 20
-31.275462
 10
686.10126
 20
-30.161538
 10
686.050214
 20
-29.037434
 10
685.797289
 20
-27.943778
 10
685.351626
 20
-26.920098
 10
684.729334
 20
-26.003392
 10
683.952903
 20
-25.226792
 10
683.050396
 20
-24.618366
 10
682.054431
 20
-24.200106
 10
681.001005
 20
-23.987126
 10
679.928193
 20
-23.987126
 10
678.874767
 20
-24.200106
 10
677.878802
 20
-24.618366
 10
676.976295
 20
-25.226792
 10
676.199864
 20
-26.003392
 10
675.577572
 20
-26.920098
 10
675.131909
 20
-27.943778
 10
674.878984
 20
-29.037434
 10
674.827938
 20
-30.161538
 10
674.980615
 20
-31.275462
 10
675.331497
 20
-32.338945
 10
675.867904
 20
-33.313551
 10
676.570446
 20
-34.164056
 10
677.413734
 20
-34.859718
 10
678.367288
 20
-35.375397
 10
679.396644
 20
-35.692452
  0
ARC
  5
42
100
AcDbEntity
  8
ALPHA
 62
   255
100
AcDbCircle
 10
680.464599
 20
-29.879874
 30
0.0
 40
8.0
100
AcDbArc
 50
79.287573
 51
4.135244
  0
CIRCLE
  5
43
100
AcDbEntity
  8
ALPHA
100
AcDbCircle
 10
680.464599
 20
-29.879874
 30
0.0
 40
6.732182
  0
CIRCLE
  5
44
100
AcDbEntity
  8
ALPHA
100
AcDbCircle
 10
680.464599
 20
-29.879874
 30
0.0
 40
9.0
  0
LWPOLYLINE
  5
45
100
AcDbEntity
  8
ALPHA
100
AcDbPolyline
 90
       16
 70
     0
 43
0.0
 10
684.70126
 20
-25.969664
 10
683.550769
 20
-26.106521
 10
683.090797
 20
-26.174841
 10
682.698881
 20
-26.246812
 10
682.365488
 20
-26.321712
 10
681.96053
 20
-26.431505
 10
681.599956
 20
-26.564578
 42
0.314067
 10
680.470242
 20
-28.1857
 10
680.470242
 20
-31.574049
 42
0.314067
 10
681.599956
 20
-33.195171
 10
681.96053
 20
-33.328243
 10
682.365488
 20
-33.438036
 10
682.698881
 20
-33.512937
 10
683.090797
 20
-33.584908
 10
683.550769
 20
-33.653227
 10
684.70126
 20
-33.790085
  0
LWPOLYLINE
  5
57
100
AcDbEntity
  8
ALPHA
100
AcDbPolyline
 90
       16
 70
     0
 43
0.0
 10
676.239224
 20
-25.969664
 10
677.389715
 20
-26.106521
 10
677.849687
 20
-26.174841
 10
678.241603
 20
-26.246812
 10
678.574996
 20
-26.321712
 10
678.979954
 20
-26.431505
 10
679.340528
 20
-26.564578
 42
-0.314067
 10
680.470242
 20
-28.1857
 10
680.470242
 20
-31.574049
 42
-0.314067
 10
679.340528
 20
-33.195171
 10
678.979954
 20
-33.328243
 10
678.574996
 20
-33.438036
 10
678.241603
 20
-33.512937
 10
677.849687
 20
-33.584908
 10
677.389715
 20
-33.653227
 10
676.239224
 20
-33.790085
  0
TEXT
  5
69
100
AcDbEntity
  8
AXE
100
AcDbText
 10
696.217092
 20
-26.702746
 30
0.0
 40
15.0
  1
X
  7
ROMANS
100
AcDbText
  0
TEXT
  5
6A
100
AcDbEntity
  8
AXE
100
AcDbText
 10
664.612821
 20
-2.743402
 30
0.0
 40
15.0
  1
Y
  7
ROMANS
100
AcDbText
  0
ENDSEC
  0
SECTION
  2
OBJECTS
  0
DICTIONARY
  5
C5
100
AcDbDictionary
  3
ACAD_GROUP
350
C6
  3
ACAD_MLINESTYLE
350
D3
  3
ACDBVARIABLEDICTIONARY
350
E3
  0
DICTIONARY
  5
C6
102
{ACAD_REACTORS
330
C5
102
}
100
AcDbDictionary
  0
DICTIONARY
  5
D3
102
{ACAD_REACTORS
330
C5
102
}
100
AcDbDictionary
  3
STANDARD
350
D4
  0
DICTIONARY
  5
E3
102
{ACAD_REACTORS
330
C5
102
}
100
AcDbDictionary
  3
DIMADEC
350
E4
  0
MLINESTYLE
  5
D4
102
{ACAD_REACTORS
330
D3
102
}
100
AcDbMlineStyle
  2
STANDARD
 70
     0
  3

 62
   256
 51
90.0
 52
90.0
 71
     2
 49
0.5
 62
   256
  6
BYLAYER
 49
-0.5
 62
   256
  6
BYLAYER
  0
DICTIONARYVAR
  5
E4
102
{ACAD_REACTORS
330
E3
102
}
100
DictionaryVariables
280
     0
  1
0
  0
ENDSEC
  0
EOF
