  0
SECTION
  2
HEADER
  9
$ACADVER
  1
AC1014
  9
$ACADMAINTVER
 70
     9
  9
$DWGCODEPAGE
  3
ANSI_1252
  9
$INSBASE
 10
0.0
 20
0.0
 30
0.0
  9
$EXTMIN
 10
0.0
 20
0.0475228887496178
 30
-0.0000000000000018
  9
$EXTMAX
 10
65.60000399999999
 20
41.04752288874961
 30
0.0000000000000018
  9
$LIMMIN
 10
0.0
 20
0.0
  9
$LIMMAX
 10
16.40000099999999
 20
10.25
  9
$ORTHOMODE
 70
     0
  9
$REGENMODE
 70
     1
  9
$FILLMODE
 70
     1
  9
$QTEXTMODE
 70
     0
  9
$MIRRTEXT
 70
     1
  9
$DRAGMODE
 70
     2
  9
$LTSCALE
 40
1.0
  9
$OSMODE
 70
    39
  9
$ATTMODE
 70
     1
  9
$TEXTSIZE
 40
0.2
  9
$TRACEWID
 40
0.05
  9
$TEXTSTYLE
  7
ROMANS
  9
$CLAYER
  8
0
  9
$CELTYPE
  6
BYLAYER
  9
$CECOLOR
 62
   256
  9
$CELTSCALE
 40
1.0
  9
$DELOBJ
 70
     1
  9
$DISPSILH
 70
     0
  9
$DIMSCALE
 40
0.0
  9
$DIMASZ
 40
0.07
  9
$DIMEXO
 40
0.0625
  9
$DIMDLI
 40
0.38
  9
$DIMRND
 40
0.001
  9
$DIMDLE
 40
0.0
  9
$DIMEXE
 40
0.0625
  9
$DIMTP
 40
0.0
  9
$DIMTM
 40
0.0
  9
$DIMTXT
 40
0.1
  9
$DIMCEN
 40
0.09
  9
$DIMTSZ
 40
0.0
  9
$DIMTOL
 70
     0
  9
$DIMLIM
 70
     0
  9
$DIMTIH
 70
     1
  9
$DIMTOH
 70
     1
  9
$DIMSE1
 70
     0
  9
$DIMSE2
 70
     0
  9
$DIMTAD
 70
     0
  9
$DIMZIN
 70
     4
  9
$DIMBLK
  1
SEARROW
  9
$DIMASO
 70
     1
  9
$DIMSHO
 70
     1
  9
$DIMPOST
  1

  9
$DIMAPOST
  1

  9
$DIMALT
 70
     0
  9
$DIMALTD
 70
     1
  9
$DIMALTF
 40
25.4
  9
$DIMLFAC
 40
1.0
  9
$DIMTOFL
 70
     0
  9
$DIMTVP
 40
0.0
  9
$DIMTIX
 70
     0
  9
$DIMSOXD
 70
     0
  9
$DIMSAH
 70
     0
  9
$DIMBLK1
  1

  9
$DIMBLK2
  1

  9
$DIMSTYLE
  2
SCHNEIDERELECTRIC
  9
$DIMCLRD
 70
   256
  9
$DIMCLRE
 70
   256
  9
$DIMCLRT
 70
   256
  9
$DIMTFAC
 40
1.0
  9
$DIMGAP
 40
0.04
  9
$DIMJUST
 70
     0
  9
$DIMSD1
 70
     0
  9
$DIMSD2
 70
     0
  9
$DIMTOLJ
 70
     1
  9
$DIMTZIN
 70
     0
  9
$DIMALTZ
 70
     0
  9
$DIMALTTZ
 70
     0
  9
$DIMFIT
 70
     3
  9
$DIMUPT
 70
     0
  9
$DIMUNIT
 70
     2
  9
$DIMDEC
 70
     2
  9
$DIMTDEC
 70
     2
  9
$DIMALTU
 70
     2
  9
$DIMALTTD
 70
     1
  9
$DIMTXSTY
  7
ROMANS
  9
$DIMAUNIT
 70
     0
  9
$LUNITS
 70
     2
  9
$LUPREC
 70
     4
  9
$SKETCHINC
 40
0.1
  9
$FILLETRAD
 40
0.5
  9
$AUNITS
 70
     0
  9
$AUPREC
 70
     0
  9
$MENU
  1
.
  9
$ELEVATION
 40
0.0
  9
$PELEVATION
 40
0.0
  9
$THICKNESS
 40
0.0
  9
$LIMCHECK
 70
     0
  9
$BLIPMODE
 70
     0
  9
$CHAMFERA
 40
0.5
  9
$CHAMFERB
 40
0.5
  9
$CHAMFERC
 40
1.0
  9
$CHAMFERD
 40
0.0
  9
$SKPOLY
 70
     0
  9
$TDCREATE
 40
2451764.535041909
  9
$TDUPDATE
 40
2451967.662728970
  9
$TDINDWG
 40
0.4990284722
  9
$TDUSRTIMER
 40
0.4990282407
  9
$USRTIMER
 70
     1
  9
$ANGBASE
 50
0.0
  9
$ANGDIR
 70
     0
  9
$PDMODE
 70
     0
  9
$PDSIZE
 40
0.0
  9
$PLINEWID
 40
0.0
  9
$COORDS
 70
     1
  9
$SPLFRAME
 70
     0
  9
$SPLINETYPE
 70
     6
  9
$SPLINESEGS
 70
     8
  9
$ATTDIA
 70
     0
  9
$ATTREQ
 70
     1
  9
$HANDLING
 70
-16383
  9
$HANDSEED
  5
9D03
  9
$SURFTAB1
 70
     6
  9
$SURFTAB2
 70
     6
  9
$SURFTYPE
 70
     6
  9
$SURFU
 70
     6
  9
$SURFV
 70
     6
  9
$UCSNAME
  2

  9
$UCSORG
 10
0.0
 20
0.0
 30
0.0
  9
$UCSXDIR
 10
1.0
 20
0.0
 30
0.0
  9
$UCSYDIR
 10
0.0
 20
1.0
 30
0.0
  9
$PUCSNAME
  2

  9
$PUCSORG
 10
0.0
 20
0.0
 30
0.0
  9
$PUCSXDIR
 10
1.0
 20
0.0
 30
0.0
  9
$PUCSYDIR
 10
0.0
 20
1.0
 30
0.0
  9
$USERI1
 70
     0
  9
$USERI2
 70
     0
  9
$USERI3
 70
     0
  9
$USERI4
 70
     0
  9
$USERI5
 70
     0
  9
$USERR1
 40
0.0
  9
$USERR2
 40
0.0
  9
$USERR3
 40
0.0
  9
$USERR4
 40
0.0
  9
$USERR5
 40
0.0
  9
$WORLDVIEW
 70
     1
  9
$SHADEDGE
 70
     3
  9
$SHADEDIF
 70
    70
  9
$TILEMODE
 70
     1
  9
$MAXACTVP
 70
    48
  9
$PINSBASE
 10
0.0
 20
0.0
 30
0.0
  9
$PLIMCHECK
 70
     0
  9
$PEXTMIN
 10
0.0
 20
-0.1507193079929352
 30
0.0
  9
$PEXTMAX
 10
16.40000099999999
 20
10.25
 30
0.0
  9
$PLIMMIN
 10
-0.3022988315385811
 20
-0.4421500682141223
  9
$PLIMMAX
 10
16.69770068786963
 20
10.55784969148998
  9
$UNITMODE
 70
     0
  9
$VISRETAIN
 70
     1
  9
$PLINEGEN
 70
     0
  9
$PSLTSCALE
 70
     1
  9
$TREEDEPTH
 70
  3020
  9
$PICKSTYLE
 70
     1
  9
$CMLSTYLE
  2
STANDARD
  9
$CMLJUST
 70
     0
  9
$CMLSCALE
 40
1.0
  9
$PROXYGRAPHICS
 70
     1
  9
$MEASUREMENT
 70
     0
  0
ENDSEC
  0
SECTION
  2
CLASSES
  0
CLASS
  1
ACDBDICTIONARYWDFLT
  2
AcDbDictionaryWithDefault
  3
AutoCAD 2000
 90
        0
280
     0
281
     0
  0
CLASS
  1
ACDBPLACEHOLDER
  2
AcDbPlaceHolder
  3
AutoCAD 2000
 90
        0
280
     0
281
     0
  0
CLASS
  1
LAYOUT
  2
AcDbLayout
  3
AutoCAD 2000
 90
        0
280
     0
281
     0
  0
CLASS
  1
LONG_TRANSACTION
  2
AcDbLongTransaction
  3
AutoCAD 2000
 90
        0
280
     0
281
     0
  0
CLASS
  1
LWPOLYLINE
  2
AcDbPolyline
  3
AutoCAD 2000
 90
        0
280
     0
281
     1
  0
CLASS
  1
HATCH
  2
AcDbHatch
  3
AutoCAD 2000
 90
        0
280
     0
281
     1
  0
CLASS
  1
XRECORD
  2
AcDbXrecord
  3
AutoCAD 2000
 90
        0
280
     0
281
     0
  0
CLASS
  1
LONG_TRANSACTION
  2
AcDbLongTransaction
  3
AutoCAD 2000
 90
        0
280
     0
281
     0
  0
CLASS
  1
LWPOLYLINE
  2
AcDbPolyline
  3
AutoCAD 2000
 90
        0
280
     0
281
     1
  0
CLASS
  1
HATCH
  2
AcDbHatch
  3
AutoCAD 2000
 90
        0
280
     0
281
     1
  0
CLASS
  1
XRECORD
  2
AcDbXrecord
  3
AutoCAD 2000
 90
        0
280
     0
281
     0
  0
CLASS
  1
LONG_TRANSACTION
  2
AcDbLongTransaction
  3
AutoCAD 2000
 90
        0
280
     0
281
     0
  0
CLASS
  1
LWPOLYLINE
  2
AcDbPolyline
  3
AutoCAD 2000
 90
        0
280
     0
281
     1
  0
CLASS
  1
HATCH
  2
AcDbHatch
  3
AutoCAD 2000
 90
        0
280
     0
281
     1
  0
CLASS
  1
XRECORD
  2
AcDbXrecord
  3
AutoCAD 2000
 90
        0
280
     0
281
     0
  0
CLASS
  1
PLOTSETTINGS
  2
AcDbPlotSettings
  3
AutoCAD 2000
 90
        0
280
     0
281
     0
  0
CLASS
  1
ACME_DOCUMENT
  2
AcMeDbDoc
  3
AcMeServices
 90
        0
280
     0
281
     0
  0
CLASS
  1
AMGSETTINGSOBJ
  2
AmgSettingsObj
  3
"AcadM|Product Description: AutoCAD Mechanical 2000|Company: Autodesk"
 90
        0
280
     0
281
     0
  0
CLASS
  1
ACMESCOPE
  2
AcMeScope
  3
AcMeServices
 90
        0
280
     0
281
     0
  0
CLASS
  1
ACMECOMMANDHISTORY
  2
AcMeCommandHistory
  3
AcMeServices
 90
        0
280
     0
281
     0
  0
CLASS
  1
DICTIONARYVAR
  2
AcDbDictionaryVar
  3
AutoCAD 2000
 90
        0
280
     0
281
     0
  0
CLASS
  1
ACIMSYSVARMAN
  2
AcImSysVarManager
  3
AcMeServices
 90
        0
280
     0
281
     0
  0
CLASS
  1
ACIMREALSYSVAR
  2
AcImRealSysVar
  3
AcMeServices
 90
        0
280
     0
281
     0
  0
CLASS
  1
ACIMINTSYSVAR
  2
AcImIntSysVar
  3
AcMeServices
 90
        0
280
     0
281
     0
  0
CLASS
  1
ACMEDRAWINGMAN
  2
AcMeDrawingMan
  3
AcMeServices
 90
        0
280
     0
281
     0
  0
CLASS
  1
ACMEVIEW
  2
AcMeView
  3
AcMeServices
 90
        0
280
     0
281
     0
  0
CLASS
  1
ACDBENTITYCACHE
  2
AcMeEntityCache
  3
AcMeServices
 90
        0
280
     0
281
     0
  0
CLASS
  1
GSMANAGER
  2
AcMeGSManager
  3
AcMeServices
 90
        0
280
     0
281
     0
  0
CLASS
  1
AmdtInternalReactor
  2
AmdtInternalReactor
  3
AcMeServices
 90
        0
280
     0
281
     0
  0
CLASS
  1
ACMESTATEMGR
  2
AcMeStateMgr
  3
AcMeServices
 90
        0
280
     0
281
     0
  0
CLASS
  1
ACME_DATABASE
  2
AcMeDbDatabase
  3
AcMeServices
 90
        0
280
     0
281
     0
  0
CLASS
  1
ACRFINSADJUSTERMGR
  2
AcRfInsAdjusterMgr
  3
AcMeServices
 90
        0
280
     0
281
     0
  0
CLASS
  1
ACMDATADICTIONARY
  2
AcmDataDictionary
  3
"AcmSymBB|Product Description: AutoCAD Mechanical 2000|Company: Autodesk"
 90
        0
280
     0
281
     0
  0
CLASS
  1
ACMDATAENTRYBLOCK
  2
AcmDataEntryBlock
  3
"AcmSymBB|Product Description: AutoCAD Mechanical 2000|Company: Autodesk"
 90
        0
280
     0
281
     0
  0
CLASS
  1
AMGOBJPROPCFG
  2
AmgObjPropCfg
  3
"AmgLay|Product Description: AutoCAD Mechanical 2000|Company: Autodesk"
 90
        1
280
     0
281
     0
  0
CLASS
  1
ACAMGFILTERDAT
  2
AcAmgFilterDat
  3
"AcadM|Product Description: AutoCAD Mechanical 2000|Company: Autodesk"
 90
        0
280
     0
281
     0
  0
CLASS
  1
LAYER_INDEX
  2
AcDbLayerIndex
  3
AutoCAD 2000
 90
        0
280
     0
281
     0
  0
CLASS
  1
IDBUFFER
  2
AcDbIdBuffer
  3
AutoCAD 2000
 90
        0
280
     0
281
     0
  0
CLASS
  1
LONG_TRANSACTION
  2
AcDbLongTransaction
  3
AutoCAD 2000
 90
        0
280
     0
281
     0
  0
CLASS
  1
LWPOLYLINE
  2
AcDbPolyline
  3
AutoCAD 2000
 90
        0
280
     0
281
     1
  0
CLASS
  1
HATCH
  2
AcDbHatch
  3
AutoCAD 2000
 90
        0
280
     0
281
     1
  0
CLASS
  1
XRECORD
  2
AcDbXrecord
  3
AutoCAD 2000
 90
        0
280
     0
281
     0
  0
CLASS
  1
LONG_TRANSACTION
  2
AcDbLongTransaction
  3
AutoCAD 2000
 90
        0
280
     0
281
     0
  0
CLASS
  1
LWPOLYLINE
  2
AcDbPolyline
  3
AutoCAD 2000
 90
        0
280
     0
281
     1
  0
CLASS
  1
HATCH
  2
AcDbHatch
  3
AutoCAD 2000
 90
        0
280
     0
281
     1
  0
CLASS
  1
XRECORD
  2
AcDbXrecord
  3
AutoCAD 2000
 90
        0
280
     0
281
     0
  0
CLASS
  1
LONG_TRANSACTION
  2
AcDbLongTransaction
  3
AutoCAD 2000
 90
        0
280
     0
281
     0
  0
CLASS
  1
LWPOLYLINE
  2
AcDbPolyline
  3
AutoCAD 2000
 90
        0
280
     0
281
     1
  0
CLASS
  1
HATCH
  2
AcDbHatch
  3
AutoCAD 2000
 90
        0
280
     0
281
     1
  0
CLASS
  1
XRECORD
  2
AcDbXrecord
  3
AutoCAD 2000
 90
        0
280
     0
281
     0
  0
CLASS
  1
LONG_TRANSACTION
  2
AcDbLongTransaction
  3
AutoCAD 2000
 90
        0
280
     0
281
     0
  0
CLASS
  1
LWPOLYLINE
  2
AcDbPolyline
  3
AutoCAD 2000
 90
        0
280
     0
281
     1
  0
CLASS
  1
HATCH
  2
AcDbHatch
  3
AutoCAD 2000
 90
        0
280
     0
281
     1
  0
CLASS
  1
XRECORD
  2
AcDbXrecord
  3
AutoCAD 2000
 90
        0
280
     0
281
     0
  0
CLASS
  1
LONG_TRANSACTION
  2
AcDbLongTransaction
  3
AutoCAD 2000
 90
        0
280
     0
281
     0
  0
CLASS
  1
LWPOLYLINE
  2
AcDbPolyline
  3
AutoCAD 2000
 90
        0
280
     0
281
     1
  0
CLASS
  1
HATCH
  2
AcDbHatch
  3
AutoCAD 2000
 90
        0
280
     0
281
     1
  0
CLASS
  1
XRECORD
  2
AcDbXrecord
  3
AutoCAD 2000
 90
        0
280
     0
281
     0
  0
CLASS
  1
LONG_TRANSACTION
  2
AcDbLongTransaction
  3
AutoCAD 2000
 90
        0
280
     0
281
     0
  0
CLASS
  1
LWPOLYLINE
  2
AcDbPolyline
  3
AutoCAD 2000
 90
        0
280
     0
281
     1
  0
CLASS
  1
HATCH
  2
AcDbHatch
  3
AutoCAD 2000
 90
        0
280
     0
281
     1
  0
CLASS
  1
XRECORD
  2
AcDbXrecord
  3
AutoCAD 2000
 90
        0
280
     0
281
     0
  0
CLASS
  1
LONG_TRANSACTION
  2
AcDbLongTransaction
  3
AutoCAD 2000
 90
        0
280
     0
281
     0
  0
CLASS
  1
LWPOLYLINE
  2
AcDbPolyline
  3
AutoCAD 2000
 90
        0
280
     0
281
     1
  0
CLASS
  1
HATCH
  2
AcDbHatch
  3
AutoCAD 2000
 90
        0
280
     0
281
     1
  0
CLASS
  1
XRECORD
  2
AcDbXrecord
  3
AutoCAD 2000
 90
        0
280
     0
281
     0
  0
CLASS
  1
LONG_TRANSACTION
  2
AcDbLongTransaction
  3
AutoCAD 2000
 90
        0
280
     0
281
     0
  0
CLASS
  1
LWPOLYLINE
  2
AcDbPolyline
  3
AutoCAD 2000
 90
        0
280
     0
281
     1
  0
CLASS
  1
HATCH
  2
AcDbHatch
  3
AutoCAD 2000
 90
        0
280
     0
281
     1
  0
CLASS
  1
XRECORD
  2
AcDbXrecord
  3
AutoCAD 2000
 90
        0
280
     0
281
     0
  0
CLASS
  1
LONG_TRANSACTION
  2
AcDbLongTransaction
  3
AutoCAD 2000
 90
        0
280
     0
281
     0
  0
CLASS
  1
LWPOLYLINE
  2
AcDbPolyline
  3
AutoCAD 2000
 90
        0
280
     0
281
     1
  0
CLASS
  1
HATCH
  2
AcDbHatch
  3
AutoCAD 2000
 90
        0
280
     0
281
     1
  0
CLASS
  1
XRECORD
  2
AcDbXrecord
  3
AutoCAD 2000
 90
        0
280
     0
281
     0
  0
CLASS
  1
LONG_TRANSACTION
  2
AcDbLongTransaction
  3
AutoCAD 2000
 90
        0
280
     0
281
     0
  0
CLASS
  1
LWPOLYLINE
  2
AcDbPolyline
  3
AutoCAD 2000
 90
        0
280
     0
281
     1
  0
CLASS
  1
HATCH
  2
AcDbHatch
  3
AutoCAD 2000
 90
        0
280
     0
281
     1
  0
CLASS
  1
XRECORD
  2
AcDbXrecord
  3
AutoCAD 2000
 90
        0
280
     0
281
     0
  0
CLASS
  1
LONG_TRANSACTION
  2
AcDbLongTransaction
  3
AutoCAD 2000
 90
        0
280
     0
281
     0
  0
CLASS
  1
LWPOLYLINE
  2
AcDbPolyline
  3
AutoCAD 2000
 90
        0
280
     0
281
     1
  0
CLASS
  1
HATCH
  2
AcDbHatch
  3
AutoCAD 2000
 90
        0
280
     0
281
     1
  0
CLASS
  1
XRECORD
  2
AcDbXrecord
  3
AutoCAD 2000
 90
        0
280
     0
281
     0
  0
CLASS
  1
LONG_TRANSACTION
  2
AcDbLongTransaction
  3
AutoCAD 2000
 90
        0
280
     0
281
     0
  0
CLASS
  1
LWPOLYLINE
  2
AcDbPolyline
  3
AutoCAD 2000
 90
        0
280
     0
281
     1
  0
CLASS
  1
HATCH
  2
AcDbHatch
  3
AutoCAD 2000
 90
        0
280
     0
281
     1
  0
CLASS
  1
XRECORD
  2
AcDbXrecord
  3
AutoCAD 2000
 90
        0
280
     0
281
     0
  0
CLASS
  1
LONG_TRANSACTION
  2
AcDbLongTransaction
  3
AutoCAD 2000
 90
        0
280
     0
281
     0
  0
CLASS
  1
LWPOLYLINE
  2
AcDbPolyline
  3
AutoCAD 2000
 90
        0
280
     0
281
     1
  0
CLASS
  1
HATCH
  2
AcDbHatch
  3
AutoCAD 2000
 90
        0
280
     0
281
     1
  0
CLASS
  1
XRECORD
  2
AcDbXrecord
  3
AutoCAD 2000
 90
        0
280
     0
281
     0
  0
CLASS
  1
LONG_TRANSACTION
  2
AcDbLongTransaction
  3
AutoCAD 2000
 90
        0
280
     0
281
     0
  0
CLASS
  1
LWPOLYLINE
  2
AcDbPolyline
  3
AutoCAD 2000
 90
        0
280
     0
281
     1
  0
CLASS
  1
HATCH
  2
AcDbHatch
  3
AutoCAD 2000
 90
        0
280
     0
281
     1
  0
CLASS
  1
XRECORD
  2
AcDbXrecord
  3
AutoCAD 2000
 90
        0
280
     0
281
     0
  0
CLASS
  1
LONG_TRANSACTION
  2
AcDbLongTransaction
  3
AutoCAD 2000
 90
        0
280
     0
281
     0
  0
CLASS
  1
LWPOLYLINE
  2
AcDbPolyline
  3
AutoCAD 2000
 90
        0
280
     0
281
     1
  0
CLASS
  1
HATCH
  2
AcDbHatch
  3
AutoCAD 2000
 90
        0
280
     0
281
     1
  0
CLASS
  1
XRECORD
  2
AcDbXrecord
  3
AutoCAD 2000
 90
        0
280
     0
281
     0
  0
CLASS
  1
LONG_TRANSACTION
  2
AcDbLongTransaction
  3
AutoCAD 2000
 90
        0
280
     0
281
     0
  0
CLASS
  1
LWPOLYLINE
  2
AcDbPolyline
  3
AutoCAD 2000
 90
        0
280
     0
281
     1
  0
CLASS
  1
HATCH
  2
AcDbHatch
  3
AutoCAD 2000
 90
        0
280
     0
281
     1
  0
CLASS
  1
XRECORD
  2
AcDbXrecord
  3
AutoCAD 2000
 90
        0
280
     0
281
     0
  0
CLASS
  1
LONG_TRANSACTION
  2
AcDbLongTransaction
  3
AutoCAD 2000
 90
        0
280
     0
281
     0
  0
CLASS
  1
LWPOLYLINE
  2
AcDbPolyline
  3
AutoCAD 2000
 90
        0
280
     0
281
     1
  0
CLASS
  1
HATCH
  2
AcDbHatch
  3
AutoCAD 2000
 90
        0
280
     0
281
     1
  0
CLASS
  1
XRECORD
  2
AcDbXrecord
  3
AutoCAD 2000
 90
        0
280
     0
281
     0
  0
CLASS
  1
LONG_TRANSACTION
  2
AcDbLongTransaction
  3
AutoCAD 2000
 90
        0
280
     0
281
     0
  0
CLASS
  1
LWPOLYLINE
  2
AcDbPolyline
  3
AutoCAD 2000
 90
        0
280
     0
281
     1
  0
CLASS
  1
HATCH
  2
AcDbHatch
  3
AutoCAD 2000
 90
        0
280
     0
281
     1
  0
CLASS
  1
XRECORD
  2
AcDbXrecord
  3
AutoCAD 2000
 90
        0
280
     0
281
     0
  0
CLASS
  1
LONG_TRANSACTION
  2
AcDbLongTransaction
  3
AutoCAD 2000
 90
        0
280
     0
281
     0
  0
CLASS
  1
LWPOLYLINE
  2
AcDbPolyline
  3
AutoCAD 2000
 90
        0
280
     0
281
     1
  0
CLASS
  1
HATCH
  2
AcDbHatch
  3
AutoCAD 2000
 90
        0
280
     0
281
     1
  0
CLASS
  1
XRECORD
  2
AcDbXrecord
  3
AutoCAD 2000
 90
        0
280
     0
281
     0
  0
CLASS
  1
LONG_TRANSACTION
  2
AcDbLongTransaction
  3
AutoCAD 2000
 90
        0
280
     0
281
     0
  0
CLASS
  1
LWPOLYLINE
  2
AcDbPolyline
  3
AutoCAD 2000
 90
        0
280
     0
281
     1
  0
CLASS
  1
HATCH
  2
AcDbHatch
  3
AutoCAD 2000
 90
        0
280
     0
281
     1
  0
CLASS
  1
XRECORD
  2
AcDbXrecord
  3
AutoCAD 2000
 90
        0
280
     0
281
     0
  0
CLASS
  1
LONG_TRANSACTION
  2
AcDbLongTransaction
  3
AutoCAD 2000
 90
        0
280
     0
281
     0
  0
CLASS
  1
LWPOLYLINE
  2
AcDbPolyline
  3
AutoCAD 2000
 90
        0
280
     0
281
     1
  0
CLASS
  1
HATCH
  2
AcDbHatch
  3
AutoCAD 2000
 90
        0
280
     0
281
     1
  0
CLASS
  1
XRECORD
  2
AcDbXrecord
  3
AutoCAD 2000
 90
        0
280
     0
281
     0
  0
CLASS
  1
LONG_TRANSACTION
  2
AcDbLongTransaction
  3
AutoCAD 2000
 90
        0
280
     0
281
     0
  0
CLASS
  1
LWPOLYLINE
  2
AcDbPolyline
  3
AutoCAD 2000
 90
        0
280
     0
281
     1
  0
CLASS
  1
HATCH
  2
AcDbHatch
  3
AutoCAD 2000
 90
        0
280
     0
281
     1
  0
CLASS
  1
XRECORD
  2
AcDbXrecord
  3
AutoCAD 2000
 90
        0
280
     0
281
     0
  0
ENDSEC
  0
SECTION
  2
TABLES
  0
TABLE
  2
VPORT
  5
8
330
0
100
AcDbSymbolTable
 70
     2
  0
VPORT
  5
9CC1
330
8
100
AcDbSymbolTableRecord
100
AcDbViewportTableRecord
  2
*ACTIVE
 70
     0
 10
0.0
 20
0.0
 11
1.0
 21
1.0
 12
32.80000215273693
 22
21.05532934706578
 13
0.0
 23
0.0
 14
0.5
 24
0.5
 15
0.5
 25
0.5
 16
0.0
 26
0.0
 36
1.0
 17
0.0
 27
0.0
 37
0.0
 40
42.5076214692558
 41
1.55078125
 42
50.0
 43
0.0
 44
0.0
 50
0.0
 51
0.0
 71
     0
 72
   100
 73
     1
 74
     2
 75
     0
 76
     0
 77
     0
 78
     0
  0
ENDTAB
  0
TABLE
  2
LTYPE
  5
5
330
0
100
AcDbSymbolTable
 70
     6
  0
LTYPE
  5
14
330
5
100
AcDbSymbolTableRecord
100
AcDbLinetypeTableRecord
  2
BYBLOCK
 70
     0
  3

 72
    65
 73
     0
 40
0.0
  0
LTYPE
  5
15
330
5
100
AcDbSymbolTableRecord
100
AcDbLinetypeTableRecord
  2
BYLAYER
 70
     0
  3

 72
    65
 73
     0
 40
0.0
  0
LTYPE
  5
16
330
5
100
AcDbSymbolTableRecord
100
AcDbLinetypeTableRecord
  2
CONTINUOUS
 70
     0
  3
Solid line
 72
    65
 73
     0
 40
0.0
  0
LTYPE
  5
3D
330
5
100
AcDbSymbolTableRecord
100
AcDbLinetypeTableRecord
  2
CENTER2
 70
     0
  3
Center (.5x) ___ _ ___ _ ___ _ ___ _ ___ _ ___
 72
    65
 73
     4
 40
1.125
 49
0.75
 74
     0
 49
-0.125
 74
     0
 49
0.125
 74
     0
 49
-0.125
 74
     0
  0
LTYPE
  5
3E
330
5
100
AcDbSymbolTableRecord
100
AcDbLinetypeTableRecord
  2
DASHDOT2
 70
     0
  3
Dash dot (.5x) _._._._._._._._._._._._._._._.
 72
    65
 73
     4
 40
0.5
 49
0.25
 74
     0
 49
-0.125
 74
     0
 49
0.0
 74
     0
 49
-0.125
 74
     0
  0
LTYPE
  5
3F
330
5
100
AcDbSymbolTableRecord
100
AcDbLinetypeTableRecord
  2
DASHED2
 70
     0
  3
Dashed (.5x) _ _ _ _ _ _ _ _ _ _ _ _ _ _ _ _ _
 72
    65
 73
     2
 40
0.375
 49
0.25
 74
     0
 49
-0.125
 74
     0
  0
LTYPE
  5
40
330
5
100
AcDbSymbolTableRecord
100
AcDbLinetypeTableRecord
  2
HIDDEN2
 70
     0
  3
Hidden (.5x) _ _ _ _ _ _ _ _ _ _ _ _ _ _ _ _ _
 72
    65
 73
     2
 40
0.1875
 49
0.125
 74
     0
 49
-0.0625
 74
     0
  0
LTYPE
  5
41
330
5
100
AcDbSymbolTableRecord
100
AcDbLinetypeTableRecord
  2
PHANTOM2
 70
     0
  3
Phantom (.5x) ___ _ _ ___ _ _ ___ _ _ ___ _ _
 72
    65
 73
     6
 40
1.25
 49
0.625
 74
     0
 49
-0.125
 74
     0
 49
0.125
 74
     0
 49
-0.125
 74
     0
 49
0.125
 74
     0
 49
-0.125
 74
     0
  0
ENDTAB
  0
TABLE
  2
LAYER
  5
2
330
0
100
AcDbSymbolTable
 70
    26
  0
LAYER
  5
10
330
2
100
AcDbSymbolTableRecord
100
AcDbLayerTableRecord
  2
0
 70
     0
 62
     7
  6
CONTINUOUS
  0
LAYER
  5
42
330
2
100
AcDbSymbolTableRecord
100
AcDbLayerTableRecord
  2
BLOCKS
 70
     0
 62
     7
  6
CONTINUOUS
  0
LAYER
  5
43
330
2
100
AcDbSymbolTableRecord
100
AcDbLayerTableRecord
  2
CENTER1
 70
     0
 62
     2
  6
CENTER2
  0
LAYER
  5
44
330
2
100
AcDbSymbolTableRecord
100
AcDbLayerTableRecord
  2
CENTER2
 70
     0
 62
    50
  6
CENTER2
  0
LAYER
  5
45
330
2
100
AcDbSymbolTableRecord
100
AcDbLayerTableRecord
  2
CENTER3
 70
     0
 62
    51
  6
CENTER2
  0
LAYER
  5
46
330
2
100
AcDbSymbolTableRecord
100
AcDbLayerTableRecord
  2
CONSTRUCTION
 70
     0
 62
   241
  6
DASHED2
  0
LAYER
  5
47
330
2
100
AcDbSymbolTableRecord
100
AcDbLayerTableRecord
  2
CONTINUOUS1
 70
     0
 62
     7
  6
CONTINUOUS
  0
LAYER
  5
48
330
2
100
AcDbSymbolTableRecord
100
AcDbLayerTableRecord
  2
CONTINUOUS2
 70
     0
 62
   254
  6
CONTINUOUS
  0
LAYER
  5
49
330
2
100
AcDbSymbolTableRecord
100
AcDbLayerTableRecord
  2
CONTINUOUS3
 70
     0
 62
   253
  6
CONTINUOUS
  0
LAYER
  5
4A
330
2
100
AcDbSymbolTableRecord
100
AcDbLayerTableRecord
  2
DASHDOT1
 70
     0
 62
     1
  6
DASHDOT2
  0
LAYER
  5
4B
330
2
100
AcDbSymbolTableRecord
100
AcDbLayerTableRecord
  2
DASHDOT2
 70
     0
 62
    10
  6
DASHDOT2
  0
LAYER
  5
4C
330
2
100
AcDbSymbolTableRecord
100
AcDbLayerTableRecord
  2
DASHDOT3
 70
     0
 62
    12
  6
DASHDOT2
  0
LAYER
  5
4D
330
2
100
AcDbSymbolTableRecord
100
AcDbLayerTableRecord
  2
DIM
 70
     0
 62
     2
  6
CONTINUOUS
  0
LAYER
  5
4E
330
2
100
AcDbSymbolTableRecord
100
AcDbLayerTableRecord
  2
HIDDEN1
 70
     0
 62
     5
  6
HIDDEN2
  0
LAYER
  5
4F
330
2
100
AcDbSymbolTableRecord
100
AcDbLayerTableRecord
  2
HIDDEN2
 70
     0
 62
   160
  6
HIDDEN2
  0
LAYER
  5
50
330
2
100
AcDbSymbolTableRecord
100
AcDbLayerTableRecord
  2
HIDDEN3
 70
     0
 62
   162
  6
HIDDEN2
  0
LAYER
  5
52
330
2
100
AcDbSymbolTableRecord
100
AcDbLayerTableRecord
  2
PHANTOM1
 70
     0
 62
     6
  6
PHANTOM2
  0
LAYER
  5
53
330
2
100
AcDbSymbolTableRecord
100
AcDbLayerTableRecord
  2
PHANTOM2
 70
     0
 62
   210
  6
PHANTOM2
  0
LAYER
  5
54
330
2
100
AcDbSymbolTableRecord
100
AcDbLayerTableRecord
  2
PHANTOM3
 70
     0
 62
   212
  6
PHANTOM2
  0
LAYER
  5
55
330
2
100
AcDbSymbolTableRecord
100
AcDbLayerTableRecord
  2
TEXT1
 70
     0
 62
     3
  6
CONTINUOUS
  0
LAYER
  5
56
330
2
100
AcDbSymbolTableRecord
100
AcDbLayerTableRecord
  2
TEXT2
 70
     0
 62
    80
  6
CONTINUOUS
  0
LAYER
  5
57
330
2
100
AcDbSymbolTableRecord
100
AcDbLayerTableRecord
  2
TEXT3
 70
     0
 62
    82
  6
CONTINUOUS
  0
LAYER
  5
58
330
2
100
AcDbSymbolTableRecord
100
AcDbLayerTableRecord
  2
TITLEBLOCK
 70
     0
 62
     9
  6
CONTINUOUS
  0
LAYER
  5
59
330
2
100
AcDbSymbolTableRecord
100
AcDbLayerTableRecord
  2
VIEWPORT
 70
     0
 62
     9
  6
CONTINUOUS
  0
LAYER
  5
8AC2
330
2
100
AcDbSymbolTableRecord
100
AcDbLayerTableRecord
  2
MOUNTING
 70
     0
 62
     7
  6
CENTER2
  0
LAYER
  5
8AC5
330
2
100
AcDbSymbolTableRecord
100
AcDbLayerTableRecord
  2
DEFPOINTS
 70
     0
 62
    -4
  6
CONTINUOUS
  0
ENDTAB
  0
TABLE
  2
STYLE
  5
3
330
0
100
AcDbSymbolTable
 70
     4
  0
STYLE
  5
11
330
3
100
AcDbSymbolTableRecord
100
AcDbTextStyleTableRecord
  2
STANDARD
 70
     0
 40
0.0
 41
1.0
 50
0.0
 71
     0
 42
0.2
  3
txt
  4

  0
STYLE
  5
36
330
3
100
AcDbSymbolTableRecord
100
AcDbTextStyleTableRecord
  2
ROMANS
 70
     0
 40
0.0
 41
1.0
 50
0.0
 71
     0
 42
0.2
  3
romans.shx
  4

  0
STYLE
  5
6CC
330
3
100
AcDbSymbolTableRecord
100
AcDbTextStyleTableRecord
  2
M_STANDARD
 70
     0
 40
0.0
 41
0.8
 50
0.0
 71
     0
 42
0.0
  3
MEDUSA.SHX
  4

  0
STYLE
  5
D51
330
3
100
AcDbSymbolTableRecord
100
AcDbTextStyleTableRecord
  2
SIMPLEX
 70
     0
 40
0.0
 41
1.0
 50
0.0
 71
     0
 42
0.25
  3
SIMPLEX.shx
  4

  0
ENDTAB
  0
TABLE
  2
VIEW
  5
6
330
0
100
AcDbSymbolTable
 70
     0
  0
ENDTAB
  0
TABLE
  2
UCS
  5
7
330
0
100
AcDbSymbolTable
 70
     0
  0
ENDTAB
  0
TABLE
  2
APPID
  5
9
330
0
100
AcDbSymbolTable
 70
    11
  0
APPID
  5
12
330
9
100
AcDbSymbolTableRecord
100
AcDbRegAppTableRecord
  2
ACAD
 70
     0
  0
APPID
  5
6B
330
9
100
AcDbSymbolTableRecord
100
AcDbRegAppTableRecord
  2
DCO15
 70
     0
  0
APPID
  5
370
330
9
100
AcDbSymbolTableRecord
100
AcDbRegAppTableRecord
  2
MCAD_NO_VIS
 70
     0
  0
APPID
  5
371
330
9
100
AcDbSymbolTableRecord
100
AcDbRegAppTableRecord
  2
ACAD_TEMP_GRAPHIC
 70
     0
  0
APPID
  5
387
330
9
100
AcDbSymbolTableRecord
100
AcDbRegAppTableRecord
  2
GENIUS_GENSCREG_15
 70
     0
  0
APPID
  5
389
330
9
100
AcDbSymbolTableRecord
100
AcDbRegAppTableRecord
  2
GENIUS_GENODEF_13
 70
     0
  0
APPID
  5
38A
330
9
100
AcDbSymbolTableRecord
100
AcDbRegAppTableRecord
  2
GENIUS_GENOBJ-N-SDF_13
 70
     0
  0
APPID
  5
38B
330
9
100
AcDbSymbolTableRecord
100
AcDbRegAppTableRecord
  2
GENIUS_GENOENT_13
 70
     0
  0
APPID
  5
38C
330
9
100
AcDbSymbolTableRecord
100
AcDbRegAppTableRecord
  2
GENIUS_GENOREF_13
 70
     0
  0
APPID
  5
38D
330
9
100
AcDbSymbolTableRecord
100
AcDbRegAppTableRecord
  2
GENIUS_GENOLIS_13
 70
     0
  0
APPID
  5
6CE
330
9
100
AcDbSymbolTableRecord
100
AcDbRegAppTableRecord
  2
MED_PRIMTYPE
 70
     0
  0
ENDTAB
  0
TABLE
  2
DIMSTYLE
  5
A
330
0
100
AcDbSymbolTable
 70
     1
  0
DIMSTYLE
105
9711
330
A
100
AcDbSymbolTableRecord
100
AcDbDimStyleTableRecord
  2
SCHNEIDERELECTRIC
 70
     0
  3

  4

  5
SEARROW
  6

  7

 40
0.0
 41
0.07
 42
0.0625
 43
0.38
 44
0.0625
 45
0.001
 46
0.0
 47
0.0
 48
0.0
140
0.1
141
0.09
142
0.0
143
25.4
144
1.0
145
0.0
146
1.0
147
0.04
 71
     0
 72
     0
 73
     1
 74
     1
 75
     0
 76
     0
 77
     0
 78
     4
170
     0
171
     1
172
     0
173
     0
174
     0
175
     0
176
   256
177
   256
178
   256
270
     2
271
     2
272
     2
273
     2
274
     1
340
36
275
     0
280
     0
281
     0
282
     0
283
     1
284
     0
285
     0
286
     0
287
     3
288
     0
  0
ENDTAB
  0
TABLE
  2
BLOCK_RECORD
  5
1
330
0
100
AcDbSymbolTable
 70
    25
  0
BLOCK_RECORD
  5
1F
102
{ACAD_XDICTIONARY
360
73
102
}
330
1
100
AcDbSymbolTableRecord
100
AcDbBlockTableRecord
  2
*MODEL_SPACE
  0
BLOCK_RECORD
  5
1B
102
{ACAD_XDICTIONARY
360
75
102
}
330
1
100
AcDbSymbolTableRecord
100
AcDbBlockTableRecord
  2
*PAPER_SPACE
  0
BLOCK_RECORD
  5
783
330
1
100
AcDbSymbolTableRecord
100
AcDbBlockTableRecord
  2
NEWLAYERS
1001
ACAD
1000
DesignCenter Data
1002
{
1070
     1
1070
     1
1002
}
  0
BLOCK_RECORD
  5
841
330
1
100
AcDbSymbolTableRecord
100
AcDbBlockTableRecord
  2
LOGO-PAD
1001
ACAD
1000
DesignCenter Data
1002
{
1070
     1
1070
     1
1002
}
  0
BLOCK_RECORD
  5
AE5
330
1
100
AcDbSymbolTableRecord
100
AcDbBlockTableRecord
  2
TITLE-PAD
1001
ACAD
1000
DesignCenter Data
1002
{
1070
     1
1070
     1
1002
}
  0
BLOCK_RECORD
  5
D52
330
1
100
AcDbSymbolTableRecord
100
AcDbBlockTableRecord
  2
OEM-NOTES
1001
ACAD
1000
DesignCenter Data
1002
{
1070
     1
1070
     1
1002
}
  0
BLOCK_RECORD
  5
896D
330
1
100
AcDbSymbolTableRecord
100
AcDbBlockTableRecord
  2
REF2
  0
BLOCK_RECORD
  5
90F1
330
1
100
AcDbSymbolTableRecord
100
AcDbBlockTableRecord
  2
*D5
  0
BLOCK_RECORD
  5
90FE
330
1
100
AcDbSymbolTableRecord
100
AcDbBlockTableRecord
  2
*D6
  0
BLOCK_RECORD
  5
910B
330
1
100
AcDbSymbolTableRecord
100
AcDbBlockTableRecord
  2
*D7
  0
BLOCK_RECORD
  5
9118
330
1
100
AcDbSymbolTableRecord
100
AcDbBlockTableRecord
  2
*D8
  0
BLOCK_RECORD
  5
9125
330
1
100
AcDbSymbolTableRecord
100
AcDbBlockTableRecord
  2
*D9
  0
BLOCK_RECORD
  5
9131
330
1
100
AcDbSymbolTableRecord
100
AcDbBlockTableRecord
  2
*D10
  0
BLOCK_RECORD
  5
913D
330
1
100
AcDbSymbolTableRecord
100
AcDbBlockTableRecord
  2
*D11
  0
BLOCK_RECORD
  5
9157
330
1
100
AcDbSymbolTableRecord
100
AcDbBlockTableRecord
  2
*D12
  0
BLOCK_RECORD
  5
9164
330
1
100
AcDbSymbolTableRecord
100
AcDbBlockTableRecord
  2
*D13
  0
BLOCK_RECORD
  5
9171
330
1
100
AcDbSymbolTableRecord
100
AcDbBlockTableRecord
  2
*D14
  0
BLOCK_RECORD
  5
917E
330
1
100
AcDbSymbolTableRecord
100
AcDbBlockTableRecord
  2
*D15
  0
BLOCK_RECORD
  5
918B
330
1
100
AcDbSymbolTableRecord
100
AcDbBlockTableRecord
  2
*D16
  0
BLOCK_RECORD
  5
9197
330
1
100
AcDbSymbolTableRecord
100
AcDbBlockTableRecord
  2
*D17
  0
BLOCK_RECORD
  5
91A3
330
1
100
AcDbSymbolTableRecord
100
AcDbBlockTableRecord
  2
*D18
  0
BLOCK_RECORD
  5
91B0
330
1
100
AcDbSymbolTableRecord
100
AcDbBlockTableRecord
  2
*D19
  0
BLOCK_RECORD
  5
91BD
330
1
100
AcDbSymbolTableRecord
100
AcDbBlockTableRecord
  2
*D20
  0
BLOCK_RECORD
  5
91CA
330
1
100
AcDbSymbolTableRecord
100
AcDbBlockTableRecord
  2
*D21
  0
BLOCK_RECORD
  5
94E7
330
1
100
AcDbSymbolTableRecord
100
AcDbBlockTableRecord
  2
*D22
  0
BLOCK_RECORD
  5
94F3
330
1
100
AcDbSymbolTableRecord
100
AcDbBlockTableRecord
  2
*D23
  0
BLOCK_RECORD
  5
970C
330
1
100
AcDbSymbolTableRecord
100
AcDbBlockTableRecord
  2
SEARROW
1001
ACAD
1000
DesignCenter Data
1002
{
1070
     1
1070
     1
1002
}
  0
ENDTAB
  0
ENDSEC
  0
SECTION
  2
BLOCKS
  0
BLOCK
  5
20
330
1F
100
AcDbEntity
  8
0
100
AcDbBlockBegin
  2
*MODEL_SPACE
 70
     0
 10
0.0
 20
0.0
 30
0.0
  3
*MODEL_SPACE
  1

  0
ENDBLK
  5
21
330
1F
100
AcDbEntity
  8
0
100
AcDbBlockEnd
  0
BLOCK
  5
1C
330
1B
100
AcDbEntity
 67
     1
  8
0
100
AcDbBlockBegin
  2
*PAPER_SPACE
 70
     0
 10
0.0
 20
0.0
 30
0.0
  3
*PAPER_SPACE
  1

  0
ENDBLK
  5
1D
330
1B
100
AcDbEntity
 67
     1
  8
0
100
AcDbBlockEnd
  0
BLOCK
  5
79C
330
783
100
AcDbEntity
  8
0
100
AcDbBlockBegin
  2
NEWLAYERS
 70
     0
 10
0.0
 20
0.0
 30
0.0
  3
NEWLAYERS
  1

  0
LINE
  5
784
330
783
100
AcDbEntity
  8
PHANTOM1
100
AcDbLine
 10
0.264152010466205
 20
0.3394492053544127
 30
0.0
 11
0.264152010466205
 21
0.1923545555598593
 31
0.0
  0
LINE
  5
785
330
783
100
AcDbEntity
  8
PHANTOM2
100
AcDbLine
 10
0.3018880119612959
 20
0.3394492053544127
 30
0.0
 11
0.3018880119612959
 21
0.1923545555598593
 31
0.0
  0
LINE
  5
786
330
783
100
AcDbEntity
  8
PHANTOM3
100
AcDbLine
 10
0.3396240134565005
 20
0.3394492053544127
 30
0.0
 11
0.3396240134565005
 21
0.1923545555598593
 31
0.0
  0
LINE
  5
787
330
783
100
AcDbEntity
  8
DASHDOT2
100
AcDbLine
 10
0.0
 20
0.3394492053544127
 30
0.0
 11
0.0
 21
0.1923545555598593
 31
0.0
  0
LINE
  5
788
330
783
100
AcDbEntity
  8
DASHDOT3
100
AcDbLine
 10
0.0377360014952046
 20
0.3394492053544127
 30
0.0
 11
0.0377360014952046
 21
0.1923545555598593
 31
0.0
  0
LINE
  5
789
330
783
100
AcDbEntity
  8
DIM
100
AcDbLine
 10
0.0754720029902956
 20
0.3394492053544127
 30
0.0
 11
0.0754720029902956
 21
0.1923545555598593
 31
0.0
  0
LINE
  5
78A
330
783
100
AcDbEntity
  8
HIDDEN1
100
AcDbLine
 10
0.1132080044855002
 20
0.3394492053544127
 30
0.0
 11
0.1132080044855002
 21
0.1923545555598593
 31
0.0
  0
LINE
  5
78B
330
783
100
AcDbEntity
  8
HIDDEN2
100
AcDbLine
 10
0.1509440059807048
 20
0.3394492053544127
 30
0.0
 11
0.1509440059807048
 21
0.1923545555598593
 31
0.0
  0
LINE
  5
78C
330
783
100
AcDbEntity
  8
HIDDEN3
100
AcDbLine
 10
0.1886800074757957
 20
0.3394492053544127
 30
0.0
 11
0.1886800074757957
 21
0.1923545555598593
 31
0.0
  0
LINE
  5
78D
330
783
100
AcDbEntity
  8
TEXT1
100
AcDbLine
 10
0.0
 20
0.1470946497945533
 30
0.0
 11
0.0
 21
0.0
 31
0.0
  0
LINE
  5
78E
330
783
100
AcDbEntity
  8
TEXT2
100
AcDbLine
 10
0.0377360014952046
 20
0.1470946497945533
 30
0.0
 11
0.0377360014952046
 21
0.0
 31
0.0
  0
LINE
  5
78F
330
783
100
AcDbEntity
  8
TEXT3
100
AcDbLine
 10
0.0754720029902956
 20
0.1470946497945533
 30
0.0
 11
0.0754720029902956
 21
0.0
 31
0.0
  0
LINE
  5
790
330
783
100
AcDbEntity
  8
TITLEBLOCK
100
AcDbLine
 10
0.1132080044855002
 20
0.1470946497945533
 30
0.0
 11
0.1132080044855002
 21
0.0
 31
0.0
  0
LINE
  5
791
330
783
100
AcDbEntity
  8
VIEWPORT
100
AcDbLine
 10
0.1509440059807048
 20
0.1470946497945533
 30
0.0
 11
0.1509440059807048
 21
0.0
 31
0.0
  0
LINE
  5
792
330
783
100
AcDbEntity
  8
BLOCKS
100
AcDbLine
 10
0.0377360014952046
 20
0.5318037609142721
 30
0.0
 11
0.0377360014952046
 21
0.3847091111197187
 31
0.0
  0
LINE
  5
793
330
783
100
AcDbEntity
  8
0
100
AcDbLine
 10
0.0
 20
0.5318037609142721
 30
0.0
 11
0.0
 21
0.3847091111197187
 31
0.0
  0
LINE
  5
794
330
783
100
AcDbEntity
  8
CENTER1
100
AcDbLine
 10
0.0754720029902956
 20
0.5318037609142721
 30
0.0
 11
0.0754720029902956
 21
0.3847091111197187
 31
0.0
  0
LINE
  5
795
330
783
100
AcDbEntity
  8
CENTER2
100
AcDbLine
 10
0.1132080044855002
 20
0.5318037609142721
 30
0.0
 11
0.1132080044855002
 21
0.3847091111197187
 31
0.0
  0
LINE
  5
796
330
783
100
AcDbEntity
  8
CENTER3
100
AcDbLine
 10
0.1509440059807048
 20
0.5318037609142721
 30
0.0
 11
0.1509440059807048
 21
0.3847091111197187
 31
0.0
  0
LINE
  5
797
330
783
100
AcDbEntity
  8
CONSTRUCTION
100
AcDbLine
 10
0.1886800074757957
 20
0.5318037609142721
 30
0.0
 11
0.1886800074757957
 21
0.3847091111197187
 31
0.0
  0
LINE
  5
798
330
783
100
AcDbEntity
  8
CONTINUOUS1
100
AcDbLine
 10
0.2264160089710003
 20
0.5318037609142721
 30
0.0
 11
0.2264160089710003
 21
0.3847091111197187
 31
0.0
  0
LINE
  5
799
330
783
100
AcDbEntity
  8
CONTINUOUS2
100
AcDbLine
 10
0.264152010466205
 20
0.5318037609142721
 30
0.0
 11
0.264152010466205
 21
0.3847091111197187
 31
0.0
  0
LINE
  5
79A
330
783
100
AcDbEntity
  8
CONTINUOUS3
100
AcDbLine
 10
0.3018880119612959
 20
0.5318037609142721
 30
0.0
 11
0.3018880119612959
 21
0.3847091111197187
 31
0.0
  0
LINE
  5
79B
330
783
100
AcDbEntity
  8
DASHDOT1
100
AcDbLine
 10
0.3396240134565005
 20
0.5318037609142721
 30
0.0
 11
0.3396240134565005
 21
0.3847091111197187
 31
0.0
  0
ENDBLK
  5
79D
330
783
100
AcDbEntity
  8
0
100
AcDbBlockEnd
  0
BLOCK
  5
852
330
841
100
AcDbEntity
  8
0
100
AcDbBlockBegin
  2
LOGO-PAD
 70
     0
 10
0.0
 20
0.0
 30
0.0
  3
LOGO-PAD
  1

  0
HATCH
  5
842
330
841
100
AcDbEntity
  8
TITLEBLOCK
 62
     0
100
AcDbHatch
 10
0.0
 20
0.0
 30
0.0
210
0.0
220
0.0
230
1.0
  2
SOLID
 70
     1
 71
     0
 91
        2
 92
        1
 93
       11
 72
     2
 10
1.203771209334867
 20
0.3650136751459491
 40
0.021562648149145
 50
90.00000747299615
 51
179.9997683268519
 73
     1
 72
     1
 10
1.182208561185898
 20
0.3650137623336376
 11
1.182208392435807
 21
0.2795138227272444
 72
     2
 10
1.203771079023129
 20
0.2795136821032751
 40
0.0215626865877801
 50
179.9996263378447
 51
269.9998903896797
 73
     1
 72
     1
 10
1.203771037772394
 20
0.2579509955155343
 11
1.330521045577125
 21
0.2579511736405264
 72
     2
 10
1.330521265257171
 20
0.2795136382789064
 40
0.021562464639499
 50
269.9994162661957
 51
311.7040125634689
 73
     1
 72
     1
 10
1.344866398698837
 20
0.2634152834601535
 11
1.352083334663557
 21
0.2579511736405264
 72
     1
 10
1.352083334663557
 20
0.2579511736405264
 11
1.365099386916806
 21
0.2751416404960081
 72
     1
 10
1.365099386916806
 20
0.2751416404960081
 11
1.352083522163621
 21
0.284997066934386
 72
     1
 10
1.352083522163621
 20
0.284997066934386
 11
1.352083690913712
 21
0.3650136723335662
 72
     2
 10
1.330521042764654
 20
0.3650136751460369
 40
0.0215626481490576
 50
359.9999925267666
 51
449.9999925267678
 73
     1
 72
     1
 10
1.330521045577125
 20
0.3865763232950938
 11
1.203771206522485
 21
0.3865763232950938
 97
        0
 92
       16
 93
       10
 72
     2
 10
1.21455271481628
 20
0.3542325202904111
 40
0.0107811520434708
 50
90.00043844291294
 51
179.9999701074038
 73
     1
 72
     1
 10
1.203771562772811
 20
0.3542325259151993
 11
1.203771562772811
 21
0.2902950591455122
 72
     2
 10
1.214552849813946
 20
0.2902948416431456
 40
0.0107812870433294
 50
179.9988441113203
 51
269.9988441346395
 73
     1
 72
     1
 10
1.214552632315967
 20
0.2795135546020104
 11
1.323606134809704
 21
0.2795135546020104
 72
     1
 10
1.323606134809704
 20
0.2795135546020104
 11
1.280867956889135
 21
0.311873265117333
 72
     1
 10
1.280867956889135
 20
0.311873265117333
 11
1.293884009142384
 21
0.3290635557226322
 72
     1
 10
1.293884009142384
 20
0.3290635557226322
 11
1.330521045577125
 21
0.3013240413506308
 72
     1
 10
1.330521045577125
 20
0.3013240413506308
 11
1.330521045577125
 21
0.3542324377902786
 72
     2
 10
1.319739809158772
 20
0.3542324359152127
 40
0.0107812364183532
 50
0.0000099648460607
 51
90.00000996484372
 73
     1
 72
     1
 10
1.319739807283706
 20
0.3650136723335662
 11
1.214552632315967
 21
0.3650136723335662
 97
        0
 75
     0
 76
     1
 98
        1
 10
-7.279586802153931
 20
-0.4081141432880261
  0
HATCH
  5
843
330
841
100
AcDbEntity
  8
TITLEBLOCK
 62
     0
100
AcDbHatch
 10
0.0
 20
0.0
 30
0.0
210
0.0
220
0.0
230
1.0
  2
SOLID
 70
     1
 71
     0
 91
        1
 92
        1
 93
        4
 72
     1
 10
3.703333445713536
 20
0.1990762889281312
 11
1.018147379006204
 21
0.1990762889281312
 72
     1
 10
1.018147379006204
 20
0.1990762889281312
 11
1.018147379006204
 21
0.220706173683743
 72
     1
 10
1.018147379006204
 20
0.220706173683743
 11
3.703333445713536
 21
0.220706173683743
 72
     1
 10
3.703333445713536
 20
0.220706173683743
 11
3.703333445713536
 21
0.1990762889281312
 97
        0
 75
     0
 76
     1
 98
        1
 10
-7.279586802153931
 20
-0.4081141432880261
  0
HATCH
  5
844
330
841
100
AcDbEntity
  8
TITLEBLOCK
 62
     0
100
AcDbHatch
 10
0.0
 20
0.0
 30
0.0
210
0.0
220
0.0
230
1.0
  2
SOLID
 70
     1
 71
     0
 91
        4
 92
        1
 93
        4
 72
     1
 10
0.8306472632318495
 20
0.4814782717956759
 11
0.4556470182475714
 21
0.4814782717956759
 72
     1
 10
0.4556470182475714
 20
0.4814782717956759
 11
0.4556470182475714
 21
0.1064783844396073
 72
     1
 10
0.4556470182475714
 20
0.1064783844396073
 11
0.8306472632318495
 21
0.1064783844396073
 72
     1
 10
0.8306472632318495
 20
0.1064783844396073
 11
0.8306472632318495
 21
0.4814782717956759
 97
        0
 92
        0
 93
       10
 72
     1
 10
0.7368972019857374
 20
0.4177282462416896
 11
0.5193971779121789
 21
0.4177282462416896
 72
     1
 10
0.5193971779121789
 20
0.4177282462416896
 11
0.5193971779121789
 21
0.37460312508514
 72
     1
 10
0.5193971779121789
 20
0.37460312508514
 11
0.5531473465883146
 21
0.37460312508514
 72
     1
 10
0.5531473465883146
 20
0.37460312508514
 11
0.5531473465883146
 21
0.2133535311501431
 72
     1
 10
0.5531473465883146
 20
0.2133535311501431
 11
0.5193971779121789
 21
0.2133535311501431
 72
     1
 10
0.5193971779121789
 20
0.2133535311501431
 11
0.5193971779121789
 21
0.1702282758831428
 72
     1
 10
0.5193971779121789
 20
0.1702282758831428
 11
0.7368972019857374
 21
0.1702282758831428
 72
     1
 10
0.7368972019857374
 20
0.1702282758831428
 11
0.7668970141602749
 21
0.2002283115750982
 72
     1
 10
0.7668970141602749
 20
0.2002283115750982
 11
0.7668970141602749
 21
0.3877281658462506
 72
     1
 10
0.7668970141602749
 20
0.3877281658462506
 11
0.7368972019857374
 21
0.4177282462416896
 97
        0
 92
       16
 93
        4
 72
     1
 10
0.7987720492890098
 20
0.4496031025563197
 11
0.4875220533764768
 21
0.4496031025563197
 72
     1
 10
0.4875220533764768
 20
0.4496031025563197
 11
0.4875220533764768
 21
0.1383533301613751
 72
     1
 10
0.4875220533764768
 20
0.1383533301613751
 11
0.7987720492890098
 21
0.1383533301613751
 72
     1
 10
0.7987720492890098
 20
0.1383533301613751
 11
0.7987720492890098
 21
0.4496031025563197
 97
        0
 92
        0
 93
        4
 72
     1
 10
0.5962724677448641
 20
0.37460312508514
 11
0.5962724677448641
 21
0.2133535311501431
 72
     1
 10
0.5962724677448641
 20
0.2133535311501431
 11
0.7237719824106926
 21
0.2133535311501431
 72
     1
 10
0.7237719824106926
 20
0.2133535311501431
 11
0.7237719824106926
 21
0.37460312508514
 72
     1
 10
0.7237719824106926
 20
0.37460312508514
 11
0.5962724677448641
 21
0.37460312508514
 97
        0
 75
     0
 76
     1
 98
        1
 10
-7.279586802153931
 20
-0.313212194787444
  0
HATCH
  5
845
330
841
100
AcDbEntity
  8
TITLEBLOCK
 62
     0
100
AcDbHatch
 10
0.0
 20
0.0
 30
0.0
210
0.0
220
0.0
230
1.0
  2
SOLID
 70
     1
 71
     0
 91
        1
 92
        1
 93
       26
 72
     1
 10
1.050490193885575
 20
0.3650136723335662
 11
1.138990457951802
 21
0.3650136723335662
 72
     2
 10
1.138990281703138
 20
0.3542326140418093
 40
0.0107810582931976
 50
270.0009366709926
 51
360.0009366862294
 73
     0
 72
     1
 10
1.149771339994895
 20
0.3542324377902786
 11
1.171333797831589
 21
0.3542324377902786
 72
     1
 10
1.171333797831589
 20
0.3542324377902786
 11
1.171333797831589
 21
0.3650136723335662
 72
     2
 10
1.149771243432702
 20
0.365013768896207
 40
0.0215625543991033
 50
359.9997434148255
 51
449.9997434160159
 73
     1
 72
     1
 10
1.149771339994895
 20
0.3865763232950938
 11
1.039708786842066
 21
0.3865763232950938
 72
     2
 10
1.039709408398413
 20
0.3650142939052909
 40
0.0215620293987615
 50
90.00165163282177
 51
180.0014125206716
 73
     1
 72
     1
 10
1.018147379006204
 20
0.3650137623336376
 11
1.018147379006204
 21
0.3334199129435318
 72
     2
 10
1.039709363397143
 20
0.3334193363730153
 40
0.0215619843986475
 50
179.9984679027414
 51
269.9984679437668
 73
     1
 72
     1
 10
1.039708786842066
 20
0.3118573519820755
 11
1.138990457951802
 21
0.311857620107139
 72
     2
 10
1.138990280765661
 20
0.3010765608779043
 40
0.0107810592306907
 50
270.0009416531222
 51
360.0009416684906
 73
     0
 72
     1
 10
1.149771339994895
 20
0.3010763836888712
 11
1.149771508744986
 21
0.2902949691454408
 72
     2
 10
1.138990231076649
 20
0.2902948322713164
 40
0.0107812776692067
 50
359.9992725992319
 51
449.9997907459082
 73
     0
 72
     1
 10
1.138990270451738
 20
0.279513554602181
 11
1.050490193885575
 21
0.2795135546020104
 72
     2
 10
1.05049014888543
 20
0.2902951041454384
 40
0.0107815495435218
 50
89.99976085826782
 51
179.9997608594354
 73
     0
 72
     1
 10
1.039708599342002
 20
0.2902950591455122
 11
1.018147379006204
 21
0.2902950591455122
 72
     1
 10
1.018147379006204
 20
0.2902950591455122
 11
1.018147379006204
 21
0.2795138227272444
 72
     2
 10
1.039709273392517
 20
0.2795130680345569
 40
0.0215618943995203
 50
179.9979945776083
 51
269.9987071039827
 73
     1
 72
     1
 10
1.039708786842066
 20
0.2579511736405264
 11
1.149771339994895
 21
0.2579511736405264
 72
     2
 10
1.149771378432784
 20
0.2795135930396681
 40
0.0215624193991759
 50
269.9998978626289
 51
359.9996636967671
 73
     1
 72
     1
 10
1.171333797831589
 20
0.2795134664769192
 11
1.171333797831589
 21
0.3114825579869829
 72
     2
 10
1.149771333432362
 20
0.3114825645494808
 40
0.0215624643992288
 50
359.9999825621309
 51
449.9999825620359
 73
     1
 72
     1
 10
1.149771339994895
 20
0.3330450289487088
 11
1.050490193885575
 21
0.3330447608234748
 72
     2
 10
1.050490103885701
 20
0.3438262653667981
 40
0.0107815045436989
 50
89.99952171675776
 51
179.9999900368059
 73
     0
 72
     1
 10
1.039708599342002
 20
0.3438262634919964
 11
1.039708786842066
 21
0.3542325259151993
 72
     2
 10
1.050490107634269
 20
0.3542323515402983
 40
0.0107813207936133
 50
180.0009266903443
 51
270.0004583701697
 73
     0
 97
        0
 75
     0
 76
     1
 98
        1
 10
-7.279586802153931
 20
-0.4081141432880261
  0
HATCH
  5
846
330
841
100
AcDbEntity
  8
TITLEBLOCK
 62
     0
100
AcDbHatch
 10
0.0
 20
0.0
 30
0.0
210
0.0
220
0.0
230
1.0
  2
SOLID
 70
     1
 71
     0
 91
        1
 92
        1
 93
       18
 72
     2
 10
2.471082802883087
 20
0.3650137595211706
 40
0.021562563774099
 50
180.0000074732525
 51
269.9997683261728
 73
     0
 72
     1
 10
2.471082715695484
 20
0.3865763232950938
 11
2.586957622645552
 21
0.3865763232950938
 72
     2
 10
2.586957713583391
 20
0.3650135813961111
 40
0.0215627418991744
 50
269.9997583630888
 51
359.999758364108
 73
     0
 72
     1
 10
2.608520455482373
 20
0.3650136723335662
 11
2.608520455482373
 21
0.3542324377902786
 72
     1
 10
2.608520455482373
 20
0.3542324377902786
 11
2.586957622645552
 21
0.3542324377902786
 72
     2
 10
2.576176208103625
 20
0.3542322577916381
 40
0.0107814145434302
 50
0.0009565685814303
 51
90.00095658455173
 73
     1
 72
     1
 10
2.576176028101979
 20
0.3650136723335662
 11
2.481864141488966
 21
0.3650136723335662
 72
     2
 10
2.481864045863444
 20
0.3542323421656055
 40
0.0107813301683848
 50
89.99949181235312
 51
179.9994918168631
 73
     1
 72
     1
 10
2.471082715695484
 20
0.3542324377902786
 11
2.471082715695484
 21
0.2902950591455122
 72
     2
 10
2.481864090863785
 20
0.2902951097704553
 40
0.0107813751684203
 50
180.0002690376259
 51
270.0002690388874
 73
     1
 72
     1
 10
2.481864141488966
 20
0.2795137346021532
 11
2.576176028101979
 21
0.2795135546020104
 72
     2
 10
2.576176073102679
 20
0.2902951041456356
 40
0.010781549543719
 50
269.9997608553225
 51
359.9992825760937
 73
     1
 72
     1
 10
2.586957622645552
 20
0.2902949691454408
 11
2.608520455482373
 21
0.2902950591455122
 72
     1
 10
2.608520455482373
 20
0.2902950591455122
 11
2.608520099232048
 21
0.2795134664769192
 72
     2
 10
2.586957670458414
 20
0.2795136024145366
 40
0.0215624287740632
 50
0.0003612140281018
 51
90.00012704854281
 73
     0
 72
     1
 10
2.586957622645552
 20
0.2579511736405264
 11
2.471082715695484
 21
0.2579511736405264
 72
     2
 10
2.471082667882924
 20
0.2795136024144634
 40
0.02156242877399
 50
89.99987295225965
 51
179.9998729525419
 73
     0
 72
     1
 10
2.449520239108988
 20
0.2795135546020104
 11
2.449520239108988
 21
0.3650137623336376
 97
        0
 75
     0
 76
     1
 98
        1
 10
-7.279586802153931
 20
-0.4081141432880261
  0
HATCH
  5
847
330
841
100
AcDbEntity
  8
TITLEBLOCK
 62
     0
100
AcDbHatch
 10
0.0
 20
0.0
 30
0.0
210
0.0
220
0.0
230
1.0
  2
SOLID
 70
     1
 71
     0
 91
        1
 92
        1
 93
       12
 72
     1
 10
2.026708344139745
 20
0.3865765014202565
 11
1.890208311215626
 21
0.3865765014202565
 72
     1
 10
1.890208311215626
 20
0.3865765014202565
 11
1.890208311215626
 21
0.2579511736405264
 72
     1
 10
1.890208311215626
 20
0.2579511736405264
 11
2.026708344139745
 21
0.2579511736405264
 72
     1
 10
2.026708344139745
 20
0.2579511736405264
 11
2.026708344139745
 21
0.2795135546020104
 72
     1
 10
2.026708344139745
 20
0.2795135546020104
 11
1.911770600302059
 21
0.2795135546020104
 72
     1
 10
1.911770600302059
 20
0.2795135546020104
 11
1.911770600302059
 21
0.3114825579869829
 72
     1
 10
1.911770600302059
 20
0.3114825579869829
 11
2.026708344139745
 21
0.3114825579869829
 72
     1
 10
2.026708344139745
 20
0.3114825579869829
 11
2.026708344139745
 21
0.333044848948566
 72
     1
 10
2.026708344139745
 20
0.333044848948566
 11
1.911770600302059
 21
0.333044848948566
 72
     1
 10
1.911770600302059
 20
0.333044848948566
 11
1.911770600302059
 21
0.3650136723335662
 72
     1
 10
1.911770600302059
 20
0.3650136723335662
 11
2.026708344139745
 21
0.3650136723335662
 72
     1
 10
2.026708344139745
 20
0.3650136723335662
 11
2.026708344139745
 21
0.3865765014202565
 97
        0
 75
     0
 76
     1
 98
        1
 10
-7.279586802153931
 20
-0.4081141432880261
  0
HATCH
  5
848
330
841
100
AcDbEntity
  8
TITLEBLOCK
 62
     0
100
AcDbHatch
 10
0.0
 20
0.0
 30
0.0
210
0.0
220
0.0
230
1.0
  2
SOLID
 70
     1
 71
     0
 91
        2
 92
        1
 93
        8
 72
     1
 10
1.614830743814064
 20
0.3865765014202565
 11
1.531145595393223
 21
0.2579509955155343
 72
     1
 10
1.531145595393223
 20
0.2579509955155343
 11
1.556870855949323
 21
0.2579511736405264
 72
     1
 10
1.556870855949323
 20
0.2579511736405264
 11
1.570898996363819
 21
0.2795135546020104
 72
     1
 10
1.570898996363819
 20
0.2795135546020104
 11
1.673830432358027
 21
0.2795135546020104
 72
     1
 10
1.673830432358027
 20
0.2795135546020104
 11
1.687858760272586
 21
0.2579514417655899
 72
     1
 10
1.687858760272586
 20
0.2579514417655899
 11
1.713583120827973
 21
0.2579514417655899
 72
     1
 10
1.713583120827973
 20
0.2579514417655899
 11
1.629898141157394
 21
0.3865765014202565
 72
     1
 10
1.629898141157394
 20
0.3865765014202565
 11
1.614830743814064
 21
0.3865765014202565
 97
        0
 92
       16
 93
        3
 72
     1
 10
1.622364536235675
 20
0.3586169575295115
 11
1.659801223192726
 21
0.3010763836888712
 72
     1
 10
1.659801223192726
 20
0.3010763836888712
 11
1.584928205528949
 21
0.3010762055637086
 72
     1
 10
1.584928205528949
 20
0.3010762055637086
 11
1.622364348735612
 21
0.3586165994043766
 97
        0
 75
     0
 76
     1
 98
        1
 10
-7.279586802153931
 20
-0.4081141432880261
  0
HATCH
  5
849
330
841
100
AcDbEntity
  8
TITLEBLOCK
 62
     0
100
AcDbHatch
 10
0.0
 20
0.0
 30
0.0
210
0.0
220
0.0
230
1.0
  2
SOLID
 70
     1
 71
     0
 91
        1
 92
        1
 93
       12
 72
     1
 10
1.392021104504447
 20
0.3865765014202565
 11
1.370458815418015
 21
0.3865765014202565
 72
     1
 10
1.370458815418015
 20
0.3865765014202565
 11
1.370458627917951
 21
0.2795138227272444
 72
     2
 10
1.39202114575308
 20
0.2795135133528436
 40
0.0215625178373483
 50
179.999177932392
 51
269.9998903944058
 73
     1
 72
     1
 10
1.392021104504447
 20
0.2579509955155343
 11
1.509583287556818
 21
0.2579511736405264
 72
     2
 10
1.509583335369764
 20
0.2795136024146219
 40
0.0215624287741484
 50
269.9998729512306
 51
359.9996387857453
 73
     1
 72
     1
 10
1.531145764143484
 20
0.2795134664769192
 11
1.531146120393639
 21
0.3865765014202565
 72
     1
 10
1.531146120393639
 20
0.3865765014202565
 11
1.509583287556818
 21
0.3865765014202565
 72
     1
 10
1.509583287556818
 20
0.3865765014202565
 11
1.509583287556818
 21
0.2902950591455122
 72
     2
 10
1.498801916139266
 20
0.290294926019563
 40
0.0107813714183743
 50
359.9992925246018
 51
449.9992925333428
 73
     0
 72
     1
 10
1.49880204926357
 20
0.2795135546020104
 11
1.402802342797695
 21
0.2795135546020104
 72
     2
 10
1.402802382172719
 20
0.2902950197703451
 40
0.0107814651684066
 50
90.00020925010334
 51
180.0002092508632
 73
     0
 72
     1
 10
1.392020917004384
 20
0.2902950591455122
 11
1.392021104504447
 21
0.3865765014202565
 97
        0
 75
     0
 76
     1
 98
        1
 10
-7.279586802153931
 20
-0.4081141432880261
  0
HATCH
  5
84A
330
841
100
AcDbEntity
  8
TITLEBLOCK
 62
     0
100
AcDbHatch
 10
0.0
 20
0.0
 30
0.0
210
0.0
220
0.0
230
1.0
  2
SOLID
 70
     1
 71
     0
 91
        2
 92
        1
 93
       13
 72
     2
 10
1.851958289039648
 20
0.2899198104641797
 40
0.0215625675244637
 50
0.0002565813902296
 51
90.00070498518821
 73
     1
 72
     2
 10
1.851958289040149
 20
0.3330449455099156
 40
0.0215625675245372
 50
269.9992950134807
 51
359.9995092535441
 73
     1
 72
     1
 10
1.873520856563896
 20
0.3330447608234748
 11
1.873520856563896
 21
0.3650136657708798
 72
     2
 10
1.851957894958188
 20
0.3650135398162329
 40
0.0215629616060761
 50
0.0003346789653151
 51
89.99920945081219
 73
     1
 72
     1
 10
1.851958192477166
 20
0.3865765014202565
 11
1.720333350237904
 21
0.3865765014202565
 72
     1
 10
1.720333350237904
 20
0.3865765014202565
 11
1.720333350237904
 21
0.2579511736405264
 72
     1
 10
1.720333350237904
 20
0.2579511736405264
 11
1.741896183074725
 21
0.2579511736405264
 72
     1
 10
1.741896183074725
 20
0.2579511736405264
 11
1.741896183074725
 21
0.3007013215688856
 72
     1
 10
1.741896183074725
 20
0.3007013215688856
 11
1.841176785433827
 21
0.3007013215688856
 72
     2
 10
1.841176693559081
 20
0.2899201789011263
 40
0.0107811426681508
 50
270.0004882631974
 51
360.0004882673548
 73
     0
 72
     1
 10
1.851957836226841
 20
0.289920087025598
 11
1.851958192477166
 21
0.2579511736405264
 72
     1
 10
1.851958192477166
 20
0.2579511736405264
 11
1.873520856563896
 21
0.2579511736405264
 72
     1
 10
1.873520856563896
 20
0.2579511736405264
 11
1.873520856563896
 21
0.2899199070254552
 97
        0
 92
       16
 93
        6
 72
     2
 10
1.841176693559081
 20
0.3542325296658069
 40
0.0107811426681508
 50
270.0004882631974
 51
360.0004882673548
 73
     0
 72
     1
 10
1.851957836226841
 20
0.3542324377902786
 11
1.851958192477166
 21
0.333044848948566
 72
     2
 10
1.841176871684197
 20
0.333044935198247
 40
0.0107813207933138
 50
0.0004583615308307
 51
90.00045836519477
 73
     0
 72
     1
 10
1.841176785433827
 20
0.3222636144052784
 11
1.741896183074725
 21
0.3222638825303419
 72
     1
 10
1.741896183074725
 20
0.3222638825303419
 11
1.741896183074725
 21
0.3650136723335662
 72
     1
 10
1.741896183074725
 20
0.3650136723335662
 11
1.841176785433827
 21
0.3650136723335662
 97
        0
 75
     0
 76
     1
 98
        1
 10
-7.279586802153931
 20
-0.4081141432880261
  0
HATCH
  5
84B
330
841
100
AcDbEntity
  8
TITLEBLOCK
 62
     0
100
AcDbHatch
 10
0.0
 20
0.0
 30
0.0
210
0.0
220
0.0
230
1.0
  2
SOLID
 70
     1
 71
     0
 91
        2
 92
        1
 93
       10
 72
     1
 10
2.168832611988261
 20
0.3650136723335662
 11
2.168832611988261
 21
0.2795135546021492
 72
     1
 10
2.168832611988261
 20
0.2795135546021492
 11
2.148020079641632
 21
0.2795135546021492
 72
     1
 10
2.148020079641632
 20
0.2795135546021492
 11
2.148020079641632
 21
0.2579511736406499
 72
     1
 10
2.148020079641632
 20
0.2579511736406499
 11
2.314895263659607
 21
0.2579511736406499
 72
     2
 10
2.314895311472477
 20
0.2795136024147182
 40
0.0215624287741214
 50
269.9998729514336
 51
359.9996387859474
 73
     1
 72
     1
 10
2.336457740246171
 20
0.2795134664770916
 11
2.336457740246171
 21
0.3650136723335662
 72
     2
 10
2.314895087410214
 20
0.3650138485844006
 40
0.0215626528366775
 50
359.9995316703829
 51
449.999531674211
 73
     1
 72
     1
 10
2.314895263659607
 20
0.386576501420358
 11
2.148020079641632
 21
0.386576501420358
 72
     1
 10
2.148020079641632
 20
0.386576501420358
 11
2.148020079641632
 21
0.3650136723335662
 72
     1
 10
2.148020079641632
 20
0.3650136723335662
 11
2.168832611988261
 21
0.3650136723335662
 97
        0
 92
       16
 93
        6
 72
     1
 10
2.190395257324933
 20
0.3650136723335662
 11
2.304113856616218
 21
0.3650136723335662
 72
     2
 10
2.304113942866619
 20
0.3542323515405775
 40
0.0107813207933337
 50
269.9995416346447
 51
359.9995416383139
 73
     0
 72
     1
 10
2.314895263659607
 20
0.3542324377902877
 11
2.314895263659607
 21
0.2902949691455452
 72
     2
 10
2.304113807866077
 20
0.2902950103956483
 40
0.0107814557936096
 50
0.0002192149982456
 51
89.99974092762393
 73
     0
 72
     1
 10
2.304113856616218
 20
0.2795135546021492
 11
2.190395257324933
 21
0.2795135546021492
 72
     1
 10
2.190395257324933
 20
0.2795135546021492
 11
2.190395257324933
 21
0.3650136723335662
 97
        0
 75
     0
 76
     1
 98
        1
 10
-7.279586802153931
 20
-0.4081141432880261
  0
HATCH
  5
84C
330
841
100
AcDbEntity
  8
TITLEBLOCK
 62
     0
100
AcDbHatch
 10
0.0
 20
0.0
 30
0.0
210
0.0
220
0.0
230
1.0
  2
SOLID
 70
     1
 71
     0
 91
        2
 92
        1
 93
        8
 72
     1
 10
3.241392303571654
 20
0.3865765014202565
 11
3.157707226761072
 21
0.2579509955155343
 72
     1
 10
3.157707226761072
 20
0.2579509955155343
 11
3.183432299816939
 21
0.2579511736405264
 72
     1
 10
3.183432299816939
 20
0.2579511736405264
 11
3.197460983981823
 21
0.2795133764768478
 72
     1
 10
3.197460983981823
 20
0.2795133764768478
 11
3.30039082622498
 21
0.2795135546020104
 72
     1
 10
3.30039082622498
 20
0.2795135546020104
 11
3.314419679139785
 21
0.2579514417655899
 72
     1
 10
3.314419679139785
 20
0.2579514417655899
 11
3.340144583445731
 21
0.2579511736405264
 72
     1
 10
3.340144583445731
 20
0.2579511736405264
 11
3.256459603774981
 21
0.3865765014202565
 72
     1
 10
3.256459603774981
 20
0.3865765014202565
 11
3.241392303571654
 21
0.3865765014202565
 97
        0
 92
       16
 93
        3
 72
     1
 10
3.248925740352245
 20
0.358616778466603
 11
3.211489480646473
 21
0.3010762055637086
 72
     1
 10
3.211489480646473
 20
0.3010762055637086
 11
3.28636178580994
 21
0.3010763836888712
 72
     1
 10
3.28636178580994
 20
0.3010763836888712
 11
3.248925740352245
 21
0.358616778466603
 97
        0
 75
     0
 76
     1
 98
        1
 10
-7.279586802153931
 20
-0.4081141432880261
  0
HATCH
  5
84D
330
841
100
AcDbEntity
  8
TITLEBLOCK
 62
     0
100
AcDbHatch
 10
0.0
 20
0.0
 30
0.0
210
0.0
220
0.0
230
1.0
  2
SOLID
 70
     1
 71
     0
 91
        1
 92
        1
 93
       13
 72
     1
 10
2.838488736968525
 20
0.3865765014202565
 11
2.806145209588674
 21
0.3865765014202565
 72
     1
 10
2.806145209588674
 20
0.3865765014202565
 11
2.806145209588674
 21
0.2579511736405264
 72
     1
 10
2.806145209588674
 20
0.2579511736405264
 11
2.827707667425368
 21
0.2579511736405264
 72
     1
 10
2.827707667425368
 20
0.2579511736405264
 11
2.827707667425368
 21
0.3640633654626753
 72
     1
 10
2.827707667425368
 20
0.3640633654626753
 11
2.899718420719221
 21
0.2579514417655899
 72
     1
 10
2.899718420719221
 20
0.2579514417655899
 11
2.922570860648686
 21
0.2579511736405264
 72
     1
 10
2.922570860648686
 20
0.2579511736405264
 11
2.994582138942956
 21
0.3640642598382782
 72
     1
 10
2.994582138942956
 20
0.3640642598382782
 11
2.994582138942956
 21
0.2579511736405264
 72
     1
 10
2.994582138942956
 20
0.2579511736405264
 11
3.016144596779479
 21
0.2579511736405264
 72
     1
 10
3.016144596779479
 20
0.2579511736405264
 11
3.016144596779479
 21
0.3865765014202565
 72
     1
 10
3.016144596779479
 20
0.3865765014202565
 11
2.983801425649954
 21
0.3865765014202565
 72
     1
 10
2.983801425649954
 20
0.3865765014202565
 11
2.911144640683954
 21
0.2795135546020104
 72
     1
 10
2.911144640683954
 20
0.2795135546020104
 11
2.838488380718199
 21
0.3865765014202565
 97
        0
 75
     0
 76
     1
 98
        1
 10
-7.279586802153931
 20
-0.4081141432880261
  0
HATCH
  5
84E
330
841
100
AcDbEntity
  8
TITLEBLOCK
 62
     0
100
AcDbHatch
 10
0.0
 20
0.0
 30
0.0
210
0.0
220
0.0
230
1.0
  2
SOLID
 70
     1
 71
     0
 91
        2
 92
        1
 93
        8
 72
     1
 10
2.79358243888161
 20
0.2795134664769192
 11
2.793582795131936
 21
0.3650136723335662
 72
     2
 10
2.772020240733041
 20
0.3650137688961994
 40
0.0215625543991104
 50
359.9997434148459
 51
449.999743415997
 73
     1
 72
     1
 10
2.772020337295241
 20
0.3865763232950938
 11
2.640957676673206
 21
0.3865763232950938
 72
     2
 10
2.640957763860811
 20
0.3650137595211699
 40
0.0215625637741002
 50
90.00023167383188
 51
179.9999925267453
 73
     1
 72
     1
 10
2.61939520008671
 20
0.3650137623336376
 11
2.61939520008671
 21
0.2795135546020104
 72
     2
 10
2.640957628860649
 20
0.2795136024144641
 40
0.0215624287739915
 50
180.0001270474597
 51
270.0001270477355
 73
     1
 72
     1
 10
2.640957676673206
 20
0.2579511736405264
 11
2.772020337295241
 21
0.2579511736405264
 72
     2
 10
2.772020197607671
 20
0.2795134149140743
 40
0.0215622412740004
 50
270.000371181646
 51
360.000137014207
 73
     1
 97
        0
 92
       16
 93
        8
 72
     2
 10
2.651738913091431
 20
0.3542324359149649
 40
0.0107812364186015
 50
89.9999900344766
 51
179.999521702949
 73
     1
 72
     1
 10
2.640957676673206
 20
0.3542325259151993
 11
2.640957676673206
 21
0.2902950591455122
 72
     2
 10
2.651738958091508
 20
0.2902950160204556
 40
0.010781281418388
 50
179.9997708172488
 51
269.9997708181704
 73
     1
 72
     1
 10
2.651738914966625
 20
0.2795137346021532
 11
2.761238742751839
 21
0.2795135546020104
 72
     2
 10
2.761238956501978
 20
0.2902951041442614
 40
0.0107815495443698
 50
269.9988640797126
 51
359.9992825833961
 73
     1
 72
     1
 10
2.772020506045503
 20
0.2902949691454408
 11
2.772020337295241
 21
0.3542324377902786
 72
     2
 10
2.761239007127366
 20
0.3542323421656908
 40
0.0107813301682991
 50
0.0005081826837109
 51
90.00050818719378
 73
     1
 72
     1
 10
2.76123891150193
 20
0.3650136723335662
 11
2.651738914966625
 21
0.3650136723335662
 97
        0
 75
     0
 76
     1
 98
        1
 10
-7.279586802153931
 20
-0.4081141432880261
  0
HATCH
  5
84F
330
841
100
AcDbEntity
  8
TITLEBLOCK
 62
     0
100
AcDbHatch
 10
0.0
 20
0.0
 30
0.0
210
0.0
220
0.0
230
1.0
  2
SOLID
 70
     1
 71
     0
 91
        2
 92
        1
 93
        8
 72
     2
 10
3.162769048174736
 20
0.3650134554401196
 40
0.0215630459811904
 50
270.0005663490367
 51
359.9994236862867
 73
     0
 72
     1
 10
3.184332094154836
 20
0.3650136723335662
 11
3.184332094154836
 21
0.3222638825303419
 72
     2
 10
3.162769397256125
 20
0.3222640184675962
 40
0.0215626968991391
 50
0.0003612085718475
 51
90.00036121084693
 73
     0
 72
     1
 10
3.162769261318015
 20
0.3007013215688856
 11
3.052707420665665
 21
0.3007013215688856
 72
     1
 10
3.052707420665665
 20
0.3007013215688856
 11
3.052707420665665
 21
0.2579511736405264
 72
     1
 10
3.052707420665665
 20
0.2579511736405264
 11
3.031144250328662
 21
0.2579511736405264
 72
     1
 10
3.031144250328662
 20
0.2579511736405264
 11
3.031144250328662
 21
0.3865765014202565
 72
     1
 10
3.031144250328662
 20
0.3865765014202565
 11
3.162769261318015
 21
0.3865765014202565
 97
        0
 92
       16
 93
        6
 72
     2
 10
3.151988118650169
 20
0.3542325296657216
 40
0.0107811426682361
 50
270.0004882627443
 51
360.0004882669015
 73
     0
 72
     1
 10
3.162769261318015
 20
0.3542324377902786
 11
3.162769261318015
 21
0.333044848948566
 72
     2
 10
3.151988118650169
 20
0.333044757073123
 40
0.0107811426682367
 50
359.9995117330984
 51
449.9995117372556
 73
     0
 72
     1
 10
3.15198821052483
 20
0.3222636144052784
 11
3.052707420665665
 21
0.3222638825303419
 72
     1
 10
3.052707420665665
 20
0.3222638825303419
 11
3.052707420665665
 21
0.3650136723335662
 72
     1
 10
3.052707420665665
 20
0.3650136723335662
 11
3.15198821052483
 21
0.3650136723335662
 97
        0
 75
     0
 76
     1
 98
        1
 10
-7.279586802153931
 20
-0.4081141432880261
  0
HATCH
  5
850
330
841
100
AcDbEntity
  8
TITLEBLOCK
 62
     0
100
AcDbHatch
 10
0.0
 20
0.0
 30
0.0
210
0.0
220
0.0
230
1.0
  2
SOLID
 70
     1
 71
     0
 91
        1
 92
        1
 93
        9
 72
     1
 10
3.556847887515953
 20
0.3865763232950938
 11
3.525206566844968
 21
0.3865765014202565
 72
     1
 10
3.525206566844968
 20
0.3865765014202565
 11
3.60348814923547
 21
0.3136817019238036
 72
     1
 10
3.60348814923547
 20
0.3136817019238036
 11
3.603486349234383
 21
0.2579511736405264
 72
     1
 10
3.603486349234383
 20
0.2579511736405264
 11
3.625050607072164
 21
0.2579511736405264
 72
     1
 10
3.625050607072164
 20
0.2579511736405264
 11
3.625050607072164
 21
0.3136813437984982
 72
     1
 10
3.625050607072164
 20
0.3136813437984982
 11
3.703331833212512
 21
0.3865766795454191
 72
     1
 10
3.703331833212512
 20
0.3865766795454191
 11
3.671691225042007
 21
0.3865765014202565
 72
     1
 10
3.671691225042007
 20
0.3865765014202565
 11
3.61426955627898
 21
0.3331056458632473
 72
     1
 10
3.61426955627898
 20
0.3331056458632473
 11
3.556847887515953
 21
0.3865763232950938
 97
        0
 75
     0
 76
     1
 98
        1
 10
-7.279586802153931
 20
-0.4081141432880261
  0
HATCH
  5
851
330
841
100
AcDbEntity
  8
TITLEBLOCK
 62
     0
100
AcDbHatch
 10
0.0
 20
0.0
 30
0.0
210
0.0
220
0.0
230
1.0
  2
SOLID
 70
     1
 71
     0
 91
        1
 92
        1
 93
       10
 72
     1
 10
3.376247484495632
 20
0.3865765014202565
 11
3.345207161752892
 21
0.3865765014202565
 72
     1
 10
3.345207161752892
 20
0.3865765014202565
 11
3.345207161752892
 21
0.2579511736405264
 72
     1
 10
3.345207161752892
 20
0.2579511736405264
 11
3.366769638339558
 21
0.2579511736405264
 72
     1
 10
3.366769638339558
 20
0.2579511736405264
 11
3.366769638339558
 21
0.3659393041881229
 72
     1
 10
3.366769638339558
 20
0.3659393041881229
 11
3.48273627034943
 21
0.2579509955155343
 72
     1
 10
3.48273627034943
 20
0.2579509955155343
 11
3.515082122730785
 21
0.2579511736405264
 72
     1
 10
3.515082122730785
 20
0.2579511736405264
 11
3.515082122730785
 21
0.3865765014202565
 72
     1
 10
3.515082122730785
 20
0.3865765014202565
 11
3.49351767739277
 21
0.3865765014202565
 72
     1
 10
3.49351767739277
 20
0.3865765014202565
 11
3.49351767739277
 21
0.277374671329744
 72
     1
 10
3.49351767739277
 20
0.277374671329744
 11
3.376247484495632
 21
0.3865765014202565
 97
        0
 75
     0
 76
     1
 98
        1
 10
-7.279586802153931
 20
-0.4081141432880261
  0
ENDBLK
  5
853
330
841
100
AcDbEntity
  8
0
100
AcDbBlockEnd
  0
BLOCK
  5
AF5
330
AE5
100
AcDbEntity
  8
0
100
AcDbBlockBegin
  2
TITLE-PAD
 70
     2
 10
0.0
 20
0.0
 30
0.0
  3
TITLE-PAD
  1

  0
LWPOLYLINE
  5
B1D
330
AE5
100
AcDbEntity
  8
CONTINUOUS2
 62
     0
100
AcDbPolyline
 90
        7
 70
     1
 43
0.0
 10
16.40000099999999
 20
0.0
 10
16.40000099999999
 20
0.0
 10
16.40000099999999
 20
0.0
 10
8.002461
 20
0.0
 10
8.002461
 20
0.9120019999999993
 10
16.40000099999999
 20
0.9120019999999993
 10
16.40000099999999
 20
0.0
  0
INSERT
  5
B1E
330
AE5
100
AcDbEntity
  8
TITLEBLOCK
 62
     0
100
AcDbBlockReference
  2
LOGO-PAD
 10
12.245701
 20
0.3040000000000003
 30
0.0
  0
LINE
  5
B1F
330
AE5
100
AcDbEntity
  8
CONTINUOUS2
 62
     0
100
AcDbLine
 10
16.40000099999999
 20
0.3040000000000003
 30
0.0
 11
12.245701
 21
0.3040000000000003
 31
0.0
  0
LINE
  5
B20
330
AE5
100
AcDbEntity
  8
CONTINUOUS2
 62
     0
100
AcDbLine
 10
12.245701
 20
0.9120019999999993
 30
0.0
 11
12.245701
 21
0.0
 31
0.0
  0
TEXT
  5
B21
330
AE5
100
AcDbEntity
  8
TEXT1
  6
CONTINUOUS
 62
     0
100
AcDbText
 10
12.36897712113656
 20
0.0611566731182909
 30
0.0
 40
0.0699999951940822
  1
NO.
  7
ROMANS
 11
12.36897712113656
 21
0.096156670715332
 31
0.0
100
AcDbText
 73
     2
  0
TEXT
  5
B22
330
AE5
100
AcDbEntity
  8
TEXT1
  6
CONTINUOUS
 62
     0
100
AcDbText
 10
12.36897712113656
 20
0.1661566731182908
 30
0.0
 40
0.0699999951940822
  1
DWG#
  7
ROMANS
 11
12.36897712113656
 21
0.2011566707153319
 31
0.0
100
AcDbText
 73
     2
  0
ATTDEF
  5
B23
330
AE5
100
AcDbEntity
  8
TEXT1
 62
     0
100
AcDbText
 10
10.10183834893798
 20
0.7474460884590166
 30
0.0
 40
0.1
  1

  7
ROMANS
 72
     4
 11
10.10183834893798
 21
0.7474460884590166
 31
0.0
100
AcDbAttributeDefinition
  3
DESCRIPTION 1
  2
DESCRIPTION 1
 70
     0
  0
ATTDEF
  5
B24
330
AE5
100
AcDbEntity
  8
TEXT1
 62
     0
100
AcDbText
 10
10.10183834893798
 20
0.6017231711406717
 30
0.0
 40
0.1
  1

  7
ROMANS
 72
     4
 11
10.10183834893798
 21
0.6017231711406717
 31
0.0
100
AcDbAttributeDefinition
  3
DESCRIPTION 2
  2
DESCRIPTION 2
 70
     0
  0
ATTDEF
  5
B25
330
AE5
100
AcDbEntity
  8
TEXT1
 62
     0
100
AcDbText
 10
10.10183834893798
 20
0.4560002538223267
 30
0.0
 40
0.08
  1

  7
ROMANS
 72
     4
 11
10.10183834893798
 21
0.4560002538223267
 31
0.0
100
AcDbAttributeDefinition
  3
DESCRIPTION 3
  2
DESCRIPTION 3
 70
     0
  0
ATTDEF
  5
B26
330
AE5
100
AcDbEntity
  8
TEXT1
 62
     0
100
AcDbText
 10
10.10183834893798
 20
0.3202773365039833
 30
0.0
 40
0.08
  1

  7
ROMANS
 72
     4
 11
10.10183834893798
 21
0.3202773365039833
 31
0.0
100
AcDbAttributeDefinition
  3
DESCRIPTION 4
  2
DESCRIPTION 4
 70
     0
  0
ATTDEF
  5
B27
330
AE5
100
AcDbEntity
  8
TEXT1
 62
     0
100
AcDbText
 10
10.10183834893798
 20
0.1845544191856399
 30
0.0
 40
0.08
  1

  7
ROMANS
 72
     4
 11
10.10183834893798
 21
0.1845544191856399
 31
0.0
100
AcDbAttributeDefinition
  3
DESCRIPTION 5
  2
DESCRIPTION 5
 70
     0
  0
ATTDEF
  5
B28
330
AE5
100
AcDbEntity
  8
TEXT1
 62
     0
100
AcDbText
 10
12.74772367103195
 20
0.096540546036505
 30
0.0
 40
0.12
  1

 41
0.9512024731840066
  7
M_STANDARD
 11
12.74772367103195
 21
0.156540546036505
 31
0.0
100
AcDbAttributeDefinition
  3
DRAWING NUMBER
  2
DWGNO
 70
     0
 74
     2
  0
ATTDEF
  5
B29
330
AE5
100
AcDbEntity
  8
TEXT1
 62
     0
100
AcDbText
 10
16.35506454949325
 20
-0.1507193079929352
 30
0.0
 40
0.08
  1

  7
ROMANS
 72
     2
 11
16.35506454949325
 21
-0.1107193079929352
 31
0.0
100
AcDbAttributeDefinition
  3
REF DWG #
  2
REF
 70
     0
 74
     2
  0
ATTDEF
  5
B2A
330
AE5
100
AcDbEntity
  8
TEXT1
 62
     0
100
AcDbText
 10
0.0266402374038712
 20
-0.1507193079929352
 30
0.0
 40
0.08
  1

  7
ROMANS
 11
0.0266402374038712
 21
-0.1107193079929352
 31
0.0
100
AcDbAttributeDefinition
  3
DATE MODIFIED
  2
DATE
 70
     0
 74
     2
  0
LWPOLYLINE
  5
B2B
330
AE5
100
AcDbEntity
  8
CONTINUOUS3
 62
     0
100
AcDbPolyline
 90
        4
 70
   129
 43
0.0
 10
0.0
 20
0.0
 10
16.40000099999999
 20
0.0
 10
16.40000099999999
 20
10.25
 10
0.0
 20
10.25
  0
ENDBLK
  5
AF6
330
AE5
100
AcDbEntity
  8
0
100
AcDbBlockEnd
  0
BLOCK
  5
D84
330
D52
100
AcDbEntity
  8
0
100
AcDbBlockBegin
  2
OEM-NOTES
 70
     0
 10
0.0
 20
0.0
 30
0.0
  3
OEM-NOTES
  1

  0
LWPOLYLINE
  5
D53
330
D52
100
AcDbEntity
  8
TITLEBLOCK
100
AcDbPolyline
 90
        2
 70
     0
 43
0.0128
 10
8.625
 20
1.599999999999996
 10
0.0
 20
1.6
  0
TEXT
  5
D57
330
D52
100
AcDbEntity
  8
TITLEBLOCK
100
AcDbText
 10
0.3131249999999959
 20
0.7406249999999998
 30
0.0
 40
0.13125
  1
BE USED ONLY IN CONFORMANCE WITH INSTRUCTIONS ISSUED BY SQUARE D COMPANY.
 41
0.9
  7
SIMPLEX
 72
     4
 11
4.3125
 21
0.7999999999999999
 31
0.0
100
AcDbText
  0
TEXT
  5
D58
330
D52
100
AcDbEntity
  8
TITLEBLOCK
100
AcDbText
 10
0.2540625000000007
 20
1.045625000000001
 30
0.0
 40
0.13125
  1
HEREON. THIS INFORMATION REMAINS THE PROPERTY OF SQUARE D COMPANY AND MAY
 41
0.9
  7
SIMPLEX
 72
     4
 11
4.3125
 21
1.105000000000001
 31
0.0
100
AcDbText
  0
TEXT
  5
D59
330
D52
100
AcDbEntity
  8
TITLEBLOCK
100
AcDbText
 10
0.3046875
 20
1.338124999999997
 30
0.0
 40
0.13125
  1
"THE SQUARE D COMPANY HAS PROPRIETARY RIGHTS TO THE INFORMATION CONTAINED
 41
0.9
  7
SIMPLEX
 72
     4
 11
4.3125
 21
1.409999999999997
 31
0.0
100
AcDbText
  0
TEXT
  5
D5A
330
D52
100
AcDbEntity
  8
TITLEBLOCK
100
AcDbText
 10
0.6309374999999977
 20
0.4387499999999984
 30
0.0
 40
0.13125
  1
USER SHOULD VERIFY DRAWINGS ARE TO THE LATEST/CURRENT REVISION PRIOR
 41
0.9
  7
SIMPLEX
 72
     4
 11
4.3125
 21
0.4949999999999984
 31
0.0
100
AcDbText
  0
TEXT
  5
D5B
330
D52
100
AcDbEntity
  8
TITLEBLOCK
100
AcDbText
 10
2.5490625
 20
0.1368749999999972
 30
0.0
 40
0.13125
  1
TO INCORPORATING IN A DESIGN FILE."
 41
0.9
  7
SIMPLEX
 72
     4
 11
4.3125
 21
0.2149999999999972
 31
0.0
100
AcDbText
  0
TEXT
  5
D5C
330
D52
100
AcDbEntity
  8
TITLEBLOCK
100
AcDbText
 10
9.046378855339687
 20
0.2629426489623099
 30
0.0
 40
0.112
  1
UNLESS OTHERWISE SPECIFIED DIMENSIONS ARE IN INCHES
 41
0.8
  7
SIMPLEX
 72
     4
 11
11.06451218867302
 21
0.3189426489623099
 31
0.0
100
AcDbText
  0
LWPOLYLINE
  5
D5D
330
D52
100
AcDbEntity
  8
TITLEBLOCK
100
AcDbPolyline
 90
        2
 70
     0
 43
0.0128
 10
8.625
 20
0.9599999999999964
 10
16.00492200000007
 20
0.9599999999999964
  0
TEXT
  5
D61
330
D52
100
AcDbEntity
  8
TITLEBLOCK
100
AcDbText
 10
8.7837120071254
 20
0.5472199999999967
 30
0.0
 40
0.2433162500000002
  1
%%uDO NOT SCALE DRAWING
  7
SIMPLEX
 72
     1
 11
11.06451218867302
 21
0.5472199999999967
 31
0.0
100
AcDbText
  0
LWPOLYLINE
  5
D62
330
D52
100
AcDbEntity
  8
TITLEBLOCK
100
AcDbPolyline
 90
        2
 70
     0
 43
0.0128
 10
8.625
 20
0.9599999999999964
 10
8.625
 20
0.0000000000000009
  0
LWPOLYLINE
  5
D66
330
D52
100
AcDbEntity
  8
TITLEBLOCK
100
AcDbPolyline
 90
        2
 70
     0
 43
0.0128
 10
8.625
 20
0.0000000000000009
 10
8.625
 20
1.6
  0
LWPOLYLINE
  5
D6A
330
D52
100
AcDbEntity
  8
TITLEBLOCK
100
AcDbPolyline
 90
        2
 70
     0
 43
0.0128
 10
13.49242200000007
 20
1.599999999999995
 10
13.49242200000007
 20
0.0000000000000009
  0
TEXT
  5
D6E
330
D52
100
AcDbEntity
  8
TITLEBLOCK
100
AcDbText
 10
13.77242200000007
 20
0.2099999999999964
 30
0.0
 40
0.1
  1
2 PLACE DECIMALS
  7
SIMPLEX
100
AcDbText
  0
TEXT
  5
D6F
330
D52
100
AcDbEntity
  8
TITLEBLOCK
100
AcDbText
 10
13.62242200000007
 20
0.4474999999999972
 30
0.0
 40
0.1
  1
UNLESS OTHERWISE SPECIFIED
  7
SIMPLEX
100
AcDbText
  0
TEXT
  5
D70
330
D52
100
AcDbEntity
  8
TITLEBLOCK
100
AcDbText
 10
15.57242200000007
 20
0.2099999999999964
 30
0.0
 40
0.1
  1
.01
  7
SIMPLEX
100
AcDbText
  0
LINE
  5
D71
330
D52
100
AcDbEntity
  8
TITLEBLOCK
100
AcDbLine
 10
15.35492200000008
 20
0.2187499999999973
 30
0.0
 11
15.45492200000008
 21
0.2187499999999973
 31
0.0
  0
TEXT
  5
D72
330
D52
100
AcDbEntity
  8
TITLEBLOCK
100
AcDbText
 10
15.35992200000007
 20
0.2474999999999961
 30
0.0
 40
0.1
  1
+
  7
SIMPLEX
100
AcDbText
  0
LWPOLYLINE
  5
D73
330
D52
100
AcDbEntity
  8
TITLEBLOCK
100
AcDbPolyline
 90
        2
 70
     0
 43
0.0128
 10
16.00492200000007
 20
1.599999999999995
 10
13.49242200000007
 20
1.599999999999995
  0
TEXT
  5
D77
330
D52
100
AcDbEntity
  8
TITLEBLOCK
100
AcDbText
 10
13.62242200000007
 20
1.147499999999996
 30
0.0
 40
0.1
  1
PROJECTION
  7
SIMPLEX
100
AcDbText
  0
TEXT
  5
D78
330
D52
100
AcDbEntity
  8
TITLEBLOCK
100
AcDbText
 10
13.55992200000007
 20
1.347499999999997
 30
0.0
 40
0.1
  1
THIRD ANGLE
  7
SIMPLEX
100
AcDbText
  0
LINE
  5
D79
330
D52
100
AcDbEntity
  8
TITLEBLOCK
100
AcDbLine
 10
14.69692486880008
 20
1.300351715199997
 30
0.0
 11
15.91292523520008
 21
1.300351715199997
 31
0.0
  0
TEXT
  5
D7A
330
D52
100
AcDbEntity
  8
TITLEBLOCK
100
AcDbText
 10
14.04742200000008
 20
0.6974999999999972
 30
0.0
 40
0.15
  1
%%uTOLERANCES
  7
SIMPLEX
100
AcDbText
  0
LINE
  5
D7B
330
D52
100
AcDbEntity
  8
TITLEBLOCK
100
AcDbLine
 10
14.95292615040008
 20
1.396354294399999
 30
0.0
 11
14.95292615040008
 21
1.524354553599997
 31
0.0
  0
CIRCLE
  5
D7C
330
D52
100
AcDbEntity
  8
TITLEBLOCK
100
AcDbCircle
 10
14.95292615040008
 20
1.300352668799996
 30
0.0
 40
0.1279999615999998
  0
CIRCLE
  5
D7D
330
D52
100
AcDbEntity
  8
TITLEBLOCK
100
AcDbCircle
 10
14.95292615040008
 20
1.300352668799996
 30
0.0
 40
0.064000004799999
  0
LINE
  5
D7E
330
D52
100
AcDbEntity
  8
TITLEBLOCK
100
AcDbLine
 10
14.95292615040008
 20
1.332351302399996
 30
0.0
 11
14.95292615040008
 21
1.268351172799996
 31
0.0
  0
LINE
  5
D7F
330
D52
100
AcDbEntity
  8
TITLEBLOCK
100
AcDbLine
 10
14.95292615040008
 20
1.204351996799997
 30
0.0
 11
14.95292615040008
 21
1.076351737599998
 31
0.0
  0
LINE
  5
D80
330
D52
100
AcDbEntity
  8
TITLEBLOCK
100
AcDbLine
 10
15.78492230560007
 20
1.172351455999998
 30
0.0
 11
15.33692425760007
 21
1.236351585599996
 31
0.0
  0
LINE
  5
D81
330
D52
100
AcDbEntity
  8
TITLEBLOCK
100
AcDbLine
 10
15.33692425760007
 20
1.364351844799998
 30
0.0
 11
15.78492230560007
 21
1.428351020799996
 31
0.0
  0
LINE
  5
D82
330
D52
100
AcDbEntity
  8
TITLEBLOCK
100
AcDbLine
 10
15.33692425760007
 20
1.236351585599996
 30
0.0
 11
15.33692425760007
 21
1.364351844799998
 31
0.0
  0
LINE
  5
D83
330
D52
100
AcDbEntity
  8
TITLEBLOCK
100
AcDbLine
 10
15.78492230560007
 20
1.428351020799996
 30
0.0
 11
15.78492230560007
 21
1.172351455999998
 31
0.0
  0
ENDBLK
  5
D85
330
D52
100
AcDbEntity
  8
0
100
AcDbBlockEnd
  0
BLOCK
  5
8980
330
896D
100
AcDbEntity
  8
0
100
AcDbBlockBegin
  2
REF2
 70
     2
 10
0.0
 20
0.0
 30
0.0
  3
REF2
  1

  0
ATTDEF
  5
896E
330
896D
100
AcDbEntity
  8
TEXT1
100
AcDbText
 10
1.999999999999999
 20
0.2204373050885353
 30
0.0
 40
0.125
  1

100
AcDbAttributeDefinition
  3
Mounting Hardware?
  2
MOUNTING_HWD
 70
     0
  0
ATTDEF
  5
896F
330
896D
100
AcDbEntity
  8
TEXT1
100
AcDbText
 10
1.999999999999999
 20
0.4484790897328282
 30
0.0
 40
0.125
  1

100
AcDbAttributeDefinition
  3
Terminal Torque
  2
TERM_TORQUE
 70
     0
  0
ATTDEF
  5
8970
330
896D
100
AcDbEntity
  8
TEXT1
100
AcDbText
 10
1.999999999999999
 20
0.6579373050885355
 30
0.0
 40
0.125
  1

100
AcDbAttributeDefinition
  3
Wire Size?
  2
WIRE_SIZE
 70
     0
  0
ATTDEF
  5
8971
330
896D
100
AcDbEntity
  8
TEXT1
100
AcDbText
 10
1.999999999999999
 20
0.8564164127663893
 30
0.0
 40
0.125
  1

100
AcDbAttributeDefinition
  3
Weight?
  2
WEIGHT
 70
     0
  0
ATTDEF
  5
8972
330
896D
100
AcDbEntity
  8
TEXT1
100
AcDbText
 10
1.999999999999999
 20
1.062499999999999
 30
0.0
 40
0.125
  1

100
AcDbAttributeDefinition
  3
Meets Standards
  2
STANDARDS
 70
     0
  0
ATTDEF
  5
8973
330
896D
100
AcDbEntity
  8
TEXT1
100
AcDbText
 10
1.999999999999999
 20
1.293916394821363
 30
0.0
 40
0.125
  1

100
AcDbAttributeDefinition
  3
CSA File/Guide
  2
CSA
 70
     0
  0
ATTDEF
  5
8974
330
896D
100
AcDbEntity
  8
TEXT1
100
AcDbText
 10
2.010983301335642
 20
1.499999999999999
 30
0.0
 40
0.125
  1

100
AcDbAttributeDefinition
  3
UL File/Guide?
  2
UL
 70
     0
  0
ATTDEF
  5
8975
330
896D
100
AcDbEntity
  8
TEXT1
100
AcDbText
 10
1.999999999999999
 20
1.720437305088536
 30
0.0
 40
0.125
  1

100
AcDbAttributeDefinition
  3
Ratings?
  2
RATING
 70
     0
  0
ATTDEF
  5
8976
330
896D
100
AcDbEntity
  8
TEXT1
100
AcDbText
 10
1.999999999999999
 20
1.9375
 30
0.0
 40
0.125
  1

100
AcDbAttributeDefinition
  3
Catalog Number?
  2
CATALOG
 70
     0
  0
TEXT
  5
8977
330
896D
100
AcDbEntity
  8
TEXT1
100
AcDbText
 10
0.1875
 20
0.2232142857142858
 30
0.0
 40
0.125
  1
Mounting Hwd.:
100
AcDbText
  0
TEXT
  5
8978
330
896D
100
AcDbEntity
  8
TEXT1
100
AcDbText
 10
0.1875
 20
0.4375000000000002
 30
0.0
 40
0.125
  1
Terminal torque:
100
AcDbText
  0
TEXT
  5
8979
330
896D
100
AcDbEntity
  8
TEXT1
100
AcDbText
 10
0.1875
 20
0.6517857142857145
 30
0.0
 40
0.125
  1
Wire Size:
100
AcDbText
  0
TEXT
  5
897A
330
896D
100
AcDbEntity
  8
TEXT1
100
AcDbText
 10
0.1875
 20
0.8660714285714288
 30
0.0
 40
0.125
  1
Weight:
100
AcDbText
  0
TEXT
  5
897B
330
896D
100
AcDbEntity
  8
TEXT1
100
AcDbText
 10
0.1875
 20
1.080357142857142
 30
0.0
 40
0.125
  1
Meets Standards:
100
AcDbText
  0
TEXT
  5
897C
330
896D
100
AcDbEntity
  8
TEXT1
100
AcDbText
 10
0.1875
 20
1.294642857142856
 30
0.0
 40
0.125
  1
CSA File/Class:
100
AcDbText
  0
TEXT
  5
897D
330
896D
100
AcDbEntity
  8
TEXT1
100
AcDbText
 10
0.1875
 20
1.508928571428571
 30
0.0
 40
0.125
  1
UL File/CCN:
100
AcDbText
  0
TEXT
  5
897E
330
896D
100
AcDbEntity
  8
TEXT1
100
AcDbText
 10
0.1875
 20
1.723214285714285
 30
0.0
 40
0.125
  1
Ratings:
100
AcDbText
  0
TEXT
  5
897F
330
896D
100
AcDbEntity
  8
TEXT1
100
AcDbText
 10
0.1875
 20
1.9375
 30
0.0
 40
0.125
  1
Catalog Number:
100
AcDbText
  0
ENDBLK
  5
8981
330
896D
100
AcDbEntity
  8
0
100
AcDbBlockEnd
  0
BLOCK
  5
90FC
330
90F1
100
AcDbEntity
  8
0
100
AcDbBlockBegin
  2
*D5
 70
     1
 10
0.0
 20
0.0
 30
0.0
  3
*D5
  1

  0
LINE
  5
9C01
330
90F1
100
AcDbEntity
  8
DIM
100
AcDbLine
 10
40.19317233266741
 20
22.48515225158814
 30
0.0
 11
44.31864745206003
 21
22.48515225158814
 31
0.0
  0
LINE
  5
9C02
330
90F1
100
AcDbEntity
  8
DIM
100
AcDbLine
 10
40.19317233266741
 20
13.36015225158814
 30
0.0
 11
44.31864745206002
 21
13.36015225158814
 31
0.0
  0
LINE
  5
9C03
330
90F1
100
AcDbEntity
  8
DIM
100
AcDbLine
 10
44.06864745206003
 20
22.20515225158814
 30
0.0
 11
44.06864745206003
 21
17.77789034682623
 31
0.0
  0
LINE
  5
9C04
330
90F1
100
AcDbEntity
  8
DIM
100
AcDbLine
 10
44.06864745206003
 20
13.64015225158814
 30
0.0
 11
44.06864745206003
 21
16.84836653730242
 31
0.0
  0
INSERT
  5
9C05
330
90F1
100
AcDbEntity
  8
DIM
100
AcDbBlockReference
  2
SEARROW
 10
44.06864745206003
 20
22.48515225158814
 30
0.0
 41
0.28
 42
0.28
 43
0.28
 50
90.0
  0
INSERT
  5
9C06
330
90F1
100
AcDbEntity
  8
DIM
100
AcDbBlockReference
  2
SEARROW
 10
44.06864745206003
 20
13.36015225158814
 30
0.0
 41
0.28
 42
0.28
 43
0.28
 50
270.0
  0
MTEXT
  5
9C07
330
90F1
100
AcDbEntity
  8
DIM
100
AcDbMText
 10
44.06864745206003
 20
17.31312844206433
 30
0.0
 40
0.4
 41
0.0
 71
     5
 72
     1
  1
\A1;9.13 [232]
  7
ROMANS
1001
ACAD
1000
MTEXTBEGIN
1070
    73
1070
     1
1070
    44
1040
1.0
1070
    74
1070
     0
1000
MTEXTEND
  0
POINT
  5
9C08
330
90F1
100
AcDbEntity
  8
DEFPOINTS
 62
     0
100
AcDbPoint
 10
39.94317233266741
 20
22.48515225158814
 30
0.0
  0
POINT
  5
9C09
330
90F1
100
AcDbEntity
  8
DEFPOINTS
 62
     0
100
AcDbPoint
 10
39.94317233266741
 20
13.36015225158814
 30
0.0
  0
POINT
  5
9C0A
330
90F1
100
AcDbEntity
  8
DEFPOINTS
 62
     0
100
AcDbPoint
 10
44.06864745206003
 20
13.36015225158814
 30
0.0
  0
ENDBLK
  5
90FD
330
90F1
100
AcDbEntity
  8
0
100
AcDbBlockEnd
  0
BLOCK
  5
9109
330
90FE
100
AcDbEntity
  8
0
100
AcDbBlockBegin
  2
*D6
 70
     1
 10
0.0
 20
0.0
 30
0.0
  3
*D6
  1

  0
LINE
  5
9C0B
330
90FE
100
AcDbEntity
  8
DIM
100
AcDbLine
 10
39.47442233266741
 20
20.74265163860415
 30
0.0
 11
42.33683286122701
 21
20.74265163860414
 31
0.0
  0
LINE
  5
9C0C
330
90FE
100
AcDbEntity
  8
DIM
100
AcDbLine
 10
39.47442233266745
 20
16.05515163860414
 30
0.0
 11
42.33683286122701
 21
16.05515163860414
 31
0.0
  0
LINE
  5
9C0D
330
90FE
100
AcDbEntity
  8
DIM
100
AcDbLine
 10
42.08683286122702
 20
20.46265163860414
 30
0.0
 11
42.08683286122702
 21
18.79970941547114
 31
0.0
  0
LINE
  5
9C0E
330
90FE
100
AcDbEntity
  8
DIM
100
AcDbLine
 10
42.08683286122702
 20
16.33515163860414
 30
0.0
 11
42.08683286122702
 21
17.87018560594733
 31
0.0
  0
INSERT
  5
9C0F
330
90FE
100
AcDbEntity
  8
DIM
100
AcDbBlockReference
  2
SEARROW
 10
42.08683286122702
 20
20.74265163860414
 30
0.0
 41
0.28
 42
0.28
 43
0.28
 50
90.0
  0
INSERT
  5
9C10
330
90FE
100
AcDbEntity
  8
DIM
100
AcDbBlockReference
  2
SEARROW
 10
42.08683286122702
 20
16.05515163860414
 30
0.0
 41
0.28
 42
0.28
 43
0.28
 50
270.0
  0
MTEXT
  5
9C11
330
90FE
100
AcDbEntity
  8
DIM
100
AcDbMText
 10
42.08683286122701
 20
18.33494751070924
 30
0.0
 40
0.4
 41
0.0
 71
     5
 72
     1
  1
\A1;4.69 [119]
  7
ROMANS
1001
ACAD
1000
MTEXTBEGIN
1070
    73
1070
     1
1070
    44
1040
1.0
1070
    74
1070
     0
1000
MTEXTEND
  0
POINT
  5
9C12
330
90FE
100
AcDbEntity
  8
DEFPOINTS
 62
     0
100
AcDbPoint
 10
39.22442233266741
 20
20.74265163860415
 30
0.0
  0
POINT
  5
9C13
330
90FE
100
AcDbEntity
  8
DEFPOINTS
 62
     0
100
AcDbPoint
 10
39.22442233266745
 20
16.05515163860414
 30
0.0
  0
POINT
  5
9C14
330
90FE
100
AcDbEntity
  8
DEFPOINTS
 62
     0
100
AcDbPoint
 10
42.08683286122702
 20
16.05515163860414
 30
0.0
  0
ENDBLK
  5
910A
330
90FE
100
AcDbEntity
  8
0
100
AcDbBlockEnd
  0
BLOCK
  5
9116
330
910B
100
AcDbEntity
  8
0
100
AcDbBlockBegin
  2
*D7
 70
     1
 10
0.0
 20
0.0
 30
0.0
  3
*D7
  1

  0
LINE
  5
9C15
330
910B
100
AcDbEntity
  8
DIM
100
AcDbLine
 10
47.94843047125616
 20
14.16017636942237
 30
0.0
 11
47.94843047125616
 21
7.595867852943282
 31
0.0
  0
LINE
  5
9C16
330
910B
100
AcDbEntity
  8
DIM
100
AcDbLine
 10
52.19843047125616
 20
18.76317626754945
 30
0.0
 11
52.19843047125616
 21
7.595867852943282
 31
0.0
  0
LINE
  5
9C17
330
910B
100
AcDbEntity
  8
DIM
100
AcDbLine
 10
47.66843047125616
 20
7.845867852943282
 30
0.0
 11
47.38843047125615
 21
7.845867852943282
 31
0.0
  0
LINE
  5
9C18
330
910B
100
AcDbEntity
  8
DIM
100
AcDbLine
 10
52.47843047125616
 20
7.845867852943282
 30
0.0
 11
52.75843047125616
 21
7.845867852943282
 31
0.0
  0
INSERT
  5
9C19
330
910B
100
AcDbEntity
  8
DIM
100
AcDbBlockReference
  2
SEARROW
 10
47.94843047125616
 20
7.845867852943282
 30
0.0
 41
0.28
 42
0.28
 43
0.28
  0
INSERT
  5
9C1A
330
910B
100
AcDbEntity
  8
DIM
100
AcDbBlockReference
  2
SEARROW
 10
52.19843047125616
 20
7.845867852943282
 30
0.0
 41
0.28
 42
0.28
 43
0.28
 50
180.0
  0
MTEXT
  5
9C1B
330
910B
100
AcDbEntity
  8
DIM
100
AcDbMText
 10
50.07343047125615
 20
7.845867852943282
 30
0.0
 40
0.4
 41
0.0
 71
     5
 72
     1
  1
\A1;4.25 [108]
  7
ROMANS
1001
ACAD
1000
MTEXTBEGIN
1070
    73
1070
     1
1070
    44
1040
1.0
1070
    74
1070
     0
1000
MTEXTEND
  0
POINT
  5
9C1C
330
910B
100
AcDbEntity
  8
DEFPOINTS
 62
     0
100
AcDbPoint
 10
47.94843047125616
 20
14.41017636942237
 30
0.0
  0
POINT
  5
9C1D
330
910B
100
AcDbEntity
  8
DEFPOINTS
 62
     0
100
AcDbPoint
 10
52.19843047125616
 20
19.01317626754945
 30
0.0
  0
POINT
  5
9C1E
330
910B
100
AcDbEntity
  8
DEFPOINTS
 62
     0
100
AcDbPoint
 10
52.19843047125616
 20
7.845867852943282
 30
0.0
  0
ENDBLK
  5
9117
330
910B
100
AcDbEntity
  8
0
100
AcDbBlockEnd
  0
BLOCK
  5
9123
330
9118
100
AcDbEntity
  8
0
100
AcDbBlockBegin
  2
*D8
 70
     1
 10
0.0
 20
0.0
 30
0.0
  3
*D8
  1

  0
LINE
  5
9C1F
330
9118
100
AcDbEntity
  8
DIM
100
AcDbLine
 10
38.50567233266741
 20
13.11015225158814
 30
0.0
 11
38.50567233266741
 21
10.23800981359998
 31
0.0
  0
LINE
  5
9C20
330
9118
100
AcDbEntity
  8
DIM
100
AcDbLine
 10
39.94317233266741
 20
13.11015225158814
 30
0.0
 11
39.94317233266741
 21
10.23800981359998
 31
0.0
  0
LINE
  5
9C21
330
9118
100
AcDbEntity
  8
DIM
100
AcDbLine
 10
38.78567233266741
 20
10.48800981359998
 30
0.0
 11
39.66317233266741
 21
10.48800981359998
 31
0.0
  0
LINE
  5
9C22
330
9118
100
AcDbEntity
  8
DIM
100
AcDbLine
 10
39.94317233266741
 20
10.48800981359998
 30
0.0
 11
40.5088866183817
 21
10.48800981359998
 31
0.0
  0
INSERT
  5
9C23
330
9118
100
AcDbEntity
  8
DIM
100
AcDbBlockReference
  2
SEARROW
 10
38.50567233266741
 20
10.48800981359998
 30
0.0
 41
0.28
 42
0.28
 43
0.28
 50
180.0
  0
INSERT
  5
9C24
330
9118
100
AcDbEntity
  8
DIM
100
AcDbBlockReference
  2
SEARROW
 10
39.94317233266741
 20
10.48800981359998
 30
0.0
 41
0.28
 42
0.28
 43
0.28
  0
MTEXT
  5
9C25
330
9118
100
AcDbEntity
  8
DIM
100
AcDbMText
 10
42.0784104279055
 20
10.48800981359998
 30
0.0
 40
0.4
 41
0.0
 71
     5
 72
     1
  1
\A1;1.44 [37]
  7
ROMANS
1001
ACAD
1000
MTEXTBEGIN
1070
    73
1070
     1
1070
    44
1040
1.0
1070
    74
1070
     0
1000
MTEXTEND
  0
POINT
  5
9C26
330
9118
100
AcDbEntity
  8
DEFPOINTS
 62
     0
100
AcDbPoint
 10
38.50567233266741
 20
13.36015225158814
 30
0.0
  0
POINT
  5
9C27
330
9118
100
AcDbEntity
  8
DEFPOINTS
 62
     0
100
AcDbPoint
 10
39.94317233266741
 20
13.36015225158814
 30
0.0
  0
POINT
  5
9C28
330
9118
100
AcDbEntity
  8
DEFPOINTS
 62
     0
100
AcDbPoint
 10
39.94317233266741
 20
10.48800981359998
 30
0.0
  0
ENDBLK
  5
9124
330
9118
100
AcDbEntity
  8
0
100
AcDbBlockEnd
  0
BLOCK
  5
912F
330
9125
100
AcDbEntity
  8
0
100
AcDbBlockBegin
  2
*D9
 70
     1
 10
0.0
 20
0.0
 30
0.0
  3
*D9
  1

  0
LINE
  5
9C29
330
9125
100
AcDbEntity
  8
DIM
100
AcDbLine
 10
39.47442233266741
 20
20.74265163860415
 30
0.0
 11
42.33683286122701
 21
20.74265163860414
 31
0.0
  0
LINE
  5
9C2A
330
9125
100
AcDbEntity
  8
DIM
100
AcDbLine
 10
37.54575391732901
 20
25.43525803350264
 30
0.0
 11
42.33683286122701
 21
25.43525803350263
 31
0.0
  0
LINE
  5
9C2B
330
9125
100
AcDbEntity
  8
DIM
100
AcDbLine
 10
42.08683286122702
 20
21.02265163860414
 30
0.0
 11
42.08683286122702
 21
22.62202433820971
 31
0.0
  0
LINE
  5
9C2C
330
9125
100
AcDbEntity
  8
DIM
100
AcDbLine
 10
42.08683286122702
 20
25.15525803350263
 30
0.0
 11
42.08683286122702
 21
23.55154814773352
 31
0.0
  0
INSERT
  5
9C2D
330
9125
100
AcDbEntity
  8
DIM
100
AcDbBlockReference
  2
SEARROW
 10
42.08683286122702
 20
20.74265163860414
 30
0.0
 41
0.28
 42
0.28
 43
0.28
 50
270.0
  0
INSERT
  5
9C2E
330
9125
100
AcDbEntity
  8
DIM
100
AcDbBlockReference
  2
SEARROW
 10
42.08683286122702
 20
25.43525803350263
 30
0.0
 41
0.28
 42
0.28
 43
0.28
 50
90.0
  0
MTEXT
  5
9C2F
330
9125
100
AcDbEntity
  8
DIM
100
AcDbMText
 10
42.08683286122701
 20
23.08678624297162
 30
0.0
 40
0.4
 41
0.0
 71
     5
 72
     1
  1
\A1;4.69 [119]
  7
ROMANS
1001
ACAD
1000
MTEXTBEGIN
1070
    73
1070
     1
1070
    44
1040
1.0
1070
    74
1070
     0
1000
MTEXTEND
  0
POINT
  5
9C30
330
9125
100
AcDbEntity
  8
DEFPOINTS
 62
     0
100
AcDbPoint
 10
39.22442233266741
 20
20.74265163860415
 30
0.0
  0
POINT
  5
9C31
330
9125
100
AcDbEntity
  8
DEFPOINTS
 62
     0
100
AcDbPoint
 10
37.295753917329
 20
25.43525803350264
 30
0.0
  0
POINT
  5
9C32
330
9125
100
AcDbEntity
  8
DEFPOINTS
 62
     0
100
AcDbPoint
 10
42.08683286122702
 20
25.43525803350263
 30
0.0
  0
ENDBLK
  5
9130
330
9125
100
AcDbEntity
  8
0
100
AcDbBlockEnd
  0
BLOCK
  5
913B
330
9131
100
AcDbEntity
  8
0
100
AcDbBlockBegin
  2
*D10
 70
     1
 10
0.0
 20
0.0
 30
0.0
  3
*D10
  1

  0
LINE
  5
9CE5
330
9131
100
AcDbEntity
  8
DIM
100
AcDbLine
 10
39.22442233266741
 20
20.99265163860414
 30
0.0
 11
39.22442233266741
 21
29.5
 31
0.0
  0
LINE
  5
9CE6
330
9131
100
AcDbEntity
  8
DIM
100
AcDbLine
 10
37.295753917329
 20
25.68525803350264
 30
0.0
 11
37.295753917329
 21
29.5
 31
0.0
  0
LINE
  5
9CE7
330
9131
100
AcDbEntity
  8
DIM
100
AcDbLine
 10
39.50442233266741
 20
29.25
 30
0.0
 11
39.78442233266741
 21
29.25
 31
0.0
  0
LINE
  5
9CE8
330
9131
100
AcDbEntity
  8
DIM
100
AcDbLine
 10
37.015753917329
 20
29.25
 30
0.0
 11
36.73575391732901
 21
29.25
 31
0.0
  0
INSERT
  5
9CE9
330
9131
100
AcDbEntity
  8
DIM
100
AcDbBlockReference
  2
SEARROW
 10
39.22442233266741
 20
29.25
 30
0.0
 41
0.28
 42
0.28
 43
0.28
 50
180.0
  0
INSERT
  5
9CEA
330
9131
100
AcDbEntity
  8
DIM
100
AcDbBlockReference
  2
SEARROW
 10
37.295753917329
 20
29.25
 30
0.0
 41
0.28
 42
0.28
 43
0.28
  0
MTEXT
  5
9CEB
330
9131
100
AcDbEntity
  8
DIM
100
AcDbMText
 10
34.32813486970996
 20
29.25
 30
0.0
 40
0.4
 41
0.0
 71
     5
 72
     1
  1
\A1;3.00 [76] MIN.
  7
ROMANS
  0
POINT
  5
9CEC
330
9131
100
AcDbEntity
  8
DEFPOINTS
 62
     0
100
AcDbPoint
 10
39.22442233266741
 20
20.74265163860415
 30
0.0
  0
POINT
  5
9CED
330
9131
100
AcDbEntity
  8
DEFPOINTS
 62
     0
100
AcDbPoint
 10
37.295753917329
 20
25.43525803350264
 30
0.0
  0
POINT
  5
9CEE
330
9131
100
AcDbEntity
  8
DEFPOINTS
 62
     0
100
AcDbPoint
 10
37.295753917329
 20
29.25
 30
0.0
  0
ENDBLK
  5
913C
330
9131
100
AcDbEntity
  8
0
100
AcDbBlockEnd
  0
BLOCK
  5
9148
330
913D
100
AcDbEntity
  8
0
100
AcDbBlockBegin
  2
*D11
 70
     1
 10
0.0
 20
0.0
 30
0.0
  3
*D11
  1

  0
LINE
  5
9C3D
330
913D
100
AcDbEntity
  8
DIM
100
AcDbLine
 10
39.45565393802149
 20
20.83768818255107
 30
0.0
 11
40.96894378588787
 21
21.45965262772702
 31
0.0
  0
LINE
  5
9C3E
330
913D
100
AcDbEntity
  8
DIM
100
AcDbLine
 10
37.52698552268309
 20
25.53029457744957
 30
0.0
 11
39.04027537054946
 21
26.15225902262551
 31
0.0
  0
LINE
  5
9C3F
330
913D
100
AcDbEntity
  8
DIM
100
AcDbLine
 10
40.63127125131322
 20
21.62359548177666
 30
0.0
 11
39.92065277906824
 21
23.3525877547199
 31
0.0
  0
LINE
  5
9C40
330
913D
100
AcDbEntity
  8
DIM
100
AcDbLine
 10
38.91548469441594
 20
25.79824308068202
 30
0.0
 11
39.62473167634092
 21
24.07258775471991
 31
0.0
  0
INSERT
  5
9C41
330
913D
100
AcDbEntity
  8
DIM
100
AcDbBlockReference
  2
SEARROW
 10
40.73771218053379
 20
21.36461608378009
 30
0.0
 41
0.28
 42
0.28
 43
0.28
 50
292.3427374145454
  0
INSERT
  5
9C42
330
913D
100
AcDbEntity
  8
DIM
100
AcDbBlockReference
  2
SEARROW
 10
38.80904376519538
 20
26.05722247867859
 30
0.0
 41
0.28
 42
0.28
 43
0.28
 50
112.3427374145454
  0
MTEXT
  5
9C43
330
913D
100
AcDbEntity
  8
DIM
100
AcDbMText
 10
39.77269222770459
 20
23.7125877547199
 30
0.0
 40
0.4
 41
0.0
 71
     5
 72
     1
  1
\A1;C
  7
ROMANS
1001
ACAD
1000
MTEXTBEGIN
1070
    73
1070
     1
1070
    44
1040
1.0
1070
    74
1070
     0
1000
MTEXTEND
  0
POINT
  5
9C44
330
913D
100
AcDbEntity
  8
DEFPOINTS
 62
     0
100
AcDbPoint
 10
39.22442233266741
 20
20.74265163860415
 30
0.0
  0
POINT
  5
9C45
330
913D
100
AcDbEntity
  8
DEFPOINTS
 62
     0
100
AcDbPoint
 10
37.295753917329
 20
25.43525803350264
 30
0.0
  0
POINT
  5
9C46
330
913D
100
AcDbEntity
  8
DEFPOINTS
 62
     0
100
AcDbPoint
 10
38.80904376519538
 20
26.05722247867859
 30
0.0
  0
ENDBLK
  5
9149
330
913D
100
AcDbEntity
  8
0
100
AcDbBlockEnd
  0
BLOCK
  5
9162
330
9157
100
AcDbEntity
  8
0
100
AcDbBlockBegin
  2
*D12
 70
     1
 10
0.0
 20
0.0
 30
0.0
  3
*D12
  1

  0
LINE
  5
9C47
330
9157
100
AcDbEntity
  8
DIM
100
AcDbLine
 10
30.68075391732901
 20
25.43525803350264
 30
0.0
 11
27.45434260783106
 21
25.43525803350264
 31
0.0
  0
LINE
  5
9C48
330
9157
100
AcDbEntity
  8
DIM
100
AcDbLine
 10
30.274503917329
 20
25.93775803350264
 30
0.0
 11
27.45434260783106
 21
25.93775803350264
 31
0.0
  0
LINE
  5
9C49
330
9157
100
AcDbEntity
  8
DIM
100
AcDbLine
 10
27.70434260783106
 20
25.15525803350264
 30
0.0
 11
27.70434260783106
 21
24.87525803350264
 31
0.0
  0
LINE
  5
9C4A
330
9157
100
AcDbEntity
  8
DIM
100
AcDbLine
 10
27.70434260783106
 20
26.21775803350264
 30
0.0
 11
27.70434260783106
 21
26.49775803350264
 31
0.0
  0
LINE
  5
9C4B
330
9157
100
AcDbEntity
  8
DIM
100
AcDbLine
 10
27.70434260783106
 20
26.49775803350264
 30
0.0
 11
27.98434260783106
 21
26.49775803350264
 31
0.0
  0
INSERT
  5
9C4C
330
9157
100
AcDbEntity
  8
DIM
100
AcDbBlockReference
  2
SEARROW
 10
27.70434260783106
 20
25.43525803350264
 30
0.0
 41
0.28
 42
0.28
 43
0.28
 50
90.0
  0
INSERT
  5
9C4D
330
9157
100
AcDbEntity
  8
DIM
100
AcDbBlockReference
  2
SEARROW
 10
27.70434260783106
 20
25.93775803350264
 30
0.0
 41
0.28
 42
0.28
 43
0.28
 50
270.0
  0
MTEXT
  5
9C4E
330
9157
100
AcDbEntity
  8
DIM
100
AcDbMText
 10
29.38243784592629
 20
26.49775803350264
 30
0.0
 40
0.4
 41
0.0
 71
     5
 72
     1
  1
\A1;.50 [13]
  7
ROMANS
1001
ACAD
1000
MTEXTBEGIN
1070
    73
1070
     1
1070
    44
1040
1.0
1070
    74
1070
     0
1000
MTEXTEND
  0
POINT
  5
9C4F
330
9157
100
AcDbEntity
  8
DEFPOINTS
 62
     0
100
AcDbPoint
 10
30.93075391732901
 20
25.43525803350264
 30
0.0
  0
POINT
  5
9C50
330
9157
100
AcDbEntity
  8
DEFPOINTS
 62
     0
100
AcDbPoint
 10
30.524503917329
 20
25.93775803350264
 30
0.0
  0
POINT
  5
9C51
330
9157
100
AcDbEntity
  8
DEFPOINTS
 62
     0
100
AcDbPoint
 10
27.70434260783106
 20
25.93775803350264
 30
0.0
  0
ENDBLK
  5
9163
330
9157
100
AcDbEntity
  8
0
100
AcDbBlockEnd
  0
BLOCK
  5
916F
330
9164
100
AcDbEntity
  8
0
100
AcDbBlockBegin
  2
*D13
 70
     1
 10
0.0
 20
0.0
 30
0.0
  3
*D13
  1

  0
LINE
  5
9C52
330
9164
100
AcDbEntity
  8
DIM
100
AcDbLine
 10
30.68075391732901
 20
25.43525803350264
 30
0.0
 11
27.45434260783106
 21
25.43525803350264
 31
0.0
  0
LINE
  5
9C53
330
9164
100
AcDbEntity
  8
DIM
100
AcDbLine
 10
30.92075391732901
 20
18.43275803350264
 30
0.0
 11
27.45434260783105
 21
18.43275803350264
 31
0.0
  0
LINE
  5
9C54
330
9164
100
AcDbEntity
  8
DIM
100
AcDbLine
 10
27.70434260783106
 20
25.15525803350264
 30
0.0
 11
27.70434260783105
 21
22.39876993826454
 31
0.0
  0
LINE
  5
9C55
330
9164
100
AcDbEntity
  8
DIM
100
AcDbLine
 10
27.70434260783105
 20
18.71275803350264
 30
0.0
 11
27.70434260783105
 21
21.46924612874073
 31
0.0
  0
INSERT
  5
9C56
330
9164
100
AcDbEntity
  8
DIM
100
AcDbBlockReference
  2
SEARROW
 10
27.70434260783106
 20
25.43525803350264
 30
0.0
 41
0.28
 42
0.28
 43
0.28
 50
90.0
  0
INSERT
  5
9C57
330
9164
100
AcDbEntity
  8
DIM
100
AcDbBlockReference
  2
SEARROW
 10
27.70434260783105
 20
18.43275803350264
 30
0.0
 41
0.28
 42
0.28
 43
0.28
 50
270.0
  0
MTEXT
  5
9C58
330
9164
100
AcDbEntity
  8
DIM
100
AcDbMText
 10
27.70434260783105
 20
21.93400803350264
 30
0.0
 40
0.4
 41
0.0
 71
     5
 72
     1
  1
\A1;7.00 [178]
  7
ROMANS
1001
ACAD
1000
MTEXTBEGIN
1070
    73
1070
     1
1070
    44
1040
1.0
1070
    74
1070
     0
1000
MTEXTEND
  0
POINT
  5
9C59
330
9164
100
AcDbEntity
  8
DEFPOINTS
 62
     0
100
AcDbPoint
 10
30.93075391732901
 20
25.43525803350264
 30
0.0
  0
POINT
  5
9C5A
330
9164
100
AcDbEntity
  8
DEFPOINTS
 62
     0
100
AcDbPoint
 10
31.17075391732901
 20
18.43275803350264
 30
0.0
  0
POINT
  5
9C5B
330
9164
100
AcDbEntity
  8
DEFPOINTS
 62
     0
100
AcDbPoint
 10
27.70434260783105
 20
18.43275803350264
 30
0.0
  0
ENDBLK
  5
9170
330
9164
100
AcDbEntity
  8
0
100
AcDbBlockEnd
  0
BLOCK
  5
917C
330
9171
100
AcDbEntity
  8
0
100
AcDbBlockBegin
  2
*D14
 70
     1
 10
0.0
 20
0.0
 30
0.0
  3
*D14
  1

  0
LINE
  5
9C5C
330
9171
100
AcDbEntity
  8
DIM
100
AcDbLine
 10
37.86900391732901
 20
16.18752401041448
 30
0.0
 11
37.86900391732901
 21
15.52761218133255
 31
0.0
  0
LINE
  5
9C5D
330
9171
100
AcDbEntity
  8
DIM
100
AcDbLine
 10
37.295753917329
 20
18.18275803350264
 30
0.0
 11
37.295753917329
 21
15.52761218133255
 31
0.0
  0
LINE
  5
9C5E
330
9171
100
AcDbEntity
  8
DIM
100
AcDbLine
 10
38.14900391732901
 20
15.77761218133255
 30
0.0
 11
38.42900391732901
 21
15.77761218133255
 31
0.0
  0
LINE
  5
9C5F
330
9171
100
AcDbEntity
  8
DIM
100
AcDbLine
 10
37.015753917329
 20
15.77761218133255
 30
0.0
 11
36.30134915542424
 21
15.77761218133255
 31
0.0
  0
INSERT
  5
9C60
330
9171
100
AcDbEntity
  8
DIM
100
AcDbBlockReference
  2
SEARROW
 10
37.86900391732901
 20
15.77761218133255
 30
0.0
 41
0.28
 42
0.28
 43
0.28
 50
180.0
  0
INSERT
  5
9C61
330
9171
100
AcDbEntity
  8
DIM
100
AcDbBlockReference
  2
SEARROW
 10
37.295753917329
 20
15.77761218133255
 30
0.0
 41
0.28
 42
0.28
 43
0.28
  0
MTEXT
  5
9C62
330
9171
100
AcDbEntity
  8
DIM
100
AcDbMText
 10
34.90325391732901
 20
15.77761218133255
 30
0.0
 40
0.4
 41
0.0
 71
     5
 72
     1
  1
\A1;.57 [15]
  7
ROMANS
1001
ACAD
1000
MTEXTBEGIN
1070
    73
1070
     1
1070
    44
1040
1.0
1070
    74
1070
     0
1000
MTEXTEND
  0
POINT
  5
9C63
330
9171
100
AcDbEntity
  8
DEFPOINTS
 62
     0
100
AcDbPoint
 10
37.86900391732901
 20
16.43752401041448
 30
0.0
  0
POINT
  5
9C64
330
9171
100
AcDbEntity
  8
DEFPOINTS
 62
     0
100
AcDbPoint
 10
37.295753917329
 20
18.43275803350264
 30
0.0
  0
POINT
  5
9C65
330
9171
100
AcDbEntity
  8
DEFPOINTS
 62
     0
100
AcDbPoint
 10
37.295753917329
 20
15.77761218133255
 30
0.0
  0
ENDBLK
  5
917D
330
9171
100
AcDbEntity
  8
0
100
AcDbBlockEnd
  0
BLOCK
  5
9189
330
917E
100
AcDbEntity
  8
0
100
AcDbBlockBegin
  2
*D15
 70
     1
 10
0.0
 20
0.0
 30
0.0
  3
*D15
  1

  0
LINE
  5
9C66
330
917E
100
AcDbEntity
  8
DIM
100
AcDbLine
 10
37.295753917329
 20
18.18275803350264
 30
0.0
 11
37.295753917329
 21
14.21741055146645
 31
0.0
  0
LINE
  5
9C67
330
917E
100
AcDbEntity
  8
DIM
100
AcDbLine
 10
31.17075391732901
 20
18.18275803350264
 30
0.0
 11
31.17075391732901
 21
14.21741055146645
 31
0.0
  0
LINE
  5
9C68
330
917E
100
AcDbEntity
  8
DIM
100
AcDbLine
 10
37.015753917329
 20
14.46741055146645
 30
0.0
 11
36.01230153637662
 21
14.46741055146645
 31
0.0
  0
LINE
  5
9C69
330
917E
100
AcDbEntity
  8
DIM
100
AcDbLine
 10
31.45075391732901
 20
14.46741055146645
 30
0.0
 11
32.45420629828139
 21
14.46741055146645
 31
0.0
  0
INSERT
  5
9C6A
330
917E
100
AcDbEntity
  8
DIM
100
AcDbBlockReference
  2
SEARROW
 10
37.295753917329
 20
14.46741055146645
 30
0.0
 41
0.28
 42
0.28
 43
0.28
  0
INSERT
  5
9C6B
330
917E
100
AcDbEntity
  8
DIM
100
AcDbBlockReference
  2
SEARROW
 10
31.17075391732901
 20
14.46741055146645
 30
0.0
 41
0.28
 42
0.28
 43
0.28
 50
180.0
  0
MTEXT
  5
9C6C
330
917E
100
AcDbEntity
  8
DIM
100
AcDbMText
 10
34.233253917329
 20
14.46741055146645
 30
0.0
 40
0.4
 41
0.0
 71
     5
 72
     1
  1
\A1;6.13 [156]
  7
ROMANS
1001
ACAD
1000
MTEXTBEGIN
1070
    73
1070
     1
1070
    44
1040
1.0
1070
    74
1070
     0
1000
MTEXTEND
  0
POINT
  5
9C6D
330
917E
100
AcDbEntity
  8
DEFPOINTS
 62
     0
100
AcDbPoint
 10
37.295753917329
 20
18.43275803350264
 30
0.0
  0
POINT
  5
9C6E
330
917E
100
AcDbEntity
  8
DEFPOINTS
 62
     0
100
AcDbPoint
 10
31.17075391732901
 20
18.43275803350264
 30
0.0
  0
POINT
  5
9C6F
330
917E
100
AcDbEntity
  8
DEFPOINTS
 62
     0
100
AcDbPoint
 10
31.17075391732901
 20
14.46741055146645
 30
0.0
  0
ENDBLK
  5
918A
330
917E
100
AcDbEntity
  8
0
100
AcDbBlockEnd
  0
BLOCK
  5
9195
330
918B
100
AcDbEntity
  8
0
100
AcDbBlockBegin
  2
*D16
 70
     1
 10
0.0
 20
0.0
 30
0.0
  3
*D16
  1

  0
LINE
  5
9CEF
330
918B
100
AcDbEntity
  8
DIM
100
AcDbLine
 10
35.133253917329
 20
25.24894319425159
 30
0.0
 11
35.133253917329
 21
28.58159542772282
 31
0.0
  0
LINE
  5
9CF0
330
918B
100
AcDbEntity
  8
DIM
100
AcDbLine
 10
37.86900391732899
 20
26.18775803350264
 30
0.0
 11
37.86900391732899
 21
28.58159542772282
 31
0.0
  0
LINE
  5
9CF1
330
918B
100
AcDbEntity
  8
DIM
100
AcDbLine
 10
38.149003917329
 20
28.33159542772282
 30
0.0
 11
38.429003917329
 21
28.33159542772282
 31
0.0
  0
LINE
  5
9CF2
330
918B
100
AcDbEntity
  8
DIM
100
AcDbLine
 10
34.853253917329
 20
28.33159542772282
 30
0.0
 11
34.57325391732901
 21
28.33159542772282
 31
0.0
  0
INSERT
  5
9CF3
330
918B
100
AcDbEntity
  8
DIM
100
AcDbBlockReference
  2
SEARROW
 10
37.86900391732899
 20
28.33159542772282
 30
0.0
 41
0.28
 42
0.28
 43
0.28
 50
180.0
  0
INSERT
  5
9CF4
330
918B
100
AcDbEntity
  8
DIM
100
AcDbBlockReference
  2
SEARROW
 10
35.133253917329
 20
28.33159542772282
 30
0.0
 41
0.28
 42
0.28
 43
0.28
  0
MTEXT
  5
9CF5
330
918B
100
AcDbEntity
  8
DIM
100
AcDbMText
 10
32.97515867923377
 20
28.33159542772282
 30
0.0
 40
0.4
 41
0.0
 71
     5
 72
     1
  1
\A1;2.74 [70]
  7
ROMANS
  0
POINT
  5
9CF6
330
918B
100
AcDbEntity
  8
DEFPOINTS
 62
     0
100
AcDbPoint
 10
35.133253917329
 20
24.99894319425159
 30
0.0
  0
POINT
  5
9CF7
330
918B
100
AcDbEntity
  8
DEFPOINTS
 62
     0
100
AcDbPoint
 10
37.86900391732899
 20
25.93775803350264
 30
0.0
  0
POINT
  5
9CF8
330
918B
100
AcDbEntity
  8
DEFPOINTS
 62
     0
100
AcDbPoint
 10
37.86900391732899
 20
28.33159542772282
 30
0.0
  0
ENDBLK
  5
9196
330
918B
100
AcDbEntity
  8
0
100
AcDbBlockEnd
  0
BLOCK
  5
91A1
330
9197
100
AcDbEntity
  8
0
100
AcDbBlockBegin
  2
*D17
 70
     1
 10
0.0
 20
0.0
 30
0.0
  3
*D17
  1

  0
LINE
  5
9CF9
330
9197
100
AcDbEntity
  8
DIM
100
AcDbLine
 10
35.133253917329
 20
25.24894319425159
 30
0.0
 11
35.133253917329
 21
27.75
 31
0.0
  0
LINE
  5
9CFA
330
9197
100
AcDbEntity
  8
DIM
100
AcDbLine
 10
33.363253917329
 20
25.24894319425159
 30
0.0
 11
33.363253917329
 21
27.75
 31
0.0
  0
LINE
  5
9CFB
330
9197
100
AcDbEntity
  8
DIM
100
AcDbLine
 10
35.413253917329
 20
27.5
 30
0.0
 11
35.69325391732901
 21
27.5
 31
0.0
  0
LINE
  5
9CFC
330
9197
100
AcDbEntity
  8
DIM
100
AcDbLine
 10
33.083253917329
 20
27.5
 30
0.0
 11
32.803253917329
 21
27.5
 31
0.0
  0
INSERT
  5
9CFD
330
9197
100
AcDbEntity
  8
DIM
100
AcDbBlockReference
  2
SEARROW
 10
35.133253917329
 20
27.5
 30
0.0
 41
0.28
 42
0.28
 43
0.28
 50
180.0
  0
INSERT
  5
9CFE
330
9197
100
AcDbEntity
  8
DIM
100
AcDbBlockReference
  2
SEARROW
 10
33.363253917329
 20
27.5
 30
0.0
 41
0.28
 42
0.28
 43
0.28
  0
MTEXT
  5
9CFF
330
9197
100
AcDbEntity
  8
DIM
100
AcDbMText
 10
31.23373010780519
 20
27.5
 30
0.0
 40
0.4
 41
0.0
 71
     5
 72
     1
  1
\A1;1.77 [45]
  7
ROMANS
  0
POINT
  5
9D00
330
9197
100
AcDbEntity
  8
DEFPOINTS
 62
     0
100
AcDbPoint
 10
35.133253917329
 20
24.99894319425159
 30
0.0
  0
POINT
  5
9D01
330
9197
100
AcDbEntity
  8
DEFPOINTS
 62
     0
100
AcDbPoint
 10
33.363253917329
 20
24.99894319425159
 30
0.0
  0
POINT
  5
9D02
330
9197
100
AcDbEntity
  8
DEFPOINTS
 62
     0
100
AcDbPoint
 10
33.363253917329
 20
27.5
 30
0.0
  0
ENDBLK
  5
91A2
330
9197
100
AcDbEntity
  8
0
100
AcDbBlockEnd
  0
BLOCK
  5
91AE
330
91A3
100
AcDbEntity
  8
0
100
AcDbBlockBegin
  2
*D18
 70
     1
 10
0.0
 20
0.0
 30
0.0
  3
*D18
  1

  0
LINE
  5
9C84
330
91A3
100
AcDbEntity
  8
DIM
100
AcDbLine
 10
38.18350391732902
 20
25.93775803350264
 30
0.0
 11
40.57547833177864
 21
25.93775803350264
 31
0.0
  0
LINE
  5
9C85
330
91A3
100
AcDbEntity
  8
DIM
100
AcDbLine
 10
35.383253917329
 20
24.99894319425159
 30
0.0
 11
40.57547833177864
 21
24.99894319425159
 31
0.0
  0
LINE
  5
9C86
330
91A3
100
AcDbEntity
  8
DIM
100
AcDbLine
 10
40.32547833177864
 20
25.27894319425159
 30
0.0
 11
40.32547833177864
 21
25.65775803350264
 31
0.0
  0
LINE
  5
9C87
330
91A3
100
AcDbEntity
  8
DIM
100
AcDbLine
 10
40.32547833177864
 20
25.93775803350264
 30
0.0
 11
40.32547833177864
 21
27.03273222333439
 31
0.0
  0
LINE
  5
9C88
330
91A3
100
AcDbEntity
  8
DIM
100
AcDbLine
 10
40.32547833177864
 20
27.03273222333439
 30
0.0
 11
40.60547833177864
 21
27.03273222333439
 31
0.0
  0
INSERT
  5
9C89
330
91A3
100
AcDbEntity
  8
DIM
100
AcDbBlockReference
  2
SEARROW
 10
40.32547833177864
 20
24.99894319425159
 30
0.0
 41
0.28
 42
0.28
 43
0.28
 50
270.0
  0
INSERT
  5
9C8A
330
91A3
100
AcDbEntity
  8
DIM
100
AcDbBlockReference
  2
SEARROW
 10
40.32547833177864
 20
25.93775803350264
 30
0.0
 41
0.28
 42
0.28
 43
0.28
 50
90.0
  0
MTEXT
  5
9C8B
330
91A3
100
AcDbEntity
  8
DIM
100
AcDbMText
 10
42.00357356987387
 20
27.0327322233344
 30
0.0
 40
0.4
 41
0.0
 71
     5
 72
     1
  1
\A1;.94 [24]
  7
ROMANS
1001
ACAD
1000
MTEXTBEGIN
1070
    73
1070
     1
1070
    44
1040
1.0
1070
    74
1070
     0
1000
MTEXTEND
  0
POINT
  5
9C8C
330
91A3
100
AcDbEntity
  8
DEFPOINTS
 62
     0
100
AcDbPoint
 10
37.93350391732902
 20
25.93775803350264
 30
0.0
  0
POINT
  5
9C8D
330
91A3
100
AcDbEntity
  8
DEFPOINTS
 62
     0
100
AcDbPoint
 10
35.133253917329
 20
24.99894319425159
 30
0.0
  0
POINT
  5
9C8E
330
91A3
100
AcDbEntity
  8
DEFPOINTS
 62
     0
100
AcDbPoint
 10
40.32547833177864
 20
24.99894319425159
 30
0.0
  0
ENDBLK
  5
91AF
330
91A3
100
AcDbEntity
  8
0
100
AcDbBlockEnd
  0
BLOCK
  5
91BB
330
91B0
100
AcDbEntity
  8
0
100
AcDbBlockBegin
  2
*D19
 70
     1
 10
0.0
 20
0.0
 30
0.0
  3
*D19
  1

  0
LINE
  5
9C8F
330
91B0
100
AcDbEntity
  8
DIM
100
AcDbLine
 10
33.113253917329
 20
24.99894319425159
 30
0.0
 11
25.12194731714389
 21
24.99894319425159
 31
0.0
  0
LINE
  5
9C90
330
91B0
100
AcDbEntity
  8
DIM
100
AcDbLine
 10
33.113253917329
 20
17.15275803350263
 30
0.0
 11
25.12194731714388
 21
17.15275803350263
 31
0.0
  0
LINE
  5
9C91
330
91B0
100
AcDbEntity
  8
DIM
100
AcDbLine
 10
25.37194731714389
 20
24.71894319425159
 30
0.0
 11
25.37194731714388
 21
21.47249999999999
 31
0.0
  0
LINE
  5
9C92
330
91B0
100
AcDbEntity
  8
DIM
100
AcDbLine
 10
25.37194731714388
 20
17.43275803350264
 30
0.0
 11
25.37194731714388
 21
20.54297619047618
 31
0.0
  0
INSERT
  5
9C93
330
91B0
100
AcDbEntity
  8
DIM
100
AcDbBlockReference
  2
SEARROW
 10
25.37194731714389
 20
24.99894319425159
 30
0.0
 41
0.28
 42
0.28
 43
0.28
 50
90.0
  0
INSERT
  5
9C94
330
91B0
100
AcDbEntity
  8
DIM
100
AcDbBlockReference
  2
SEARROW
 10
25.37194731714388
 20
17.15275803350263
 30
0.0
 41
0.28
 42
0.28
 43
0.28
 50
270.0
  0
MTEXT
  5
9C95
330
91B0
100
AcDbEntity
  8
DIM
100
AcDbMText
 10
25.37194731714388
 20
21.00773809523809
 30
0.0
 40
0.4
 41
0.0
 71
     5
 72
     1
  1
\A1;7.85 [199]
  7
ROMANS
1001
ACAD
1000
MTEXTBEGIN
1070
    73
1070
     1
1070
    44
1040
1.0
1070
    74
1070
     0
1000
MTEXTEND
  0
POINT
  5
9C96
330
91B0
100
AcDbEntity
  8
DEFPOINTS
 62
     0
100
AcDbPoint
 10
33.363253917329
 20
24.99894319425159
 30
0.0
  0
POINT
  5
9C97
330
91B0
100
AcDbEntity
  8
DEFPOINTS
 62
     0
100
AcDbPoint
 10
33.363253917329
 20
17.15275803350263
 30
0.0
  0
POINT
  5
9C98
330
91B0
100
AcDbEntity
  8
DEFPOINTS
 62
     0
100
AcDbPoint
 10
25.37194731714388
 20
17.15275803350263
 30
0.0
  0
ENDBLK
  5
91BC
330
91B0
100
AcDbEntity
  8
0
100
AcDbBlockEnd
  0
BLOCK
  5
91C8
330
91BD
100
AcDbEntity
  8
0
100
AcDbBlockBegin
  2
*D20
 70
     1
 10
0.0
 20
0.0
 30
0.0
  3
*D20
  1

  0
LINE
  5
9C99
330
91BD
100
AcDbEntity
  8
DIM
100
AcDbLine
 10
56.06454639291298
 20
26.46505414550842
 30
0.0
 11
56.06454639291298
 21
28.41851497918923
 31
0.0
  0
LINE
  5
9C9A
330
91BD
100
AcDbEntity
  8
DIM
100
AcDbLine
 10
60.19454639291298
 20
26.96505414550843
 30
0.0
 11
60.19454639291298
 21
28.41851497918923
 31
0.0
  0
LINE
  5
9C9B
330
91BD
100
AcDbEntity
  8
DIM
100
AcDbLine
 10
55.78454639291297
 20
28.16851497918923
 30
0.0
 11
55.50454639291298
 21
28.16851497918923
 31
0.0
  0
LINE
  5
9C9C
330
91BD
100
AcDbEntity
  8
DIM
100
AcDbLine
 10
60.47454639291299
 20
28.16851497918923
 30
0.0
 11
60.75454639291298
 21
28.16851497918923
 31
0.0
  0
INSERT
  5
9C9D
330
91BD
100
AcDbEntity
  8
DIM
100
AcDbBlockReference
  2
SEARROW
 10
56.06454639291298
 20
28.16851497918923
 30
0.0
 41
0.28
 42
0.28
 43
0.28
  0
INSERT
  5
9C9E
330
91BD
100
AcDbEntity
  8
DIM
100
AcDbBlockReference
  2
SEARROW
 10
60.19454639291298
 20
28.16851497918923
 30
0.0
 41
0.28
 42
0.28
 43
0.28
 50
180.0
  0
MTEXT
  5
9C9F
330
91BD
100
AcDbEntity
  8
DIM
100
AcDbMText
 10
58.12954639291298
 20
28.16851497918923
 30
0.0
 40
0.4
 41
0.0
 71
     5
 72
     1
  1
\A1;4.13 [105]
  7
ROMANS
1001
ACAD
1000
MTEXTBEGIN
1070
    73
1070
     1
1070
    44
1040
1.0
1070
    74
1070
     0
1000
MTEXTEND
  0
POINT
  5
9CA0
330
91BD
100
AcDbEntity
  8
DEFPOINTS
 62
     0
100
AcDbPoint
 10
56.06454639291298
 20
26.21505414550842
 30
0.0
  0
POINT
  5
9CA1
330
91BD
100
AcDbEntity
  8
DEFPOINTS
 62
     0
100
AcDbPoint
 10
60.19454639291298
 20
26.71505414550843
 30
0.0
  0
POINT
  5
9CA2
330
91BD
100
AcDbEntity
  8
DEFPOINTS
 62
     0
100
AcDbPoint
 10
60.19454639291298
 20
28.16851497918923
 30
0.0
  0
ENDBLK
  5
91C9
330
91BD
100
AcDbEntity
  8
0
100
AcDbBlockEnd
  0
BLOCK
  5
91D5
330
91CA
100
AcDbEntity
  8
0
100
AcDbBlockBegin
  2
*D21
 70
     1
 10
0.0
 20
0.0
 30
0.0
  3
*D21
  1

  0
LINE
  5
9CA3
330
91CA
100
AcDbEntity
  8
DIM
100
AcDbLine
 10
60.44454639291299
 20
26.71505414550843
 30
0.0
 11
62.43603625658426
 21
26.71505414550843
 31
0.0
  0
LINE
  5
9CA4
330
91CA
100
AcDbEntity
  8
DIM
100
AcDbLine
 10
60.44454639291299
 20
17.21505414550843
 30
0.0
 11
62.43603625658426
 21
17.21505414550843
 31
0.0
  0
LINE
  5
9CA5
330
91CA
100
AcDbEntity
  8
DIM
100
AcDbLine
 10
62.18603625658427
 20
26.43505414550843
 30
0.0
 11
62.18603625658427
 21
22.42981605027033
 31
0.0
  0
LINE
  5
9CA6
330
91CA
100
AcDbEntity
  8
DIM
100
AcDbLine
 10
62.18603625658427
 20
17.49505414550843
 30
0.0
 11
62.18603625658427
 21
21.50029224074652
 31
0.0
  0
INSERT
  5
9CA7
330
91CA
100
AcDbEntity
  8
DIM
100
AcDbBlockReference
  2
SEARROW
 10
62.18603625658427
 20
26.71505414550843
 30
0.0
 41
0.28
 42
0.28
 43
0.28
 50
90.0
  0
INSERT
  5
9CA8
330
91CA
100
AcDbEntity
  8
DIM
100
AcDbBlockReference
  2
SEARROW
 10
62.18603625658427
 20
17.21505414550843
 30
0.0
 41
0.28
 42
0.28
 43
0.28
 50
270.0
  0
MTEXT
  5
9CA9
330
91CA
100
AcDbEntity
  8
DIM
100
AcDbMText
 10
62.18603625658426
 20
21.96505414550844
 30
0.0
 40
0.4
 41
0.0
 71
     5
 72
     1
  1
\A1;9.50 [241]
  7
ROMANS
1001
ACAD
1000
MTEXTBEGIN
1070
    73
1070
     1
1070
    44
1040
1.0
1070
    74
1070
     0
1000
MTEXTEND
  0
POINT
  5
9CAA
330
91CA
100
AcDbEntity
  8
DEFPOINTS
 62
     0
100
AcDbPoint
 10
60.19454639291298
 20
26.71505414550843
 30
0.0
  0
POINT
  5
9CAB
330
91CA
100
AcDbEntity
  8
DEFPOINTS
 62
     0
100
AcDbPoint
 10
60.19454639291298
 20
17.21505414550843
 30
0.0
  0
POINT
  5
9CAC
330
91CA
100
AcDbEntity
  8
DEFPOINTS
 62
     0
100
AcDbPoint
 10
62.18603625658427
 20
17.21505414550843
 30
0.0
  0
ENDBLK
  5
91D6
330
91CA
100
AcDbEntity
  8
0
100
AcDbBlockEnd
  0
BLOCK
  5
94F0
330
94E7
100
AcDbEntity
  8
0
100
AcDbBlockBegin
  2
*D22
 70
     1
 10
0.0
 20
0.0
 30
0.0
  3
*D22
  1

  0
LINE
  5
9CAD
330
94E7
100
AcDbEntity
  8
DIM
100
AcDbLine
 10
26.82598224635613
 20
16.01204350013071
 30
0.0
 11
27.10598224635614
 21
16.01204350013071
 31
0.0
  0
LINE
  5
9CAE
330
94E7
100
AcDbEntity
  8
DIM
100
AcDbLine
 10
27.10598224635614
 20
16.01204350013071
 30
0.0
 11
30.79593634678113
 21
18.20954098373137
 31
0.0
  0
MTEXT
  5
9CAF
330
94E7
100
AcDbEntity
  8
DIM
100
AcDbMText
 10
25.24693462730852
 20
16.01204350013071
 30
0.0
 40
0.4
 41
0.0
 71
     5
 72
     1
  1
\A1;\U+2205.31 [\U+22058]
  7
ROMANS
1001
ACAD
1000
MTEXTBEGIN
1070
    73
1070
     1
1070
    44
1040
1.0
1070
    74
1070
     0
1000
MTEXTEND
  0
INSERT
  5
9CB0
330
94E7
100
AcDbEntity
  8
DIM
100
AcDbBlockReference
  2
SEARROW
 10
31.03650693647376
 20
18.3528092334413
 30
0.0
 41
0.28
 42
0.28
 43
0.28
 50
30.77528649902459
  0
LINE
  5
9CB1
330
94E7
100
AcDbEntity
  8
DIM
100
AcDbLine
 10
30.81075391732902
 20
18.43275803350265
 30
0.0
 11
31.53075391732901
 21
18.43275803350264
 31
0.0
  0
LINE
  5
9CB2
330
94E7
100
AcDbEntity
  8
DIM
100
AcDbLine
 10
31.17075391732901
 20
18.07275803350264
 30
0.0
 11
31.17075391732901
 21
18.79275803350265
 31
0.0
  0
POINT
  5
9CB3
330
94E7
100
AcDbEntity
  8
DEFPOINTS
 62
     0
100
AcDbPoint
 10
31.03650693647376
 20
18.3528092334413
 30
0.0
  0
POINT
  5
9CB4
330
94E7
100
AcDbEntity
  8
DEFPOINTS
 62
     0
100
AcDbPoint
 10
31.30500089818426
 20
18.51270683356399
 30
0.0
  0
ENDBLK
  5
94F1
330
94E7
100
AcDbEntity
  8
0
100
AcDbBlockEnd
  0
BLOCK
  5
94FC
330
94F3
100
AcDbEntity
  8
0
100
AcDbBlockBegin
  2
*D23
 70
     1
 10
0.0
 20
0.0
 30
0.0
  3
*D23
  1

  0
LINE
  5
9CB5
330
94F3
100
AcDbEntity
  8
DIM
100
AcDbLine
 10
28.21691471908405
 20
14.44169177736004
 30
0.0
 11
28.49691471908406
 21
14.44169177736004
 31
0.0
  0
LINE
  5
9CB6
330
94F3
100
AcDbEntity
  8
DIM
100
AcDbLine
 10
28.49691471908406
 20
14.44169177736004
 30
0.0
 11
33.00945332711703
 21
16.95565363891523
 31
0.0
  0
MTEXT
  5
9CB7
330
94F3
100
AcDbEntity
  8
DIM
100
AcDbMText
 10
26.63786710003643
 20
14.44169177736004
 30
0.0
 40
0.4
 41
0.0
 71
     5
 72
     1
  1
\A1;\U+2205.25 [\U+22056]
  7
ROMANS
1001
ACAD
1000
MTEXTBEGIN
1070
    73
1070
     1
1070
    44
1040
1.0
1070
    74
1070
     0
1000
MTEXTEND
  0
INSERT
  5
9CB8
330
94F3
100
AcDbEntity
  8
DIM
100
AcDbBlockReference
  2
SEARROW
 10
33.25405620430061
 20
17.09192334381516
 30
0.0
 41
0.28
 42
0.28
 43
0.28
 50
29.12243736649819
  0
LINE
  5
9CB9
330
94F3
100
AcDbEntity
  8
DIM
100
AcDbLine
 10
33.00325391732899
 20
17.15275803350262
 30
0.0
 11
33.72325391732899
 21
17.15275803350262
 31
0.0
  0
LINE
  5
9CBA
330
94F3
100
AcDbEntity
  8
DIM
100
AcDbLine
 10
33.36325391732898
 20
16.79275803350263
 30
0.0
 11
33.36325391732898
 21
17.51275803350263
 31
0.0
  0
POINT
  5
9CBB
330
94F3
100
AcDbEntity
  8
DEFPOINTS
 62
     0
100
AcDbPoint
 10
33.25405620430061
 20
17.09192334381516
 30
0.0
  0
POINT
  5
9CBC
330
94F3
100
AcDbEntity
  8
DEFPOINTS
 62
     0
100
AcDbPoint
 10
33.47245163035737
 20
17.2135927231901
 30
0.0
  0
ENDBLK
  5
94FD
330
94F3
100
AcDbEntity
  8
0
100
AcDbBlockEnd
  0
BLOCK
  5
970E
330
970C
100
AcDbEntity
  8
0
100
AcDbBlockBegin
  2
SEARROW
 70
     0
 10
0.0
 20
0.0
 30
0.0
  3
SEARROW
  1

  0
LWPOLYLINE
  5
970D
330
970C
100
AcDbEntity
  8
0
  6
BYBLOCK
100
AcDbPolyline
 90
        2
 70
     0
 10
0.0
 20
0.0
 40
0.0
 41
0.5000000001500001
 10
-1.000000000300019
 20
0.0
 40
0.5000000001500001
 41
0.5000000001500001
  0
ENDBLK
  5
970F
330
970C
100
AcDbEntity
  8
0
100
AcDbBlockEnd
  0
ENDSEC
  0
SECTION
  2
ENTITIES
  0
INSERT
  5
79E
330
1F
100
AcDbEntity
  8
0
100
AcDbBlockReference
  2
NEWLAYERS
 10
0.0
 20
0.0475228887496178
 30
0.0
 41
0.01
 42
0.01
 43
0.01
  0
LWPOLYLINE
  5
BF7
330
1F
100
AcDbEntity
  8
VIEWPORT
100
AcDbPolyline
 90
        6
 70
     1
 43
0.0
 10
65.60000399999999
 20
41.04752288874961
 10
65.60000399999999
 20
3.695530888749614
 10
32.009844
 20
3.695530888749614
 10
32.009844
 20
0.0475228887496178
 10
0.0
 20
0.0475228887496178
 10
0.0
 20
41.04752288874961
1001
GENIUS_GENOREF_13
1005
0
1005
0
1005
0
1005
0
1005
0
1005
0
1005
0
  0
VIEWPORT
  5
BF8
330
1F
100
AcDbEntity
  8
VIEWPORT
100
AcDbViewport
 10
32.80000199999999
 20
20.54752288874961
 30
0.0
 40
65.60000399999999
 41
41.0
 69
     0
1001
ACAD
1000
MVIEW
1002
{
1070
    16
1010
0.0
1020
0.0
1030
0.0
1010
0.0
1020
0.0
1030
1.0
1040
0.0
1040
41.0
1040
32.79338763516309
1040
20.56885335866419
1040
50.0
1040
0.0
1040
0.0
1070
     0
1070
   100
1070
     1
1070
     2
1070
     0
1070
     0
1070
     0
1070
     0
1040
0.0
1040
0.0
1040
0.0
1040
0.5
1040
0.5
1040
0.5
1040
0.5
1070
     0
1002
{
1002
}
1002
}
1001
GENIUS_GENOREF_13
1005
0
1005
0
1005
0
1005
0
1005
0
1005
0
1005
0
1001
GENIUS_GENSCREG_15
1000
PF
1040
0.0
1000
DF
1040
0.0
1000
MIN
1011
0.0
1021
0.0475228887496178
1031
0.0
1000
MAX
1011
65.60000399999999
1021
41.04752288874961
1031
0.0
1000
FLAGS
1070
     2
  0
INSERT
  5
8DEB
330
1F
100
AcDbEntity
  8
TEXT1
100
AcDbBlockReference
 66
     1
  2
REF2
 10
0.6399999999974997
 20
4.695530888749619
 30
0.0
 41
3.199993599987499
 42
3.199993599987499
 43
3.199993599987499
  0
ATTRIB
  5
8DEC
330
8DEB
100
AcDbEntity
  8
TEXT1
100
AcDbText
 10
6.639987999974045
 20
5.400928854231418
 30
0.0
 40
0.3999991999984375
  1
 (8) #14-20 screws
100
AcDbAttribute
  2
MOUNTING_HWD
 70
     0
  0
ATTRIB
  5
8DED
330
8DEB
100
AcDbEntity
  8
TEXT1
100
AcDbText
 10
6.639987999974045
 20
6.130661105622897
 30
0.0
 40
0.3999991999984375
  1
 -
100
AcDbAttribute
  2
TERM_TORQUE
 70
     0
  0
ATTRIB
  5
8DEE
330
8DEB
100
AcDbEntity
  8
TEXT1
100
AcDbText
 10
6.639987999974045
 20
6.800926054225957
 30
0.0
 40
0.3999991999984375
  1
 -
100
AcDbAttribute
  2
WIRE_SIZE
 70
     0
  0
ATTRIB
  5
8DEF
330
8DEB
100
AcDbEntity
  8
TEXT1
100
AcDbText
 10
6.639987999974045
 20
7.436057928526327
 30
0.0
 40
0.3999991999984375
  1
 8.5 lbs
100
AcDbAttribute
  2
WEIGHT
 70
     0
  0
ATTRIB
  5
8DF0
330
8DEB
100
AcDbEntity
  8
TEXT1
100
AcDbText
 10
6.639987999974045
 20
8.095524088736333
 30
0.0
 40
0.3999991999984375
  1
 -
100
AcDbAttribute
  2
STANDARDS
 70
     0
  0
ATTRIB
  5
8DF1
330
8DEB
100
AcDbEntity
  8
TEXT1
100
AcDbText
 10
6.639987999974045
 20
8.83605507109689
 30
0.0
 40
0.3999991999984375
  1
 -
100
AcDbAttribute
  2
CSA
 70
     0
  0
ATTRIB
  5
8DF2
330
8DEB
100
AcDbEntity
  8
TEXT1
100
AcDbText
 10
6.675134493954844
 20
9.49552128873087
 30
0.0
 40
0.3999991999984375
  1
 E62922/DIHS2
100
AcDbAttribute
  2
UL
 70
     0
  0
ATTRIB
  5
8DF3
330
8DEB
100
AcDbEntity
  8
TEXT1
100
AcDbText
 10
6.639987999974045
 20
10.20091925421267
 30
0.0
 40
0.3999991999984375
  1
 -
100
AcDbAttribute
  2
RATING
 70
     0
  0
ATTRIB
  5
8DF4
330
8DEB
100
AcDbEntity
  8
TEXT1
100
AcDbText
 10
6.639987999974045
 20
10.8955184887254
 30
0.0
 40
0.3999991999984375
  1
 9422-CSJ30, CSJ50, CSJ10
100
AcDbAttribute
  2
CATALOG
 70
     0
  0
SEQEND
  5
8DF5
330
8DEB
100
AcDbEntity
  8
MOUNTING
  0
LINE
  5
8DFB
330
1F
100
AcDbEntity
  8
CONTINUOUS1
100
AcDbLine
 10
4.24797029704381
 20
36.44669748493767
 30
0.0
 11
4.24797029704381
 21
30.87231647500741
 31
0.0
  0
LINE
  5
8DFC
330
1F
100
AcDbEntity
  8
CONTINUOUS1
100
AcDbLine
 10
15.55963091861345
 20
33.97460304956719
 30
0.0
 11
15.55963091861343
 21
30.87231647500741
 31
0.0
  0
LINE
  5
8DFD
330
1F
100
AcDbEntity
  8
CONTINUOUS1
100
AcDbLine
 10
10.0984044365597
 20
36.44669748493765
 30
0.0
 11
10.0984044365597
 21
30.87231647500741
 31
0.0
  0
TEXT
  5
8DFE
330
1F
100
AcDbEntity
  8
TEXT1
100
AcDbText
 10
5.286357727646153
 20
32.60990598656394
 30
0.0
 40
0.3999999999998436
  1
36"
100
AcDbText
  0
TEXT
  5
8DFF
330
1F
100
AcDbEntity
  8
TEXT1
100
AcDbText
 10
7.206086920647138
 20
35.03978099869637
 30
0.0
 40
0.3999999999998436
  1
MAXIMUM
100
AcDbText
  0
TEXT
  5
8E00
330
1F
100
AcDbEntity
  8
TEXT1
100
AcDbText
 10
7.920632550765245
 20
34.39564301946005
 30
0.0
 40
0.3999999999998436
  1
BOX
100
AcDbText
  0
LINE
  5
8E01
330
1F
100
AcDbEntity
  8
CONTINUOUS1
100
AcDbLine
 10
1.471930678961377
 20
31.6633921421338
 30
0.0
 11
21.42314621016533
 21
31.6633921421338
 31
0.0
  0
LINE
  5
8E02
330
1F
100
AcDbEntity
  8
CONTINUOUS1
100
AcDbLine
 10
1.471930678961377
 20
33.19142044522862
 30
0.0
 11
21.42314621016533
 21
33.19142044522861
 31
0.0
  0
TEXT
  5
8E03
330
1F
100
AcDbEntity
  8
TEXT1
100
AcDbText
 10
5.093289963697181
 20
31.06339214213404
 30
0.0
 40
0.3999999999998436
  1
120"
100
AcDbText
  0
TEXT
  5
8E04
330
1F
100
AcDbEntity
  8
TEXT1
100
AcDbText
 10
4.678460772327732
 20
35.05334079846494
 30
0.0
 40
0.3999999999998436
  1
CABLE
100
AcDbText
  0
TEXT
  5
8E05
330
1F
100
AcDbEntity
  8
TEXT1
100
AcDbText
 10
11.86666666666203
 20
31.83390383886517
 30
0.0
 40
0.3999999999998436
  1
3.75"
100
AcDbText
  0
LINE
  5
8E06
330
1F
100
AcDbEntity
  8
CONTINUOUS1
100
AcDbLine
 10
1.471930678961377
 20
30.87231647500741
 30
0.0
 11
21.42314621016533
 21
30.87231647500741
 31
0.0
  0
LINE
  5
8E07
330
1F
100
AcDbEntity
  8
CONTINUOUS1
100
AcDbLine
 10
1.471930678961377
 20
36.44669748493765
 30
0.0
 11
21.42314621016535
 21
36.44669748493764
 31
0.0
  0
TEXT
  5
8E08
330
1F
100
AcDbEntity
  8
TEXT1
100
AcDbText
 10
5.256443653203728
 20
31.89791771812178
 30
0.0
 40
0.3999999999998438
  1
60"
  7
SIMPLEX
 11
5.256443653203728
 21
32.29791771812162
 31
0.0
100
AcDbText
 73
     3
  0
TEXT
  5
8E09
330
1F
100
AcDbEntity
  8
TEXT1
100
AcDbText
 10
4.539817534902176
 20
34.36020040420661
 30
0.0
 40
0.3999999999998436
  1
LENGTH
100
AcDbText
  0
LINE
  5
8E0A
330
1F
100
AcDbEntity
  8
CONTINUOUS1
100
AcDbLine
 10
6.890098215205917
 20
36.44669748493765
 30
0.0
 11
6.890098215205917
 21
30.87231647500741
 31
0.0
  0
TEXT
  5
8E0B
330
1F
100
AcDbEntity
  8
TEXT1
100
AcDbText
 10
8.208583747111521
 20
31.89791771812178
 30
0.0
 40
0.3999999999998438
  1
36"
  7
SIMPLEX
 11
8.208583747111521
 21
32.29791771812162
 31
0.0
100
AcDbText
 73
     3
  0
TEXT
  5
8E0C
330
1F
100
AcDbEntity
  8
TEXT1
100
AcDbText
 10
8.229026266001831
 20
32.64319255837705
 30
0.0
 40
0.3999999999998436
  1
24"
100
AcDbText
  0
TEXT
  5
8E0D
330
1F
100
AcDbEntity
  8
TEXT1
100
AcDbText
 10
8.228794189641369
 20
31.06339214213404
 30
0.0
 40
0.3999999999998436
  1
36"
100
AcDbText
  0
LINE
  5
8E0E
330
1F
100
AcDbEntity
  8
CONTINUOUS1
100
AcDbLine
 10
10.0984044365597
 20
33.97460304956722
 30
0.0
 11
21.42314621016534
 21
33.97460304956718
 31
0.0
  0
LINE
  5
8E0F
330
1F
100
AcDbEntity
  8
CONTINUOUS1
100
AcDbLine
 10
21.42314621016535
 20
36.44669748493767
 30
0.0
 11
21.42314621016533
 21
30.87231647500741
 31
0.0
  0
TEXT
  5
8E10
330
1F
100
AcDbEntity
  8
TEXT1
100
AcDbText
 10
12.13412911825901
 20
35.82824524128655
 30
0.0
 40
0.3999999999998436
  1
MAXIMUM DISTANCE
100
AcDbText
  0
TEXT
  5
8E11
330
1F
100
AcDbEntity
  8
TEXT1
100
AcDbText
 10
10.34471967256336
 20
35.26964325247231
 30
0.0
 40
0.3999999999998436
  1
FROM TOP RIGHT MOUNTING HOLE
100
AcDbText
  0
TEXT
  5
8E12
330
1F
100
AcDbEntity
  8
TEXT1
100
AcDbText
 10
11.27230183713604
 20
34.71104116624222
 30
0.0
 40
0.3999999999998436
  1
TO UPPER MOUNTING HOLE
100
AcDbText
  0
TEXT
  5
8E13
330
1F
100
AcDbEntity
  8
TEXT1
100
AcDbText
 10
10.61940225440773
 20
34.15734564306518
 30
0.0
 40
0.3999999999998438
  1
FOR HANDLE OPERATOR (DIM C)
  7
SIMPLEX
100
AcDbText
  0
TEXT
  5
8E14
330
1F
100
AcDbEntity
  8
TEXT1
100
AcDbText
 10
11.01114188812857
 20
33.40026915389993
 30
0.0
 40
0.3999999999998438
  1
MINIMUM C
  7
SIMPLEX
100
AcDbText
  0
TEXT
  5
8E15
330
1F
100
AcDbEntity
  8
TEXT1
100
AcDbText
 10
16.39284556856114
 20
33.3480569235533
 30
0.0
 40
0.3999999999998438
  1
MAXIMUM C
  7
SIMPLEX
100
AcDbText
  0
TEXT
  5
8E16
330
1F
100
AcDbEntity
  8
TEXT1
100
AcDbText
 10
17.17451384475935
 20
31.04317070666095
 30
0.0
 40
0.3999999999998438
  1
5 FEET
  7
SIMPLEX
100
AcDbText
  0
TEXT
  5
8E17
330
1F
100
AcDbEntity
  8
TEXT1
100
AcDbText
 10
2.134197217660638
 20
34.86918236148577
 30
0.0
 40
0.3999999999998438
  1
TYPE
  7
SIMPLEX
100
AcDbText
  0
LINE
  5
8E18
330
1F
100
AcDbEntity
  8
CONTINUOUS1
100
AcDbLine
 10
1.471930678961377
 20
36.44669748493765
 30
0.0
 11
1.471930678961377
 21
30.87231647500741
 31
0.0
  0
TEXT
  5
8E19
330
1F
100
AcDbEntity
  8
TEXT1
100
AcDbText
 10
2.018935884210699
 20
32.59594512881832
 30
0.0
 40
0.3999999999998438
  1
CSJ30
  7
SIMPLEX
100
AcDbText
  0
LINE
  5
8E1A
330
1F
100
AcDbEntity
  8
CONTINUOUS1
100
AcDbLine
 10
55.27175354454467
 20
15.81603991929638
 30
0.0
 11
54.72126032363672
 21
21.10469229600973
 31
0.0
  0
LINE
  5
8E1B
330
1F
100
AcDbEntity
  8
CONTINUOUS1
100
AcDbLine
 10
54.93224401585019
 20
15.78889721506992
 30
0.0
 11
54.36695284337138
 21
21.05311410380468
 31
0.0
  0
LINE
  5
8E1C
330
1F
100
AcDbEntity
  8
CONTINUOUS1
100
AcDbLine
 10
50.27669562569888
 20
14.79765225158814
 30
0.0
 11
50.27669562569888
 21
18.38176045306721
 31
0.0
  0
LINE
  5
8E1D
330
1F
100
AcDbEntity
  8
CONTINUOUS1
100
AcDbLine
 10
60.19454639291298
 20
26.55515163860414
 30
0.0
 11
60.19454639291298
 21
17.75515163860412
 31
0.0
  0
LINE
  5
8E1E
330
1F
100
AcDbEntity
  8
CONTINUOUS1
100
AcDbLine
 10
60.28754639291298
 20
27.47824480883343
 30
0.0
 11
60.28754639291298
 21
14.92239802300566
 31
0.0
  0
LINE
  5
8E1F
330
1F
100
AcDbEntity
  8
CONTINUOUS1
100
AcDbLine
 10
60.19454639291298
 20
27.47527785508655
 30
0.0
 11
60.19454639291297
 21
14.92239802300566
 31
0.0
  0
LINE
  5
8E20
330
1F
100
AcDbEntity
  8
CONTINUOUS1
100
AcDbLine
 10
47.85543047125615
 20
24.85127669393906
 30
0.0
 11
47.85543047125615
 21
14.27582669133216
 31
0.0
  0
LINE
  5
8E21
330
1F
100
AcDbEntity
  8
CONTINUOUS1
100
AcDbLine
 10
47.94843047125616
 20
24.85424364768595
 30
0.0
 11
47.94843047125616
 21
14.27582669133216
 31
0.0
  0
LINE
  5
8E22
330
1F
100
AcDbEntity
  8
CONTINUOUS1
100
AcDbLine
 10
48.12443047125615
 20
23.92265225158814
 30
0.0
 11
48.12443047125616
 21
14.79765225158814
 31
0.0
  0
LINE
  5
8E23
330
1F
100
AcDbEntity
  8
CONTINUOUS1
100
AcDbLine
 10
50.27669562569888
 20
14.79765225158814
 30
0.0
 11
47.94843047125616
 21
14.79765225158814
 31
0.0
  0
LINE
  5
8E24
330
1F
100
AcDbEntity
  8
CONTINUOUS1
100
AcDbLine
 10
48.21838219171965
 20
14.79765225158814
 30
0.0
 11
48.21838219171965
 21
13.8576439781917
 31
0.0
  0
LINE
  5
8E25
330
1F
100
AcDbEntity
  8
CONTINUOUS1
100
AcDbLine
 10
48.59338219171966
 20
14.79765225158814
 30
0.0
 11
48.59338219171966
 21
13.85764397819167
 31
0.0
  0
LINE
  5
8E26
330
1F
100
AcDbEntity
  8
CONTINUOUS1
100
AcDbLine
 10
48.21838219171965
 20
13.85764397819169
 30
0.0
 11
48.25608772029915
 21
13.5307364848264
 31
0.0
  0
LINE
  5
8E27
330
1F
100
AcDbEntity
  8
CONTINUOUS1
100
AcDbLine
 10
48.59338219171966
 20
13.85764397819169
 30
0.0
 11
48.55308229430346
 21
13.54364442003365
 31
0.0
  0
CIRCLE
  5
8E28
330
1F
100
AcDbEntity
  8
CONTINUOUS1
100
AcDbCircle
 10
48.88142416128349
 20
16.07319274167705
 30
0.0
 40
0.0839745969405588
  0
LINE
  5
8E29
330
1F
100
AcDbEntity
  8
CONTINUOUS1
100
AcDbLine
 10
55.12650715990291
 20
16.81378486459173
 30
0.0
 11
55.35160435936965
 21
15.83480646679211
 31
0.0
  0
LINE
  5
8E2A
330
1F
100
AcDbEntity
  8
CONTINUOUS1
100
AcDbLine
 10
54.77792793762979
 20
16.81452485321084
 30
0.0
 11
54.84380271251943
 21
15.78182661488106
 31
0.0
  0
LINE
  5
8E2B
330
1F
100
AcDbEntity
  8
CONTINUOUS1
100
AcDbLine
 10
54.63122183642683
 20
15.29145847311282
 30
0.0
 11
55.61943336888727
 21
15.37735215748574
 31
0.0
  0
LINE
  5
8E2C
330
1F
100
AcDbEntity
  8
CONTINUOUS1
100
AcDbLine
 10
54.58555684614282
 20
15.7611806813318
 30
0.0
 11
55.58237633787571
 21
15.84087322114155
 31
0.0
  0
LINE
  5
8E2D
330
1F
100
AcDbEntity
  8
CONTINUOUS1
100
AcDbLine
 10
54.59040647049097
 20
15.79986005288914
 30
0.0
 11
54.59887253695247
 21
15.5957799381717
 31
0.0
  0
LINE
  5
8E2E
330
1F
100
AcDbEntity
  8
CONTINUOUS1
100
AcDbLine
 10
54.82004071724673
 20
15.80938620783844
 30
0.0
 11
54.82807012129602
 21
15.61583212850929
 31
0.0
  0
LINE
  5
8E2F
330
1F
100
AcDbEntity
  8
CONTINUOUS1
100
AcDbLine
 10
54.83325660960581
 20
15.49080840774699
 30
0.0
 11
54.84235427625889
 21
15.30980974968887
 31
0.0
  0
LINE
  5
8E30
330
1F
100
AcDbEntity
  8
CONTINUOUS1
100
AcDbLine
 10
54.60405902526224
 20
15.4707562174094
 30
0.0
 11
54.63122183642683
 21
15.29145847311282
 31
0.0
  0
LINE
  5
8E31
330
1F
100
AcDbEntity
  8
CONTINUOUS1
100
AcDbLine
 10
55.58954711694697
 20
15.84130843765213
 30
0.0
 11
55.59731868909008
 21
15.65396956644162
 31
0.0
  0
LINE
  5
8E32
330
1F
100
AcDbEntity
  8
CONTINUOUS1
100
AcDbLine
 10
55.34050255388784
 20
15.83097706447717
 30
0.0
 11
55.3482741260309
 21
15.64363819326666
 31
0.0
  0
LINE
  5
8E33
330
1F
100
AcDbEntity
  8
CONTINUOUS1
100
AcDbLine
 10
55.08997679371899
 20
15.82058424527063
 30
0.0
 11
55.09774836586205
 21
15.63324537406013
 31
0.0
  0
LINE
  5
8E34
330
1F
100
AcDbEntity
  8
CONTINUOUS1
100
AcDbLine
 10
55.35272875884508
 20
15.53625633182287
 30
0.0
 11
55.35977605280262
 21
15.36637666387512
 31
0.0
  0
LINE
  5
8E35
330
1F
100
AcDbEntity
  8
CONTINUOUS1
100
AcDbLine
 10
55.10267938747407
 20
15.51437984650613
 30
0.0
 11
55.10925029263378
 21
15.35598384466859
 31
0.0
  0
LINE
  5
8E36
330
1F
100
AcDbEntity
  8
CONTINUOUS1
100
AcDbLine
 10
55.60104904371873
 20
15.56404690826058
 30
0.0
 11
55.60882061586179
 21
15.37670803705008
 31
0.0
  0
POINT
  5
8E37
330
1F
100
AcDbEntity
  8
CONTINUOUS1
100
AcDbPoint
 10
60.19454639291297
 20
14.92239802300566
 30
0.0
  0
LINE
  5
8E38
330
1F
100
AcDbEntity
  8
CONTINUOUS1
100
AcDbLine
 10
60.19454639291297
 20
14.92239802300566
 30
0.0
 11
60.28754639291298
 21
14.92239802300566
 31
0.0
  0
LINE
  5
8E39
330
1F
100
AcDbEntity
  8
CONTINUOUS1
100
AcDbLine
 10
51.1602944653673
 20
23.92265225158814
 30
0.0
 11
52.19843047125616
 21
22.55333034474753
 31
0.0
  0
POINT
  5
8E3A
330
1F
100
AcDbEntity
  8
CONTINUOUS1
100
AcDbPoint
 10
47.85543047125615
 20
22.90957732477641
 30
0.0
  0
LINE
  5
8E3B
330
1F
100
AcDbEntity
  8
CONTINUOUS1
100
AcDbLine
 10
52.19843047125616
 20
22.55333034474753
 30
0.0
 11
52.19843047125616
 21
19.01317626754945
 31
0.0
  0
LINE
  5
8E3C
330
1F
100
AcDbEntity
  8
CONTINUOUS1
100
AcDbLine
 10
52.19843047125616
 20
19.01317626754945
 30
0.0
 11
50.27669562569888
 21
18.38176045306721
 31
0.0
  0
CIRCLE
  5
8E3D
330
1F
100
AcDbEntity
  8
CONTINUOUS1
100
AcDbCircle
 10
51.2855880053792
 20
20.55797861151139
 30
0.0
 40
0.1375984474541977
  0
LINE
  5
8E3E
330
1F
100
AcDbEntity
  8
CONTINUOUS1
100
AcDbLine
 10
51.1602944653673
 20
23.92265225158814
 30
0.0
 11
47.94843047125616
 21
23.92265225158814
 31
0.0
  0
LINE
  5
8E3F
330
1F
100
AcDbEntity
  8
CONTINUOUS1
100
AcDbLine
 10
54.36695284337138
 20
21.05311410380468
 30
0.0
 11
54.72126032363672
 21
21.10469229600974
 31
0.0
  0
LINE
  5
8E40
330
1F
100
AcDbEntity
  8
CONTINUOUS1
100
AcDbLine
 10
60.28754639291298
 20
27.47824480883343
 30
0.0
 11
60.19454639291298
 21
27.47824480883343
 31
0.0
  0
LINE
  5
8E41
330
1F
100
AcDbEntity
  8
CONTINUOUS1
100
AcDbLine
 10
60.19454639291297
 20
21.17068227801736
 30
0.0
 11
60.28754639291298
 21
21.26368227801735
 31
0.0
  0
LINE
  5
8E42
330
1F
100
AcDbEntity
  8
CONTINUOUS1
100
AcDbLine
 10
60.19454639291297
 20
21.34745897331399
 30
0.0
 11
60.28754639291298
 21
21.44045897331399
 31
0.0
  0
LINE
  5
8E43
330
1F
100
AcDbEntity
  8
CONTINUOUS1
100
AcDbLine
 10
60.19454639291297
 20
21.52423566861063
 30
0.0
 11
60.28754639291298
 21
21.61723566861062
 31
0.0
  0
LINE
  5
8E44
330
1F
100
AcDbEntity
  8
CONTINUOUS1
100
AcDbLine
 10
60.19454639291297
 20
21.70101236390727
 30
0.0
 11
60.28754639291298
 21
21.79401236390726
 31
0.0
  0
LINE
  5
8E45
330
1F
100
AcDbEntity
  8
CONTINUOUS1
100
AcDbLine
 10
60.19454639291297
 20
21.8777890592039
 30
0.0
 11
60.28754639291298
 21
21.9707890592039
 31
0.0
  0
LINE
  5
8E46
330
1F
100
AcDbEntity
  8
CONTINUOUS1
100
AcDbLine
 10
60.19454639291298
 20
22.05456575450054
 30
0.0
 11
60.28754639291298
 21
22.14756575450054
 31
0.0
  0
LINE
  5
8E47
330
1F
100
AcDbEntity
  8
CONTINUOUS1
100
AcDbLine
 10
60.19454639291298
 20
22.23134244979717
 30
0.0
 11
60.28754639291298
 21
22.32434244979717
 31
0.0
  0
LINE
  5
8E48
330
1F
100
AcDbEntity
  8
CONTINUOUS1
100
AcDbLine
 10
60.19454639291298
 20
22.40811914509381
 30
0.0
 11
60.28754639291298
 21
22.50111914509381
 31
0.0
  0
LINE
  5
8E49
330
1F
100
AcDbEntity
  8
CONTINUOUS1
100
AcDbLine
 10
60.19454639291298
 20
22.58489584039045
 30
0.0
 11
60.28754639291298
 21
22.67789584039045
 31
0.0
  0
LINE
  5
8E4A
330
1F
100
AcDbEntity
  8
CONTINUOUS1
100
AcDbLine
 10
60.19454639291298
 20
22.76167253568708
 30
0.0
 11
60.28754639291298
 21
22.85467253568709
 31
0.0
  0
LINE
  5
8E4B
330
1F
100
AcDbEntity
  8
CONTINUOUS1
100
AcDbLine
 10
60.19454639291298
 20
22.93844923098372
 30
0.0
 11
60.28754639291298
 21
23.03144923098372
 31
0.0
  0
LINE
  5
8E4C
330
1F
100
AcDbEntity
  8
CONTINUOUS1
100
AcDbLine
 10
60.19454639291298
 20
23.11522592628036
 30
0.0
 11
60.28754639291298
 21
23.20822592628036
 31
0.0
  0
LINE
  5
8E4D
330
1F
100
AcDbEntity
  8
CONTINUOUS1
100
AcDbLine
 10
60.19454639291298
 20
23.292002621577
 30
0.0
 11
60.28754639291298
 21
23.38500262157699
 31
0.0
  0
LINE
  5
8E4E
330
1F
100
AcDbEntity
  8
CONTINUOUS1
100
AcDbLine
 10
60.19454639291298
 20
23.46877931687364
 30
0.0
 11
60.28754639291298
 21
23.56177931687363
 31
0.0
  0
LINE
  5
8E4F
330
1F
100
AcDbEntity
  8
CONTINUOUS1
100
AcDbLine
 10
60.19454639291298
 20
23.64555601217027
 30
0.0
 11
60.28754639291298
 21
23.73855601217027
 31
0.0
  0
LINE
  5
8E50
330
1F
100
AcDbEntity
  8
CONTINUOUS1
100
AcDbLine
 10
60.19454639291298
 20
23.82233270746691
 30
0.0
 11
60.28754639291298
 21
23.91533270746691
 31
0.0
  0
LINE
  5
8E51
330
1F
100
AcDbEntity
  8
CONTINUOUS1
100
AcDbLine
 10
60.19454639291298
 20
23.99910940276354
 30
0.0
 11
60.28754639291298
 21
24.09210940276354
 31
0.0
  0
LINE
  5
8E52
330
1F
100
AcDbEntity
  8
CONTINUOUS1
100
AcDbLine
 10
60.19454639291298
 20
24.17588609806018
 30
0.0
 11
60.28754639291298
 21
24.26888609806018
 31
0.0
  0
LINE
  5
8E53
330
1F
100
AcDbEntity
  8
CONTINUOUS1
100
AcDbLine
 10
60.19454639291298
 20
24.35266279335682
 30
0.0
 11
60.28754639291298
 21
24.44566279335682
 31
0.0
  0
LINE
  5
8E54
330
1F
100
AcDbEntity
  8
CONTINUOUS1
100
AcDbLine
 10
60.19454639291298
 20
24.52943948865346
 30
0.0
 11
60.28754639291298
 21
24.62243948865346
 31
0.0
  0
LINE
  5
8E55
330
1F
100
AcDbEntity
  8
CONTINUOUS1
100
AcDbLine
 10
60.19454639291298
 20
24.70621618395009
 30
0.0
 11
60.28754639291298
 21
24.79921618395009
 31
0.0
  0
LINE
  5
8E56
330
1F
100
AcDbEntity
  8
CONTINUOUS1
100
AcDbLine
 10
60.19454639291298
 20
24.88299287924673
 30
0.0
 11
60.28754639291298
 21
24.97599287924673
 31
0.0
  0
LINE
  5
8E57
330
1F
100
AcDbEntity
  8
CONTINUOUS1
100
AcDbLine
 10
60.19454639291298
 20
25.05976957454337
 30
0.0
 11
60.28754639291298
 21
25.15276957454336
 31
0.0
  0
LINE
  5
8E58
330
1F
100
AcDbEntity
  8
CONTINUOUS1
100
AcDbLine
 10
60.19454639291298
 20
25.23654626984001
 30
0.0
 11
60.28754639291298
 21
25.32954626984
 31
0.0
  0
LINE
  5
8E59
330
1F
100
AcDbEntity
  8
CONTINUOUS1
100
AcDbLine
 10
60.19454639291298
 20
25.41332296513664
 30
0.0
 11
60.28754639291298
 21
25.50632296513664
 31
0.0
  0
LINE
  5
8E5A
330
1F
100
AcDbEntity
  8
CONTINUOUS1
100
AcDbLine
 10
60.19454639291298
 20
25.59009966043328
 30
0.0
 11
60.28754639291298
 21
25.68309966043328
 31
0.0
  0
LINE
  5
8E5B
330
1F
100
AcDbEntity
  8
CONTINUOUS1
100
AcDbLine
 10
60.19454639291298
 20
25.76687635572991
 30
0.0
 11
60.28754639291298
 21
25.85987635572992
 31
0.0
  0
LINE
  5
8E5C
330
1F
100
AcDbEntity
  8
CONTINUOUS1
100
AcDbLine
 10
60.19454639291298
 20
25.94365305102655
 30
0.0
 11
60.28754639291298
 21
26.03665305102655
 31
0.0
  0
LINE
  5
8E5D
330
1F
100
AcDbEntity
  8
CONTINUOUS1
100
AcDbLine
 10
60.19454639291298
 20
26.12042974632319
 30
0.0
 11
60.28754639291298
 21
26.21342974632319
 31
0.0
  0
LINE
  5
8E5E
330
1F
100
AcDbEntity
  8
CONTINUOUS1
100
AcDbLine
 10
60.19454639291298
 20
26.29720644161983
 30
0.0
 11
60.28754639291298
 21
26.39020644161982
 31
0.0
  0
LINE
  5
8E5F
330
1F
100
AcDbEntity
  8
CONTINUOUS1
100
AcDbLine
 10
60.19454639291298
 20
26.47398313691647
 30
0.0
 11
60.28754639291298
 21
26.56698313691646
 31
0.0
  0
LINE
  5
8E60
330
1F
100
AcDbEntity
  8
CONTINUOUS1
100
AcDbLine
 10
60.19454639291298
 20
26.6507598322131
 30
0.0
 11
60.28754639291298
 21
26.7437598322131
 31
0.0
  0
LINE
  5
8E61
330
1F
100
AcDbEntity
  8
CONTINUOUS1
100
AcDbLine
 10
60.19454639291298
 20
26.82753652750974
 30
0.0
 11
60.28754639291298
 21
26.92053652750973
 31
0.0
  0
LINE
  5
8E62
330
1F
100
AcDbEntity
  8
CONTINUOUS1
100
AcDbLine
 10
60.19454639291298
 20
27.00431322280637
 30
0.0
 11
60.28754639291298
 21
27.09731322280637
 31
0.0
  0
LINE
  5
8E63
330
1F
100
AcDbEntity
  8
CONTINUOUS1
100
AcDbLine
 10
60.19454639291298
 20
27.18108991810301
 30
0.0
 11
60.28754639291298
 21
27.27408991810301
 31
0.0
  0
LINE
  5
8E64
330
1F
100
AcDbEntity
  8
CONTINUOUS1
100
AcDbLine
 10
60.19454639291298
 20
27.35786661339965
 30
0.0
 11
60.28754639291298
 21
27.45086661339965
 31
0.0
  0
LINE
  5
8E65
330
1F
100
AcDbEntity
  8
CONTINUOUS1
100
AcDbLine
 10
60.19454639291297
 20
20.99390558272072
 30
0.0
 11
60.28754639291298
 21
21.08690558272072
 31
0.0
  0
LINE
  5
8E66
330
1F
100
AcDbEntity
  8
CONTINUOUS1
100
AcDbLine
 10
60.19454639291297
 20
20.81712888742408
 30
0.0
 11
60.28754639291298
 21
20.91012888742408
 31
0.0
  0
LINE
  5
8E67
330
1F
100
AcDbEntity
  8
CONTINUOUS1
100
AcDbLine
 10
60.19454639291297
 20
20.64035219212744
 30
0.0
 11
60.28754639291298
 21
20.73335219212744
 31
0.0
  0
LINE
  5
8E68
330
1F
100
AcDbEntity
  8
CONTINUOUS1
100
AcDbLine
 10
60.19454639291297
 20
20.46357549683081
 30
0.0
 11
60.28754639291298
 21
20.55657549683081
 31
0.0
  0
LINE
  5
8E69
330
1F
100
AcDbEntity
  8
CONTINUOUS1
100
AcDbLine
 10
60.19454639291297
 20
20.28679880153417
 30
0.0
 11
60.28754639291298
 21
20.37979880153417
 31
0.0
  0
LINE
  5
8E6A
330
1F
100
AcDbEntity
  8
CONTINUOUS1
100
AcDbLine
 10
60.19454639291297
 20
20.11002210623753
 30
0.0
 11
60.28754639291298
 21
20.20302210623753
 31
0.0
  0
LINE
  5
8E6B
330
1F
100
AcDbEntity
  8
CONTINUOUS1
100
AcDbLine
 10
60.19454639291297
 20
19.9332454109409
 30
0.0
 11
60.28754639291298
 21
20.02624541094089
 31
0.0
  0
LINE
  5
8E6C
330
1F
100
AcDbEntity
  8
CONTINUOUS1
100
AcDbLine
 10
60.19454639291297
 20
19.75646871564426
 30
0.0
 11
60.28754639291298
 21
19.84946871564426
 31
0.0
  0
LINE
  5
8E6D
330
1F
100
AcDbEntity
  8
CONTINUOUS1
100
AcDbLine
 10
60.19454639291297
 20
19.57969202034762
 30
0.0
 11
60.28754639291298
 21
19.67269202034763
 31
0.0
  0
LINE
  5
8E6E
330
1F
100
AcDbEntity
  8
CONTINUOUS1
100
AcDbLine
 10
60.19454639291297
 20
19.40291532505098
 30
0.0
 11
60.28754639291298
 21
19.49591532505099
 31
0.0
  0
LINE
  5
8E6F
330
1F
100
AcDbEntity
  8
CONTINUOUS1
100
AcDbLine
 10
60.19454639291297
 20
19.22613862975435
 30
0.0
 11
60.28754639291298
 21
19.31913862975435
 31
0.0
  0
LINE
  5
8E70
330
1F
100
AcDbEntity
  8
CONTINUOUS1
100
AcDbLine
 10
60.19454639291297
 20
19.04936193445771
 30
0.0
 11
60.28754639291298
 21
19.14236193445771
 31
0.0
  0
LINE
  5
8E71
330
1F
100
AcDbEntity
  8
CONTINUOUS1
100
AcDbLine
 10
60.19454639291297
 20
18.87258523916107
 30
0.0
 11
60.28754639291298
 21
18.96558523916107
 31
0.0
  0
LINE
  5
8E72
330
1F
100
AcDbEntity
  8
CONTINUOUS1
100
AcDbLine
 10
60.19454639291297
 20
18.69580854386444
 30
0.0
 11
60.28754639291298
 21
18.78880854386444
 31
0.0
  0
LINE
  5
8E73
330
1F
100
AcDbEntity
  8
CONTINUOUS1
100
AcDbLine
 10
60.19454639291297
 20
18.5190318485678
 30
0.0
 11
60.28754639291298
 21
18.6120318485678
 31
0.0
  0
LINE
  5
8E74
330
1F
100
AcDbEntity
  8
CONTINUOUS1
100
AcDbLine
 10
60.19454639291297
 20
18.34225515327116
 30
0.0
 11
60.28754639291298
 21
18.43525515327116
 31
0.0
  0
LINE
  5
8E75
330
1F
100
AcDbEntity
  8
CONTINUOUS1
100
AcDbLine
 10
60.19454639291297
 20
18.16547845797453
 30
0.0
 11
60.28754639291298
 21
18.25847845797452
 31
0.0
  0
LINE
  5
8E76
330
1F
100
AcDbEntity
  8
CONTINUOUS1
100
AcDbLine
 10
60.19454639291297
 20
17.98870176267789
 30
0.0
 11
60.28754639291298
 21
18.08170176267789
 31
0.0
  0
LINE
  5
8E77
330
1F
100
AcDbEntity
  8
CONTINUOUS1
100
AcDbLine
 10
60.19454639291297
 20
17.81192506738125
 30
0.0
 11
60.28754639291298
 21
17.90492506738126
 31
0.0
  0
LINE
  5
8E78
330
1F
100
AcDbEntity
  8
CONTINUOUS1
100
AcDbLine
 10
60.19454639291297
 20
17.63514837208461
 30
0.0
 11
60.28754639291298
 21
17.72814837208462
 31
0.0
  0
LINE
  5
8E79
330
1F
100
AcDbEntity
  8
CONTINUOUS1
100
AcDbLine
 10
60.19454639291297
 20
17.45837167678797
 30
0.0
 11
60.28754639291298
 21
17.55137167678798
 31
0.0
  0
LINE
  5
8E7A
330
1F
100
AcDbEntity
  8
CONTINUOUS1
100
AcDbLine
 10
60.19454639291297
 20
17.28159498149134
 30
0.0
 11
60.28754639291298
 21
17.37459498149134
 31
0.0
  0
LINE
  5
8E7B
330
1F
100
AcDbEntity
  8
CONTINUOUS1
100
AcDbLine
 10
60.19454639291297
 20
17.10481828619471
 30
0.0
 11
60.28754639291298
 21
17.1978182861947
 31
0.0
  0
LINE
  5
8E7C
330
1F
100
AcDbEntity
  8
CONTINUOUS1
100
AcDbLine
 10
60.19454639291297
 20
16.92804159089807
 30
0.0
 11
60.28754639291298
 21
17.02104159089807
 31
0.0
  0
LINE
  5
8E7D
330
1F
100
AcDbEntity
  8
CONTINUOUS1
100
AcDbLine
 10
60.19454639291297
 20
16.75126489560143
 30
0.0
 11
60.28754639291298
 21
16.84426489560143
 31
0.0
  0
LINE
  5
8E7E
330
1F
100
AcDbEntity
  8
CONTINUOUS1
100
AcDbLine
 10
60.19454639291297
 20
16.57448820030479
 30
0.0
 11
60.28754639291298
 21
16.6674882003048
 31
0.0
  0
LINE
  5
8E7F
330
1F
100
AcDbEntity
  8
CONTINUOUS1
100
AcDbLine
 10
60.19454639291297
 20
16.39771150500815
 30
0.0
 11
60.28754639291298
 21
16.49071150500816
 31
0.0
  0
LINE
  5
8E80
330
1F
100
AcDbEntity
  8
CONTINUOUS1
100
AcDbLine
 10
60.19454639291297
 20
16.22093480971152
 30
0.0
 11
60.28754639291298
 21
16.31393480971152
 31
0.0
  0
LINE
  5
8E81
330
1F
100
AcDbEntity
  8
CONTINUOUS1
100
AcDbLine
 10
60.19454639291297
 20
16.04415811441488
 30
0.0
 11
60.28754639291298
 21
16.13715811441489
 31
0.0
  0
LINE
  5
8E82
330
1F
100
AcDbEntity
  8
CONTINUOUS1
100
AcDbLine
 10
60.19454639291297
 20
15.86738141911824
 30
0.0
 11
60.28754639291298
 21
15.96038141911825
 31
0.0
  0
LINE
  5
8E83
330
1F
100
AcDbEntity
  8
CONTINUOUS1
100
AcDbLine
 10
60.19454639291297
 20
15.69060472382161
 30
0.0
 11
60.28754639291298
 21
15.78360472382161
 31
0.0
  0
LINE
  5
8E84
330
1F
100
AcDbEntity
  8
CONTINUOUS1
100
AcDbLine
 10
60.19454639291297
 20
15.51382802852497
 30
0.0
 11
60.28754639291298
 21
15.60682802852497
 31
0.0
  0
LINE
  5
8E85
330
1F
100
AcDbEntity
  8
CONTINUOUS1
100
AcDbLine
 10
60.19454639291297
 20
15.33705133322833
 30
0.0
 11
60.28754639291298
 21
15.43005133322833
 31
0.0
  0
LINE
  5
8E86
330
1F
100
AcDbEntity
  8
CONTINUOUS1
100
AcDbLine
 10
60.19454639291297
 20
15.1602746379317
 30
0.0
 11
60.28754639291298
 21
15.2532746379317
 31
0.0
  0
LINE
  5
8E87
330
1F
100
AcDbEntity
  8
CONTINUOUS1
100
AcDbLine
 10
60.19454639291297
 20
14.98349794263506
 30
0.0
 11
60.28754639291298
 21
15.07649794263506
 31
0.0
  0
LINE
  5
8E88
330
1F
100
AcDbEntity
  8
CONTINUOUS1
100
AcDbLine
 10
60.19454639291297
 20
21.23318227801735
 30
0.0
 11
60.28754639291298
 21
21.32618227801736
 31
0.0
  0
LINE
  5
8E89
330
1F
100
AcDbEntity
  8
CONTINUOUS1
100
AcDbLine
 10
60.19454639291297
 20
21.40995897331399
 30
0.0
 11
60.28754639291298
 21
21.50295897331399
 31
0.0
  0
LINE
  5
8E8A
330
1F
100
AcDbEntity
  8
CONTINUOUS1
100
AcDbLine
 10
60.19454639291297
 20
21.58673566861063
 30
0.0
 11
60.28754639291298
 21
21.67973566861062
 31
0.0
  0
LINE
  5
8E8B
330
1F
100
AcDbEntity
  8
CONTINUOUS1
100
AcDbLine
 10
60.19454639291297
 20
21.76351236390727
 30
0.0
 11
60.28754639291298
 21
21.85651236390727
 31
0.0
  0
LINE
  5
8E8C
330
1F
100
AcDbEntity
  8
CONTINUOUS1
100
AcDbLine
 10
60.19454639291297
 20
21.9402890592039
 30
0.0
 11
60.28754639291298
 21
22.0332890592039
 31
0.0
  0
LINE
  5
8E8D
330
1F
100
AcDbEntity
  8
CONTINUOUS1
100
AcDbLine
 10
60.19454639291298
 20
22.11706575450054
 30
0.0
 11
60.28754639291298
 21
22.21006575450054
 31
0.0
  0
LINE
  5
8E8E
330
1F
100
AcDbEntity
  8
CONTINUOUS1
100
AcDbLine
 10
60.19454639291298
 20
22.29384244979717
 30
0.0
 11
60.28754639291298
 21
22.38684244979718
 31
0.0
  0
LINE
  5
8E8F
330
1F
100
AcDbEntity
  8
CONTINUOUS1
100
AcDbLine
 10
60.19454639291298
 20
22.47061914509381
 30
0.0
 11
60.28754639291298
 21
22.56361914509381
 31
0.0
  0
LINE
  5
8E90
330
1F
100
AcDbEntity
  8
CONTINUOUS1
100
AcDbLine
 10
60.19454639291298
 20
22.64739584039045
 30
0.0
 11
60.28754639291298
 21
22.74039584039045
 31
0.0
  0
LINE
  5
8E91
330
1F
100
AcDbEntity
  8
CONTINUOUS1
100
AcDbLine
 10
60.19454639291298
 20
22.82417253568709
 30
0.0
 11
60.28754639291298
 21
22.91717253568708
 31
0.0
  0
LINE
  5
8E92
330
1F
100
AcDbEntity
  8
CONTINUOUS1
100
AcDbLine
 10
60.19454639291298
 20
23.00094923098372
 30
0.0
 11
60.28754639291298
 21
23.09394923098373
 31
0.0
  0
LINE
  5
8E93
330
1F
100
AcDbEntity
  8
CONTINUOUS1
100
AcDbLine
 10
60.19454639291298
 20
23.17772592628036
 30
0.0
 11
60.28754639291298
 21
23.27072592628036
 31
0.0
  0
LINE
  5
8E94
330
1F
100
AcDbEntity
  8
CONTINUOUS1
100
AcDbLine
 10
60.19454639291298
 20
23.354502621577
 30
0.0
 11
60.28754639291298
 21
23.44750262157699
 31
0.0
  0
LINE
  5
8E95
330
1F
100
AcDbEntity
  8
CONTINUOUS1
100
AcDbLine
 10
60.19454639291298
 20
23.53127931687363
 30
0.0
 11
60.28754639291298
 21
23.62427931687363
 31
0.0
  0
LINE
  5
8E96
330
1F
100
AcDbEntity
  8
CONTINUOUS1
100
AcDbLine
 10
60.19454639291298
 20
23.70805601217027
 30
0.0
 11
60.28754639291298
 21
23.80105601217027
 31
0.0
  0
LINE
  5
8E97
330
1F
100
AcDbEntity
  8
CONTINUOUS1
100
AcDbLine
 10
60.19454639291298
 20
23.88483270746691
 30
0.0
 11
60.28754639291298
 21
23.97783270746691
 31
0.0
  0
LINE
  5
8E98
330
1F
100
AcDbEntity
  8
CONTINUOUS1
100
AcDbLine
 10
60.19454639291298
 20
24.06160940276354
 30
0.0
 11
60.28754639291298
 21
24.15460940276355
 31
0.0
  0
LINE
  5
8E99
330
1F
100
AcDbEntity
  8
CONTINUOUS1
100
AcDbLine
 10
60.19454639291298
 20
24.23838609806018
 30
0.0
 11
60.28754639291298
 21
24.33138609806018
 31
0.0
  0
LINE
  5
8E9A
330
1F
100
AcDbEntity
  8
CONTINUOUS1
100
AcDbLine
 10
60.19454639291298
 20
24.41516279335682
 30
0.0
 11
60.28754639291298
 21
24.50816279335682
 31
0.0
  0
LINE
  5
8E9B
330
1F
100
AcDbEntity
  8
CONTINUOUS1
100
AcDbLine
 10
60.19454639291298
 20
24.59193948865346
 30
0.0
 11
60.28754639291298
 21
24.68493948865345
 31
0.0
  0
LINE
  5
8E9C
330
1F
100
AcDbEntity
  8
CONTINUOUS1
100
AcDbLine
 10
60.19454639291298
 20
24.7687161839501
 30
0.0
 11
60.28754639291298
 21
24.86171618395009
 31
0.0
  0
LINE
  5
8E9D
330
1F
100
AcDbEntity
  8
CONTINUOUS1
100
AcDbLine
 10
60.19454639291298
 20
24.94549287924673
 30
0.0
 11
60.28754639291298
 21
25.03849287924673
 31
0.0
  0
LINE
  5
8E9E
330
1F
100
AcDbEntity
  8
CONTINUOUS1
100
AcDbLine
 10
60.19454639291298
 20
25.12226957454337
 30
0.0
 11
60.28754639291298
 21
25.21526957454336
 31
0.0
  0
LINE
  5
8E9F
330
1F
100
AcDbEntity
  8
CONTINUOUS1
100
AcDbLine
 10
60.19454639291298
 20
25.29904626984
 30
0.0
 11
60.28754639291298
 21
25.39204626984
 31
0.0
  0
LINE
  5
8EA0
330
1F
100
AcDbEntity
  8
CONTINUOUS1
100
AcDbLine
 10
60.19454639291298
 20
25.47582296513664
 30
0.0
 11
60.28754639291298
 21
25.56882296513664
 31
0.0
  0
LINE
  5
8EA1
330
1F
100
AcDbEntity
  8
CONTINUOUS1
100
AcDbLine
 10
60.19454639291298
 20
25.65259966043328
 30
0.0
 11
60.28754639291298
 21
25.74559966043328
 31
0.0
  0
LINE
  5
8EA2
330
1F
100
AcDbEntity
  8
CONTINUOUS1
100
AcDbLine
 10
60.19454639291298
 20
25.82937635572991
 30
0.0
 11
60.28754639291298
 21
25.92237635572992
 31
0.0
  0
LINE
  5
8EA3
330
1F
100
AcDbEntity
  8
CONTINUOUS1
100
AcDbLine
 10
60.19454639291298
 20
26.00615305102655
 30
0.0
 11
60.28754639291298
 21
26.09915305102655
 31
0.0
  0
LINE
  5
8EA4
330
1F
100
AcDbEntity
  8
CONTINUOUS1
100
AcDbLine
 10
60.19454639291298
 20
26.18292974632319
 30
0.0
 11
60.28754639291298
 21
26.27592974632319
 31
0.0
  0
LINE
  5
8EA5
330
1F
100
AcDbEntity
  8
CONTINUOUS1
100
AcDbLine
 10
60.19454639291298
 20
26.35970644161983
 30
0.0
 11
60.28754639291298
 21
26.45270644161982
 31
0.0
  0
LINE
  5
8EA6
330
1F
100
AcDbEntity
  8
CONTINUOUS1
100
AcDbLine
 10
60.19454639291298
 20
26.53648313691647
 30
0.0
 11
60.28754639291298
 21
26.62948313691646
 31
0.0
  0
LINE
  5
8EA7
330
1F
100
AcDbEntity
  8
CONTINUOUS1
100
AcDbLine
 10
60.19454639291298
 20
26.7132598322131
 30
0.0
 11
60.28754639291298
 21
26.8062598322131
 31
0.0
  0
LINE
  5
8EA8
330
1F
100
AcDbEntity
  8
CONTINUOUS1
100
AcDbLine
 10
60.19454639291298
 20
26.89003652750974
 30
0.0
 11
60.28754639291298
 21
26.98303652750973
 31
0.0
  0
LINE
  5
8EA9
330
1F
100
AcDbEntity
  8
CONTINUOUS1
100
AcDbLine
 10
60.19454639291298
 20
27.06681322280637
 30
0.0
 11
60.28754639291298
 21
27.15981322280637
 31
0.0
  0
LINE
  5
8EAA
330
1F
100
AcDbEntity
  8
CONTINUOUS1
100
AcDbLine
 10
60.19454639291298
 20
27.24358991810301
 30
0.0
 11
60.28754639291298
 21
27.33658991810301
 31
0.0
  0
LINE
  5
8EAB
330
1F
100
AcDbEntity
  8
CONTINUOUS1
100
AcDbLine
 10
60.19454639291298
 20
27.42036661339965
 30
0.0
 11
60.25242458834676
 21
27.47824480883343
 31
0.0
  0
LINE
  5
8EAC
330
1F
100
AcDbEntity
  8
CONTINUOUS1
100
AcDbLine
 10
60.19454639291297
 20
21.05640558272071
 30
0.0
 11
60.28754639291298
 21
21.14940558272072
 31
0.0
  0
LINE
  5
8EAD
330
1F
100
AcDbEntity
  8
CONTINUOUS1
100
AcDbLine
 10
60.19454639291297
 20
20.87962888742408
 30
0.0
 11
60.28754639291298
 21
20.97262888742408
 31
0.0
  0
LINE
  5
8EAE
330
1F
100
AcDbEntity
  8
CONTINUOUS1
100
AcDbLine
 10
60.19454639291297
 20
20.70285219212744
 30
0.0
 11
60.28754639291298
 21
20.79585219212744
 31
0.0
  0
LINE
  5
8EAF
330
1F
100
AcDbEntity
  8
CONTINUOUS1
100
AcDbLine
 10
60.19454639291297
 20
20.5260754968308
 30
0.0
 11
60.28754639291298
 21
20.6190754968308
 31
0.0
  0
LINE
  5
8EB0
330
1F
100
AcDbEntity
  8
CONTINUOUS1
100
AcDbLine
 10
60.19454639291297
 20
20.34929880153417
 30
0.0
 11
60.28754639291298
 21
20.44229880153417
 31
0.0
  0
LINE
  5
8EB1
330
1F
100
AcDbEntity
  8
CONTINUOUS1
100
AcDbLine
 10
60.19454639291297
 20
20.17252210623753
 30
0.0
 11
60.28754639291298
 21
20.26552210623753
 31
0.0
  0
LINE
  5
8EB2
330
1F
100
AcDbEntity
  8
CONTINUOUS1
100
AcDbLine
 10
60.19454639291297
 20
19.99574541094089
 30
0.0
 11
60.28754639291298
 21
20.0887454109409
 31
0.0
  0
LINE
  5
8EB3
330
1F
100
AcDbEntity
  8
CONTINUOUS1
100
AcDbLine
 10
60.19454639291297
 20
19.81896871564426
 30
0.0
 11
60.28754639291298
 21
19.91196871564426
 31
0.0
  0
LINE
  5
8EB4
330
1F
100
AcDbEntity
  8
CONTINUOUS1
100
AcDbLine
 10
60.19454639291297
 20
19.64219202034762
 30
0.0
 11
60.28754639291298
 21
19.73519202034762
 31
0.0
  0
LINE
  5
8EB5
330
1F
100
AcDbEntity
  8
CONTINUOUS1
100
AcDbLine
 10
60.19454639291297
 20
19.46541532505098
 30
0.0
 11
60.28754639291298
 21
19.55841532505099
 31
0.0
  0
LINE
  5
8EB6
330
1F
100
AcDbEntity
  8
CONTINUOUS1
100
AcDbLine
 10
60.19454639291297
 20
19.28863862975435
 30
0.0
 11
60.28754639291298
 21
19.38163862975435
 31
0.0
  0
LINE
  5
8EB7
330
1F
100
AcDbEntity
  8
CONTINUOUS1
100
AcDbLine
 10
60.19454639291297
 20
19.11186193445771
 30
0.0
 11
60.28754639291298
 21
19.20486193445771
 31
0.0
  0
LINE
  5
8EB8
330
1F
100
AcDbEntity
  8
CONTINUOUS1
100
AcDbLine
 10
60.19454639291297
 20
18.93508523916107
 30
0.0
 11
60.28754639291298
 21
19.02808523916107
 31
0.0
  0
LINE
  5
8EB9
330
1F
100
AcDbEntity
  8
CONTINUOUS1
100
AcDbLine
 10
60.19454639291297
 20
18.75830854386444
 30
0.0
 11
60.28754639291298
 21
18.85130854386444
 31
0.0
  0
LINE
  5
8EBA
330
1F
100
AcDbEntity
  8
CONTINUOUS1
100
AcDbLine
 10
60.19454639291297
 20
18.5815318485678
 30
0.0
 11
60.28754639291298
 21
18.6745318485678
 31
0.0
  0
LINE
  5
8EBB
330
1F
100
AcDbEntity
  8
CONTINUOUS1
100
AcDbLine
 10
60.19454639291297
 20
18.40475515327116
 30
0.0
 11
60.28754639291298
 21
18.49775515327116
 31
0.0
  0
LINE
  5
8EBC
330
1F
100
AcDbEntity
  8
CONTINUOUS1
100
AcDbLine
 10
60.19454639291297
 20
18.22797845797453
 30
0.0
 11
60.28754639291298
 21
18.32097845797452
 31
0.0
  0
LINE
  5
8EBD
330
1F
100
AcDbEntity
  8
CONTINUOUS1
100
AcDbLine
 10
60.19454639291297
 20
18.05120176267789
 30
0.0
 11
60.28754639291298
 21
18.14420176267789
 31
0.0
  0
LINE
  5
8EBE
330
1F
100
AcDbEntity
  8
CONTINUOUS1
100
AcDbLine
 10
60.19454639291297
 20
17.87442506738125
 30
0.0
 11
60.28754639291298
 21
17.96742506738126
 31
0.0
  0
LINE
  5
8EBF
330
1F
100
AcDbEntity
  8
CONTINUOUS1
100
AcDbLine
 10
60.19454639291297
 20
17.69764837208462
 30
0.0
 11
60.28754639291298
 21
17.79064837208462
 31
0.0
  0
LINE
  5
8EC0
330
1F
100
AcDbEntity
  8
CONTINUOUS1
100
AcDbLine
 10
60.19454639291297
 20
17.52087167678798
 30
0.0
 11
60.28754639291298
 21
17.61387167678798
 31
0.0
  0
LINE
  5
8EC1
330
1F
100
AcDbEntity
  8
CONTINUOUS1
100
AcDbLine
 10
60.19454639291297
 20
17.34409498149134
 30
0.0
 11
60.28754639291298
 21
17.43709498149134
 31
0.0
  0
LINE
  5
8EC2
330
1F
100
AcDbEntity
  8
CONTINUOUS1
100
AcDbLine
 10
60.19454639291297
 20
17.16731828619471
 30
0.0
 11
60.28754639291298
 21
17.2603182861947
 31
0.0
  0
LINE
  5
8EC3
330
1F
100
AcDbEntity
  8
CONTINUOUS1
100
AcDbLine
 10
60.19454639291297
 20
16.99054159089807
 30
0.0
 11
60.28754639291298
 21
17.08354159089807
 31
0.0
  0
LINE
  5
8EC4
330
1F
100
AcDbEntity
  8
CONTINUOUS1
100
AcDbLine
 10
60.19454639291297
 20
16.81376489560143
 30
0.0
 11
60.28754639291298
 21
16.90676489560143
 31
0.0
  0
LINE
  5
8EC5
330
1F
100
AcDbEntity
  8
CONTINUOUS1
100
AcDbLine
 10
60.19454639291297
 20
16.63698820030479
 30
0.0
 11
60.28754639291298
 21
16.72998820030479
 31
0.0
  0
LINE
  5
8EC6
330
1F
100
AcDbEntity
  8
CONTINUOUS1
100
AcDbLine
 10
60.19454639291297
 20
16.46021150500815
 30
0.0
 11
60.28754639291298
 21
16.55321150500816
 31
0.0
  0
LINE
  5
8EC7
330
1F
100
AcDbEntity
  8
CONTINUOUS1
100
AcDbLine
 10
60.19454639291297
 20
16.28343480971152
 30
0.0
 11
60.28754639291298
 21
16.37643480971152
 31
0.0
  0
LINE
  5
8EC8
330
1F
100
AcDbEntity
  8
CONTINUOUS1
100
AcDbLine
 10
60.19454639291297
 20
16.10665811441488
 30
0.0
 11
60.28754639291298
 21
16.19965811441489
 31
0.0
  0
LINE
  5
8EC9
330
1F
100
AcDbEntity
  8
CONTINUOUS1
100
AcDbLine
 10
60.19454639291297
 20
15.92988141911825
 30
0.0
 11
60.28754639291298
 21
16.02288141911825
 31
0.0
  0
LINE
  5
8ECA
330
1F
100
AcDbEntity
  8
CONTINUOUS1
100
AcDbLine
 10
60.19454639291297
 20
15.75310472382161
 30
0.0
 11
60.28754639291298
 21
15.84610472382161
 31
0.0
  0
LINE
  5
8ECB
330
1F
100
AcDbEntity
  8
CONTINUOUS1
100
AcDbLine
 10
60.19454639291297
 20
15.57632802852497
 30
0.0
 11
60.28754639291298
 21
15.66932802852497
 31
0.0
  0
LINE
  5
8ECC
330
1F
100
AcDbEntity
  8
CONTINUOUS1
100
AcDbLine
 10
60.19454639291297
 20
15.39955133322833
 30
0.0
 11
60.28754639291298
 21
15.49255133322833
 31
0.0
  0
LINE
  5
8ECD
330
1F
100
AcDbEntity
  8
CONTINUOUS1
100
AcDbLine
 10
60.19454639291297
 20
15.2227746379317
 30
0.0
 11
60.28754639291298
 21
15.3157746379317
 31
0.0
  0
LINE
  5
8ECE
330
1F
100
AcDbEntity
  8
CONTINUOUS1
100
AcDbLine
 10
60.19454639291297
 20
15.04599794263506
 30
0.0
 11
60.28754639291298
 21
15.13899794263506
 31
0.0
  0
LINE
  5
8ECF
330
1F
100
AcDbEntity
  8
CONTINUOUS1
100
AcDbLine
 10
60.24772316858021
 20
14.92239802300566
 30
0.0
 11
60.28754639291298
 21
14.96222124733843
 31
0.0
  0
LINE
  5
8ED0
330
1F
100
AcDbEntity
  8
CONTINUOUS1
100
AcDbLine
 10
48.55308229430346
 20
13.54364442003365
 30
0.0
 11
48.58058098086972
 21
13.17629061247405
 31
0.0
  0
LINE
  5
8ED1
330
1F
100
AcDbEntity
  8
CONTINUOUS1
100
AcDbLine
 10
48.25608772029915
 20
13.5307364848264
 30
0.0
 11
48.28390611510978
 21
13.16868888746563
 31
0.0
  0
LINE
  5
8ED2
330
1F
100
AcDbEntity
  8
CONTINUOUS1
100
AcDbLine
 10
47.94843047125616
 20
19.3599238377282
 30
0.0
 11
47.85543047125616
 21
19.45292383772821
 31
0.0
  0
LINE
  5
8ED3
330
1F
100
AcDbEntity
  8
CONTINUOUS1
100
AcDbLine
 10
47.94843047125616
 20
19.53670053302484
 30
0.0
 11
47.85543047125616
 21
19.62970053302484
 31
0.0
  0
LINE
  5
8ED4
330
1F
100
AcDbEntity
  8
CONTINUOUS1
100
AcDbLine
 10
47.94843047125616
 20
19.71347722832148
 30
0.0
 11
47.85543047125616
 21
19.80647722832148
 31
0.0
  0
LINE
  5
8ED5
330
1F
100
AcDbEntity
  8
CONTINUOUS1
100
AcDbLine
 10
47.94843047125616
 20
19.89025392361812
 30
0.0
 11
47.85543047125616
 21
19.98325392361811
 31
0.0
  0
LINE
  5
8ED6
330
1F
100
AcDbEntity
  8
CONTINUOUS1
100
AcDbLine
 10
47.94843047125616
 20
20.06703061891476
 30
0.0
 11
47.85543047125616
 21
20.16003061891475
 31
0.0
  0
LINE
  5
8ED7
330
1F
100
AcDbEntity
  8
CONTINUOUS1
100
AcDbLine
 10
47.94843047125616
 20
20.24380731421139
 30
0.0
 11
47.85543047125616
 21
20.33680731421139
 31
0.0
  0
LINE
  5
8ED8
330
1F
100
AcDbEntity
  8
CONTINUOUS1
100
AcDbLine
 10
47.94843047125616
 20
20.42058400950803
 30
0.0
 11
47.85543047125616
 21
20.51358400950803
 31
0.0
  0
LINE
  5
8ED9
330
1F
100
AcDbEntity
  8
CONTINUOUS1
100
AcDbLine
 10
47.94843047125616
 20
20.59736070480466
 30
0.0
 11
47.85543047125616
 21
20.69036070480467
 31
0.0
  0
LINE
  5
8EDA
330
1F
100
AcDbEntity
  8
CONTINUOUS1
100
AcDbLine
 10
47.94843047125616
 20
20.7741374001013
 30
0.0
 11
47.85543047125616
 21
20.8671374001013
 31
0.0
  0
LINE
  5
8EDB
330
1F
100
AcDbEntity
  8
CONTINUOUS1
100
AcDbLine
 10
47.94843047125616
 20
20.95091409539794
 30
0.0
 11
47.85543047125616
 21
21.04391409539794
 31
0.0
  0
LINE
  5
8EDC
330
1F
100
AcDbEntity
  8
CONTINUOUS1
100
AcDbLine
 10
47.94843047125616
 20
21.12769079069457
 30
0.0
 11
47.85543047125616
 21
21.22069079069457
 31
0.0
  0
LINE
  5
8EDD
330
1F
100
AcDbEntity
  8
CONTINUOUS1
100
AcDbLine
 10
47.94843047125616
 20
21.30446748599121
 30
0.0
 11
47.85543047125616
 21
21.39746748599121
 31
0.0
  0
LINE
  5
8EDE
330
1F
100
AcDbEntity
  8
CONTINUOUS1
100
AcDbLine
 10
47.94843047125616
 20
21.48124418128785
 30
0.0
 11
47.85543047125616
 21
21.57424418128785
 31
0.0
  0
LINE
  5
8EDF
330
1F
100
AcDbEntity
  8
CONTINUOUS1
100
AcDbLine
 10
47.94843047125616
 20
21.65802087658449
 30
0.0
 11
47.85543047125616
 21
21.75102087658448
 31
0.0
  0
LINE
  5
8EE0
330
1F
100
AcDbEntity
  8
CONTINUOUS1
100
AcDbLine
 10
47.94843047125616
 20
21.83479757188112
 30
0.0
 11
47.85543047125616
 21
21.92779757188112
 31
0.0
  0
LINE
  5
8EE1
330
1F
100
AcDbEntity
  8
CONTINUOUS1
100
AcDbLine
 10
47.94843047125616
 20
22.01157426717776
 30
0.0
 11
47.85543047125616
 21
22.10457426717776
 31
0.0
  0
LINE
  5
8EE2
330
1F
100
AcDbEntity
  8
CONTINUOUS1
100
AcDbLine
 10
47.94843047125616
 20
22.1883509624744
 30
0.0
 11
47.85543047125616
 21
22.2813509624744
 31
0.0
  0
LINE
  5
8EE3
330
1F
100
AcDbEntity
  8
CONTINUOUS1
100
AcDbLine
 10
47.94843047125616
 20
22.36512765777103
 30
0.0
 11
47.85543047125616
 21
22.45812765777103
 31
0.0
  0
LINE
  5
8EE4
330
1F
100
AcDbEntity
  8
CONTINUOUS1
100
AcDbLine
 10
47.94843047125616
 20
22.54190435306767
 30
0.0
 11
47.85543047125616
 21
22.63490435306767
 31
0.0
  0
LINE
  5
8EE5
330
1F
100
AcDbEntity
  8
CONTINUOUS1
100
AcDbLine
 10
47.94843047125616
 20
22.71868104836431
 30
0.0
 11
47.85543047125616
 21
22.81168104836431
 31
0.0
  0
LINE
  5
8EE6
330
1F
100
AcDbEntity
  8
CONTINUOUS1
100
AcDbLine
 10
47.94843047125616
 20
22.89545774366094
 30
0.0
 11
47.85543047125616
 21
22.98845774366094
 31
0.0
  0
LINE
  5
8EE7
330
1F
100
AcDbEntity
  8
CONTINUOUS1
100
AcDbLine
 10
47.94843047125616
 20
23.07223443895758
 30
0.0
 11
47.85543047125616
 21
23.16523443895758
 31
0.0
  0
LINE
  5
8EE8
330
1F
100
AcDbEntity
  8
CONTINUOUS1
100
AcDbLine
 10
47.94843047125616
 20
23.24901113425422
 30
0.0
 11
47.85543047125616
 21
23.34201113425421
 31
0.0
  0
LINE
  5
8EE9
330
1F
100
AcDbEntity
  8
CONTINUOUS1
100
AcDbLine
 10
47.94843047125616
 20
23.42578782955086
 30
0.0
 11
47.85543047125616
 21
23.51878782955085
 31
0.0
  0
LINE
  5
8EEA
330
1F
100
AcDbEntity
  8
CONTINUOUS1
100
AcDbLine
 10
47.94843047125616
 20
23.60256452484749
 30
0.0
 11
47.85543047125616
 21
23.69556452484749
 31
0.0
  0
LINE
  5
8EEB
330
1F
100
AcDbEntity
  8
CONTINUOUS1
100
AcDbLine
 10
47.94843047125616
 20
23.77934122014413
 30
0.0
 11
47.85543047125616
 21
23.87234122014413
 31
0.0
  0
LINE
  5
8EEC
330
1F
100
AcDbEntity
  8
CONTINUOUS1
100
AcDbLine
 10
47.94843047125616
 20
23.95611791544076
 30
0.0
 11
47.85543047125616
 21
24.04911791544077
 31
0.0
  0
LINE
  5
8EED
330
1F
100
AcDbEntity
  8
CONTINUOUS1
100
AcDbLine
 10
47.94843047125616
 20
24.1328946107374
 30
0.0
 11
47.85543047125616
 21
24.2258946107374
 31
0.0
  0
LINE
  5
8EEE
330
1F
100
AcDbEntity
  8
CONTINUOUS1
100
AcDbLine
 10
47.94843047125616
 20
24.30967130603404
 30
0.0
 11
47.85543047125616
 21
24.40267130603404
 31
0.0
  0
LINE
  5
8EEF
330
1F
100
AcDbEntity
  8
CONTINUOUS1
100
AcDbLine
 10
47.94843047125616
 20
24.48644800133068
 30
0.0
 11
47.85543047125616
 21
24.57944800133068
 31
0.0
  0
LINE
  5
8EF0
330
1F
100
AcDbEntity
  8
CONTINUOUS1
100
AcDbLine
 10
47.94843047125616
 20
24.66322469662731
 30
0.0
 11
47.85543047125616
 21
24.75622469662731
 31
0.0
  0
LINE
  5
8EF1
330
1F
100
AcDbEntity
  8
CONTINUOUS1
100
AcDbLine
 10
47.94843047125616
 20
24.84000139192395
 30
0.0
 11
47.91968376698292
 21
24.86874809619718
 31
0.0
  0
LINE
  5
8EF2
330
1F
100
AcDbEntity
  8
CONTINUOUS1
100
AcDbLine
 10
47.94843047125616
 20
19.18314714243157
 30
0.0
 11
47.85543047125616
 21
19.27614714243157
 31
0.0
  0
LINE
  5
8EF3
330
1F
100
AcDbEntity
  8
CONTINUOUS1
100
AcDbLine
 10
47.94843047125616
 20
19.00637044713493
 30
0.0
 11
47.85543047125616
 21
19.09937044713493
 31
0.0
  0
LINE
  5
8EF4
330
1F
100
AcDbEntity
  8
CONTINUOUS1
100
AcDbLine
 10
47.94843047125616
 20
18.8295937518383
 30
0.0
 11
47.85543047125616
 21
18.9225937518383
 31
0.0
  0
LINE
  5
8EF5
330
1F
100
AcDbEntity
  8
CONTINUOUS1
100
AcDbLine
 10
47.94843047125616
 20
18.65281705654166
 30
0.0
 11
47.85543047125616
 21
18.74581705654166
 31
0.0
  0
LINE
  5
8EF6
330
1F
100
AcDbEntity
  8
CONTINUOUS1
100
AcDbLine
 10
47.94843047125616
 20
18.47604036124502
 30
0.0
 11
47.85543047125616
 21
18.56904036124502
 31
0.0
  0
LINE
  5
8EF7
330
1F
100
AcDbEntity
  8
CONTINUOUS1
100
AcDbLine
 10
47.94843047125616
 20
18.29926366594839
 30
0.0
 11
47.85543047125616
 21
18.39226366594838
 31
0.0
  0
LINE
  5
8EF8
330
1F
100
AcDbEntity
  8
CONTINUOUS1
100
AcDbLine
 10
47.94843047125616
 20
18.12248697065175
 30
0.0
 11
47.85543047125616
 21
18.21548697065175
 31
0.0
  0
LINE
  5
8EF9
330
1F
100
AcDbEntity
  8
CONTINUOUS1
100
AcDbLine
 10
47.94843047125616
 20
17.94571027535511
 30
0.0
 11
47.85543047125616
 21
18.03871027535511
 31
0.0
  0
LINE
  5
8EFA
330
1F
100
AcDbEntity
  8
CONTINUOUS1
100
AcDbLine
 10
47.94843047125616
 20
17.76893358005847
 30
0.0
 11
47.85543047125616
 21
17.86193358005847
 31
0.0
  0
LINE
  5
8EFB
330
1F
100
AcDbEntity
  8
CONTINUOUS1
100
AcDbLine
 10
47.94843047125616
 20
17.59215688476183
 30
0.0
 11
47.85543047125616
 21
17.68515688476184
 31
0.0
  0
LINE
  5
8EFC
330
1F
100
AcDbEntity
  8
CONTINUOUS1
100
AcDbLine
 10
47.94843047125616
 20
17.4153801894652
 30
0.0
 11
47.85543047125616
 21
17.5083801894652
 31
0.0
  0
LINE
  5
8EFD
330
1F
100
AcDbEntity
  8
CONTINUOUS1
100
AcDbLine
 10
47.94843047125616
 20
17.23860349416856
 30
0.0
 11
47.85543047125616
 21
17.33160349416856
 31
0.0
  0
LINE
  5
8EFE
330
1F
100
AcDbEntity
  8
CONTINUOUS1
100
AcDbLine
 10
47.94843047125616
 20
17.06182679887193
 30
0.0
 11
47.85543047125616
 21
17.15482679887193
 31
0.0
  0
LINE
  5
8EFF
330
1F
100
AcDbEntity
  8
CONTINUOUS1
100
AcDbLine
 10
47.94843047125616
 20
16.88505010357529
 30
0.0
 11
47.85543047125616
 21
16.97805010357529
 31
0.0
  0
LINE
  5
8F00
330
1F
100
AcDbEntity
  8
CONTINUOUS1
100
AcDbLine
 10
47.94843047125616
 20
16.70827340827866
 30
0.0
 11
47.85543047125616
 21
16.80127340827865
 31
0.0
  0
LINE
  5
8F01
330
1F
100
AcDbEntity
  8
CONTINUOUS1
100
AcDbLine
 10
47.94843047125616
 20
16.53149671298202
 30
0.0
 11
47.85543047125616
 21
16.62449671298201
 31
0.0
  0
LINE
  5
8F02
330
1F
100
AcDbEntity
  8
CONTINUOUS1
100
AcDbLine
 10
47.94843047125616
 20
16.35472001768538
 30
0.0
 11
47.85543047125616
 21
16.44772001768538
 31
0.0
  0
LINE
  5
8F03
330
1F
100
AcDbEntity
  8
CONTINUOUS1
100
AcDbLine
 10
47.94843047125616
 20
16.17794332238874
 30
0.0
 11
47.85543047125616
 21
16.27094332238875
 31
0.0
  0
LINE
  5
8F04
330
1F
100
AcDbEntity
  8
CONTINUOUS1
100
AcDbLine
 10
47.94843047125616
 20
16.0011666270921
 30
0.0
 11
47.85543047125616
 21
16.09416662709211
 31
0.0
  0
LINE
  5
8F05
330
1F
100
AcDbEntity
  8
CONTINUOUS1
100
AcDbLine
 10
47.94843047125616
 20
15.82438993179547
 30
0.0
 11
47.85543047125616
 21
15.91738993179547
 31
0.0
  0
LINE
  5
8F06
330
1F
100
AcDbEntity
  8
CONTINUOUS1
100
AcDbLine
 10
47.94843047125616
 20
15.64761323649883
 30
0.0
 11
47.85543047125616
 21
15.74061323649883
 31
0.0
  0
LINE
  5
8F07
330
1F
100
AcDbEntity
  8
CONTINUOUS1
100
AcDbLine
 10
47.94843047125616
 20
15.47083654120219
 30
0.0
 11
47.85543047125616
 21
15.56383654120219
 31
0.0
  0
LINE
  5
8F08
330
1F
100
AcDbEntity
  8
CONTINUOUS1
100
AcDbLine
 10
47.94843047125616
 20
15.29405984590556
 30
0.0
 11
47.85543047125616
 21
15.38705984590556
 31
0.0
  0
LINE
  5
8F09
330
1F
100
AcDbEntity
  8
CONTINUOUS1
100
AcDbLine
 10
47.94843047125616
 20
15.11728315060892
 30
0.0
 11
47.85543047125616
 21
15.21028315060892
 31
0.0
  0
LINE
  5
8F0A
330
1F
100
AcDbEntity
  8
CONTINUOUS1
100
AcDbLine
 10
47.94843047125616
 20
14.94050645531229
 30
0.0
 11
47.85543047125616
 21
15.03350645531228
 31
0.0
  0
LINE
  5
8F0B
330
1F
100
AcDbEntity
  8
CONTINUOUS1
100
AcDbLine
 10
47.94843047125616
 20
14.76372976001565
 30
0.0
 11
47.85543047125616
 21
14.85672976001565
 31
0.0
  0
LINE
  5
8F0C
330
1F
100
AcDbEntity
  8
CONTINUOUS1
100
AcDbLine
 10
47.94843047125616
 20
14.58695306471901
 30
0.0
 11
47.85543047125616
 21
14.67995306471901
 31
0.0
  0
LINE
  5
8F0D
330
1F
100
AcDbEntity
  8
CONTINUOUS1
100
AcDbLine
 10
47.94843047125616
 20
14.41017636942237
 30
0.0
 11
47.85543047125616
 21
14.50317636942238
 31
0.0
  0
LINE
  5
8F0E
330
1F
100
AcDbEntity
  8
CONTINUOUS1
100
AcDbLine
 10
47.90543059936453
 20
14.27639954601736
 30
0.0
 11
47.85543047125616
 21
14.32639967412574
 31
0.0
  0
LINE
  5
8F0F
330
1F
100
AcDbEntity
  8
CONTINUOUS1
100
AcDbLine
 10
47.94843047125616
 20
19.4224238377282
 30
0.0
 11
47.85543047125616
 21
19.51542383772821
 31
0.0
  0
LINE
  5
8F10
330
1F
100
AcDbEntity
  8
CONTINUOUS1
100
AcDbLine
 10
47.94843047125616
 20
19.59920053302484
 30
0.0
 11
47.85543047125616
 21
19.69220053302485
 31
0.0
  0
LINE
  5
8F11
330
1F
100
AcDbEntity
  8
CONTINUOUS1
100
AcDbLine
 10
47.94843047125616
 20
19.77597722832148
 30
0.0
 11
47.85543047125616
 21
19.86897722832148
 31
0.0
  0
LINE
  5
8F12
330
1F
100
AcDbEntity
  8
CONTINUOUS1
100
AcDbLine
 10
47.94843047125616
 20
19.95275392361812
 30
0.0
 11
47.85543047125616
 21
20.04575392361811
 31
0.0
  0
LINE
  5
8F13
330
1F
100
AcDbEntity
  8
CONTINUOUS1
100
AcDbLine
 10
47.94843047125616
 20
20.12953061891475
 30
0.0
 11
47.85543047125616
 21
20.22253061891475
 31
0.0
  0
LINE
  5
8F14
330
1F
100
AcDbEntity
  8
CONTINUOUS1
100
AcDbLine
 10
47.94843047125616
 20
20.30630731421139
 30
0.0
 11
47.85543047125616
 21
20.39930731421139
 31
0.0
  0
LINE
  5
8F15
330
1F
100
AcDbEntity
  8
CONTINUOUS1
100
AcDbLine
 10
47.94843047125616
 20
20.48308400950803
 30
0.0
 11
47.85543047125616
 21
20.57608400950803
 31
0.0
  0
LINE
  5
8F16
330
1F
100
AcDbEntity
  8
CONTINUOUS1
100
AcDbLine
 10
47.94843047125616
 20
20.65986070480466
 30
0.0
 11
47.85543047125616
 21
20.75286070480467
 31
0.0
  0
LINE
  5
8F17
330
1F
100
AcDbEntity
  8
CONTINUOUS1
100
AcDbLine
 10
47.94843047125616
 20
20.8366374001013
 30
0.0
 11
47.85543047125616
 21
20.9296374001013
 31
0.0
  0
LINE
  5
8F18
330
1F
100
AcDbEntity
  8
CONTINUOUS1
100
AcDbLine
 10
47.94843047125616
 20
21.01341409539794
 30
0.0
 11
47.85543047125616
 21
21.10641409539794
 31
0.0
  0
LINE
  5
8F19
330
1F
100
AcDbEntity
  8
CONTINUOUS1
100
AcDbLine
 10
47.94843047125616
 20
21.19019079069457
 30
0.0
 11
47.85543047125616
 21
21.28319079069457
 31
0.0
  0
LINE
  5
8F1A
330
1F
100
AcDbEntity
  8
CONTINUOUS1
100
AcDbLine
 10
47.94843047125616
 20
21.36696748599121
 30
0.0
 11
47.85543047125616
 21
21.45996748599122
 31
0.0
  0
LINE
  5
8F1B
330
1F
100
AcDbEntity
  8
CONTINUOUS1
100
AcDbLine
 10
47.94843047125616
 20
21.54374418128785
 30
0.0
 11
47.85543047125616
 21
21.63674418128785
 31
0.0
  0
LINE
  5
8F1C
330
1F
100
AcDbEntity
  8
CONTINUOUS1
100
AcDbLine
 10
47.94843047125616
 20
21.72052087658449
 30
0.0
 11
47.85543047125616
 21
21.81352087658448
 31
0.0
  0
LINE
  5
8F1D
330
1F
100
AcDbEntity
  8
CONTINUOUS1
100
AcDbLine
 10
47.94843047125616
 20
21.89729757188112
 30
0.0
 11
47.85543047125616
 21
21.99029757188112
 31
0.0
  0
LINE
  5
8F1E
330
1F
100
AcDbEntity
  8
CONTINUOUS1
100
AcDbLine
 10
47.94843047125616
 20
22.07407426717776
 30
0.0
 11
47.85543047125616
 21
22.16707426717776
 31
0.0
  0
LINE
  5
8F1F
330
1F
100
AcDbEntity
  8
CONTINUOUS1
100
AcDbLine
 10
47.94843047125616
 20
22.25085096247439
 30
0.0
 11
47.85543047125616
 21
22.3438509624744
 31
0.0
  0
LINE
  5
8F20
330
1F
100
AcDbEntity
  8
CONTINUOUS1
100
AcDbLine
 10
47.94843047125616
 20
22.42762765777103
 30
0.0
 11
47.85543047125616
 21
22.52062765777103
 31
0.0
  0
LINE
  5
8F21
330
1F
100
AcDbEntity
  8
CONTINUOUS1
100
AcDbLine
 10
47.94843047125616
 20
22.60440435306767
 30
0.0
 11
47.85543047125616
 21
22.69740435306767
 31
0.0
  0
LINE
  5
8F22
330
1F
100
AcDbEntity
  8
CONTINUOUS1
100
AcDbLine
 10
47.94843047125616
 20
22.78118104836431
 30
0.0
 11
47.85543047125616
 21
22.87418104836431
 31
0.0
  0
LINE
  5
8F23
330
1F
100
AcDbEntity
  8
CONTINUOUS1
100
AcDbLine
 10
47.94843047125616
 20
22.95795774366094
 30
0.0
 11
47.85543047125616
 21
23.05095774366094
 31
0.0
  0
LINE
  5
8F24
330
1F
100
AcDbEntity
  8
CONTINUOUS1
100
AcDbLine
 10
47.94843047125616
 20
23.13473443895758
 30
0.0
 11
47.85543047125616
 21
23.22773443895758
 31
0.0
  0
LINE
  5
8F25
330
1F
100
AcDbEntity
  8
CONTINUOUS1
100
AcDbLine
 10
47.94843047125616
 20
23.31151113425422
 30
0.0
 11
47.85543047125616
 21
23.40451113425422
 31
0.0
  0
LINE
  5
8F26
330
1F
100
AcDbEntity
  8
CONTINUOUS1
100
AcDbLine
 10
47.94843047125616
 20
23.48828782955086
 30
0.0
 11
47.85543047125616
 21
23.58128782955085
 31
0.0
  0
LINE
  5
8F27
330
1F
100
AcDbEntity
  8
CONTINUOUS1
100
AcDbLine
 10
47.94843047125616
 20
23.66506452484749
 30
0.0
 11
47.85543047125616
 21
23.75806452484749
 31
0.0
  0
LINE
  5
8F28
330
1F
100
AcDbEntity
  8
CONTINUOUS1
100
AcDbLine
 10
47.94843047125616
 20
23.84184122014413
 30
0.0
 11
47.85543047125616
 21
23.93484122014413
 31
0.0
  0
LINE
  5
8F29
330
1F
100
AcDbEntity
  8
CONTINUOUS1
100
AcDbLine
 10
47.94843047125616
 20
24.01861791544076
 30
0.0
 11
47.85543047125616
 21
24.11161791544077
 31
0.0
  0
LINE
  5
8F2A
330
1F
100
AcDbEntity
  8
CONTINUOUS1
100
AcDbLine
 10
47.94843047125616
 20
24.1953946107374
 30
0.0
 11
47.85543047125616
 21
24.2883946107374
 31
0.0
  0
LINE
  5
8F2B
330
1F
100
AcDbEntity
  8
CONTINUOUS1
100
AcDbLine
 10
47.94843047125616
 20
24.37217130603404
 30
0.0
 11
47.85543047125616
 21
24.46517130603404
 31
0.0
  0
LINE
  5
8F2C
330
1F
100
AcDbEntity
  8
CONTINUOUS1
100
AcDbLine
 10
47.94843047125616
 20
24.54894800133067
 30
0.0
 11
47.85543047125616
 21
24.64194800133068
 31
0.0
  0
LINE
  5
8F2D
330
1F
100
AcDbEntity
  8
CONTINUOUS1
100
AcDbLine
 10
47.94843047125616
 20
24.72572469662731
 30
0.0
 11
47.85543047125616
 21
24.81872469662731
 31
0.0
  0
LINE
  5
8F2E
330
1F
100
AcDbEntity
  8
CONTINUOUS1
100
AcDbLine
 10
47.94843047125616
 20
19.24564714243157
 30
0.0
 11
47.85543047125616
 21
19.33864714243157
 31
0.0
  0
LINE
  5
8F2F
330
1F
100
AcDbEntity
  8
CONTINUOUS1
100
AcDbLine
 10
47.94843047125616
 20
19.06887044713493
 30
0.0
 11
47.85543047125616
 21
19.16187044713493
 31
0.0
  0
LINE
  5
8F30
330
1F
100
AcDbEntity
  8
CONTINUOUS1
100
AcDbLine
 10
47.94843047125616
 20
18.89209375183829
 30
0.0
 11
47.85543047125616
 21
18.9850937518383
 31
0.0
  0
LINE
  5
8F31
330
1F
100
AcDbEntity
  8
CONTINUOUS1
100
AcDbLine
 10
47.94843047125616
 20
18.71531705654166
 30
0.0
 11
47.85543047125616
 21
18.80831705654166
 31
0.0
  0
LINE
  5
8F32
330
1F
100
AcDbEntity
  8
CONTINUOUS1
100
AcDbLine
 10
47.94843047125616
 20
18.53854036124502
 30
0.0
 11
47.85543047125616
 21
18.63154036124502
 31
0.0
  0
LINE
  5
8F33
330
1F
100
AcDbEntity
  8
CONTINUOUS1
100
AcDbLine
 10
47.94843047125616
 20
18.36176366594839
 30
0.0
 11
47.85543047125616
 21
18.45476366594838
 31
0.0
  0
LINE
  5
8F34
330
1F
100
AcDbEntity
  8
CONTINUOUS1
100
AcDbLine
 10
47.94843047125616
 20
18.18498697065175
 30
0.0
 11
47.85543047125616
 21
18.27798697065174
 31
0.0
  0
LINE
  5
8F35
330
1F
100
AcDbEntity
  8
CONTINUOUS1
100
AcDbLine
 10
47.94843047125616
 20
18.00821027535511
 30
0.0
 11
47.85543047125616
 21
18.10121027535512
 31
0.0
  0
LINE
  5
8F36
330
1F
100
AcDbEntity
  8
CONTINUOUS1
100
AcDbLine
 10
47.94843047125616
 20
17.83143358005847
 30
0.0
 11
47.85543047125616
 21
17.92443358005848
 31
0.0
  0
LINE
  5
8F37
330
1F
100
AcDbEntity
  8
CONTINUOUS1
100
AcDbLine
 10
47.94843047125616
 20
17.65465688476183
 30
0.0
 11
47.85543047125616
 21
17.74765688476184
 31
0.0
  0
LINE
  5
8F38
330
1F
100
AcDbEntity
  8
CONTINUOUS1
100
AcDbLine
 10
47.94843047125616
 20
17.4778801894652
 30
0.0
 11
47.85543047125616
 21
17.5708801894652
 31
0.0
  0
LINE
  5
8F39
330
1F
100
AcDbEntity
  8
CONTINUOUS1
100
AcDbLine
 10
47.94843047125616
 20
17.30110349416857
 30
0.0
 11
47.85543047125616
 21
17.39410349416856
 31
0.0
  0
LINE
  5
8F3A
330
1F
100
AcDbEntity
  8
CONTINUOUS1
100
AcDbLine
 10
47.94843047125616
 20
17.12432679887193
 30
0.0
 11
47.85543047125616
 21
17.21732679887193
 31
0.0
  0
LINE
  5
8F3B
330
1F
100
AcDbEntity
  8
CONTINUOUS1
100
AcDbLine
 10
47.94843047125616
 20
16.94755010357529
 30
0.0
 11
47.85543047125616
 21
17.04055010357529
 31
0.0
  0
LINE
  5
8F3C
330
1F
100
AcDbEntity
  8
CONTINUOUS1
100
AcDbLine
 10
47.94843047125616
 20
16.77077340827865
 30
0.0
 11
47.85543047125616
 21
16.86377340827865
 31
0.0
  0
LINE
  5
8F3D
330
1F
100
AcDbEntity
  8
CONTINUOUS1
100
AcDbLine
 10
47.94843047125616
 20
16.59399671298202
 30
0.0
 11
47.85543047125616
 21
16.68699671298202
 31
0.0
  0
LINE
  5
8F3E
330
1F
100
AcDbEntity
  8
CONTINUOUS1
100
AcDbLine
 10
47.94843047125616
 20
16.41722001768538
 30
0.0
 11
47.85543047125616
 21
16.51022001768538
 31
0.0
  0
LINE
  5
8F3F
330
1F
100
AcDbEntity
  8
CONTINUOUS1
100
AcDbLine
 10
47.94843047125616
 20
16.24044332238874
 30
0.0
 11
47.85543047125616
 21
16.33344332238874
 31
0.0
  0
LINE
  5
8F40
330
1F
100
AcDbEntity
  8
CONTINUOUS1
100
AcDbLine
 10
47.94843047125616
 20
16.0636666270921
 30
0.0
 11
47.85543047125616
 21
16.15666662709211
 31
0.0
  0
LINE
  5
8F41
330
1F
100
AcDbEntity
  8
CONTINUOUS1
100
AcDbLine
 10
47.94843047125616
 20
15.88688993179547
 30
0.0
 11
47.85543047125616
 21
15.97988993179547
 31
0.0
  0
LINE
  5
8F42
330
1F
100
AcDbEntity
  8
CONTINUOUS1
100
AcDbLine
 10
47.94843047125616
 20
15.71011323649883
 30
0.0
 11
47.85543047125616
 21
15.80311323649883
 31
0.0
  0
LINE
  5
8F43
330
1F
100
AcDbEntity
  8
CONTINUOUS1
100
AcDbLine
 10
47.94843047125616
 20
15.5333365412022
 30
0.0
 11
47.85543047125616
 21
15.62633654120219
 31
0.0
  0
LINE
  5
8F44
330
1F
100
AcDbEntity
  8
CONTINUOUS1
100
AcDbLine
 10
47.94843047125616
 20
15.35655984590556
 30
0.0
 11
47.85543047125616
 21
15.44955984590556
 31
0.0
  0
LINE
  5
8F45
330
1F
100
AcDbEntity
  8
CONTINUOUS1
100
AcDbLine
 10
47.94843047125616
 20
15.17978315060892
 30
0.0
 11
47.85543047125616
 21
15.27278315060892
 31
0.0
  0
LINE
  5
8F46
330
1F
100
AcDbEntity
  8
CONTINUOUS1
100
AcDbLine
 10
47.94843047125616
 20
15.00300645531229
 30
0.0
 11
47.85543047125616
 21
15.09600645531229
 31
0.0
  0
LINE
  5
8F47
330
1F
100
AcDbEntity
  8
CONTINUOUS1
100
AcDbLine
 10
47.94843047125616
 20
14.82622976001565
 30
0.0
 11
47.85543047125616
 21
14.91922976001565
 31
0.0
  0
LINE
  5
8F48
330
1F
100
AcDbEntity
  8
CONTINUOUS1
100
AcDbLine
 10
47.94843047125616
 20
14.64945306471901
 30
0.0
 11
47.85543047125616
 21
14.74245306471901
 31
0.0
  0
LINE
  5
8F49
330
1F
100
AcDbEntity
  8
CONTINUOUS1
100
AcDbLine
 10
47.94843047125616
 20
14.47267636942237
 30
0.0
 11
47.85543047125616
 21
14.56567636942238
 31
0.0
  0
LINE
  5
8F4A
330
1F
100
AcDbEntity
  8
CONTINUOUS1
100
AcDbLine
 10
47.94843047125616
 20
14.29589967412574
 30
0.0
 11
47.85543047125616
 21
14.38889967412574
 31
0.0
  0
LINE
  5
8F4B
330
1F
100
AcDbEntity
  8
CONTINUOUS1
100
AcDbLine
 10
47.94843047125616
 20
14.27582669133216
 30
0.0
 11
47.93501068879701
 21
14.28728279168834
 31
0.0
  0
LINE
  5
8F4C
330
1F
100
AcDbEntity
  8
CONTINUOUS1
100
AcDbLine
 10
47.93501068879701
 20
14.28728279168834
 30
0.0
 11
47.9248604424347
 21
14.29265569506928
 31
0.0
  0
LINE
  5
8F4D
330
1F
100
AcDbEntity
  8
CONTINUOUS1
100
AcDbLine
 10
47.9248604424347
 20
14.29265569506928
 30
0.0
 11
47.91744071231818
 21
14.29321715723321
 31
0.0
  0
LINE
  5
8F4E
330
1F
100
AcDbEntity
  8
CONTINUOUS1
100
AcDbLine
 10
47.91744071231818
 20
14.29321715723321
 30
0.0
 11
47.91221247859648
 21
14.29023893393835
 31
0.0
  0
LINE
  5
8F4F
330
1F
100
AcDbEntity
  8
CONTINUOUS1
100
AcDbLine
 10
47.91221247859648
 20
14.29023893393835
 30
0.0
 11
47.90863672141862
 21
14.28499278094292
 31
0.0
  0
LINE
  5
8F50
330
1F
100
AcDbEntity
  8
CONTINUOUS1
100
AcDbLine
 10
47.90863672141862
 20
14.28499278094292
 30
0.0
 11
47.90617442093358
 21
14.27875045400517
 31
0.0
  0
LINE
  5
8F51
330
1F
100
AcDbEntity
  8
CONTINUOUS1
100
AcDbLine
 10
47.90617442093358
 20
14.27875045400517
 30
0.0
 11
47.90428655729038
 21
14.27278370888329
 31
0.0
  0
LINE
  5
8F52
330
1F
100
AcDbEntity
  8
CONTINUOUS1
100
AcDbLine
 10
47.90428655729038
 20
14.27278370888329
 30
0.0
 11
47.90243411063802
 21
14.26836430133553
 31
0.0
  0
LINE
  5
8F53
330
1F
100
AcDbEntity
  8
CONTINUOUS1
100
AcDbLine
 10
47.90243411063802
 20
14.26836430133553
 30
0.0
 11
47.90013904414171
 21
14.26644075041448
 31
0.0
  0
LINE
  5
8F54
330
1F
100
AcDbEntity
  8
CONTINUOUS1
100
AcDbLine
 10
47.90013904414171
 20
14.26644075041448
 30
0.0
 11
47.89716725303134
 21
14.26666862835028
 31
0.0
  0
LINE
  5
8F55
330
1F
100
AcDbEntity
  8
CONTINUOUS1
100
AcDbLine
 10
47.89716725303134
 20
14.26666862835028
 30
0.0
 11
47.89334561555303
 21
14.26838027066746
 31
0.0
  0
LINE
  5
8F56
330
1F
100
AcDbEntity
  8
CONTINUOUS1
100
AcDbLine
 10
47.89334561555303
 20
14.26838027066746
 30
0.0
 11
47.8885010099529
 21
14.27090801289053
 31
0.0
  0
LINE
  5
8F57
330
1F
100
AcDbEntity
  8
CONTINUOUS1
100
AcDbLine
 10
47.8885010099529
 20
14.27090801289053
 30
0.0
 11
47.88246031447704
 21
14.27358419054402
 31
0.0
  0
LINE
  5
8F58
330
1F
100
AcDbEntity
  8
CONTINUOUS1
100
AcDbLine
 10
47.88246031447704
 20
14.27358419054402
 30
0.0
 11
47.87505040737156
 21
14.27574113915244
 31
0.0
  0
LINE
  5
8F59
330
1F
100
AcDbEntity
  8
CONTINUOUS1
100
AcDbLine
 10
47.87505040737156
 20
14.27574113915244
 30
0.0
 11
47.86609816688256
 21
14.27671119424031
 31
0.0
  0
LINE
  5
8F5A
330
1F
100
AcDbEntity
  8
CONTINUOUS1
100
AcDbLine
 10
47.86609816688256
 20
14.27671119424031
 30
0.0
 11
47.85543047125615
 21
14.27582669133216
 31
0.0
  0
LINE
  5
8F5B
330
1F
100
AcDbEntity
  8
CONTINUOUS1
100
AcDbLine
 10
47.94843047125616
 20
24.85424364768595
 30
0.0
 11
47.93482466638316
 21
24.86704444770017
 31
0.0
  0
LINE
  5
8F5C
330
1F
100
AcDbEntity
  8
CONTINUOUS1
100
AcDbLine
 10
47.93482466638316
 20
24.86704444770017
 30
0.0
 11
47.92428228460577
 21
24.87043341107947
 31
0.0
  0
LINE
  5
8F5D
330
1F
100
AcDbEntity
  8
CONTINUOUS1
100
AcDbLine
 10
47.92428228460577
 20
24.87043341107947
 30
0.0
 11
47.9155545865009
 21
24.86723478910807
 31
0.0
  0
LINE
  5
8F5E
330
1F
100
AcDbEntity
  8
CONTINUOUS1
100
AcDbLine
 10
47.9155545865009
 20
24.86723478910807
 30
0.0
 11
47.90739283264544
 21
24.86027283307024
 31
0.0
  0
LINE
  5
8F5F
330
1F
100
AcDbEntity
  8
CONTINUOUS1
100
AcDbLine
 10
47.90739283264544
 20
24.86027283307024
 30
0.0
 11
47.89854828361633
 21
24.85237179425017
 31
0.0
  0
LINE
  5
8F60
330
1F
100
AcDbEntity
  8
CONTINUOUS1
100
AcDbLine
 10
47.89854828361633
 20
24.85237179425017
 30
0.0
 11
47.88777219999047
 21
24.84635592393213
 31
0.0
  0
LINE
  5
8F61
330
1F
100
AcDbEntity
  8
CONTINUOUS1
100
AcDbLine
 10
47.88777219999047
 20
24.84635592393213
 30
0.0
 11
47.87381584234477
 21
24.84504947340036
 31
0.0
  0
LINE
  5
8F62
330
1F
100
AcDbEntity
  8
CONTINUOUS1
100
AcDbLine
 10
47.87381584234477
 20
24.84504947340036
 30
0.0
 11
47.85543047125615
 21
24.85127669393906
 31
0.0
  0
LINE
  5
8F63
330
1F
100
AcDbEntity
  8
CONTINUOUS2
100
AcDbLine
 10
39.94317233266741
 20
22.48515225158814
 30
0.0
 11
39.94317233266741
 21
13.36015225158814
 31
0.0
  0
LINE
  5
8F64
330
1F
100
AcDbEntity
  8
CONTINUOUS2
100
AcDbLine
 10
39.94317233266741
 20
13.36015225158814
 30
0.0
 11
38.50567233266741
 21
13.36015225158814
 31
0.0
  0
ARC
  5
8F65
330
1F
100
AcDbEntity
  8
CONTINUOUS1
100
AcDbCircle
 10
39.22442233266741
 20
17.30515163860414
 30
0.0
 40
0.25
100
AcDbArc
 50
180.0
 51
0.0
  0
CIRCLE
  5
8F66
330
1F
100
AcDbEntity
  8
CONTINUOUS1
100
AcDbCircle
 10
39.22442233266745
 20
16.05515163860414
 30
0.0
 40
0.109375
  0
LINE
  5
8F67
330
1F
100
AcDbEntity
  8
CONTINUOUS1
100
AcDbLine
 10
39.47442233266741
 20
18.30515163860414
 30
0.0
 11
39.47442233266741
 21
17.30515163860414
 31
0.0
  0
LINE
  5
8F68
330
1F
100
AcDbEntity
  8
CONTINUOUS1
100
AcDbLine
 10
38.9744223326674
 20
18.30515163860414
 30
0.0
 11
38.9744223326674
 21
17.30515163860414
 31
0.0
  0
ARC
  5
8F69
330
1F
100
AcDbEntity
  8
CONTINUOUS1
100
AcDbCircle
 10
39.22442233266741
 20
18.30515163860414
 30
0.0
 40
0.25
100
AcDbArc
 50
0.0
 51
180.0
  0
LINE
  5
8F6A
330
1F
100
AcDbEntity
  8
CONTINUOUS1
100
AcDbLine
 10
38.9744223326674
 20
20.18015163860414
 30
0.0
 11
38.9744223326674
 21
19.18015163860414
 31
0.0
  0
LINE
  5
8F6B
330
1F
100
AcDbEntity
  8
CONTINUOUS1
100
AcDbLine
 10
39.47442233266741
 20
20.18015163860414
 30
0.0
 11
39.47442233266741
 21
19.18015163860414
 31
0.0
  0
ARC
  5
8F6C
330
1F
100
AcDbEntity
  8
CONTINUOUS1
100
AcDbCircle
 10
39.22442233266741
 20
19.18015163860414
 30
0.0
 40
0.25
100
AcDbArc
 50
180.0
 51
0.0
  0
CIRCLE
  5
8F6D
330
1F
100
AcDbEntity
  8
CONTINUOUS1
100
AcDbCircle
 10
39.22442233266741
 20
20.74265163860415
 30
0.0
 40
0.109375
  0
ARC
  5
8F6E
330
1F
100
AcDbEntity
  8
CONTINUOUS1
100
AcDbCircle
 10
39.22442233266741
 20
20.18015163860414
 30
0.0
 40
0.25
100
AcDbArc
 50
0.0
 51
180.0
  0
LINE
  5
8F6F
330
1F
100
AcDbEntity
  8
CONTINUOUS2
100
AcDbLine
 10
39.94317233266741
 20
22.48515225158814
 30
0.0
 11
38.5056723326674
 21
22.48515225158814
 31
0.0
  0
LINE
  5
8F70
330
1F
100
AcDbEntity
  8
CENTER2
100
AcDbLine
 10
39.22442233266745
 20
15.96515163860414
 30
0.0
 11
39.22442233266745
 21
16.14515163860414
 31
0.0
  0
LINE
  5
8F71
330
1F
100
AcDbEntity
  8
CENTER2
100
AcDbLine
 10
39.13442233266745
 20
16.05515163860414
 30
0.0
 11
39.31442233266745
 21
16.05515163860414
 31
0.0
  0
LINE
  5
8F72
330
1F
100
AcDbEntity
  8
CENTER2
100
AcDbLine
 10
39.22442233266741
 20
20.65265163860414
 30
0.0
 11
39.22442233266741
 21
20.83265163860414
 31
0.0
  0
LINE
  5
8F73
330
1F
100
AcDbEntity
  8
CENTER2
100
AcDbLine
 10
39.13442233266741
 20
20.74265163860415
 30
0.0
 11
39.31442233266741
 21
20.74265163860415
 31
0.0
  0
ARC
  5
8F74
330
1F
100
AcDbEntity
  8
CONTINUOUS2
100
AcDbCircle
 10
39.22442233266741
 20
17.30515163860414
 30
0.0
 40
0.25
100
AcDbArc
 50
180.0
 51
0.0
  0
CIRCLE
  5
8F75
330
1F
100
AcDbEntity
  8
CONTINUOUS2
100
AcDbCircle
 10
39.22442233266741
 20
16.05515163860414
 30
0.0
 40
0.14
  0
LINE
  5
8F76
330
1F
100
AcDbEntity
  8
CONTINUOUS2
100
AcDbLine
 10
39.47442233266741
 20
18.30515163860414
 30
0.0
 11
39.47442233266741
 21
17.30515163860414
 31
0.0
  0
LINE
  5
8F77
330
1F
100
AcDbEntity
  8
CONTINUOUS2
100
AcDbLine
 10
38.9744223326674
 20
18.30515163860414
 30
0.0
 11
38.9744223326674
 21
17.30515163860414
 31
0.0
  0
ARC
  5
8F78
330
1F
100
AcDbEntity
  8
CONTINUOUS2
100
AcDbCircle
 10
39.22442233266741
 20
18.30515163860414
 30
0.0
 40
0.25
100
AcDbArc
 50
0.0
 51
180.0
  0
LINE
  5
8F79
330
1F
100
AcDbEntity
  8
CONTINUOUS2
100
AcDbLine
 10
38.9744223326674
 20
20.18015163860414
 30
0.0
 11
38.9744223326674
 21
19.18015163860414
 31
0.0
  0
LINE
  5
8F7A
330
1F
100
AcDbEntity
  8
CONTINUOUS2
100
AcDbLine
 10
39.47442233266741
 20
20.18015163860414
 30
0.0
 11
39.47442233266741
 21
19.18015163860414
 31
0.0
  0
ARC
  5
8F7B
330
1F
100
AcDbEntity
  8
CONTINUOUS2
100
AcDbCircle
 10
39.22442233266741
 20
19.18015163860414
 30
0.0
 40
0.25
100
AcDbArc
 50
180.0
 51
0.0
  0
ARC
  5
8F7C
330
1F
100
AcDbEntity
  8
CONTINUOUS2
100
AcDbCircle
 10
39.22442233266741
 20
20.18015163860414
 30
0.0
 40
0.25
100
AcDbArc
 50
0.0
 51
180.0
  0
CIRCLE
  5
8F7D
330
1F
100
AcDbEntity
  8
CONTINUOUS2
100
AcDbCircle
 10
39.22442233266741
 20
20.74265163860415
 30
0.0
 40
0.14
  0
TEXT
  5
8F7E
330
1F
100
AcDbEntity
  8
TEXT1
100
AcDbText
 10
2.018935884210699
 20
31.82953943991325
 30
0.0
 40
0.3999999999998438
  1
CSJ50
  7
SIMPLEX
100
AcDbText
  0
TEXT
  5
8F7F
330
1F
100
AcDbEntity
  8
TEXT1
100
AcDbText
 10
2.018935884210699
 20
31.02930389045777
 30
0.0
 40
0.3999999999998438
  1
CSJ10
  7
SIMPLEX
100
AcDbText
  0
DIMENSION
  5
8F80
330
1F
100
AcDbEntity
  8
DIM
100
AcDbDimension
  2
*D5
 10
44.06864745206003
 20
13.36015225158814
 30
0.0
 11
44.06864745206003
 21
17.31312844206433
 31
0.0
 70
   160
  3
SCHNEIDERELECTRIC
100
AcDbAlignedDimension
 13
39.94317233266741
 23
22.48515225158814
 33
0.0
 14
39.94317233266741
 24
13.36015225158814
 34
0.0
 50
90.0
100
AcDbRotatedDimension
1001
ACAD
1000
DSTYLE
1002
{
1070
   171
1070
     0
1070
   170
1070
     1
1070
    40
1040
4.0
1002
}
  0
DIMENSION
  5
8F81
330
1F
100
AcDbEntity
  8
DIM
100
AcDbDimension
  2
*D6
 10
42.08683286122702
 20
16.05515163860414
 30
0.0
 11
42.08683286122701
 21
18.33494751070924
 31
0.0
 70
   160
  3
SCHNEIDERELECTRIC
100
AcDbAlignedDimension
 13
39.22442233266741
 23
20.74265163860415
 33
0.0
 14
39.22442233266745
 24
16.05515163860414
 34
0.0
 50
90.0
100
AcDbRotatedDimension
1001
ACAD
1000
DSTYLE
1002
{
1070
   171
1070
     0
1070
   170
1070
     1
1070
    40
1040
4.0
1002
}
  0
DIMENSION
  5
8F82
330
1F
100
AcDbEntity
  8
DIM
100
AcDbDimension
  2
*D7
 10
52.19843047125616
 20
7.845867852943282
 30
0.0
 11
50.07343047125615
 21
7.845867852943282
 31
0.0
 70
    32
  3
SCHNEIDERELECTRIC
100
AcDbAlignedDimension
 13
47.94843047125616
 23
14.41017636942237
 33
0.0
 14
52.19843047125616
 24
19.01317626754945
 34
0.0
100
AcDbRotatedDimension
1001
ACAD
1000
DSTYLE
1002
{
1070
   171
1070
     0
1070
   170
1070
     1
1070
    40
1040
4.0
1002
}
  0
TEXT
  5
8F83
330
1F
100
AcDbEntity
  8
TEXT1
100
AcDbText
 10
25.86879380661264
 20
34.83405711050075
 30
0.0
 40
0.4
  1
REFER TO NEC ARTICLE 430-10 FOR MINIMUM
  7
SIMPLEX
100
AcDbText
  0
TEXT
  5
8F84
330
1F
100
AcDbEntity
  8
TEXT1
100
AcDbText
 10
25.86879380661264
 20
33.99592021507077
 30
0.0
 40
0.4
  1
DIMENSION X FROM CIRCUIT BREAKER TOP
  7
SIMPLEX
100
AcDbText
  0
TEXT
  5
8F85
330
1F
100
AcDbEntity
  8
TEXT1
100
AcDbText
 10
25.86879380661264
 20
33.1577833196408
 30
0.0
 40
0.4
  1
MOUNTING HOLE TO WALL OR BARRIER TO
  7
SIMPLEX
100
AcDbText
  0
LINE
  5
8F87
330
1F
100
AcDbEntity
  8
CONTINUOUS1
100
AcDbLine
 10
1.471930678961377
 20
32.4544678092602
 30
0.0
 11
21.42314621016534
 21
32.4544678092602
 31
0.0
  0
TEXT
  5
8F88
330
1F
100
AcDbEntity
  8
TEXT1
100
AcDbText
 10
11.88645355207589
 20
32.61165858826628
 30
0.0
 40
0.3999999999998436
  1
3.75"
100
AcDbText
  0
TEXT
  5
8F89
330
1F
100
AcDbEntity
  8
TEXT1
100
AcDbText
 10
11.86666666666203
 20
31.05072123452661
 30
0.0
 40
0.3999999999998436
  1
3.75"
100
AcDbText
  0
TEXT
  5
8F8A
330
1F
100
AcDbEntity
  8
TEXT1
100
AcDbText
 10
17.61848543930265
 20
31.83390383886517
 30
0.0
 40
0.3999999999998436
  1
24"
100
AcDbText
  0
TEXT
  5
8F8B
330
1F
100
AcDbEntity
  8
TEXT1
100
AcDbText
 10
17.66936512094422
 20
32.63776470343959
 30
0.0
 40
0.3999999999998436
  1
7"
100
AcDbText
  0
TEXT
  5
8F8C
330
1F
100
AcDbEntity
  8
TEXT1
100
AcDbText
 10
7.590021804871018
 20
33.83061957239554
 30
0.0
 40
0.3999999999998436
  1
DEPTH
100
AcDbText
  0
DIMENSION
  5
8F8D
330
1F
100
AcDbEntity
  8
DIM
100
AcDbDimension
  2
*D8
 10
39.94317233266741
 20
10.48800981359998
 30
0.0
 11
42.0784104279055
 21
10.48800981359998
 31
0.0
 70
   160
  3
SCHNEIDERELECTRIC
100
AcDbAlignedDimension
 13
38.50567233266741
 23
13.36015225158814
 33
0.0
 14
39.94317233266741
 24
13.36015225158814
 34
0.0
100
AcDbRotatedDimension
1001
ACAD
1000
DSTYLE
1002
{
1070
   171
1070
     0
1070
   170
1070
     1
1070
    40
1040
4.0
1002
}
  0
DIMENSION
  5
8F8E
330
1F
100
AcDbEntity
  8
DIM
100
AcDbDimension
  2
*D9
 10
42.08683286122702
 20
25.43525803350263
 30
0.0
 11
42.08683286122701
 21
23.08678624297162
 31
0.0
 70
   160
  3
SCHNEIDERELECTRIC
100
AcDbAlignedDimension
 13
39.22442233266741
 23
20.74265163860415
 33
0.0
 14
37.295753917329
 24
25.43525803350264
 34
0.0
 50
90.0
100
AcDbRotatedDimension
1001
ACAD
1000
DSTYLE
1002
{
1070
   171
1070
     0
1070
   170
1070
     1
1070
    40
1040
4.0
1002
}
  0
DIMENSION
  5
8F8F
330
1F
100
AcDbEntity
  8
DIM
100
AcDbDimension
  2
*D10
 10
37.295753917329
 20
29.25
 30
0.0
 11
34.32813486970996
 21
29.25
 31
0.0
 70
    32
  1
3.00 [76] MIN.
  3
SCHNEIDERELECTRIC
100
AcDbAlignedDimension
 13
39.22442233266741
 23
20.74265163860415
 33
0.0
 14
37.295753917329
 24
25.43525803350264
 34
0.0
100
AcDbRotatedDimension
1001
ACAD
1000
DSTYLE
1002
{
1070
   287
1070
     0
1070
   289
1070
     0
1070
   171
1070
     0
1070
   170
1070
     1
1070
    40
1040
4.0
1002
}
  0
DIMENSION
  5
8F90
330
1F
100
AcDbEntity
  8
DIM
100
AcDbDimension
  2
*D11
 10
38.80904376519538
 20
26.05722247867859
 30
0.0
 11
39.77269222770459
 21
23.7125877547199
 31
0.0
 70
   161
  1
C
  3
SCHNEIDERELECTRIC
100
AcDbAlignedDimension
 13
39.22442233266741
 23
20.74265163860415
 33
0.0
 14
37.295753917329
 24
25.43525803350264
 34
0.0
1001
ACAD
1000
DSTYLE
1002
{
1070
   171
1070
     0
1070
   170
1070
     1
1070
    40
1040
4.0
1002
}
  0
TEXT
  5
8F92
330
1F
100
AcDbEntity
  8
TEXT1
100
AcDbText
 10
25.90458056000197
 20
32.44655711050075
 30
0.0
 40
0.4
  1
ENSURE ADEQUATE WIRE BENDING SPACE.
  7
SIMPLEX
100
AcDbText
  0
TEXT
  5
8F93
330
1F
100
AcDbEntity
  8
TEXT1
100
AcDbText
 10
1.453486650752539
 20
14.11732397012765
 30
0.0
 40
0.4053333333317501
  1
NOTE:  BEND RADIUS IN CABLE MUST NEVER BE LESS THAN 6 INCHES.
  7
SIMPLEX
100
AcDbText
  0
TEXT
  5
8F94
330
1F
100
AcDbEntity
  8
TEXT1
100
AcDbText
 10
1.453486650752539
 20
13.42246682727322
 30
0.0
 40
0.4053333333317501
  1
ELECTRICAL CLEARANCES MUST BE MAINTAINED BETWEEN CABLE AND 
  7
SIMPLEX
100
AcDbText
  0
TEXT
  5
8F95
330
1F
100
AcDbEntity
  8
TEXT1
100
AcDbText
 10
1.453486650752539
 20
12.72760968441879
 30
0.0
 40
0.4053333333317501
  1
LIVE ELECTRICAL PARTS.
  7
SIMPLEX
100
AcDbText
  0
LINE
  5
8F96
330
1F
100
AcDbEntity
  8
CONTINUOUS2
100
AcDbLine
 10
38.5056723326674
 20
22.48515225158814
 30
0.0
 11
38.50567233266741
 21
17.55685913043055
 31
0.0
  0
LINE
  5
8F97
330
1F
100
AcDbEntity
  8
CONTINUOUS2
100
AcDbLine
 10
38.50567233266741
 20
17.55685913043055
 30
0.0
 11
38.50567233266741
 21
13.36015225158814
 31
0.0
  0
POINT
  5
8F98
330
1F
100
AcDbEntity
  8
DEFPOINTS
  6
BYBLOCK
 62
     0
100
AcDbPoint
 10
26.85450678189965
 20
23.18279449857976
 30
0.0
  0
POINT
  5
8F99
330
1F
100
AcDbEntity
  8
DEFPOINTS
  6
BYBLOCK
 62
     0
100
AcDbPoint
 10
28.03765161898441
 20
19.24262447121867
 30
0.0
  0
ARC
  5
8F9A
330
1F
100
AcDbEntity
  8
CONTINUOUS1
100
AcDbCircle
 10
51.50909723038883
 20
13.60949957544745
 30
0.0
 40
3.811861339323682
100
AcDbArc
 50
279.2831866819116
 51
27.08593893458691
  0
ARC
  5
8F9B
330
1F
100
AcDbEntity
  8
CONTINUOUS1
100
AcDbCircle
 10
51.46349782947229
 20
13.64040062761835
 30
0.0
 40
4.151499884674169
100
AcDbArc
 50
281.2014818714713
 51
24.24456406796483
  0
ARC
  5
8F9C
330
1F
100
AcDbEntity
  8
CONTINUOUS1
100
AcDbCircle
 10
52.0105481191076
 20
13.27713493289963
 30
0.0
 40
3.431449277834925
100
AcDbArc
 50
181.6840656851175
 51
271.8947583725076
  0
ARC
  5
8F9D
330
1F
100
AcDbEntity
  8
CONTINUOUS1
100
AcDbCircle
 10
51.86581180867353
 20
13.12725914074108
 30
0.0
 40
3.582145282019987
100
AcDbArc
 50
179.3373237626748
 51
276.4781852839901
  0
CIRCLE
  5
8F9E
330
1F
100
AcDbEntity
  8
CONTINUOUS1
100
AcDbCircle
 10
51.2855880053792
 20
20.55797861151139
 30
0.0
 40
0.220172499749644
  0
LINE
  5
8FA5
330
1F
100
AcDbEntity
  8
CONTINUOUS2
100
AcDbLine
 10
37.93350391732902
 20
15.15793807927939
 30
0.0
 11
37.93350391732902
 21
14.92793807927938
 31
0.0
  0
LINE
  5
8FA6
330
1F
100
AcDbEntity
  8
CONTINUOUS2
100
AcDbLine
 10
37.63385039763875
 20
14.92793807927938
 30
0.0
 11
37.93350391732902
 21
14.92793807927938
 31
0.0
  0
LINE
  5
8FA7
330
1F
100
AcDbEntity
  8
CONTINUOUS1
100
AcDbLine
 10
38.37872503257414
 20
15.02793807927938
 30
0.0
 11
37.74805546562258
 21
15.02793807927938
 31
0.0
  0
LINE
  5
8FA8
330
1F
100
AcDbEntity
  8
CONTINUOUS2
100
AcDbLine
 10
37.74805546562258
 20
15.02793807927938
 30
0.0
 11
37.74805546562258
 21
15.32793807927939
 31
0.0
  0
LINE
  5
8FA9
330
1F
100
AcDbEntity
  8
CONTINUOUS2
100
AcDbLine
 10
37.74805546562258
 20
15.32793807927939
 30
0.0
 11
37.93350391732902
 21
15.32793807927939
 31
0.0
  0
LINE
  5
8FAA
330
1F
100
AcDbEntity
  8
CONTINUOUS1
100
AcDbLine
 10
37.89805546562257
 20
15.32793807927939
 30
0.0
 11
38.16442233266741
 21
15.32793807927939
 31
0.0
  0
LINE
  5
8FAB
330
1F
100
AcDbEntity
  8
CONTINUOUS2
100
AcDbLine
 10
38.16442233266739
 20
13.57841014408523
 30
0.0
 11
38.09755696618966
 21
11.89718416944199
 31
0.0
  0
LINE
  5
8FAC
330
1F
100
AcDbEntity
  8
CONTINUOUS2
100
AcDbLine
 10
37.74805546562258
 20
15.02793807927938
 30
0.0
 11
37.63385039763875
 21
15.02793807927938
 31
0.0
  0
LINE
  5
8FAD
330
1F
100
AcDbEntity
  8
CONTINUOUS1
100
AcDbLine
 10
38.06929884934518
 20
15.02793807927938
 30
0.0
 11
38.06929884934518
 21
21.31555525409118
 31
0.0
  0
LINE
  5
8FAE
330
1F
100
AcDbEntity
  8
CONTINUOUS1
100
AcDbLine
 10
38.11452540446918
 20
20.16783909463905
 30
0.0
 11
38.16442233266741
 21
20.16783909463905
 31
0.0
  0
LINE
  5
8FAF
330
1F
100
AcDbEntity
  8
CONTINUOUS1
100
AcDbLine
 10
38.11452540446918
 20
19.66783909463905
 30
0.0
 11
38.16442233266741
 21
19.66783909463905
 31
0.0
  0
LINE
  5
8FB0
330
1F
100
AcDbEntity
  8
CONTINUOUS1
100
AcDbLine
 10
38.11452540446918
 20
20.16783909463905
 30
0.0
 11
38.11452540446918
 21
19.66783909463905
 31
0.0
  0
ARC
  5
8FB1
330
1F
100
AcDbEntity
  8
CONTINUOUS2
100
AcDbCircle
 10
38.98650048647049
 20
7.567038183082274
 30
0.0
 40
2.122082995151881
100
AcDbArc
 50
165.4523397712733
 51
11.73893453287485
  0
LINE
  5
8FB2
330
1F
100
AcDbEntity
  8
CONTINUOUS2
100
AcDbLine
 10
37.78558930430136
 20
12.00854462846703
 30
0.0
 11
36.93245352551979
 21
8.100074129826907
 31
0.0
  0
LINE
  5
8FB3
330
1F
100
AcDbEntity
  8
CONTINUOUS2
100
AcDbLine
 10
39.62604982162001
 20
13.36015225158814
 30
0.0
 11
41.06419965596548
 21
7.998781624714716
 31
0.0
  0
ARC
  5
8FB4
330
1F
100
AcDbEntity
  8
CONTINUOUS2
100
AcDbCircle
 10
38.98650048647049
 20
7.567038183082274
 30
0.0
 40
1.878954394755968
100
AcDbArc
 50
164.7735161250388
 51
12.34462940641112
  0
LINE
  5
8FB5
330
1F
100
AcDbEntity
  8
CONTINUOUS2
100
AcDbLine
 10
38.09755696618966
 20
11.89718416944199
 30
0.0
 11
37.17350641095299
 21
8.060517766967137
 31
0.0
  0
LINE
  5
8FB6
330
1F
100
AcDbEntity
  8
CONTINUOUS2
100
AcDbLine
 10
39.3410825103259
 20
13.36015225158814
 30
0.0
 11
40.82201221978012
 21
7.968742420619641
 31
0.0
  0
LINE
  5
8FB7
330
1F
100
AcDbEntity
  8
CONTINUOUS1
100
AcDbLine
 10
38.06929884934518
 20
21.56358121781784
 30
0.0
 11
38.06929884934518
 21
21.69165081904838
 31
0.0
  0
LINE
  5
8FB8
330
1F
100
AcDbEntity
  8
CONTINUOUS1
100
AcDbLine
 10
38.06929884934518
 20
21.31555525409118
 30
0.0
 11
38.06929884934518
 21
21.56358121781784
 31
0.0
  0
LINE
  5
8FB9
330
1F
100
AcDbEntity
  8
CONTINUOUS2
100
AcDbLine
 10
37.93350391732902
 20
21.69165081904838
 30
0.0
 11
37.93350391732902
 21
15.15793807927939
 31
0.0
  0
LINE
  5
8FBA
330
1F
100
AcDbEntity
  8
CONTINUOUS2
100
AcDbLine
 10
37.93350391732902
 20
14.92793807927938
 30
0.0
 11
37.78558930430136
 21
12.00854462846703
 31
0.0
  0
LINE
  5
8FBB
330
1F
100
AcDbEntity
  8
CONTINUOUS1
100
AcDbLine
 10
37.93438827640613
 20
14.92793807927938
 30
0.0
 11
38.16442233266741
 21
14.92793807927938
 31
0.0
  0
POINT
  5
8FBC
330
1F
100
AcDbEntity
  8
DEFPOINTS
  6
BYBLOCK
 62
     0
100
AcDbPoint
 10
28.03765161898441
 20
23.18279449857976
 30
0.0
  0
LINE
  5
8FC1
330
1F
100
AcDbEntity
  8
CONTINUOUS2
100
AcDbLine
 10
37.63385039763875
 20
15.02793807927938
 30
0.0
 11
37.63385039763875
 21
14.92793807927938
 31
0.0
  0
TEXT
  5
8FC2
330
1F
100
AcDbEntity
  8
TEXT1
100
AcDbText
 10
1.819669788581244
 20
37.79479283953946
 30
0.0
 40
0.405333333333175
  1
CABLE MECHANISMS FOR USE WITH CLASS 9422
  7
SIMPLEX
100
AcDbText
  0
TEXT
  5
8FC3
330
1F
100
AcDbEntity
  8
TEXT1
100
AcDbText
 10
1.819669788581244
 20
36.92812617287313
 30
0.0
 40
0.405333333333175
  1
TYPE NSJ 3 POLE CIRCUIT BREAKER.
  7
SIMPLEX
100
AcDbText
  0
LINE
  5
8FC4
330
1F
100
AcDbEntity
  8
CONTINUOUS2
100
AcDbLine
 10
38.37798202580803
 20
15.02793807927938
 30
0.0
 11
38.37798202580803
 21
15.32793807927939
 31
0.0
  0
LINE
  5
8FC5
330
1F
100
AcDbEntity
  8
CONTINUOUS2
100
AcDbLine
 10
38.49218709379186
 20
14.92793807927938
 30
0.0
 11
38.17390637453984
 21
14.92793807927938
 31
0.0
  0
LINE
  5
8FC6
330
1F
100
AcDbEntity
  8
CONTINUOUS2
100
AcDbLine
 10
38.37798202580803
 20
15.02793807927938
 30
0.0
 11
38.49218709379186
 21
15.02793807927938
 31
0.0
  0
LINE
  5
8FC7
330
1F
100
AcDbEntity
  8
CONTINUOUS2
100
AcDbLine
 10
38.49218709379186
 20
15.02793807927938
 30
0.0
 11
38.49218709379186
 21
14.92793807927938
 31
0.0
  0
LINE
  5
8FC8
330
1F
100
AcDbEntity
  8
CONTINUOUS2
100
AcDbLine
 10
38.37798202580803
 20
15.32793807927939
 30
0.0
 11
38.17390637453984
 21
15.32793807927938
 31
0.0
  0
LINE
  5
8FC9
330
1F
100
AcDbEntity
  8
CONTINUOUS2
100
AcDbLine
 10
38.16442233266739
 20
13.57841014408523
 30
0.0
 11
38.17390637453984
 21
14.92793807927938
 31
0.0
  0
LINE
  5
8FCA
330
1F
100
AcDbEntity
  8
CONTINUOUS2
100
AcDbLine
 10
38.17562609465674
 20
21.69165081904839
 30
0.0
 11
38.17390637453984
 21
14.92793807927938
 31
0.0
  0
LINE
  5
8FCB
330
1F
100
AcDbEntity
  8
CONTINUOUS1
100
AcDbLine
 10
55.67558628849882
 20
15.99518466149155
 30
0.0
 11
55.71297985689598
 21
15.56777421892509
 31
0.0
  0
LINE
  5
8FCC
330
1F
100
AcDbEntity
  8
CONTINUOUS1
100
AcDbLine
 10
54.45684201643785
 20
15.58335387775199
 30
0.0
 11
55.70208538905252
 21
15.69229855618655
 31
0.0
  0
LINE
  5
8FCD
330
1F
100
AcDbEntity
  8
CONTINUOUS1
100
AcDbLine
 10
54.45684201643784
 20
18.47383250675784
 30
0.0
 11
54.45684201643785
 21
15.58335387775199
 31
0.0
  0
LINE
  5
8FCE
330
1F
100
AcDbEntity
  8
CONTINUOUS1
100
AcDbLine
 10
60.19454639291298
 20
26.03005414550842
 30
0.0
 11
60.19454639291298
 21
19.84005414550843
 31
0.0
  0
LINE
  5
8FCF
330
1F
100
AcDbEntity
  8
CONTINUOUS1
100
AcDbLine
 10
55.71027683852744
 20
16.09049616436365
 30
0.0
 11
56.9852674456654
 21
17.49619364079462
 31
0.0
  0
LINE
  5
8FD0
330
1F
100
AcDbEntity
  8
CONTINUOUS1
100
AcDbLine
 10
60.19454639291298
 20
17.21505414550843
 30
0.0
 11
56.84733850490344
 21
17.21505414550843
 31
0.0
  0
ARC
  5
8FD1
330
1F
100
AcDbEntity
  8
CONTINUOUS1
100
AcDbCircle
 10
55.79512965226983
 20
16.00564335062126
 30
0.0
 40
0.12
100
AcDbArc
 50
134.9999999999998
 51
185.0
  0
LINE
  5
8FD2
330
1F
100
AcDbEntity
  8
CONTINUOUS1
100
AcDbLine
 10
54.48587634873373
 20
20.26271536291631
 30
0.0
 11
54.45684201643785
 21
20.24386024705995
 31
0.0
  0
LINE
  5
8FD3
330
1F
100
AcDbEntity
  8
CONTINUOUS1
100
AcDbLine
 10
54.46773648428131
 20
15.45882954049052
 30
0.0
 11
55.71297985689598
 21
15.56777421892509
 31
0.0
  0
LINE
  5
8FD4
330
1F
100
AcDbEntity
  8
CONTINUOUS1
100
AcDbLine
 10
54.45559095303972
 20
15.62700563312604
 30
0.0
 11
54.46773648428131
 21
15.45882954049052
 31
0.0
  0
CIRCLE
  5
8FD5
330
1F
100
AcDbEntity
  8
CONTINUOUS1
100
AcDbCircle
 10
54.27025568307404
 20
23.72608785137519
 30
0.0
 40
0.18038499458108
  0
CIRCLE
  5
8FD6
330
1F
100
AcDbEntity
  8
CONTINUOUS1
100
AcDbCircle
 10
54.27025568307404
 20
23.72608785137519
 30
0.0
 40
0.1490659683839875
  0
LINE
  5
8FD7
330
1F
100
AcDbEntity
  8
CONTINUOUS1
100
AcDbLine
 10
54.22222391281461
 20
23.47954680746509
 30
0.0
 11
54.3921488564604
 21
23.50428357395174
 31
0.0
  0
LINE
  5
8FD8
330
1F
100
AcDbEntity
  8
CONTINUOUS1
100
AcDbLine
 10
54.23651333384657
 20
23.38457533519584
 30
0.0
 11
54.40598392520126
 21
23.40924595950061
 31
0.0
  0
LINE
  5
8FD9
330
1F
100
AcDbEntity
  8
CONTINUOUS1
100
AcDbLine
 10
54.25181158892513
 20
23.28289887085819
 30
0.0
 11
54.42079575068764
 21
23.30749868333878
 31
0.0
  0
LINE
  5
8FDA
330
1F
100
AcDbEntity
  8
CONTINUOUS1
100
AcDbLine
 10
54.15289278221475
 20
23.94034081251501
 30
0.0
 11
54.3250222069212
 21
23.9653984955902
 31
0.0
  0
LINE
  5
8FDB
330
1F
100
AcDbEntity
  8
CONTINUOUS1
100
AcDbLine
 10
54.13759452713619
 20
24.04201727685267
 30
0.0
 11
54.3102103814348
 21
24.06714577175203
 31
0.0
  0
LINE
  5
8FDC
330
1F
100
AcDbEntity
  8
CONTINUOUS1
100
AcDbLine
 10
54.46036081200849
 20
21.06716827986096
 30
0.0
 11
54.21075083204116
 21
23.55580009792953
 31
0.0
  0
LINE
  5
8FDD
330
1F
100
AcDbEntity
  8
CONTINUOUS1
100
AcDbLine
 10
54.62778623351908
 20
21.09108483679756
 30
0.0
 11
54.38062972133909
 21
23.58341228252376
 31
0.0
  0
LINE
  5
8FDE
330
1F
100
AcDbEntity
  8
CONTINUOUS1
100
AcDbLine
 10
54.16327669688644
 20
23.87132642333281
 30
0.0
 11
54.1375945271362
 21
24.04201727685267
 31
0.0
  0
LINE
  5
8FDF
330
1F
100
AcDbEntity
  8
CONTINUOUS1
100
AcDbLine
 10
54.3353708610714
 20
23.8943102038269
 30
0.0
 11
54.31021038143479
 21
24.06714577175204
 31
0.0
  0
LINE
  5
8FE0
330
1F
100
AcDbEntity
  8
CONTINUOUS1
100
AcDbLine
 10
54.19835236588848
 20
24.0016404445217
 30
0.0
 11
54.2753711167086
 21
24.010825980875
 31
0.0
  0
LINE
  5
8FE1
330
1F
100
AcDbEntity
  8
CONTINUOUS1
100
AcDbLine
 10
54.26506040606579
 20
23.51594796497009
 30
0.0
 11
54.3420791568859
 21
23.52513350132339
 31
0.0
  0
LINE
  5
8FE2
330
1F
100
AcDbEntity
  8
CONTINUOUS1
100
AcDbLine
 10
54.27935485588368
 20
23.43499926940745
 30
0.0
 11
54.3563736067038
 21
23.44418480576075
 31
0.0
  0
LINE
  5
8FE3
330
1F
100
AcDbEntity
  8
CONTINUOUS1
100
AcDbLine
 10
54.29841434328712
 20
23.34452717988593
 30
0.0
 11
54.37543309410724
 21
23.35371271623923
 31
0.0
  0
LINE
  5
8FE4
330
1F
100
AcDbEntity
  8
CONTINUOUS1
100
AcDbLine
 10
54.20311723773933
 20
23.90640660699144
 30
0.0
 11
54.28013598855945
 21
23.91559214334474
 31
0.0
  0
ARC
  5
8FE5
330
1F
100
AcDbEntity
  8
CONTINUOUS1
100
AcDbCircle
 10
36.27450391732903
 20
23.22491443536338
 30
0.0
 40
0.1696724128300522
100
AcDbArc
 50
211.3779693015235
 51
328.622030698478
  0
ARC
  5
8FE6
330
1F
100
AcDbEntity
  8
CONTINUOUS1
100
AcDbCircle
 10
34.79745905178846
 20
23.11420089404931
 30
0.0
 40
0.1170116642509978
100
AcDbArc
 50
184.1481480757303
 51
274.0650626260066
  0
ARC
  5
8FE7
330
1F
100
AcDbEntity
  8
CONTINUOUS1
100
AcDbCircle
 10
35.59273069889406
 20
23.30531028097061
 30
0.0
 40
0.3081787443350255
100
AcDbArc
 50
267.2609924861232
 51
354.5257968121391
  0
LINE
  5
8FE8
330
1F
100
AcDbEntity
  8
CONTINUOUS1
100
AcDbLine
 10
37.38350391732903
 20
23.37636972252521
 30
0.0
 11
37.32900391732903
 21
23.45811972252522
 31
0.0
  0
LINE
  5
8FE9
330
1F
100
AcDbEntity
  8
CONTINUOUS1
100
AcDbLine
 10
37.32900391732902
 20
23.29461972252522
 30
0.0
 11
37.38350391732903
 21
23.37636972252521
 31
0.0
  0
LINE
  5
8FEA
330
1F
100
AcDbEntity
  8
CONTINUOUS1
100
AcDbLine
 10
37.32900391732903
 20
23.45811972252522
 30
0.0
 11
37.22000391732903
 21
23.45811972252522
 31
0.0
  0
LINE
  5
8FEB
330
1F
100
AcDbEntity
  8
CONTINUOUS1
100
AcDbLine
 10
37.22000391732902
 20
23.29461972252522
 30
0.0
 11
37.32900391732902
 21
23.29461972252522
 31
0.0
  0
LINE
  5
8FEC
330
1F
100
AcDbEntity
  8
CONTINUOUS1
100
AcDbLine
 10
37.16550391732902
 20
23.37636972252521
 30
0.0
 11
37.22000391732902
 21
23.29461972252522
 31
0.0
  0
LINE
  5
8FED
330
1F
100
AcDbEntity
  8
CONTINUOUS1
100
AcDbLine
 10
37.22000391732903
 20
23.45811972252522
 30
0.0
 11
37.16550391732902
 21
23.37636972252521
 31
0.0
  0
LINE
  5
8FEE
330
1F
100
AcDbEntity
  8
CONTINUOUS1
100
AcDbLine
 10
36.77450391732902
 20
23.75525583668091
 30
0.0
 11
36.77450391732902
 21
23.37636972252522
 31
-0.0000000000000018
  0
LINE
  5
8FEF
330
1F
100
AcDbEntity
  8
CONTINUOUS1
100
AcDbLine
 10
36.64950391732903
 20
23.64700266120785
 30
0.0
 11
36.64950391732903
 21
22.94335702063299
 31
0.0
  0
LINE
  5
8FF0
330
1F
100
AcDbEntity
  8
CONTINUOUS1
100
AcDbLine
 10
36.38350391732902
 20
23.37636972252521
 30
0.0
 11
36.32900391732903
 21
23.45811972252521
 31
0.0
  0
LINE
  5
8FF1
330
1F
100
AcDbEntity
  8
CONTINUOUS1
100
AcDbLine
 10
36.32900391732902
 20
23.29461972252521
 30
0.0
 11
36.38350391732902
 21
23.37636972252521
 31
0.0
  0
LINE
  5
8FF2
330
1F
100
AcDbEntity
  8
CONTINUOUS1
100
AcDbLine
 10
36.32900391732903
 20
23.45811972252521
 30
0.0
 11
36.22000391732903
 21
23.45811972252521
 31
0.0
  0
LINE
  5
8FF3
330
1F
100
AcDbEntity
  8
CONTINUOUS1
100
AcDbLine
 10
36.22000391732902
 20
23.29461972252521
 30
0.0
 11
36.32900391732902
 21
23.29461972252521
 31
0.0
  0
LINE
  5
8FF4
330
1F
100
AcDbEntity
  8
CONTINUOUS1
100
AcDbLine
 10
35.89950391732902
 20
23.27591077568622
 30
0.0
 11
35.89950391732902
 21
23.64700266120785
 31
0.0
  0
LINE
  5
8FF5
330
1F
100
AcDbEntity
  8
CONTINUOUS1
100
AcDbLine
 10
36.16550391732902
 20
23.37636972252521
 30
0.0
 11
36.22000391732902
 21
23.29461972252521
 31
0.0
  0
LINE
  5
8FF6
330
1F
100
AcDbEntity
  8
CONTINUOUS1
100
AcDbLine
 10
36.22000391732903
 20
23.45811972252521
 30
0.0
 11
36.16550391732902
 21
23.37636972252521
 31
0.0
  0
ARC
  5
8FF7
330
1F
100
AcDbEntity
  8
CONTINUOUS1
100
AcDbCircle
 10
36.27450391732903
 20
23.53169950381182
 30
0.0
 40
0.1676876648135415
100
AcDbArc
 50
30.24766351381492
 51
149.7523364861846
  0
CIRCLE
  5
8FF8
330
1F
100
AcDbEntity
  8
CONTINUOUS1
100
AcDbCircle
 10
36.39950391732901
 20
22.99602581904838
 30
0.0
 40
0.046875
  0
CIRCLE
  5
8FF9
330
1F
100
AcDbEntity
  8
CONTINUOUS1
100
AcDbCircle
 10
36.39950391732901
 20
22.99602581904838
 30
0.0
 40
0.125
  0
CIRCLE
  5
8FFA
330
1F
100
AcDbEntity
  8
CONTINUOUS1
100
AcDbCircle
 10
36.27450391732903
 20
23.37636972252522
 30
0.0000000000000018
 40
0.2795147663108213
  0
CIRCLE
  5
8FFB
330
1F
100
AcDbEntity
  8
CONTINUOUS1
100
AcDbCircle
 10
36.27450391732903
 20
23.37636972252522
 30
0.0000000000000018
 40
0.1800680398665667
  0
ARC
  5
8FFC
330
1F
100
AcDbEntity
  8
CONTINUOUS1
100
AcDbCircle
 10
36.27450391732903
 20
23.5912930821265
 30
0.0
 40
0.3791154932226102
100
AcDbArc
 50
8.449995302449133
 51
171.5500046975508
  0
ARC
  5
8FFD
330
1F
100
AcDbEntity
  8
CONTINUOUS1
100
AcDbCircle
 10
35.10092118503342
 20
23.76165081904838
 30
0.0
 40
0.125
100
AcDbArc
 50
0.0000000000002036
 51
90.0
  0
LINE
  5
8FFE
330
1F
100
AcDbEntity
  8
CONTINUOUS1
100
AcDbLine
 10
35.22592118503343
 20
22.99748360836952
 30
0.0
 11
35.22592118503343
 21
23.76165081904838
 31
0.0
  0
LINE
  5
8FFF
330
1F
100
AcDbEntity
  8
CONTINUOUS1
100
AcDbLine
 10
34.68075391732901
 20
23.5664622986559
 30
0.0
 11
34.68075391732901
 21
23.97176218762702
 31
0.0
  0
LINE
  5
9000
330
1F
100
AcDbEntity
  8
CONTINUOUS1
100
AcDbLine
 10
34.68075391732901
 20
23.10573678384258
 30
0.0
 11
34.68075391732901
 21
23.18627714639453
 31
0.0
  0
LINE
  5
9001
330
1F
100
AcDbEntity
  8
CONTINUOUS1
100
AcDbLine
 10
34.80575391732901
 20
22.99748360836953
 30
0.0
 11
35.57800391732902
 21
22.99748360836952
 31
0.0
  0
LINE
  5
9002
330
1F
100
AcDbEntity
  8
CONTINUOUS1
100
AcDbLine
 10
34.68075391732901
 20
23.88665081904838
 30
0.0
 11
35.10092118503342
 21
23.88665081904838
 31
0.0
  0
ARC
  5
9003
330
1F
100
AcDbEntity
  8
CONTINUOUS1
100
AcDbCircle
 10
34.81406660026979
 20
23.94412133224777
 30
0.0
 40
0.136148038248688
100
AcDbArc
 50
93.50044019127953
 51
168.2863491069847
  0
LINE
  5
9004
330
1F
100
AcDbEntity
  8
CONTINUOUS1
100
AcDbLine
 10
34.80575391732901
 20
24.08001536310008
 30
0.0
 11
36.39950391732902
 21
24.08001536310008
 31
0.0
  0
ARC
  5
9005
330
1F
100
AcDbEntity
  8
CONTINUOUS1
100
AcDbCircle
 10
36.42946612558059
 20
23.64061234722478
 30
0.0
 40
0.818837489524126
100
AcDbArc
 50
50.8015532512925
 51
92.09698678634023
  0
ARC
  5
9006
330
1F
100
AcDbEntity
  8
CONTINUOUS1
100
AcDbCircle
 10
36.42006940608217
 20
23.72487622987967
 30
0.0
 40
0.3557340906803789
100
AcDbArc
 50
4.899013152974989
 51
93.31419754876298
  0
LINE
  5
9007
330
1F
100
AcDbEntity
  8
CONTINUOUS1
100
AcDbLine
 10
36.94697821055509
 20
24.27517997652485
 30
0.0
 11
37.62889068758605
 21
23.68183250716534
 31
0.0
  0
ARC
  5
9008
330
1F
100
AcDbEntity
  8
CONTINUOUS1
100
AcDbCircle
 10
37.25168052328217
 20
23.38929684160879
 30
0.0
 40
0.4773516771487934
100
AcDbArc
 50
181.551811717868
 51
37.79444892767607
  0
CIRCLE
  5
9009
330
1F
100
AcDbEntity
  8
CONTINUOUS1
100
AcDbCircle
 10
37.27450391732903
 20
23.37636972252522
 30
0.0000000000000018
 40
0.303302521777929
  0
CIRCLE
  5
900A
330
1F
100
AcDbEntity
  8
CONTINUOUS1
100
AcDbCircle
 10
37.27450391732903
 20
23.37636972252522
 30
0.0000000000000018
 40
0.1833093413788225
  0
LINE
  5
900B
330
1F
100
AcDbEntity
  8
CONTINUOUS1
100
AcDbLine
 10
35.43075391732901
 20
22.27917617131764
 30
0.0
 11
35.43075391732901
 21
22.2278308055842
 31
0.0
  0
LINE
  5
900C
330
1F
100
AcDbEntity
  8
CONTINUOUS1
100
AcDbLine
 10
35.41831871703046
 20
22.29161137161619
 30
0.0
 11
35.43075391732901
 21
22.27917617131764
 31
0.0
  0
ARC
  5
900D
330
1F
100
AcDbEntity
  8
CONTINUOUS1
100
AcDbCircle
 10
35.94958302365438
 20
22.99378382507064
 30
0.0
 40
0.7017350782226291
100
AcDbArc
 50
265.9076257421651
 51
355.8791635560962
  0
ARC
  5
900E
330
1F
100
AcDbEntity
  8
CONTINUOUS1
100
AcDbCircle
 10
32.13939470692368
 20
23.03993708540844
 30
0.0
 40
0.3673521281328286
100
AcDbArc
 50
186.6362817068327
 51
271.5769289949046
  0
ARC
  5
900F
330
1F
100
AcDbEntity
  8
CONTINUOUS1
100
AcDbCircle
 10
32.27450391732901
 20
23.22491443536339
 30
0.0
 40
0.1696724128300522
100
AcDbArc
 50
211.3779693015235
 51
328.622030698478
  0
ARC
  5
9010
330
1F
100
AcDbEntity
  8
CONTINUOUS1
100
AcDbCircle
 10
32.27450391732901
 20
23.16719765937217
 30
0.0
 40
0.3800032094875818
100
AcDbArc
 50
189.3077776008836
 51
350.6922223991164
  0
ARC
  5
9011
330
1F
100
AcDbEntity
  8
CONTINUOUS1
100
AcDbCircle
 10
31.29878842350949
 20
23.35935583759125
 30
0.0
 40
0.4760196459606407
100
AcDbArc
 50
2.048300909415932
 51
217.2979597361284
  0
LINE
  5
9012
330
1F
100
AcDbEntity
  8
CONTINUOUS1
100
AcDbLine
 10
33.805753917329
 20
23.5664622986559
 30
0.0
 11
33.805753917329
 21
23.64700266120785
 31
0.0
  0
LINE
  5
9013
330
1F
100
AcDbEntity
  8
CONTINUOUS1
100
AcDbLine
 10
33.805753917329
 20
22.78097725742341
 30
0.0
 11
33.805753917329
 21
23.18627714639454
 31
0.0
  0
LINE
  5
9014
330
1F
100
AcDbEntity
  8
CONTINUOUS1
100
AcDbLine
 10
33.26058664962459
 20
22.67272408195036
 30
0.0
 11
33.26058664962459
 21
23.7552558366809
 31
0.0
  0
LINE
  5
9015
330
1F
100
AcDbEntity
  8
CONTINUOUS1
100
AcDbLine
 10
32.64950391732901
 20
23.10573678384258
 30
0.0
 11
32.64950391732901
 21
23.47682866936421
 31
0.0
  0
LINE
  5
9016
330
1F
100
AcDbEntity
  8
CONTINUOUS1
100
AcDbLine
 10
32.971003917329
 20
23.7552558366809
 30
0.0
 11
33.680753917329
 21
23.75525583668091
 31
0.0
  0
ARC
  5
9017
330
1F
100
AcDbEntity
  8
CONTINUOUS1
100
AcDbCircle
 10
33.71121874029523
 20
23.66413821277641
 30
0.0
 40
0.0960756307518545
100
AcDbArc
 50
349.7260527888527
 51
108.4871579128851
  0
ARC
  5
9018
330
1F
100
AcDbEntity
  8
CONTINUOUS1
100
AcDbCircle
 10
33.70418187770015
 20
22.77196717488192
 30
0.0
 40
0.1019708822251456
100
AcDbArc
 50
256.7175596428715
 51
5.0692296553885
  0
LINE
  5
9019
330
1F
100
AcDbEntity
  8
CONTINUOUS1
100
AcDbLine
 10
32.383503917329
 20
23.37636972252522
 30
0.0
 11
32.32900391732902
 21
23.45811972252522
 31
0.0
  0
LINE
  5
901A
330
1F
100
AcDbEntity
  8
CONTINUOUS1
100
AcDbLine
 10
32.329003917329
 20
23.29461972252522
 30
0.0
 11
32.383503917329
 21
23.37636972252522
 31
0.0
  0
LINE
  5
901B
330
1F
100
AcDbEntity
  8
CONTINUOUS1
100
AcDbLine
 10
32.32900391732902
 20
23.45811972252522
 30
0.0
 11
32.22000391732901
 21
23.45811972252522
 31
0.0
  0
LINE
  5
901C
330
1F
100
AcDbEntity
  8
CONTINUOUS1
100
AcDbLine
 10
32.22000391732901
 20
23.29461972252522
 30
0.0
 11
32.329003917329
 21
23.29461972252522
 31
0.0
  0
LINE
  5
901D
330
1F
100
AcDbEntity
  8
CONTINUOUS1
100
AcDbLine
 10
32.165503917329
 20
23.37636972252522
 30
0.0
 11
32.22000391732901
 21
23.29461972252522
 31
0.0
  0
LINE
  5
901E
330
1F
100
AcDbEntity
  8
CONTINUOUS1
100
AcDbLine
 10
32.22000391732901
 20
23.45811972252522
 30
0.0
 11
32.165503917329
 21
23.37636972252522
 31
0.0
  0
ARC
  5
901F
330
1F
100
AcDbEntity
  8
CONTINUOUS1
100
AcDbCircle
 10
32.27450391732901
 20
23.53169950381182
 30
0.0
 40
0.1676876648135415
100
AcDbArc
 50
30.24766351381492
 51
149.7523364861846
  0
CIRCLE
  5
9020
330
1F
100
AcDbEntity
  8
CONTINUOUS1
100
AcDbCircle
 10
32.087003917329
 20
22.99602581904838
 30
0.0
 40
0.046875
  0
CIRCLE
  5
9021
330
1F
100
AcDbEntity
  8
CONTINUOUS1
100
AcDbCircle
 10
32.087003917329
 20
22.99602581904838
 30
0.0
 40
0.125
  0
LINE
  5
9022
330
1F
100
AcDbEntity
  8
CONTINUOUS1
100
AcDbLine
 10
31.899503917329
 20
23.80938242441744
 30
0.0
 11
31.899503917329
 21
23.10573678384258
 31
0.0
  0
CIRCLE
  5
9023
330
1F
100
AcDbEntity
  8
CONTINUOUS1
100
AcDbCircle
 10
32.27450391732901
 20
23.37636972252522
 30
0.0000000000000018
 40
0.1800680398665667
  0
CIRCLE
  5
9024
330
1F
100
AcDbEntity
  8
CONTINUOUS1
100
AcDbCircle
 10
32.27450391732901
 20
23.37636972252522
 30
0.0000000000000018
 40
0.2795147663108213
  0
LINE
  5
9025
330
1F
100
AcDbEntity
  8
CONTINUOUS1
100
AcDbLine
 10
31.38350391732901
 20
23.37636972252522
 30
0.0
 11
31.32900391732901
 21
23.45811972252522
 31
0.0
  0
LINE
  5
9026
330
1F
100
AcDbEntity
  8
CONTINUOUS1
100
AcDbLine
 10
31.32900391732901
 20
23.29461972252522
 30
0.0
 11
31.38350391732901
 21
23.37636972252522
 31
0.0
  0
LINE
  5
9027
330
1F
100
AcDbEntity
  8
CONTINUOUS1
100
AcDbLine
 10
31.32900391732901
 20
23.45811972252522
 30
0.0
 11
31.22000391732901
 21
23.45811972252522
 31
0.0
  0
LINE
  5
9028
330
1F
100
AcDbEntity
  8
CONTINUOUS1
100
AcDbLine
 10
31.22000391732901
 20
23.29461972252522
 30
0.0
 11
31.32900391732901
 21
23.29461972252522
 31
0.0
  0
LINE
  5
9029
330
1F
100
AcDbEntity
  8
CONTINUOUS1
100
AcDbLine
 10
31.165503917329
 20
23.37636972252522
 30
0.0
 11
31.22000391732901
 21
23.29461972252522
 31
0.0
  0
LINE
  5
902A
330
1F
100
AcDbEntity
  8
CONTINUOUS1
100
AcDbLine
 10
31.22000391732901
 20
23.45811972252522
 30
0.0
 11
31.165503917329
 21
23.37636972252522
 31
0.0
  0
LINE
  5
902B
330
1F
100
AcDbEntity
  8
CONTINUOUS1
100
AcDbLine
 10
31.774503917329
 20
23.37636972252521
 30
0.0
 11
31.774503917329
 21
22.99748360836952
 31
0.0
  0
CIRCLE
  5
902C
330
1F
100
AcDbEntity
  8
CONTINUOUS1
100
AcDbCircle
 10
31.27450391732901
 20
23.37636972252522
 30
0.0000000000000018
 40
0.1833093413788225
  0
LINE
  5
902D
330
1F
100
AcDbEntity
  8
CONTINUOUS1
100
AcDbLine
 10
32.149503917329
 20
22.67272408195036
 30
0.0
 11
33.680753917329
 21
22.67272408195036
 31
0.0
  0
ARC
  5
902E
330
1F
100
AcDbEntity
  8
CONTINUOUS1
100
AcDbCircle
 10
32.6173257510109
 20
23.73828539491596
 30
0.0
 40
0.7213341614774446
100
AcDbArc
 50
87.44323054526276
 51
174.343558752999
  0
ARC
  5
902F
330
1F
100
AcDbEntity
  8
CONTINUOUS1
100
AcDbCircle
 10
32.94171148233394
 20
23.46424813193734
 30
0.0
 40
0.2924782572569437
100
AcDbArc
 50
84.25204658292823
 51
177.5347427153331
  0
LINE
  5
9030
330
1F
100
AcDbEntity
  8
CONTINUOUS1
100
AcDbLine
 10
31.60202962410294
 20
22.47755946852558
 30
0.0
 11
30.92011714707198
 21
23.07090693788509
 31
0.0
  0
CIRCLE
  5
9031
330
1F
100
AcDbEntity
  8
CONTINUOUS1
100
AcDbCircle
 10
31.27450391732901
 20
23.37636972252522
 30
0.0000000000000018
 40
0.303302521777929
  0
LINE
  5
9032
330
1F
100
AcDbEntity
  8
CONTINUOUS1
100
AcDbLine
 10
33.055753917329
 20
22.27917617131764
 30
0.0
 11
33.055753917329
 21
22.2278308055842
 31
0.0
  0
LINE
  5
9033
330
1F
100
AcDbEntity
  8
CONTINUOUS1
100
AcDbLine
 10
33.07003970461269
 20
22.29346195860133
 30
0.0
 11
33.055753917329
 21
22.27917617131764
 31
0.0
  0
ARC
  5
9034
330
1F
100
AcDbEntity
  8
CONTINUOUS1
100
AcDbCircle
 10
32.22197378069238
 20
23.41736587384239
 30
0.0
 40
1.125862707777394
100
AcDbArc
 50
236.5891232154892
 51
266.3094168221427
  0
LINE
  5
9035
330
1F
100
AcDbEntity
  8
CONTINUOUS1
100
AcDbLine
 10
35.89950391732902
 20
22.29383796779467
 30
0.0
 11
32.149503917329
 21
22.29383796779467
 31
0.0
  0
LINE
  5
9036
330
1F
100
AcDbEntity
  8
CONTINUOUS1
100
AcDbLine
 10
33.805753917329
 20
23.10573678384258
 30
0.0
 11
34.68075391732901
 21
23.10573678384258
 31
0.0
  0
LINE
  5
9037
330
1F
100
AcDbEntity
  8
CONTINUOUS1
100
AcDbLine
 10
33.805753917329
 20
23.18627714639454
 30
0.0
 11
34.68075391732901
 21
23.18627714639453
 31
0.0
  0
LINE
  5
9038
330
1F
100
AcDbEntity
  8
CONTINUOUS1
100
AcDbLine
 10
33.805753917329
 20
23.5664622986559
 30
0.0
 11
34.68075391732901
 21
23.5664622986559
 31
0.0
  0
LINE
  5
9039
330
1F
100
AcDbEntity
  8
CONTINUOUS1
100
AcDbLine
 10
33.805753917329
 20
23.64700266120785
 30
0.0
 11
34.68075391732901
 21
23.64700266120785
 31
0.0
  0
LINE
  5
903A
330
1F
100
AcDbEntity
  8
CONTINUOUS1
100
AcDbLine
 10
36.39950391732902
 20
24.45890147725577
 30
0.0
 11
32.64950391732901
 21
24.45890147725577
 31
0.0
  0
ARC
  5
903B
330
1F
100
AcDbEntity
  8
CONTINUOUS1
100
AcDbCircle
 10
34.24325391732902
 20
24.24511055494306
 30
0.0
 40
0.807446410458052
100
AcDbArc
 50
237.1915873069219
 51
302.8084126930777
  0
ARC
  5
903C
330
1F
100
AcDbEntity
  8
CONTINUOUS1
100
AcDbCircle
 10
34.24325391732901
 20
22.55840133457819
 30
0.0
 40
0.7652674598230757
100
AcDbArc
 50
55.131453680243
 51
124.8685463197561
  0
CIRCLE
  5
903D
330
1F
100
AcDbEntity
  8
CONTINUOUS1
100
AcDbCircle
 10
37.295753917329
 20
25.43525803350264
 30
0.0
 40
0.15625
  0
LINE
  5
903E
330
1F
100
AcDbEntity
  8
CONTINUOUS1
100
AcDbLine
 10
37.86900391732899
 20
25.93775803350264
 30
0.0
 11
37.86900391732901
 21
24.47356327373278
 31
0.0
  0
LINE
  5
903F
330
1F
100
AcDbEntity
  8
CONTINUOUS1
100
AcDbLine
 10
37.86900391732899
 20
25.93775803350264
 30
0.0
 11
37.86900391732901
 21
24.47356327373278
 31
0.0
  0
CIRCLE
  5
9040
330
1F
100
AcDbEntity
  8
CONTINUOUS1
100
AcDbCircle
 10
35.133253917329
 20
24.99894319425159
 30
0.0
 40
0.125
  0
LINE
  5
9041
330
1F
100
AcDbEntity
  8
CONTINUOUS1
100
AcDbLine
 10
36.93075391732901
 20
24.47356327373278
 30
0.0
 11
36.55575391732901
 21
24.85038358581679
 31
0.0
  0
CIRCLE
  5
9042
330
1F
100
AcDbEntity
  8
CONTINUOUS1
100
AcDbCircle
 10
33.363253917329
 20
24.99894319425159
 30
0.0
 40
0.125
  0
LINE
  5
9043
330
1F
100
AcDbEntity
  8
CONTINUOUS2
100
AcDbLine
 10
37.93350391732902
 20
25.93775803350264
 30
0.0
 11
30.524503917329
 21
25.93775803350264
 31
0.0
  0
LINE
  5
9044
330
1F
100
AcDbEntity
  8
CONTINUOUS1
100
AcDbLine
 10
37.93350391732902
 20
22.27917617131765
 30
0.0
 11
35.430753917329
 21
22.27917617131764
 31
0.0
  0
LINE
  5
9045
330
1F
100
AcDbEntity
  8
CONTINUOUS1
100
AcDbLine
 10
37.93350391732902
 20
22.22783080558421
 30
0.0
 11
35.430753917329
 21
22.2278308055842
 31
0.0
  0
LINE
  5
9046
330
1F
100
AcDbEntity
  8
CONTINUOUS1
100
AcDbLine
 10
31.55575391732901
 20
24.47356327373278
 30
0.0
 11
31.93075391732901
 21
24.85038358581679
 31
0.0
  0
CIRCLE
  5
9047
330
1F
100
AcDbEntity
  8
CONTINUOUS1
100
AcDbCircle
 10
31.17075391732901
 20
25.43525803350264
 30
0.0
 40
0.15625
  0
LINE
  5
9048
330
1F
100
AcDbEntity
  8
CONTINUOUS1
100
AcDbLine
 10
30.617503917329
 20
25.93775803350264
 30
0.0
 11
30.617503917329
 21
24.47356327373278
 31
0.0
  0
LINE
  5
9049
330
1F
100
AcDbEntity
  8
CONTINUOUS2
100
AcDbLine
 10
30.524503917329
 20
25.93775803350264
 30
0.0
 11
30.524503917329
 21
24.47356327373278
 31
0.0
  0
LINE
  5
904A
330
1F
100
AcDbEntity
  8
CONTINUOUS1
100
AcDbLine
 10
30.617503917329
 20
25.93775803350264
 30
0.0
 11
30.617503917329
 21
24.47356327373278
 31
0.0
  0
LINE
  5
904B
330
1F
100
AcDbEntity
  8
CONTINUOUS1
100
AcDbLine
 10
30.26181394063291
 20
22.06665081904839
 30
0.0
 11
30.524503917329
 21
22.06665081904839
 31
0.0
  0
LINE
  5
904C
330
1F
100
AcDbEntity
  8
CONTINUOUS1
100
AcDbLine
 10
30.08850391732899
 20
22.06665081904839
 30
0.0
 11
30.08850391732899
 21
22.1519640581023
 31
0.0
  0
LINE
  5
904D
330
1F
100
AcDbEntity
  8
CONTINUOUS1
100
AcDbLine
 10
29.99550391732901
 20
22.06665081904839
 30
0.0
 11
30.08850391732899
 21
22.06665081904839
 31
0.0
  0
LINE
  5
904E
330
1F
100
AcDbEntity
  8
CONTINUOUS1
100
AcDbLine
 10
30.08850391732899
 20
22.1519640581023
 30
0.0
 11
30.120503917329
 21
22.1519640581023
 31
0.0
  0
LINE
  5
904F
330
1F
100
AcDbEntity
  8
CONTINUOUS1
100
AcDbLine
 10
30.08850391732899
 20
22.1519640581023
 30
0.0
 11
30.120503917329
 21
22.1519640581023
 31
0.0
  0
LINE
  5
9050
330
1F
100
AcDbEntity
  8
CONTINUOUS1
100
AcDbLine
 10
29.99550391732901
 20
22.06665081904839
 30
0.0
 11
30.08850391732899
 21
22.06665081904839
 31
0.0
  0
LINE
  5
9051
330
1F
100
AcDbEntity
  8
CONTINUOUS1
100
AcDbLine
 10
30.245503917329
 20
21.69165081904838
 30
0.0
 11
30.524503917329
 21
21.69165081904838
 31
0.0
  0
LINE
  5
9052
330
1F
100
AcDbEntity
  8
CONTINUOUS2
100
AcDbLine
 10
30.245503917329
 20
21.69165081904838
 30
0.0
 11
30.524503917329
 21
21.69165081904838
 31
0.0
  0
LINE
  5
9053
330
1F
100
AcDbEntity
  8
CONTINUOUS1
100
AcDbLine
 10
29.99550391732901
 20
21.69165081904838
 30
0.0
 11
30.08850391732899
 21
21.69165081904838
 31
0.0
  0
LINE
  5
9054
330
1F
100
AcDbEntity
  8
CONTINUOUS1
100
AcDbLine
 10
30.08850391732899
 20
21.6063375799945
 30
0.0
 11
30.120503917329
 21
21.6063375799945
 31
0.0
  0
LINE
  5
9055
330
1F
100
AcDbEntity
  8
CONTINUOUS1
100
AcDbLine
 10
30.08850391732899
 20
21.6063375799945
 30
0.0
 11
30.120503917329
 21
21.6063375799945
 31
0.0
  0
LINE
  5
9056
330
1F
100
AcDbEntity
  8
CONTINUOUS1
100
AcDbLine
 10
29.99550391732901
 20
21.69165081904838
 30
0.0
 11
30.08850391732899
 21
21.69165081904838
 31
0.0
  0
LINE
  5
9057
330
1F
100
AcDbEntity
  8
CONTINUOUS1
100
AcDbLine
 10
30.08850391732899
 20
21.6063375799945
 30
0.0
 11
30.08850391732899
 21
21.69165081904838
 31
0.0
  0
LINE
  5
9058
330
1F
100
AcDbEntity
  8
CONTINUOUS1
100
AcDbLine
 10
30.08850391732899
 20
21.6063375799945
 30
0.0
 11
30.08850391732899
 21
22.1519640581023
 31
0.0
  0
LINE
  5
9059
330
1F
100
AcDbEntity
  8
CONTINUOUS1
100
AcDbLine
 10
29.99550391732901
 20
22.06665081904839
 30
0.0
 11
29.99550391732901
 21
21.69165081904838
 31
0.0
  0
ARC
  5
905A
330
1F
100
AcDbEntity
  8
CONTINUOUS1
100
AcDbCircle
 10
30.495503917329
 20
21.90468751860282
 30
0.0
 40
0.375
100
AcDbArc
 50
92.9924667672806
 51
180.0
  0
LINE
  5
905B
330
1F
100
AcDbEntity
  8
CONTINUOUS1
100
AcDbLine
 10
29.99550391732901
 20
22.06665081904839
 30
0.0
 11
29.99550391732901
 21
21.69165081904838
 31
0.0
  0
ARC
  5
905C
330
1F
100
AcDbEntity
  8
CONTINUOUS1
100
AcDbCircle
 10
30.495503917329
 20
21.97783080558421
 30
0.0
 40
0.25
100
AcDbArc
 50
90.0
 51
180.0
  0
LINE
  5
905D
330
1F
100
AcDbEntity
  8
CONTINUOUS1
100
AcDbLine
 10
30.12050391732899
 20
24.02772663170502
 30
0.0
 11
30.12050391732899
 21
22.1519640581023
 31
0.0
  0
ARC
  5
905E
330
1F
100
AcDbEntity
  8
CONTINUOUS2
100
AcDbCircle
 10
30.49435593002266
 20
24.09856327373278
 30
0.0
 40
0.375
100
AcDbArc
 50
90.0
 51
180.0
  0
LINE
  5
905F
330
1F
100
AcDbEntity
  8
CONTINUOUS1
100
AcDbLine
 10
36.55575391732901
 20
24.85038358581679
 30
0.0
 11
31.93075391732901
 21
24.85038358581679
 31
0.0
  0
LINE
  5
9060
330
1F
100
AcDbEntity
  8
CONTINUOUS1
100
AcDbLine
 10
33.055753917329
 20
22.2278308055842
 30
0.0
 11
30.495503917329
 21
22.2278308055842
 31
0.0
  0
LINE
  5
9061
330
1F
100
AcDbEntity
  8
CONTINUOUS1
100
AcDbLine
 10
33.055753917329
 20
22.27917617131764
 30
0.0
 11
30.4759271712294
 21
22.27917617131764
 31
0.0
  0
LINE
  5
9062
330
1F
100
AcDbEntity
  8
CONTINUOUS1
100
AcDbLine
 10
37.93350391732902
 20
24.47356327373277
 30
0.0
 11
30.49435593002266
 21
24.47356327373278
 31
0.0
  0
CIRCLE
  5
9063
330
1F
100
AcDbEntity
  8
CONTINUOUS1
100
AcDbCircle
 10
37.295753917329
 20
18.43275803350264
 30
0.0
 40
0.15625
  0
CIRCLE
  5
9064
330
1F
100
AcDbEntity
  8
CONTINUOUS1
100
AcDbCircle
 10
35.133253917329
 20
17.15025803350264
 30
0.0
 40
0.125
  0
CIRCLE
  5
9065
330
1F
100
AcDbEntity
  8
CONTINUOUS1
100
AcDbCircle
 10
33.363253917329
 20
17.15275803350263
 30
0.0
 40
0.125
  0
CIRCLE
  5
9066
330
1F
100
AcDbEntity
  8
CONTINUOUS1
100
AcDbCircle
 10
31.17075391732901
 20
18.43275803350264
 30
0.0
 40
0.15625
  0
LINE
  5
9067
330
1F
100
AcDbEntity
  8
CONTINUOUS2
100
AcDbLine
 10
30.120503917329
 20
20.62915081904838
 30
0.0
 11
30.245503917329
 21
20.62915081904838
 31
0.0
  0
LINE
  5
9068
330
1F
100
AcDbEntity
  8
CONTINUOUS2
100
AcDbLine
 10
30.120503917329
 20
20.62915081904838
 30
0.0
 11
30.245503917329
 21
20.62915081904838
 31
0.0
  0
LINE
  5
9069
330
1F
100
AcDbEntity
  8
CONTINUOUS2
100
AcDbLine
 10
30.524503917329
 20
16.44025803350264
 30
0.0
 11
37.93350391732902
 21
16.4375
 31
0.0
  0
LINE
  5
906A
330
1F
100
AcDbEntity
  8
CONTINUOUS2
100
AcDbLine
 10
30.12050391732899
 20
21.6063375799945
 30
0.0
 11
30.12050391732899
 21
20.62915081904838
 31
0.0
  0
LINE
  5
906B
330
1F
100
AcDbEntity
  8
CONTINUOUS1
100
AcDbLine
 10
30.524503917329
 20
21.69165081904838
 30
0.0
 11
30.524503917329
 21
16.44025803350264
 31
0.0
  0
LINE
  5
906C
330
1F
100
AcDbEntity
  8
CONTINUOUS1
100
AcDbLine
 10
37.86900391732901
 20
22.2278308055842
 30
0.0
 11
37.86900391732901
 21
16.43752401041449
 31
0.0
  0
LINE
  5
906D
330
1F
100
AcDbEntity
  8
CONTINUOUS2
100
AcDbLine
 10
30.524503917329
 20
22.2278308055842
 30
0.0
 11
30.524503917329
 21
16.44025803350264
 31
0.0
  0
LINE
  5
906E
330
1F
100
AcDbEntity
  8
CONTINUOUS1
100
AcDbLine
 10
30.617503917329
 20
22.2278308055842
 30
0.0
 11
30.617503917329
 21
16.44025803350264
 31
0.0
  0
LINE
  5
906F
330
1F
100
AcDbEntity
  8
CONTINUOUS2
100
AcDbLine
 10
30.245503917329
 20
21.97783080558421
 30
0.0
 11
30.245503917329
 21
20.62915081904838
 31
0.0
  0
LINE
  5
9070
330
1F
100
AcDbEntity
  8
CONTINUOUS2
100
AcDbLine
 10
30.11935593002267
 20
24.09856327373278
 30
0.0
 11
30.12050391732899
 21
20.62915081904838
 31
0.0
  0
LINE
  5
9071
330
1F
100
AcDbEntity
  8
CONTINUOUS2
100
AcDbLine
 10
30.245503917329
 20
21.69165081904838
 30
0.0
 11
30.245503917329
 21
20.62915081904838
 31
0.0
  0
LINE
  5
9072
330
1F
100
AcDbEntity
  8
CONTINUOUS2
100
AcDbLine
 10
37.93350391732902
 20
25.93775803350264
 30
0.0
 11
37.93350391732902
 21
24.47356327373278
 31
0.0
  0
LINE
  5
9073
330
1F
100
AcDbEntity
  8
CONTINUOUS2
100
AcDbLine
 10
38.30850391732901
 20
24.09856327373278
 30
0.0
 11
38.30735593002269
 21
20.62915081904838
 31
0.0
  0
LINE
  5
9074
330
1F
100
AcDbEntity
  8
CONTINUOUS1
100
AcDbLine
 10
38.18235593002268
 20
21.69165081904838
 30
0.0
 11
38.18235593002268
 21
20.62915081904838
 31
0.0
  0
LINE
  5
9075
330
1F
100
AcDbEntity
  8
CONTINUOUS1
100
AcDbLine
 10
38.18235593002268
 20
21.97783080558421
 30
0.0
 11
38.18235593002268
 21
20.62915081904838
 31
0.0
  0
LINE
  5
9076
330
1F
100
AcDbEntity
  8
CONTINUOUS1
100
AcDbLine
 10
38.30735593002269
 20
21.6063375799945
 30
0.0
 11
38.30735593002269
 21
20.62915081904838
 31
0.0
  0
LINE
  5
9077
330
1F
100
AcDbEntity
  8
CONTINUOUS2
100
AcDbLine
 10
38.30735593002268
 20
20.62915081904838
 30
0.0
 11
38.18235593002268
 21
20.62915081904838
 31
0.0
  0
LINE
  5
9078
330
1F
100
AcDbEntity
  8
CONTINUOUS2
100
AcDbLine
 10
38.30735593002268
 20
20.62915081904838
 30
0.0
 11
38.18235593002268
 21
20.62915081904838
 31
0.0
  0
ARC
  5
9079
330
1F
100
AcDbEntity
  8
CONTINUOUS2
100
AcDbCircle
 10
37.93350391732902
 20
24.09856327373278
 30
0.0
 40
0.375
100
AcDbArc
 50
0.0
 51
90.0
  0
LINE
  5
907A
330
1F
100
AcDbEntity
  8
CONTINUOUS1
100
AcDbLine
 10
38.30735593002269
 20
24.02772663170502
 30
0.0
 11
38.30735593002269
 21
22.1519640581023
 31
0.0
  0
ARC
  5
907B
330
1F
100
AcDbEntity
  8
CONTINUOUS1
100
AcDbCircle
 10
37.93235593002268
 20
21.97783080558421
 30
0.0
 40
0.25
100
AcDbArc
 50
0.0
 51
90.0
  0
LINE
  5
907C
330
1F
100
AcDbEntity
  8
CONTINUOUS1
100
AcDbLine
 10
38.43235593002268
 20
22.06665081904839
 30
0.0
 11
38.43235593002268
 21
21.69165081904838
 31
0.0
  0
ARC
  5
907D
330
1F
100
AcDbEntity
  8
CONTINUOUS1
100
AcDbCircle
 10
37.93320681413789
 20
21.90502701936384
 30
0.0
 40
0.3741492699152697
100
AcDbArc
 50
359.9480101526821
 51
89.95450275574706
  0
LINE
  5
907E
330
1F
100
AcDbEntity
  8
CONTINUOUS1
100
AcDbLine
 10
38.43235593002268
 20
22.06665081904839
 30
0.0
 11
38.43235593002268
 21
21.69165081904838
 31
0.0
  0
LINE
  5
907F
330
1F
100
AcDbEntity
  8
CONTINUOUS1
100
AcDbLine
 10
38.33935593002269
 20
21.6063375799945
 30
0.0
 11
38.33935593002269
 21
22.1519640581023
 31
0.0
  0
LINE
  5
9080
330
1F
100
AcDbEntity
  8
CONTINUOUS1
100
AcDbLine
 10
38.43235593002268
 20
21.69165081904838
 30
0.0
 11
38.33935593002269
 21
21.69165081904838
 31
0.0
  0
LINE
  5
9081
330
1F
100
AcDbEntity
  8
CONTINUOUS1
100
AcDbLine
 10
38.43235593002268
 20
21.69165081904838
 30
0.0
 11
38.33935593002269
 21
21.69165081904838
 31
0.0
  0
LINE
  5
9082
330
1F
100
AcDbEntity
  8
CONTINUOUS1
100
AcDbLine
 10
38.33935593002269
 20
21.6063375799945
 30
0.0
 11
38.33935593002269
 21
21.69165081904838
 31
0.0
  0
LINE
  5
9083
330
1F
100
AcDbEntity
  8
CONTINUOUS1
100
AcDbLine
 10
38.33935593002269
 20
21.6063375799945
 30
0.0
 11
38.30735593002268
 21
21.6063375799945
 31
0.0
  0
LINE
  5
9084
330
1F
100
AcDbEntity
  8
CONTINUOUS1
100
AcDbLine
 10
38.33935593002269
 20
21.6063375799945
 30
0.0
 11
38.30735593002268
 21
21.6063375799945
 31
0.0
  0
LINE
  5
9085
330
1F
100
AcDbEntity
  8
CONTINUOUS1
100
AcDbLine
 10
38.18235593002268
 20
21.69165081904838
 30
0.0
 11
37.93350391732902
 21
21.69165081904838
 31
0.0
  0
LINE
  5
9086
330
1F
100
AcDbEntity
  8
CONTINUOUS1
100
AcDbLine
 10
38.18235593002268
 20
21.69165081904838
 30
0.0
 11
37.93350391732902
 21
21.69165081904838
 31
0.0
  0
LINE
  5
9087
330
1F
100
AcDbEntity
  8
CONTINUOUS1
100
AcDbLine
 10
38.43235593002268
 20
22.06665081904839
 30
0.0
 11
38.33935593002269
 21
22.06665081904839
 31
0.0
  0
LINE
  5
9088
330
1F
100
AcDbEntity
  8
CONTINUOUS1
100
AcDbLine
 10
38.43235593002268
 20
22.06665081904839
 30
0.0
 11
38.33935593002269
 21
22.06665081904839
 31
0.0
  0
LINE
  5
9089
330
1F
100
AcDbEntity
  8
CONTINUOUS1
100
AcDbLine
 10
38.33935593002269
 20
22.1519640581023
 30
0.0
 11
38.30735593002268
 21
22.1519640581023
 31
0.0
  0
LINE
  5
908A
330
1F
100
AcDbEntity
  8
CONTINUOUS1
100
AcDbLine
 10
38.33935593002269
 20
22.1519640581023
 30
0.0
 11
38.30735593002268
 21
22.1519640581023
 31
0.0
  0
LINE
  5
908B
330
1F
100
AcDbEntity
  8
CONTINUOUS1
100
AcDbLine
 10
38.33935593002269
 20
22.06665081904839
 30
0.0
 11
38.33935593002269
 21
22.1519640581023
 31
0.0
  0
LINE
  5
908C
330
1F
100
AcDbEntity
  8
CONTINUOUS1
100
AcDbLine
 10
38.16604590671877
 20
22.06665081904839
 30
0.0
 11
37.93350391732902
 21
22.06665081904839
 31
0.0
  0
LINE
  5
908D
330
1F
100
AcDbEntity
  8
CONTINUOUS1
100
AcDbLine
 10
37.93350391732902
 20
22.22783080558421
 30
0.0
 11
37.93350391732902
 21
16.4375
 31
0.0
  0
DIMENSION
  5
908E
330
1F
100
AcDbEntity
  8
DIM
100
AcDbDimension
  2
*D12
 10
27.70434260783106
 20
25.93775803350264
 30
0.0
 11
29.38243784592629
 21
26.49775803350264
 31
0.0
 70
   160
  3
SCHNEIDERELECTRIC
100
AcDbAlignedDimension
 13
30.93075391732901
 23
25.43525803350264
 33
0.0
 14
30.524503917329
 24
25.93775803350264
 34
0.0
 50
90.0
100
AcDbRotatedDimension
1001
ACAD
1000
DSTYLE
1002
{
1070
   171
1070
     0
1070
   170
1070
     1
1070
    40
1040
4.0
1002
}
  0
DIMENSION
  5
908F
330
1F
100
AcDbEntity
  8
DIM
100
AcDbDimension
  2
*D13
 10
27.70434260783105
 20
18.43275803350264
 30
0.0
 11
27.70434260783105
 21
21.93400803350264
 31
0.0
 70
   160
  3
SCHNEIDERELECTRIC
100
AcDbAlignedDimension
 13
30.93075391732901
 23
25.43525803350264
 33
0.0
 14
31.17075391732901
 24
18.43275803350264
 34
0.0
 50
90.0
100
AcDbRotatedDimension
1001
ACAD
1000
DSTYLE
1002
{
1070
   171
1070
     0
1070
   170
1070
     1
1070
    40
1040
4.0
1002
}
  0
DIMENSION
  5
9090
330
1F
100
AcDbEntity
  8
DIM
100
AcDbDimension
  2
*D14
 10
37.295753917329
 20
15.77761218133255
 30
0.0
 11
34.90325391732901
 21
15.77761218133255
 31
0.0
 70
   160
  3
SCHNEIDERELECTRIC
100
AcDbAlignedDimension
 13
37.86900391732901
 23
16.43752401041448
 33
0.0
 14
37.295753917329
 24
18.43275803350264
 34
0.0
100
AcDbRotatedDimension
1001
ACAD
1000
DSTYLE
1002
{
1070
   171
1070
     0
1070
   170
1070
     1
1070
    40
1040
4.0
1002
}
  0
DIMENSION
  5
9091
330
1F
100
AcDbEntity
  8
DIM
100
AcDbDimension
  2
*D15
 10
31.17075391732901
 20
14.46741055146645
 30
0.0
 11
34.233253917329
 21
14.46741055146645
 31
0.0
 70
    32
  3
SCHNEIDERELECTRIC
100
AcDbAlignedDimension
 13
37.295753917329
 23
18.43275803350264
 33
0.0
 14
31.17075391732901
 24
18.43275803350264
 34
0.0
100
AcDbRotatedDimension
1001
ACAD
1000
DSTYLE
1002
{
1070
   171
1070
     0
1070
   170
1070
     1
1070
    40
1040
4.0
1002
}
  0
DIMENSION
  5
9092
330
1F
100
AcDbEntity
  8
DIM
100
AcDbDimension
  2
*D16
 10
37.86900391732899
 20
28.33159542772282
 30
0.0
 11
32.97515867923377
 21
28.33159542772282
 31
0.0
 70
   160
  3
SCHNEIDERELECTRIC
100
AcDbAlignedDimension
 13
35.133253917329
 23
24.99894319425159
 33
0.0
 14
37.86900391732899
 24
25.93775803350264
 34
0.0
100
AcDbRotatedDimension
1001
ACAD
1000
DSTYLE
1002
{
1070
   287
1070
     0
1070
   289
1070
     0
1070
   171
1070
     0
1070
   170
1070
     1
1070
    40
1040
4.0
1002
}
  0
DIMENSION
  5
9093
330
1F
100
AcDbEntity
  8
DIM
100
AcDbDimension
  2
*D17
 10
33.363253917329
 20
27.5
 30
0.0
 11
31.23373010780519
 21
27.5
 31
0.0
 70
    32
  3
SCHNEIDERELECTRIC
100
AcDbAlignedDimension
 13
35.133253917329
 23
24.99894319425159
 33
0.0
 14
33.363253917329
 24
24.99894319425159
 34
0.0
100
AcDbRotatedDimension
1001
ACAD
1000
DSTYLE
1002
{
1070
   287
1070
     0
1070
   289
1070
     0
1070
   171
1070
     0
1070
   170
1070
     1
1070
    40
1040
4.0
1002
}
  0
DIMENSION
  5
9094
330
1F
100
AcDbEntity
  8
DIM
100
AcDbDimension
  2
*D18
 10
40.32547833177864
 20
24.99894319425159
 30
0.0
 11
42.00357356987387
 21
27.0327322233344
 31
0.0
 70
   160
  3
SCHNEIDERELECTRIC
100
AcDbAlignedDimension
 13
37.93350391732902
 23
25.93775803350264
 33
0.0
 14
35.133253917329
 24
24.99894319425159
 34
0.0
 50
90.0
100
AcDbRotatedDimension
1001
ACAD
1000
DSTYLE
1002
{
1070
   171
1070
     0
1070
   170
1070
     1
1070
    40
1040
4.0
1002
}
  0
DIMENSION
  5
9095
330
1F
100
AcDbEntity
  8
DIM
100
AcDbDimension
  2
*D19
 10
25.37194731714388
 20
17.15275803350263
 30
0.0
 11
25.37194731714388
 21
21.00773809523809
 31
0.0
 70
   160
  3
SCHNEIDERELECTRIC
100
AcDbAlignedDimension
 13
33.363253917329
 23
24.99894319425159
 33
0.0
 14
33.363253917329
 24
17.15275803350263
 34
0.0
 50
90.0
100
AcDbRotatedDimension
1001
ACAD
1000
DSTYLE
1002
{
1070
   171
1070
     0
1070
   170
1070
     1
1070
    40
1040
4.0
1002
}
  0
LINE
  5
90AA
330
1F
100
AcDbEntity
  8
CONTINUOUS1
100
AcDbLine
 10
56.9852674456654
 20
17.49619364079462
 30
0.0
 11
56.9852674456654
 21
20.88213430357882
 31
0.0
  0
LINE
  5
90AB
330
1F
100
AcDbEntity
  8
CONTINUOUS1
100
AcDbLine
 10
56.9852674456654
 20
20.88213430357882
 30
0.0
 11
55.76510510031639
 21
20.88213430357882
 31
0.0
  0
LINE
  5
90AC
330
1F
100
AcDbEntity
  8
CONTINUOUS1
100
AcDbLine
 10
55.76510510031639
 20
20.88213430357882
 30
0.0
 11
55.76510510031639
 21
20.56963430357882
 31
0.0
  0
LINE
  5
90AD
330
1F
100
AcDbEntity
  8
CONTINUOUS1
100
AcDbLine
 10
55.76510510031639
 20
20.56963430357882
 30
0.0
 11
54.826980329392
 21
20.37846698156151
 31
0.0
  0
LINE
  5
90AE
330
1F
100
AcDbEntity
  8
CONTINUOUS1
100
AcDbLine
 10
54.45684201643785
 20
18.47383250675784
 30
0.0
 11
54.64657997465899
 21
18.47383250675784
 31
0.0
  0
LINE
  5
90AF
330
1F
100
AcDbEntity
  8
CONTINUOUS1
100
AcDbLine
 10
60.19454639291298
 20
26.71505414550843
 30
0.0
 11
56.56454639291298
 21
26.71505414550843
 31
0.0
  0
LINE
  5
90B0
330
1F
100
AcDbEntity
  8
CONTINUOUS1
100
AcDbLine
 10
56.06454639291298
 20
26.21505414550842
 30
0.0
 11
56.06454639291298
 21
24.74356160886989
 31
0.0
  0
LINE
  5
90B1
330
1F
100
AcDbEntity
  8
CONTINUOUS1
100
AcDbLine
 10
56.06454639291298
 20
26.21505414550842
 30
0.0
 11
56.56454639291298
 21
26.71505414550843
 31
0.0
  0
LINE
  5
90B2
330
1F
100
AcDbEntity
  8
CONTINUOUS1
100
AcDbLine
 10
56.84733850490343
 20
17.21505414550843
 30
0.0
 11
56.74998575329668
 21
17.31240689711517
 31
0.0
  0
CIRCLE
  5
90B3
330
1F
100
AcDbEntity
  8
CONTINUOUS1
100
AcDbCircle
 10
57.89925641650357
 20
23.42614849261872
 30
0.0
 40
0.9180000222913804
  0
LINE
  5
90B4
330
1F
100
AcDbEntity
  8
CONTINUOUS1
100
AcDbLine
 10
58.085408654368
 20
24.32507640144403
 30
0.0
 11
55.04624088352283
 21
24.95443485859508
 31
0.0
  0
LINE
  5
90B5
330
1F
100
AcDbEntity
  8
CONTINUOUS1
100
AcDbLine
 10
57.71310417863912
 20
22.52722058379342
 30
0.0
 11
54.67393640779395
 21
23.15657904094446
 31
0.0
  0
LINE
  5
90B6
330
1F
100
AcDbEntity
  8
CONTINUOUS1
100
AcDbLine
 10
54.67393640779397
 20
23.15657904094446
 30
0.0
 11
54.68506391970771
 21
23.21031372138563
 31
0.0
  0
CIRCLE
  5
90B7
330
1F
100
AcDbEntity
  8
CONTINUOUS1
100
AcDbCircle
 10
57.89925641650357
 20
23.42614849261872
 30
0.0
 40
0.1224653415783399
  0
ARC
  5
90B8
330
1F
100
AcDbEntity
  8
CONTINUOUS1
100
AcDbCircle
 10
57.89925641650357
 20
23.42614849261872
 30
0.0
 40
0.2750179290424057
100
AcDbArc
 50
29.98911050146837
 51
330.0108894985302
  0
LINE
  5
90B9
330
1F
100
AcDbEntity
  8
CONTINUOUS1
100
AcDbLine
 10
57.89925641650357
 20
23.54861383419705
 30
0.0
 11
58.12879385570344
 21
23.54861383419705
 31
0.0
  0
LINE
  5
90BA
330
1F
100
AcDbEntity
  8
CONTINUOUS1
100
AcDbLine
 10
57.89925641650357
 20
23.30368315104037
 30
0.0
 11
58.12879385570344
 21
23.30368315104037
 31
0.0
  0
ARC
  5
90BB
330
1F
100
AcDbEntity
  8
CONTINUOUS1
100
AcDbCircle
 10
58.12879385570344
 20
23.55861383419705
 30
0.0
 40
0.01
100
AcDbArc
 50
270.0
 51
29.98911050146093
  0
ARC
  5
90BC
330
1F
100
AcDbEntity
  8
CONTINUOUS1
100
AcDbCircle
 10
58.12879385570344
 20
23.29368315104037
 30
0.0
 40
0.01
100
AcDbArc
 50
330.0108894985187
 51
90.0
  0
LINE
  5
90BD
330
1F
100
AcDbEntity
  8
CONTINUOUS1
100
AcDbLine
 10
56.06454639291298
 20
22.86860804996164
 30
0.0
 11
56.06454639291298
 21
20.88213430357882
 31
0.0
  0
LINE
  5
90BE
330
1F
100
AcDbEntity
  8
CONTINUOUS1
100
AcDbLine
 10
55.72929097998351
 20
24.01738089132503
 30
0.0
 11
55.86699434731639
 21
24.68234952911752
 31
0.0
  0
LINE
  5
90BF
330
1F
100
AcDbEntity
  8
CONTINUOUS1
100
AcDbLine
 10
56.21425064021718
 20
22.93972857136051
 30
0.0
 11
56.54599907382312
 21
24.54173953345621
 31
0.0
  0
LINE
  5
90C0
330
1F
100
AcDbEntity
  8
CONTINUOUS1
100
AcDbLine
 10
55.6110905311446
 20
23.93973648460903
 30
0.0
 11
55.22624116419656
 21
24.0194320532912
 31
0.0
  0
ARC
  5
90C1
330
1F
100
AcDbEntity
  8
CONTINUOUS1
100
AcDbCircle
 10
54.27025568307404
 20
23.72608785137519
 30
0.0
 40
0.3897731790954394
100
AcDbArc
 50
77.91374077125458
 51
264.4534233107135
  0
LINE
  5
90C2
330
1F
100
AcDbEntity
  8
CONTINUOUS1
100
AcDbLine
 10
54.35186797505494
 20
24.10722111539159
 30
0.0
 11
54.76452672158835
 21
24.01885825313271
 31
0.0
  0
LINE
  5
90C3
330
1F
100
AcDbEntity
  8
CONTINUOUS1
100
AcDbLine
 10
54.18864339109315
 20
23.3449545873588
 30
0.0
 11
54.23284805191576
 21
23.33548901710666
 31
0.0
  0
LINE
  5
90C4
330
1F
100
AcDbEntity
  8
CONTINUOUS1
100
AcDbLine
 10
54.56536929341083
 20
23.26428604635369
 30
0.0
 11
54.90484637282792
 21
23.11121010788955
 31
0.0
  0
LINE
  5
90C5
330
1F
100
AcDbEntity
  8
CONTINUOUS1
100
AcDbLine
 10
54.78662593520134
 20
24.0166483386995
 30
0.0
 11
55.2048023358461
 21
24.02150288791895
 31
0.0
  0
LINE
  5
90C6
330
1F
100
AcDbEntity
  8
CONTINUOUS1
100
AcDbLine
 10
54.85219934523553
 20
24.01740957091156
 30
0.0
 11
55.04624088352284
 21
24.95443485859508
 31
0.0
  0
LINE
  5
90C7
330
1F
100
AcDbEntity
  8
CONTINUOUS1
100
AcDbLine
 10
55.9851947961553
 20
24.75999393583352
 30
0.0
 11
56.46835466710713
 21
24.65993998229512
 31
0.0
  0
LINE
  5
90C8
330
1F
100
AcDbEntity
  8
CONTINUOUS1
100
AcDbLine
 10
56.09605019137826
 20
22.86208416464451
 30
0.0
 11
54.92567431416721
 21
23.10444852617612
 31
0.0
  0
ARC
  5
90C9
330
1F
100
AcDbEntity
  8
CONTINUOUS1
100
AcDbCircle
 10
55.63136855220606
 20
24.03765891238649
 30
0.0
 40
0.1
100
AcDbArc
 50
258.30041453845
 51
348.300414538451
  0
ARC
  5
90CA
330
1F
100
AcDbEntity
  8
CONTINUOUS1
100
AcDbCircle
 10
55.96491677509384
 20
24.66207150805606
 30
0.0
 40
0.1
100
AcDbArc
 50
78.30041453845102
 51
168.3004145384504
  0
ARC
  5
90CB
330
1F
100
AcDbEntity
  8
CONTINUOUS1
100
AcDbCircle
 10
56.44807664604567
 20
24.56201755451766
 30
0.0
 40
0.1
100
AcDbArc
 50
348.3004145384513
 51
78.30041453845142
  0
ARC
  5
90CC
330
1F
100
AcDbEntity
  8
CONTINUOUS1
100
AcDbCircle
 10
56.11632821243972
 20
22.96000659242197
 30
0.0
 40
0.1
100
AcDbArc
 50
258.300414538451
 51
348.3004145384513
  0
ARC
  5
90CD
330
1F
100
AcDbEntity
  8
CONTINUOUS1
100
AcDbCircle
 10
54.94595233522867
 20
23.20237095395357
 30
0.0
 40
0.1
100
AcDbArc
 50
245.7285838781739
 51
258.3004145384512
  0
ARC
  5
90CE
330
1F
100
AcDbEntity
  8
CONTINUOUS1
100
AcDbCircle
 10
55.20596314313511
 20
23.92150962551374
 30
0.0
 40
0.1
100
AcDbArc
 50
78.30041453845002
 51
90.66510852238874
  0
ARC
  5
90CF
330
1F
100
AcDbEntity
  8
CONTINUOUS1
100
AcDbCircle
 10
54.78546512791233
 20
24.11664160110471
 30
0.0
 40
0.1
100
AcDbArc
 50
257.9137407712544
 51
270.6651085223892
  0
LINE
  5
90D0
330
1F
100
AcDbEntity
  8
CONTINUOUS1
100
AcDbLine
 10
54.40895509177561
 20
23.29777911216299
 30
0.0
 11
54.56536929341084
 21
23.26428604635369
 31
0.0
  0
LINE
  5
90D1
330
1F
100
AcDbEntity
  8
CONTINUOUS1
100
AcDbLine
 10
55.90138896562617
 20
23.25742925045461
 30
0.0
 11
55.95003311192377
 21
23.2080519633159
 31
0.0
  0
ARC
  5
90D2
330
1F
100
AcDbEntity
  8
CONTINUOUS1
100
AcDbCircle
 10
55.88242740507562
 20
23.25757107142135
 30
0.0
 40
0.0838013941769334
100
AcDbArc
 50
305.3645741066227
 51
323.7783665493139
  0
LINE
  5
90D3
330
1F
100
AcDbEntity
  8
CONTINUOUS1
100
AcDbLine
 10
55.90138896562617
 20
23.25742925045461
 30
0.0
 11
55.97085951825569
 21
23.32586832277529
 31
0.0
  0
ARC
  5
90D4
330
1F
100
AcDbEntity
  8
CONTINUOUS1
100
AcDbCircle
 10
55.88242740507562
 20
23.25757107142135
 30
0.0
 40
0.0838013941769334
100
AcDbArc
 50
125.3645741066219
 51
143.7783665493139
  0
LINE
  5
90D5
330
1F
100
AcDbEntity
  8
CONTINUOUS1
100
AcDbLine
 10
55.81281503147937
 20
23.17017043855011
 30
0.0
 11
55.88228558410889
 21
23.2386095108708
 31
0.0
  0
LINE
  5
90D6
330
1F
100
AcDbEntity
  8
CONTINUOUS1
100
AcDbLine
 10
55.79399529189554
 20
23.1892738200674
 30
0.0
 11
55.86346584452506
 21
23.25771289238808
 31
0.0
  0
LINE
  5
90D7
330
1F
100
AcDbEntity
  8
CONTINUOUS1
100
AcDbLine
 10
55.81482169822746
 20
23.30709017952679
 30
0.0
 11
55.86346584452506
 21
23.25771289238808
 31
0.0
  0
LINE
  5
90D8
330
1F
100
AcDbEntity
  8
CONTINUOUS1
100
AcDbLine
 10
55.83392507974476
 20
23.32590991911062
 30
0.0
 11
55.88256922604235
 21
23.2765326319719
 31
0.0
  0
CIRCLE
  5
90D9
330
1F
100
AcDbEntity
  8
CONTINUOUS1
100
AcDbCircle
 10
55.88242740507562
 20
23.25757107142135
 30
0.0
 40
0.1117351922359111
  0
LINE
  5
90DA
330
1F
100
AcDbEntity
  8
CONTINUOUS1
100
AcDbLine
 10
55.88228558410889
 20
23.2386095108708
 30
0.0
 11
55.93092973040649
 21
23.18923222373209
 31
0.0
  0
LINE
  5
90DB
330
1F
100
AcDbEntity
  8
CONTINUOUS1
100
AcDbLine
 10
55.88256922604235
 20
23.2765326319719
 30
0.0
 11
55.95203977867186
 21
23.34497170429258
 31
0.0
  0
LINE
  5
90DC
330
1F
100
AcDbEntity
  8
CONTINUOUS1
100
AcDbLine
 10
56.19609071617738
 20
24.46222677798278
 30
0.0
 11
56.24473486247499
 21
24.41284949084407
 31
0.0
  0
ARC
  5
90DD
330
1F
100
AcDbEntity
  8
CONTINUOUS1
100
AcDbCircle
 10
56.17712915562683
 20
24.46236859894952
 30
0.0
 40
0.0838013941769334
100
AcDbArc
 50
305.3645741066227
 51
323.7783665493139
  0
LINE
  5
90DE
330
1F
100
AcDbEntity
  8
CONTINUOUS1
100
AcDbLine
 10
56.19609071617738
 20
24.46222677798278
 30
0.0
 11
56.26556126880689
 21
24.53066585030347
 31
0.0
  0
ARC
  5
90DF
330
1F
100
AcDbEntity
  8
CONTINUOUS1
100
AcDbCircle
 10
56.17712915562683
 20
24.46236859894952
 30
0.0
 40
0.0838013941769334
100
AcDbArc
 50
125.3645741066219
 51
143.7783665493139
  0
LINE
  5
90E0
330
1F
100
AcDbEntity
  8
CONTINUOUS1
100
AcDbLine
 10
56.10751678203058
 20
24.37496796607828
 30
0.0
 11
56.1769873346601
 21
24.44340703839896
 31
0.0
  0
LINE
  5
90E1
330
1F
100
AcDbEntity
  8
CONTINUOUS1
100
AcDbLine
 10
56.08869704244676
 20
24.39407134759558
 30
0.0
 11
56.15816759507628
 21
24.46251041991626
 31
0.0
  0
LINE
  5
90E2
330
1F
100
AcDbEntity
  8
CONTINUOUS1
100
AcDbLine
 10
56.10952344877867
 20
24.51188770705497
 30
0.0
 11
56.15816759507628
 21
24.46251041991626
 31
0.0
  0
LINE
  5
90E3
330
1F
100
AcDbEntity
  8
CONTINUOUS1
100
AcDbLine
 10
56.12862683029597
 20
24.53070744663879
 30
0.0
 11
56.17727097659356
 21
24.48133015950007
 31
0.0
  0
CIRCLE
  5
90E4
330
1F
100
AcDbEntity
  8
CONTINUOUS1
100
AcDbCircle
 10
56.17712915562683
 20
24.46236859894952
 30
0.0
 40
0.1117351922359111
  0
LINE
  5
90E5
330
1F
100
AcDbEntity
  8
CONTINUOUS1
100
AcDbLine
 10
56.1769873346601
 20
24.44340703839896
 30
0.0
 11
56.2256314809577
 21
24.39402975126025
 31
0.0
  0
LINE
  5
90E6
330
1F
100
AcDbEntity
  8
CONTINUOUS1
100
AcDbLine
 10
56.17727097659356
 20
24.48133015950007
 30
0.0
 11
56.24674152922308
 21
24.54976923182075
 31
0.0
  0
DIMENSION
  5
90E7
330
1F
100
AcDbEntity
  8
DIM
100
AcDbDimension
  2
*D20
 10
60.19454639291298
 20
28.16851497918923
 30
0.0
 11
58.12954639291298
 21
28.16851497918923
 31
0.0
 70
    32
  3
SCHNEIDERELECTRIC
100
AcDbAlignedDimension
 13
56.06454639291298
 23
26.21505414550842
 33
0.0
 14
60.19454639291298
 24
26.71505414550843
 34
0.0
100
AcDbRotatedDimension
1001
ACAD
1000
DSTYLE
1002
{
1070
   171
1070
     0
1070
   170
1070
     1
1070
    40
1040
4.0
1002
}
  0
DIMENSION
  5
90E8
330
1F
100
AcDbEntity
  8
DIM
100
AcDbDimension
  2
*D21
 10
62.18603625658427
 20
17.21505414550843
 30
0.0
 11
62.18603625658426
 21
21.96505414550844
 31
0.0
 70
   160
  3
SCHNEIDERELECTRIC
100
AcDbAlignedDimension
 13
60.19454639291298
 23
26.71505414550843
 33
0.0
 14
60.19454639291298
 24
17.21505414550843
 34
0.0
 50
90.0
100
AcDbRotatedDimension
1001
ACAD
1000
DSTYLE
1002
{
1070
   171
1070
     0
1070
   170
1070
     1
1070
    40
1040
4.0
1002
}
  0
CIRCLE
  5
90E9
330
1F
100
AcDbEntity
  8
CONTINUOUS2
100
AcDbCircle
 10
35.133253917329
 20
17.15025803350264
 30
0.0
 40
0.1249999999999986
  0
CIRCLE
  5
90EA
330
1F
100
AcDbEntity
  8
CONTINUOUS2
100
AcDbCircle
 10
33.363253917329
 20
17.15275803350263
 30
0.0
 40
0.1250000000000007
  0
CIRCLE
  5
90EB
330
1F
100
AcDbEntity
  8
CONTINUOUS2
100
AcDbCircle
 10
31.17075391732901
 20
18.43275803350264
 30
0.0
 40
0.1562499999999986
  0
CIRCLE
  5
90EC
330
1F
100
AcDbEntity
  8
CONTINUOUS2
100
AcDbCircle
 10
37.295753917329
 20
18.43275803350264
 30
0.0
 40
0.1562500000000011
  0
CIRCLE
  5
90ED
330
1F
100
AcDbEntity
  8
CONTINUOUS2
100
AcDbCircle
 10
35.133253917329
 20
24.99894319425159
 30
0.0
 40
0.1250000000000012
  0
CIRCLE
  5
90EE
330
1F
100
AcDbEntity
  8
CONTINUOUS2
100
AcDbCircle
 10
33.363253917329
 20
24.99894319425159
 30
0.0
 40
0.1249999999999991
  0
CIRCLE
  5
90EF
330
1F
100
AcDbEntity
  8
CONTINUOUS2
100
AcDbCircle
 10
37.295753917329
 20
25.43525803350264
 30
0.0
 40
0.1562499999999998
  0
CIRCLE
  5
90F0
330
1F
100
AcDbEntity
  8
CONTINUOUS2
100
AcDbCircle
 10
31.17075391732901
 20
25.43525803350264
 30
0.0
 40
0.1562499999999988
  0
LINE
  5
944F
330
1F
100
AcDbEntity
  8
HIDDEN1
100
AcDbLine
 10
32.11233746995829
 20
25.4375
 30
0.0
 11
25.12194731714389
 21
25.4375
 31
0.0
  0
LINE
  5
9450
330
1F
100
AcDbEntity
  8
HIDDEN1
100
AcDbLine
 10
32.3764196552425
 20
31.875
 30
0.0
 11
25.12194731714389
 21
31.875
 31
0.0
  0
LINE
  5
9451
330
1F
100
AcDbEntity
  8
DIM
100
AcDbLine
 10
25.37194731714389
 20
25.9375
 30
0.0
 11
25.37194731714389
 21
28.33624999999999
 31
0.0
  0
LINE
  5
9452
330
1F
100
AcDbEntity
  8
DIM
100
AcDbLine
 10
25.37194731714389
 20
31.375
 30
0.0
 11
25.37194731714389
 21
28.97625
 31
0.0
  0
SOLID
  5
9453
330
1F
100
AcDbEntity
  8
DIM
100
AcDbTrace
 10
25.45528065047722
 20
25.9375
 30
0.0
 11
25.28861398381055
 21
25.9375
 31
0.0
 12
25.37194731714389
 22
25.4375
 32
0.0
 13
25.37194731714389
 23
25.4375
 33
0.0
  0
SOLID
  5
9454
330
1F
100
AcDbEntity
  8
DIM
100
AcDbTrace
 10
25.45528065047722
 20
31.375
 30
0.0
 11
25.28861398381055
 21
31.375
 31
0.0
 12
25.37194731714389
 22
31.875
 32
0.0
 13
25.37194731714389
 23
31.875
 33
0.0
  0
MTEXT
  5
9455
330
1F
100
AcDbEntity
  8
DIM
100
AcDbMText
 10
25.37194731714389
 20
28.65625
 30
0.0
 40
0.32
 41
0.0
 71
     5
 72
     1
  1
\A1;X
  7
ROMANS
210
0.0
220
0.0
230
-1.0
 11
-1.0
 21
0.0
 31
0.0
1001
ACAD
1000
MTEXTBEGIN
1070
    73
1070
     1
1070
    44
1040
1.0
1070
    74
1070
     0
1000
MTEXTEND
1000
MTEXTBEGIN
1070
    73
1070
     1
1070
    44
1040
1.0
1070
    74
1070
     0
1000
MTEXTEND
  0
DIMENSION
  5
94E6
330
1F
100
AcDbEntity
  8
DIM
100
AcDbDimension
  2
*D22
 10
31.30500089818426
 20
18.51270683356399
 30
0.0
 11
25.24693462730852
 21
16.01204350013071
 31
0.0
 70
   163
  3
SCHNEIDERELECTRIC
100
AcDbDiametricDimension
 15
31.03650693647376
 25
18.3528092334413
 35
0.0
 40
0.0
1001
ACAD
1000
DSTYLE
1002
{
1070
   171
1070
     0
1070
   170
1070
     1
1070
    40
1040
4.0
1002
}
  0
DIMENSION
  5
94F2
330
1F
100
AcDbEntity
  8
DIM
100
AcDbDimension
  2
*D23
 10
33.47245163035737
 20
17.2135927231901
 30
0.0
 11
26.63786710003643
 21
14.44169177736004
 31
0.0
 70
   163
  3
SCHNEIDERELECTRIC
100
AcDbDiametricDimension
 15
33.25405620430061
 25
17.09192334381516
 35
0.0
 40
0.0
1001
ACAD
1000
DSTYLE
1002
{
1070
   171
1070
     0
1070
   170
1070
     1
1070
    40
1040
4.0
1002
}
  0
VIEWPORT
  5
32
330
1B
100
AcDbEntity
 67
     1
  8
0
100
AcDbViewport
 10
8.197700928165527
 20
5.057849811637932
 30
0.0
 40
17.61012029192862
 41
11.08418343133449
 68
     1
 69
     1
1001
ACAD
1000
MVIEW
1002
{
1070
    16
1010
0.0
1020
0.0
1030
0.0
1010
0.0
1020
0.0
1030
1.0
1040
0.0
1040
11.08418343133449
1040
8.197700928165527
1040
5.057849811637932
1040
50.0
1040
0.0
1040
0.0
1070
     0
1070
   100
1070
     1
1070
     0
1070
     0
1070
     0
1070
     0
1070
     0
1040
0.0
1040
0.0
1040
0.0
1040
0.5
1040
0.5
1040
0.5
1040
0.5
1070
     0
1002
{
1002
}
1002
}
  0
LWPOLYLINE
  5
175
330
1B
100
AcDbEntity
 67
     1
  8
VIEWPORT
100
AcDbPolyline
 90
        6
 70
     1
 43
0.0
 10
16.40000099999999
 20
10.25
 10
16.40000099999999
 20
0.9120019999999993
 10
8.002461
 20
0.9120019999999993
 10
8.002461
 20
0.0
 10
0.0
 20
0.0
 10
0.0
 20
10.25
1001
GENIUS_GENOREF_13
1005
0
1005
0
1005
0
1005
0
1005
0
1005
0
1005
0
  0
VIEWPORT
  5
177
330
1B
100
AcDbEntity
 67
     1
  8
VIEWPORT
100
AcDbViewport
 10
8.200000499999999
 20
5.125
 30
0.0
 40
16.40000099999999
 41
10.25
 68
     2
 69
     2
1001
ACAD
1000
MVIEW
1002
{
1070
    16
1010
0.0
1020
0.0
1030
0.0
1010
0.0
1020
0.0
1030
1.0
1040
0.0
1040
41.0
1040
32.80000230548317
1040
20.54701269631493
1040
50.0
1040
0.0
1040
0.0
1070
     0
1070
   100
1070
     1
1070
     2
1070
     0
1070
     0
1070
     0
1070
     0
1040
0.0
1040
0.0
1040
0.0
1040
0.5
1040
0.5
1040
0.5
1040
0.5
1070
     0
1002
{
1002
}
1002
}
1001
GENIUS_GENOREF_13
1005
0
1005
0
1005
0
1005
0
1005
0
1005
0
1005
0
1001
GENIUS_GENSCREG_15
1000
PF
1040
0.0
1000
DF
1040
0.0
1000
MIN
1011
0.0
1021
0.0
1031
0.0
1000
MAX
1011
16.40000099999999
1021
10.25
1031
0.0
1000
FLAGS
1070
     2
  0
INSERT
  5
B2C
330
1B
100
AcDbEntity
 67
     1
  8
TITLEBLOCK
100
AcDbBlockReference
 66
     1
  2
TITLE-PAD
 10
0.0
 20
0.0
 30
0.0
  0
ATTRIB
  5
B2D
330
B2C
100
AcDbEntity
 67
     1
  8
TEXT1
 62
     0
100
AcDbText
 10
9.104219301318941
 20
0.6974460884590166
 30
0.0
 40
0.1
  1
3 POLE CIRCUIT BREAKER
  7
ROMANS
 72
     4
 11
10.10183834893798
 21
0.7474460884590166
 31
0.0
100
AcDbAttribute
  2
DESCRIPTION 1
 70
     0
  0
ATTRIB
  5
B2E
330
B2C
100
AcDbEntity
 67
     1
  8
TEXT1
 62
     0
100
AcDbText
 10
8.970885967985607
 20
0.5517231711406716
 30
0.0
 40
0.1
  1
CABLE OPERATOR MECHANISM
  7
ROMANS
 72
     4
 11
10.10183834893798
 21
0.6017231711406717
 31
0.0
100
AcDbAttribute
  2
DESCRIPTION 2
 70
     0
  0
ATTRIB
  5
B2F
330
B2C
100
AcDbEntity
 67
     1
  8
TEXT1
 62
     0
100
AcDbText
 10
8.833266920366559
 20
0.4236193014413744
 30
0.0
 40
0.08
  1
CLASS 9422 TYPE CSJ30, CSJ50, CSJ10
  7
ROMANS
 72
     4
 11
10.10183834893798
 21
0.4560002538223267
 31
0.0
100
AcDbAttribute
  2
DESCRIPTION 3
 70
     0
  0
ATTRIB
  5
B30
330
B2C
100
AcDbEntity
 67
     1
  8
TEXT1
 62
     0
100
AcDbText
 10
9.981838348937989
 20
0.3202773365039833
 30
0.0
 40
0.08
  1
   
  7
ROMANS
 72
     4
 11
10.10183834893798
 21
0.3202773365039833
 31
0.0
100
AcDbAttribute
  2
DESCRIPTION 4
 70
     0
  0
ATTRIB
  5
B31
330
B2C
100
AcDbEntity
 67
     1
  8
TEXT1
 62
     0
100
AcDbText
 10
10.10183834893798
 20
0.1845544191856399
 30
0.0
 40
0.08
  1

  7
ROMANS
 72
     4
 11
10.10183834893798
 21
0.1845544191856399
 31
0.0
100
AcDbAttribute
  2
DESCRIPTION 5
 70
     0
  0
ATTRIB
  5
B32
330
B2C
100
AcDbEntity
 67
     1
  8
TEXT1
 62
     0
100
AcDbText
 10
12.74772367103195
 20
0.096540546036505
 30
0.0
 40
0.12
  1
9422_CSJ_OUTLINE_001
 41
0.9512024731840066
  7
M_STANDARD
 11
12.74772367103195
 21
0.156540546036505
 31
0.0
100
AcDbAttribute
  2
DWGNO
 70
     0
 74
     2
  0
ATTRIB
  5
B33
330
B2C
100
AcDbEntity
 67
     1
  8
TEXT1
 62
     0
100
AcDbText
 10
15.78363597806468
 20
-0.1507193079929352
 30
0.0
 40
0.08
  1
E0105901
  7
ROMANS
 72
     2
 11
16.35506454949325
 21
-0.1107193079929352
 31
0.0
100
AcDbAttribute
  2
REF
 70
     0
 74
     2
  0
ATTRIB
  5
B34
330
B2C
100
AcDbEntity
 67
     1
  8
TEXT1
 62
     0
100
AcDbText
 10
0.0266402374038712
 20
-0.1507193079929352
 30
0.0
 40
0.08
  1
FEBRUARY 2001
  7
ROMANS
 11
0.0266402374038712
 21
-0.1107193079929352
 31
0.0
100
AcDbAttribute
  2
DATE
 70
     0
 74
     2
  0
SEQEND
  5
B35
330
B2C
100
AcDbEntity
 67
     1
  8
0
  0
INSERT
  5
D86
330
1B
100
AcDbEntity
 67
     1
  8
TITLEBLOCK
100
AcDbBlockReference
  2
OEM-NOTES
 10
0.0
 20
0.0
 30
0.0
 41
0.5
 42
0.5
 43
0.5
  0
ENDSEC
  0
SECTION
  2
OBJECTS
  0
DICTIONARY
  5
C
330
0
100
AcDbDictionary
  3
ACAD_GROUP
350
D
  3
ACAD_LAYOUT
350
1A
  3
ACAD_MLINESTYLE
350
17
  3
ACAD_PLOTSETTINGS
350
19
  3
ACAD_PLOTSTYLENAME
350
E
  3
ACADDIM
350
806A
  3
ACDBHEADERROUNDTRIPXREC
350
9CC2
  3
ACDBVARIABLEDICTIONARY
350
374
  3
ACMDICTIONARY
350
383
  3
AMG
350
36B
  3
AMGSNAPSETTINGS
350
399
  3
ASE_INDEX_DICTIONARY
350
6A
  3
DWGPROPS
350
CB4
  0
DICTIONARY
  5
73
330
1F
100
AcDbDictionary
280
     1
  3
ACAD_INDEX
360
CB8
  3
ACAD_LAYOUTSELFREF
360
9CE4
  0
DICTIONARY
  5
75
330
1B
100
AcDbDictionary
280
     1
  3
ACAD_LAYOUTSELFREF
360
9CE3
  0
DICTIONARY
  5
D
102
{ACAD_REACTORS
330
C
102
}
330
C
100
AcDbDictionary
  0
DICTIONARY
  5
1A
102
{ACAD_REACTORS
330
C
102
}
330
C
100
AcDbDictionary
  0
DICTIONARY
  5
17
102
{ACAD_REACTORS
330
C
102
}
330
C
100
AcDbDictionary
  3
STANDARD
350
18
  0
DICTIONARY
  5
19
102
{ACAD_REACTORS
330
C
102
}
330
C
100
AcDbDictionary
  3
A_SIZE_PAPER
350
2FF
  3
B_SIZE_PAPER
350
2FD
  3
D_SIZE_PAPER
350
2FE
  0
ACDBDICTIONARYWDFLT
  5
E
102
{ACAD_REACTORS
330
C
102
}
330
C
100
AcDbDictionary
281
     1
  3
Normal
350
F
100
AcDbDictionaryWithDefault
340
F
  0
XRECORD
  5
806A
102
{ACAD_REACTORS
330
C
102
}
330
C
100
AcDbXrecord
 90
   990106
  3

 60
     0
 61
     0
 62
     1
 63
     3
 64
     0
 65
     0
 66
     0
 67
     3
 68
     1
 69
     0
 70
     0
 71
     0
 72
     0
 40
0.0
170
     0
  0
DICTIONARY
  5
9CC2
102
{ACAD_REACTORS
330
C
102
}
330
C
100
AcDbDictionary
  3
CEPSNTYPE
350
9CCC
  3
DIMSTYLEDATA
350
9CD0
  3
FINGERPRINTGUID
350
9CCD
  3
HYPERLINKBASE
350
9CC5
  3
INSUNITS
350
9CCB
  3
LAYOUTDICT
350
9CC7
  3
LWETCUNION
350
9CCA
  3
PLOTSETDICT
350
9CC8
  3
PLOTSTYLNAMDICT
350
9CC9
  3
PSVPSCALE
350
9CCF
  3
PUCSBASE
350
9CD3
  3
PUCSORGBACK
350
9CD9
  3
PUCSORGBOTTOM
350
9CD5
  3
PUCSORGFRONT
350
9CD8
  3
PUCSORGLEFT
350
9CD6
  3
PUCSORGRIGHT
350
9CD7
  3
PUCSORGTOP
350
9CD4
  3
PUCSORTHOREF
350
9CD1
  3
PUCSORTHOVIEW
350
9CD2
  3
STYLESHEET
350
9CC6
  3
TSTACKALIGN
350
9CC3
  3
TSTACKSIZE
350
9CC4
  3
UCSBASE
350
9CDC
  3
UCSORGBACK
350
9CE2
  3
UCSORGBOTTOM
350
9CDE
  3
UCSORGFRONT
350
9CE1
  3
UCSORGLEFT
350
9CDF
  3
UCSORGRIGHT
350
9CE0
  3
UCSORGTOP
350
9CDD
  3
UCSORTHOREF
350
9CDA
  3
UCSORTHOVIEW
350
9CDB
  3
VERSIONGUID
350
9CCE
  0
DICTIONARY
  5
374
102
{ACAD_REACTORS
330
C
102
}
330
C
100
AcDbDictionary
  3
INDEXCTL
350
375
  0
DICTIONARY
  5
383
102
{ACAD_REACTORS
330
C
102
}
330
C
100
AcDbDictionary
  0
DICTIONARY
  5
36B
102
{ACAD_REACTORS
330
C
102
}
330
C
100
AcDbDictionary
  3
ACMGSETTINGS
350
36C
  0
DICTIONARY
  5
399
102
{ACAD_REACTORS
330
C
102
}
330
C
100
AcDbDictionary
  0
DICTIONARY
  5
6A
102
{ACAD_REACTORS
330
C
102
}
330
C
100
AcDbDictionary
  3
ASEBLOCKHIERARCHYINDEXRECORD
350
6C
1001
DCO15
1040
1379130883.246999
  0
XRECORD
  5
CB4
102
{ACAD_REACTORS
330
C
102
}
330
C
100
AcDbXrecord
  1
DWGPROPS COOKIE
  2

  3

  4

  6

  7

  8
mgp706
  9

300
AmdtFileType=84
301
=
302
=
303
=
304
=
305
=
306
=
307
=
308
=
309
=
 40
0.2107598032407407
 41
2451764.535041909
 42
2451851.591606284
  1

 90
        1
  0
DICTIONARY
  5
CB8
102
{ACAD_REACTORS
330
73
102
}
330
73
100
AcDbDictionary
  3
*A1
350
CB9
  0
XRECORD
  5
9CE4
102
{ACAD_REACTORS
330
73
102
}
330
73
100
AcDbXrecord
340
1F
  0
XRECORD
  5
9CE3
102
{ACAD_REACTORS
330
75
102
}
330
75
100
AcDbXrecord
340
1B
  0
MLINESTYLE
  5
18
102
{ACAD_REACTORS
330
17
102
}
330
17
100
AcDbMlineStyle
  2
STANDARD
 70
     0
  3

 62
   256
 51
90.0
 52
90.0
 71
     2
 49
0.5
 62
   256
  6
BYLAYER
 49
-0.5
 62
   256
  6
BYLAYER
  0
PLOTSETTINGS
  5
2FF
102
{ACAD_REACTORS
330
19
102
}
330
19
100
AcDbPlotSettings
  1
A Size Paper
  2
none_device
  4
ANSI_A_(8.50_x_11.00_Inches)
  6

 40
6.349999904632568
 41
19.04999923706054
 42
6.350006103515625
 43
19.04998779296875
 44
215.8999938964843
 45
279.3999938964843
 46
19.04999999999999
 47
-9.651999999999999
 48
0.0
 49
0.0
140
0.0
141
0.0
142
1.0
143
1.6
 70
   740
 72
     0
 73
     1
 74
     1
  7
monochrome.ctb
 75
     0
147
0.625
148
0.0034886547032954
149
0.0199946439100934
  0
PLOTSETTINGS
  5
2FD
102
{ACAD_REACTORS
330
19
102
}
330
19
100
AcDbPlotSettings
  1
B Size Paper
  2
none_device
  4
ANSI_B_(11.00_x_17.00_Inches)
  6

 40
6.349999904632568
 41
19.04999923706054
 42
6.350006103515625
 43
19.04998779296875
 44
279.3999938964843
 45
431.7999877929687
 46
1.27
 47
-11.43
 48
0.0
 49
0.0
140
0.0
141
0.0
142
1.0
143
1.0
 70
   756
 72
     0
 73
     1
 74
     1
  7
monochrome.ctb
 75
    16
147
1.0
148
0.0034886547032954
149
0.0199946439100934
  0
PLOTSETTINGS
  5
2FE
102
{ACAD_REACTORS
330
19
102
}
330
19
100
AcDbPlotSettings
  1
D Size Paper
  2
none_device
  4
ANSI_D_(22.00_x_34.00_Inches)
  6

 40
6.349999904632568
 41
19.04999923706054
 42
6.3499755859375
 43
19.04998779296875
 44
558.7999877929687
 45
863.5999755859375
 46
8.889999999999998
 47
-3.809999999999999
 48
0.0
 49
0.0
140
0.0
141
0.0
142
1.0
143
0.5
 70
   740
 72
     0
 73
     1
 74
     1
  7
monochrome.ctb
 75
     0
147
2.0
148
0.0034886547032954
149
0.0199946439100934
  0
ACDBPLACEHOLDER
  5
F
102
{ACAD_REACTORS
330
E
102
}
330
E
100
AcDbPlaceHolder
280
     0
  0
XRECORD
  5
9CCC
102
{ACAD_REACTORS
330
9CC2
102
}
330
9CC2
100
AcDbXrecord
 90
        0
  0
XRECORD
  5
9CD0
102
{ACAD_REACTORS
330
9CC2
102
}
330
9CC2
100
AcDbXrecord
1000
DSTYLE
1002
{
1070
    79
 70
     1
1070
   148
 40
0.1
1070
   341
340
970C
1070
   342
340
970C
1070
   371
 70
    -1
1070
   372
 70
    -1
1002
}
  0
XRECORD
  5
9CCD
102
{ACAD_REACTORS
330
9CC2
102
}
330
9CC2
100
AcDbXrecord
  1
{4E694E3A-6C64-11D4-81E3-0004AC4461C9}
  0
XRECORD
  5
9CC5
102
{ACAD_REACTORS
330
9CC2
102
}
330
9CC2
100
AcDbXrecord
  1

  0
XRECORD
  5
9CCB
102
{ACAD_REACTORS
330
9CC2
102
}
330
9CC2
100
AcDbXrecord
 90
        1
  0
XRECORD
  5
9CC7
102
{ACAD_REACTORS
330
9CC2
102
}
330
9CC2
100
AcDbXrecord
340
1A
  0
XRECORD
  5
9CCA
102
{ACAD_REACTORS
330
9CC2
102
}
330
9CC2
100
AcDbXrecord
 90
    10269
  0
XRECORD
  5
9CC8
102
{ACAD_REACTORS
330
9CC2
102
}
330
9CC2
100
AcDbXrecord
340
19
  0
XRECORD
  5
9CC9
102
{ACAD_REACTORS
330
9CC2
102
}
330
9CC2
100
AcDbXrecord
340
E
  0
XRECORD
  5
9CCF
102
{ACAD_REACTORS
330
9CC2
102
}
330
9CC2
100
AcDbXrecord
 40
1.0
  0
XRECORD
  5
9CD3
102
{ACAD_REACTORS
330
9CC2
102
}
330
9CC2
100
AcDbXrecord
340
0
  0
XRECORD
  5
9CD9
102
{ACAD_REACTORS
330
9CC2
102
}
330
9CC2
100
AcDbXrecord
 10
0.0
 20
0.0
 30
0.0
  0
XRECORD
  5
9CD5
102
{ACAD_REACTORS
330
9CC2
102
}
330
9CC2
100
AcDbXrecord
 10
0.0
 20
0.0
 30
0.0
  0
XRECORD
  5
9CD8
102
{ACAD_REACTORS
330
9CC2
102
}
330
9CC2
100
AcDbXrecord
 10
0.0
 20
0.0
 30
0.0
  0
XRECORD
  5
9CD6
102
{ACAD_REACTORS
330
9CC2
102
}
330
9CC2
100
AcDbXrecord
 10
0.0
 20
0.0
 30
0.0
  0
XRECORD
  5
9CD7
102
{ACAD_REACTORS
330
9CC2
102
}
330
9CC2
100
AcDbXrecord
 10
0.0
 20
0.0
 30
0.0
  0
XRECORD
  5
9CD4
102
{ACAD_REACTORS
330
9CC2
102
}
330
9CC2
100
AcDbXrecord
 10
0.0
 20
0.0
 30
0.0
  0
XRECORD
  5
9CD1
102
{ACAD_REACTORS
330
9CC2
102
}
330
9CC2
100
AcDbXrecord
340
0
  0
XRECORD
  5
9CD2
102
{ACAD_REACTORS
330
9CC2
102
}
330
9CC2
100
AcDbXrecord
 70
     0
  0
XRECORD
  5
9CC6
102
{ACAD_REACTORS
330
9CC2
102
}
330
9CC2
100
AcDbXrecord
  1

  0
XRECORD
  5
9CC3
102
{ACAD_REACTORS
330
9CC2
102
}
330
9CC2
100
AcDbXrecord
 90
        1
  0
XRECORD
  5
9CC4
102
{ACAD_REACTORS
330
9CC2
102
}
330
9CC2
100
AcDbXrecord
 90
       70
  0
XRECORD
  5
9CDC
102
{ACAD_REACTORS
330
9CC2
102
}
330
9CC2
100
AcDbXrecord
340
0
  0
XRECORD
  5
9CE2
102
{ACAD_REACTORS
330
9CC2
102
}
330
9CC2
100
AcDbXrecord
 10
0.0
 20
0.0
 30
0.0
  0
XRECORD
  5
9CDE
102
{ACAD_REACTORS
330
9CC2
102
}
330
9CC2
100
AcDbXrecord
 10
0.0
 20
0.0
 30
0.0
  0
XRECORD
  5
9CE1
102
{ACAD_REACTORS
330
9CC2
102
}
330
9CC2
100
AcDbXrecord
 10
0.0
 20
0.0
 30
0.0
  0
XRECORD
  5
9CDF
102
{ACAD_REACTORS
330
9CC2
102
}
330
9CC2
100
AcDbXrecord
 10
0.0
 20
0.0
 30
0.0
  0
XRECORD
  5
9CE0
102
{ACAD_REACTORS
330
9CC2
102
}
330
9CC2
100
AcDbXrecord
 10
0.0
 20
0.0
 30
0.0
  0
XRECORD
  5
9CDD
102
{ACAD_REACTORS
330
9CC2
102
}
330
9CC2
100
AcDbXrecord
 10
0.0
 20
0.0
 30
0.0
  0
XRECORD
  5
9CDA
102
{ACAD_REACTORS
330
9CC2
102
}
330
9CC2
100
AcDbXrecord
340
0
  0
XRECORD
  5
9CDB
102
{ACAD_REACTORS
330
9CC2
102
}
330
9CC2
100
AcDbXrecord
 70
     0
  0
XRECORD
  5
9CCE
102
{ACAD_REACTORS
330
9CC2
102
}
330
9CC2
100
AcDbXrecord
  1
{B6EAA53A-0C2A-11D5-B1B2-000629309E34}
  0
DICTIONARYVAR
  5
375
102
{ACAD_REACTORS
330
374
102
}
330
374
100
DictionaryVariables
280
     0
  1
1
  0
DICTIONARY
  5
36C
102
{ACAD_REACTORS
330
36B
102
}
330
36B
100
AcDbDictionary
  3
DWGSETTINGS
350
CA0
  0
XRECORD
  5
6C
102
{ACAD_REACTORS
330
6A
102
}
330
6A
100
AcDbXrecord
  0
LAYER_INDEX
  5
CB9
102
{ACAD_REACTORS
330
CB8
102
}
330
CB8
100
AcDbIndex
 40
2451967.66272897
100
AcDbLayerIndex
  8
0
360
CBA
 90
        1
  8
BLOCKS
360
CBB
 90
        0
  8
CENTER1
360
CBC
 90
        0
  8
CENTER2
360
CBD
 90
        4
  8
CENTER3
360
CBE
 90
        0
  8
CONSTRUCTION
360
CBF
 90
        0
  8
CONTINUOUS1
360
CC0
 90
      604
  8
CONTINUOUS2
360
CC1
 90
       62
  8
CONTINUOUS3
360
CC2
 90
        0
  8
DASHDOT1
360
CC3
 90
        0
  8
DASHDOT2
360
CC4
 90
        0
  8
DASHDOT3
360
CC5
 90
        0
  8
DIM
360
CC6
 90
       24
  8
HIDDEN1
360
CC7
 90
        2
  8
HIDDEN2
360
CC8
 90
        0
  8
HIDDEN3
360
CC9
 90
        0
  8
PHANTOM1
360
CCA
 90
        0
  8
PHANTOM2
360
CCB
 90
        0
  8
PHANTOM3
360
CCC
 90
        0
  8
TEXT1
360
CCD
 90
       37
  8
TEXT2
360
CCE
 90
        0
  8
TEXT3
360
CCF
 90
        0
  8
TITLEBLOCK
360
CD0
 90
        0
  8
VIEWPORT
360
CD1
 90
        2
  8
MOUNTING
360
9519
 90
        0
  8
DEFPOINTS
360
951A
 90
        3
  0
XRECORD
  5
CA0
102
{ACAD_REACTORS
330
36C
102
}
330
36C
100
AcDbXrecord
  1
VERSION
140
15.0
  1
PRODUCT
  2
AutoCAD Mechanical 2000
  0
IDBUFFER
  5
CBA
330
0
100
AcDbIdBuffer
330
79E
  0
IDBUFFER
  5
CBB
330
0
100
AcDbIdBuffer
  0
IDBUFFER
  5
CBC
330
0
100
AcDbIdBuffer
  0
IDBUFFER
  5
CBD
330
0
100
AcDbIdBuffer
330
8F70
330
8F71
330
8F72
330
8F73
  0
IDBUFFER
  5
CBE
330
0
100
AcDbIdBuffer
  0
IDBUFFER
  5
CBF
330
0
100
AcDbIdBuffer
  0
IDBUFFER
  5
CC0
330
0
100
AcDbIdBuffer
330
8DFB
330
8DFC
330
8DFD
330
8E01
330
8E02
330
8E06
330
8E07
330
8E0A
330
8E0E
330
8E0F
330
8E18
330
8E1A
330
8E1B
330
8E1C
330
8E1D
330
8E1E
330
8E1F
330
8E20
330
8E21
330
8E22
330
8E23
330
8E24
330
8E25
330
8E26
330
8E27
330
8E28
330
8E29
330
8E2A
330
8E2B
330
8E2C
330
8E2D
330
8E2E
330
8E2F
330
8E30
330
8E31
330
8E32
330
8E33
330
8E34
330
8E35
330
8E36
330
8E37
330
8E38
330
8E39
330
8E3A
330
8E3B
330
8E3C
330
8E3D
330
8E3E
330
8E3F
330
8E40
330
8E41
330
8E42
330
8E43
330
8E44
330
8E45
330
8E46
330
8E47
330
8E48
330
8E49
330
8E4A
330
8E4B
330
8E4C
330
8E4D
330
8E4E
330
8E4F
330
8E50
330
8E51
330
8E52
330
8E53
330
8E54
330
8E55
330
8E56
330
8E57
330
8E58
330
8E59
330
8E5A
330
8E5B
330
8E5C
330
8E5D
330
8E5E
330
8E5F
330
8E60
330
8E61
330
8E62
330
8E63
330
8E64
330
8E65
330
8E66
330
8E67
330
8E68
330
8E69
330
8E6A
330
8E6B
330
8E6C
330
8E6D
330
8E6E
330
8E6F
330
8E70
330
8E71
330
8E72
330
8E73
330
8E74
330
8E75
330
8E76
330
8E77
330
8E78
330
8E79
330
8E7A
330
8E7B
330
8E7C
330
8E7D
330
8E7E
330
8E7F
330
8E80
330
8E81
330
8E82
330
8E83
330
8E84
330
8E85
330
8E86
330
8E87
330
8E88
330
8E89
330
8E8A
330
8E8B
330
8E8C
330
8E8D
330
8E8E
330
8E8F
330
8E90
330
8E91
330
8E92
330
8E93
330
8E94
330
8E95
330
8E96
330
8E97
330
8E98
330
8E99
330
8E9A
330
8E9B
330
8E9C
330
8E9D
330
8E9E
330
8E9F
330
8EA0
330
8EA1
330
8EA2
330
8EA3
330
8EA4
330
8EA5
330
8EA6
330
8EA7
330
8EA8
330
8EA9
330
8EAA
330
8EAB
330
8EAC
330
8EAD
330
8EAE
330
8EAF
330
8EB0
330
8EB1
330
8EB2
330
8EB3
330
8EB4
330
8EB5
330
8EB6
330
8EB7
330
8EB8
330
8EB9
330
8EBA
330
8EBB
330
8EBC
330
8EBD
330
8EBE
330
8EBF
330
8EC0
330
8EC1
330
8EC2
330
8EC3
330
8EC4
330
8EC5
330
8EC6
330
8EC7
330
8EC8
330
8EC9
330
8ECA
330
8ECB
330
8ECC
330
8ECD
330
8ECE
330
8ECF
330
8ED0
330
8ED1
330
8ED2
330
8ED3
330
8ED4
330
8ED5
330
8ED6
330
8ED7
330
8ED8
330
8ED9
330
8EDA
330
8EDB
330
8EDC
330
8EDD
330
8EDE
330
8EDF
330
8EE0
330
8EE1
330
8EE2
330
8EE3
330
8EE4
330
8EE5
330
8EE6
330
8EE7
330
8EE8
330
8EE9
330
8EEA
330
8EEB
330
8EEC
330
8EED
330
8EEE
330
8EEF
330
8EF0
330
8EF1
330
8EF2
330
8EF3
330
8EF4
330
8EF5
330
8EF6
330
8EF7
330
8EF8
330
8EF9
330
8EFA
330
8EFB
330
8EFC
330
8EFD
330
8EFE
330
8EFF
330
8F00
330
8F01
330
8F02
330
8F03
330
8F04
330
8F05
330
8F06
330
8F07
330
8F08
330
8F09
330
8F0A
330
8F0B
330
8F0C
330
8F0D
330
8F0E
330
8F0F
330
8F10
330
8F11
330
8F12
330
8F13
330
8F14
330
8F15
330
8F16
330
8F17
330
8F18
330
8F19
330
8F1A
330
8F1B
330
8F1C
330
8F1D
330
8F1E
330
8F1F
330
8F20
330
8F21
330
8F22
330
8F23
330
8F24
330
8F25
330
8F26
330
8F27
330
8F28
330
8F29
330
8F2A
330
8F2B
330
8F2C
330
8F2D
330
8F2E
330
8F2F
330
8F30
330
8F31
330
8F32
330
8F33
330
8F34
330
8F35
330
8F36
330
8F37
330
8F38
330
8F39
330
8F3A
330
8F3B
330
8F3C
330
8F3D
330
8F3E
330
8F3F
330
8F40
330
8F41
330
8F42
330
8F43
330
8F44
330
8F45
330
8F46
330
8F47
330
8F48
330
8F49
330
8F4A
330
8F4B
330
8F4C
330
8F4D
330
8F4E
330
8F4F
330
8F50
330
8F51
330
8F52
330
8F53
330
8F54
330
8F55
330
8F56
330
8F57
330
8F58
330
8F59
330
8F5A
330
8F5B
330
8F5C
330
8F5D
330
8F5E
330
8F5F
330
8F60
330
8F61
330
8F62
330
8F65
330
8F66
330
8F67
330
8F68
330
8F69
330
8F6A
330
8F6B
330
8F6C
330
8F6D
330
8F6E
330
8F87
330
8F9A
330
8F9B
330
8F9C
330
8F9D
330
8F9E
330
8FA7
330
8FAA
330
8FAD
330
8FAE
330
8FAF
330
8FB0
330
8FB7
330
8FB8
330
8FBB
330
8FCB
330
8FCC
330
8FCD
330
8FCE
330
8FCF
330
8FD0
330
8FD1
330
8FD2
330
8FD3
330
8FD4
330
8FD5
330
8FD6
330
8FD7
330
8FD8
330
8FD9
330
8FDA
330
8FDB
330
8FDC
330
8FDD
330
8FDE
330
8FDF
330
8FE0
330
8FE1
330
8FE2
330
8FE3
330
8FE4
330
8FE5
330
8FE6
330
8FE7
330
8FE8
330
8FE9
330
8FEA
330
8FEB
330
8FEC
330
8FED
330
8FEE
330
8FEF
330
8FF0
330
8FF1
330
8FF2
330
8FF3
330
8FF4
330
8FF5
330
8FF6
330
8FF7
330
8FF8
330
8FF9
330
8FFA
330
8FFB
330
8FFC
330
8FFD
330
8FFE
330
8FFF
330
9000
330
9001
330
9002
330
9003
330
9004
330
9005
330
9006
330
9007
330
9008
330
9009
330
900A
330
900B
330
900C
330
900D
330
900E
330
900F
330
9010
330
9011
330
9012
330
9013
330
9014
330
9015
330
9016
330
9017
330
9018
330
9019
330
901A
330
901B
330
901C
330
901D
330
901E
330
901F
330
9020
330
9021
330
9022
330
9023
330
9024
330
9025
330
9026
330
9027
330
9028
330
9029
330
902A
330
902B
330
902C
330
902D
330
902E
330
902F
330
9030
330
9031
330
9032
330
9033
330
9034
330
9035
330
9036
330
9037
330
9038
330
9039
330
903A
330
903B
330
903C
330
903D
330
903E
330
903F
330
9040
330
9041
330
9042
330
9044
330
9045
330
9046
330
9047
330
9048
330
904A
330
904B
330
904C
330
904D
330
904E
330
904F
330
9050
330
9051
330
9053
330
9054
330
9055
330
9056
330
9057
330
9058
330
9059
330
905A
330
905B
330
905C
330
905D
330
905F
330
9060
330
9061
330
9062
330
9063
330
9064
330
9065
330
9066
330
906B
330
906C
330
906E
330
9074
330
9075
330
9076
330
907A
330
907B
330
907C
330
907D
330
907E
330
907F
330
9080
330
9081
330
9082
330
9083
330
9084
330
9085
330
9086
330
9087
330
9088
330
9089
330
908A
330
908B
330
908C
330
908D
330
90AA
330
90AB
330
90AC
330
90AD
330
90AE
330
90AF
330
90B0
330
90B1
330
90B2
330
90B3
330
90B4
330
90B5
330
90B6
330
90B7
330
90B8
330
90B9
330
90BA
330
90BB
330
90BC
330
90BD
330
90BE
330
90BF
330
90C0
330
90C1
330
90C2
330
90C3
330
90C4
330
90C5
330
90C6
330
90C7
330
90C8
330
90C9
330
90CA
330
90CB
330
90CC
330
90CD
330
90CE
330
90CF
330
90D0
330
90D1
330
90D2
330
90D3
330
90D4
330
90D5
330
90D6
330
90D7
330
90D8
330
90D9
330
90DA
330
90DB
330
90DC
330
90DD
330
90DE
330
90DF
330
90E0
330
90E1
330
90E2
330
90E3
330
90E4
330
90E5
330
90E6
  0
IDBUFFER
  5
CC1
330
0
100
AcDbIdBuffer
330
8F63
330
8F64
330
8F6F
330
8F74
330
8F75
330
8F76
330
8F77
330
8F78
330
8F79
330
8F7A
330
8F7B
330
8F7C
330
8F7D
330
8F96
330
8F97
330
8FA5
330
8FA6
330
8FA8
330
8FA9
330
8FAB
330
8FAC
330
8FB1
330
8FB2
330
8FB3
330
8FB4
330
8FB5
330
8FB6
330
8FB9
330
8FBA
330
8FC1
330
8FC4
330
8FC5
330
8FC6
330
8FC7
330
8FC8
330
8FC9
330
8FCA
330
9043
330
9049
330
9052
330
905E
330
9067
330
9068
330
9069
330
906A
330
906D
330
906F
330
9070
330
9071
330
9072
330
9073
330
9077
330
9078
330
9079
330
90E9
330
90EA
330
90EB
330
90EC
330
90ED
330
90EE
330
90EF
330
90F0
  0
IDBUFFER
  5
CC2
330
0
100
AcDbIdBuffer
  0
IDBUFFER
  5
CC3
330
0
100
AcDbIdBuffer
  0
IDBUFFER
  5
CC4
330
0
100
AcDbIdBuffer
  0
IDBUFFER
  5
CC5
330
0
100
AcDbIdBuffer
  0
IDBUFFER
  5
CC6
330
0
100
AcDbIdBuffer
330
8F80
330
8F81
330
8F82
330
8F8D
330
8F8E
330
8F8F
330
8F90
330
908E
330
908F
330
9090
330
9091
330
9092
330
9093
330
9094
330
9095
330
90E7
330
90E8
330
9451
330
9452
330
9453
330
9454
330
9455
330
94E6
330
94F2
  0
IDBUFFER
  5
CC7
330
0
100
AcDbIdBuffer
330
944F
330
9450
  0
IDBUFFER
  5
CC8
330
0
100
AcDbIdBuffer
  0
IDBUFFER
  5
CC9
330
0
100
AcDbIdBuffer
  0
IDBUFFER
  5
CCA
330
0
100
AcDbIdBuffer
  0
IDBUFFER
  5
CCB
330
0
100
AcDbIdBuffer
  0
IDBUFFER
  5
CCC
330
0
100
AcDbIdBuffer
  0
IDBUFFER
  5
CCD
330
0
100
AcDbIdBuffer
330
8DEB
330
8DFE
330
8DFF
330
8E00
330
8E03
330
8E04
330
8E05
330
8E08
330
8E09
330
8E0B
330
8E0C
330
8E0D
330
8E10
330
8E11
330
8E12
330
8E13
330
8E14
330
8E15
330
8E16
330
8E17
330
8E19
330
8F7E
330
8F7F
330
8F83
330
8F84
330
8F85
330
8F88
330
8F89
330
8F8A
330
8F8B
330
8F8C
330
8F92
330
8F93
330
8F94
330
8F95
330
8FC2
330
8FC3
  0
IDBUFFER
  5
CCE
330
0
100
AcDbIdBuffer
  0
IDBUFFER
  5
CCF
330
0
100
AcDbIdBuffer
  0
IDBUFFER
  5
CD0
330
0
100
AcDbIdBuffer
  0
IDBUFFER
  5
CD1
330
0
100
AcDbIdBuffer
330
BF7
330
BF8
  0
IDBUFFER
  5
9519
330
0
100
AcDbIdBuffer
  0
IDBUFFER
  5
951A
330
0
100
AcDbIdBuffer
330
8F98
330
8F99
330
8FBC
  0
ENDSEC
  0
EOF
