  0
SECTION
  2
HEADER
  9
$ACADVER
  1
AC1014
  9
$ACADMAINTVER
 70
     0
  9
$DWGCODEPAGE
  3
ANSI_1252
  9
$INSBASE
 10
0.0
 20
0.0
 30
0.0
  9
$EXTMIN
 10
71.13208
 20
135.026831
 30
0.0
  9
$EXTMAX
 10
139.274938
 20
174.069013
 30
0.0
  9
$LIMMIN
 10
0.0
 20
0.0
  9
$LIMMAX
 10
210.0
 20
297.0
  9
$ORTHOMODE
 70
     1
  9
$REGENMODE
 70
     1
  9
$FILLMODE
 70
     1
  9
$QTEXTMODE
 70
     0
  9
$MIRRTEXT
 70
     1
  9
$DRAGMODE
 70
     2
  9
$LTSCALE
 40
10.0
  9
$OSMODE
 70
     0
  9
$ATTMODE
 70
     1
  9
$TEXTSIZE
 40
3.5
  9
$TRACEWID
 40
0.05
  9
$TEXTSTYLE
  7
ROMANS
  9
$CLAYER
  8
TEXTE
  9
$CELTYPE
  6
BYLAYER
  9
$CECOLOR
 62
   256
  9
$CELTSCALE
 40
1.0
  9
$DELOBJ
 70
     1
  9
$DISPSILH
 70
     0
  9
$DIMSCALE
 40
1.0
  9
$DIMASZ
 40
3.0
  9
$DIMEXO
 40
1.0
  9
$DIMDLI
 40
0.38
  9
$DIMRND
 40
0.01
  9
$DIMDLE
 40
0.0
  9
$DIMEXE
 40
1.0
  9
$DIMTP
 40
0.0
  9
$DIMTM
 40
0.0
  9
$DIMTXT
 40
2.5
  9
$DIMCEN
 40
0.09
  9
$DIMTSZ
 40
0.0
  9
$DIMTOL
 70
     0
  9
$DIMLIM
 70
     0
  9
$DIMTIH
 70
     0
  9
$DIMTOH
 70
     0
  9
$DIMSE1
 70
     0
  9
$DIMSE2
 70
     0
  9
$DIMTAD
 70
     1
  9
$DIMZIN
 70
    12
  9
$DIMBLK
  1

  9
$DIMASO
 70
     1
  9
$DIMSHO
 70
     1
  9
$DIMPOST
  1

  9
$DIMAPOST
  1

  9
$DIMALT
 70
     0
  9
$DIMALTD
 70
     2
  9
$DIMALTF
 40
25.4
  9
$DIMLFAC
 40
1.0
  9
$DIMTOFL
 70
     0
  9
$DIMTVP
 40
0.0
  9
$DIMTIX
 70
     0
  9
$DIMSOXD
 70
     0
  9
$DIMSAH
 70
     0
  9
$DIMBLK1
  1

  9
$DIMBLK2
  1

  9
$DIMSTYLE
  2
SC_STAND
  9
$DIMCLRD
 70
     0
  9
$DIMCLRE
 70
     0
  9
$DIMCLRT
 70
     0
  9
$DIMTFAC
 40
1.0
  9
$DIMGAP
 40
1.0
  9
$DIMJUST
 70
     0
  9
$DIMSD1
 70
     0
  9
$DIMSD2
 70
     0
  9
$DIMTOLJ
 70
     1
  9
$DIMTZIN
 70
     0
  9
$DIMALTZ
 70
     0
  9
$DIMALTTZ
 70
     0
  9
$DIMFIT
 70
     3
  9
$DIMUPT
 70
     0
  9
$DIMUNIT
 70
     2
  9
$DIMDEC
 70
     4
  9
$DIMTDEC
 70
     4
  9
$DIMALTU
 70
     2
  9
$DIMALTTD
 70
     2
  9
$DIMTXSTY
  7
STANDARD
  9
$DIMAUNIT
 70
     0
  9
$LUNITS
 70
     2
  9
$LUPREC
 70
     4
  9
$SKETCHINC
 40
0.1
  9
$FILLETRAD
 40
0.0
  9
$AUNITS
 70
     0
  9
$AUPREC
 70
     0
  9
$MENU
  1
.
  9
$ELEVATION
 40
0.0
  9
$PELEVATION
 40
0.0
  9
$THICKNESS
 40
0.0
  9
$LIMCHECK
 70
     0
  9
$BLIPMODE
 70
     1
  9
$CHAMFERA
 40
0.0
  9
$CHAMFERB
 40
0.0
  9
$CHAMFERC
 40
0.0
  9
$CHAMFERD
 40
0.0
  9
$SKPOLY
 70
     0
  9
$TDCREATE
 40
2450574.639593287
  9
$TDUPDATE
 40
2451387.874717095
  9
$TDINDWG
 40
0.0398208449
  9
$TDUSRTIMER
 40
0.0398208449
  9
$USRTIMER
 70
     1
  9
$ANGBASE
 50
0.0
  9
$ANGDIR
 70
     0
  9
$PDMODE
 70
     0
  9
$PDSIZE
 40
0.0
  9
$PLINEWID
 40
0.0
  9
$COORDS
 70
     1
  9
$SPLFRAME
 70
     0
  9
$SPLINETYPE
 70
     6
  9
$SPLINESEGS
 70
     8
  9
$ATTDIA
 70
     1
  9
$ATTREQ
 70
     1
  9
$HANDLING
 70
     1
  9
$HANDSEED
  5
1A25
  9
$SURFTAB1
 70
     6
  9
$SURFTAB2
 70
     6
  9
$SURFTYPE
 70
     6
  9
$SURFU
 70
     6
  9
$SURFV
 70
     6
  9
$UCSNAME
  2

  9
$UCSORG
 10
0.0
 20
0.0
 30
0.0
  9
$UCSXDIR
 10
1.0
 20
0.0
 30
0.0
  9
$UCSYDIR
 10
0.0
 20
1.0
 30
0.0
  9
$PUCSNAME
  2

  9
$PUCSORG
 10
0.0
 20
0.0
 30
0.0
  9
$PUCSXDIR
 10
1.0
 20
0.0
 30
0.0
  9
$PUCSYDIR
 10
0.0
 20
1.0
 30
0.0
  9
$USERI1
 70
     0
  9
$USERI2
 70
     0
  9
$USERI3
 70
     0
  9
$USERI4
 70
     0
  9
$USERI5
 70
     0
  9
$USERR1
 40
0.0
  9
$USERR2
 40
0.0
  9
$USERR3
 40
0.0
  9
$USERR4
 40
0.0
  9
$USERR5
 40
0.0
  9
$WORLDVIEW
 70
     1
  9
$SHADEDGE
 70
     3
  9
$SHADEDIF
 70
    70
  9
$TILEMODE
 70
     1
  9
$MAXACTVP
 70
    16
  9
$PINSBASE
 10
0.0
 20
0.0
 30
0.0
  9
$PLIMCHECK
 70
     0
  9
$PEXTMIN
 10
0.0
 20
0.0
 30
0.0
  9
$PEXTMAX
 10
420.0
 20
297.0
 30
0.0
  9
$PLIMMIN
 10
0.0
 20
0.0
  9
$PLIMMAX
 10
420.0
 20
297.0
  9
$UNITMODE
 70
     0
  9
$VISRETAIN
 70
     0
  9
$PLINEGEN
 70
     0
  9
$PSLTSCALE
 70
     1
  9
$TREEDEPTH
 70
  3020
  9
$PICKSTYLE
 70
     1
  9
$CMLSTYLE
  2
STANDARD
  9
$CMLJUST
 70
     0
  9
$CMLSCALE
 40
1.0
  9
$PROXYGRAPHICS
 70
     1
  9
$MEASUREMENT
 70
     0
  0
ENDSEC
  0
SECTION
  2
CLASSES
  0
ENDSEC
  0
SECTION
  2
TABLES
  0
TABLE
  2
VPORT
  5
19C6
100
AcDbSymbolTable
 70
     1
  0
VPORT
  5
1A20
100
AcDbSymbolTableRecord
100
AcDbViewportTableRecord
  2
*ACTIVE
 70
     0
 10
0.0
 20
0.0
 11
1.0
 21
1.0
 12
248.151316
 22
148.5
 13
0.0
 23
0.0
 14
1.0
 24
1.0
 15
10.0
 25
10.0
 16
0.0
 26
0.0
 36
1.0
 17
0.0
 27
0.0
 37
0.0
 40
297.0
 41
1.671053
 42
50.0
 43
0.0
 44
0.0
 50
0.0
 51
0.0
 71
     0
 72
   100
 73
     1
 74
     1
 75
     0
 76
     1
 77
     0
 78
     0
  0
ENDTAB
  0
TABLE
  2
LTYPE
  5
19C3
100
AcDbSymbolTable
 70
    23
  0
LTYPE
  5
19D0
100
AcDbSymbolTableRecord
100
AcDbLinetypeTableRecord
  2
BYBLOCK
 70
     0
  3

 72
    65
 73
     0
 40
0.0
  0
LTYPE
  5
19D1
100
AcDbSymbolTableRecord
100
AcDbLinetypeTableRecord
  2
BYLAYER
 70
     0
  3

 72
    65
 73
     0
 40
0.0
  0
LTYPE
  5
19D2
100
AcDbSymbolTableRecord
100
AcDbLinetypeTableRecord
  2
CONTINUOUS
 70
     0
  3
Solid line
 72
    65
 73
     0
 40
0.0
  0
LTYPE
  5
19DF
100
AcDbSymbolTableRecord
100
AcDbLinetypeTableRecord
  2
AXES
 70
     0
  3
____ _ ____ _ ____ _ ____ _ ____ _ ____ _ ____ 
 72
    65
 73
     4
 40
2.0
 49
1.25
 74
     0
 49
-0.25
 74
     0
 49
0.25
 74
     0
 49
-0.25
 74
     0
  0
LTYPE
  5
19E0
100
AcDbSymbolTableRecord
100
AcDbLinetypeTableRecord
  2
AXES2
 70
     0
  3
___ _ ___ _ ___ _ ___ _ ___ _ ___ _ ___ _ ___ _
 72
    65
 73
     4
 40
1.125
 49
0.75
 74
     0
 49
-0.125
 74
     0
 49
0.125
 74
     0
 49
-0.125
 74
     0
  0
LTYPE
  5
19E1
100
AcDbSymbolTableRecord
100
AcDbLinetypeTableRecord
  2
AXESX2
 70
     0
  3
________  __  ________  __  ________  __  _____
 72
    65
 73
     4
 40
4.0
 49
2.5
 74
     0
 49
-0.5
 74
     0
 49
0.5
 74
     0
 49
-0.5
 74
     0
  0
LTYPE
  5
19E2
100
AcDbSymbolTableRecord
100
AcDbLinetypeTableRecord
  2
TIRETPT
 70
     0
  3
__ . __ . __ . __ . __ . __ . __ . __ . __ . __
 72
    65
 73
     4
 40
1.0
 49
0.5
 74
     0
 49
-0.25
 74
     0
 49
0.0
 74
     0
 49
-0.25
 74
     0
  0
LTYPE
  5
19E3
100
AcDbSymbolTableRecord
100
AcDbLinetypeTableRecord
  2
TIRETPT2
 70
     0
  3
_._._._._._._._._._._._._._._._._._._._._._._._
 72
    65
 73
     4
 40
0.5
 49
0.25
 74
     0
 49
-0.125
 74
     0
 49
0.0
 74
     0
 49
-0.125
 74
     0
  0
LTYPE
  5
19E4
100
AcDbSymbolTableRecord
100
AcDbLinetypeTableRecord
  2
TIRETPTX2
 70
     0
  3
____  .  ____  .  ____  .  ____  .  ____  .  __
 72
    65
 73
     4
 40
2.0
 49
1.0
 74
     0
 49
-0.5
 74
     0
 49
0.0
 74
     0
 49
-0.5
 74
     0
  0
LTYPE
  5
19E5
100
AcDbSymbolTableRecord
100
AcDbLinetypeTableRecord
  2
DISCONTINU
 70
     0
  3
__ __ __ __ __ __ __ __ __ __ __ __ __ __ __ __
 72
    65
 73
     2
 40
0.75
 49
0.5
 74
     0
 49
-0.25
 74
     0
  0
LTYPE
  5
19E6
100
AcDbSymbolTableRecord
100
AcDbLinetypeTableRecord
  2
DISCONTINU2
 70
     0
  3
_ _ _ _ _ _ _ _ _ _ _ _ _ _ _ _ _ _ _ _ _ _ _ _
 72
    65
 73
     2
 40
0.375
 49
0.25
 74
     0
 49
-0.125
 74
     0
  0
LTYPE
  5
19E7
100
AcDbSymbolTableRecord
100
AcDbLinetypeTableRecord
  2
DISCONTINUX2
 70
     0
  3
____  ____  ____  ____  ____  ____  ____  ____ 
 72
    65
 73
     2
 40
1.5
 49
1.0
 74
     0
 49
-0.5
 74
     0
  0
LTYPE
  5
19E8
100
AcDbSymbolTableRecord
100
AcDbLinetypeTableRecord
  2
DIVISE
 70
     0
  3
____ . . ____ . . ____ . . ____ . . ____ . . __
 72
    65
 73
     6
 40
1.25
 49
0.5
 74
     0
 49
-0.25
 74
     0
 49
0.0
 74
     0
 49
-0.25
 74
     0
 49
0.0
 74
     0
 49
-0.25
 74
     0
  0
LTYPE
  5
19E9
100
AcDbSymbolTableRecord
100
AcDbLinetypeTableRecord
  2
DIVISE2
 70
     0
  3
__..__..__..__..__..__..__..__..__..__..__..__.
 72
    65
 73
     6
 40
0.625
 49
0.25
 74
     0
 49
-0.125
 74
     0
 49
0.0
 74
     0
 49
-0.125
 74
     0
 49
0.0
 74
     0
 49
-0.125
 74
     0
  0
LTYPE
  5
19EA
100
AcDbSymbolTableRecord
100
AcDbLinetypeTableRecord
  2
DIVISEX2
 70
     0
  3
________  .  .  ________  .  .  ________  .  . 
 72
    65
 73
     6
 40
2.5
 49
1.0
 74
     0
 49
-0.5
 74
     0
 49
0.0
 74
     0
 49
-0.5
 74
     0
 49
0.0
 74
     0
 49
-0.5
 74
     0
  0
LTYPE
  5
19EB
100
AcDbSymbolTableRecord
100
AcDbLinetypeTableRecord
  2
POINTILLE
 70
     0
  3
. . . . . . . . . . . . . . . . . . . . . . . .
 72
    65
 73
     2
 40
0.25
 49
0.0
 74
     0
 49
-0.25
 74
     0
  0
LTYPE
  5
19EC
100
AcDbSymbolTableRecord
100
AcDbLinetypeTableRecord
  2
POINTILLE2
 70
     0
  3
...............................................
 72
    65
 73
     2
 40
0.125
 49
0.0
 74
     0
 49
-0.125
 74
     0
  0
LTYPE
  5
19ED
100
AcDbSymbolTableRecord
100
AcDbLinetypeTableRecord
  2
POINTILLEX2
 70
     0
  3
.  .  .  .  .  .  .  .  .  .  .  .  .  .  .  . 
 72
    65
 73
     2
 40
0.5
 49
0.0
 74
     0
 49
-0.5
 74
     0
  0
LTYPE
  5
19EE
100
AcDbSymbolTableRecord
100
AcDbLinetypeTableRecord
  2
CACHE
 70
     0
  3
__ __ __ __ __ __ __ __ __ __ __ __ __ __ __ __
 72
    65
 73
     2
 40
0.375
 49
0.25
 74
     0
 49
-0.125
 74
     0
  0
LTYPE
  5
19EF
100
AcDbSymbolTableRecord
100
AcDbLinetypeTableRecord
  2
CACHE2
 70
     0
  3
_ _ _ _ _ _ _ _ _ _ _ _ _ _ _ _ _ _ _ _ _ _ _ _
 72
    65
 73
     2
 40
0.1875
 49
0.125
 74
     0
 49
-0.0625
 74
     0
  0
LTYPE
  5
19F0
100
AcDbSymbolTableRecord
100
AcDbLinetypeTableRecord
  2
CACHEX2
 70
     0
  3
____ ____ ____ ____ ____ ____ ____ ____ ____ __
 72
    65
 73
     2
 40
0.75
 49
0.5
 74
     0
 49
-0.25
 74
     0
  0
LTYPE
  5
19F1
100
AcDbSymbolTableRecord
100
AcDbLinetypeTableRecord
  2
FANTOME
 70
     0
  3
______  __  __  ______  __  __  ______  __  __ 
 72
    65
 73
     6
 40
2.5
 49
1.25
 74
     0
 49
-0.25
 74
     0
 49
0.25
 74
     0
 49
-0.25
 74
     0
 49
0.25
 74
     0
 49
-0.25
 74
     0
  0
LTYPE
  5
19F2
100
AcDbSymbolTableRecord
100
AcDbLinetypeTableRecord
  2
FANTOME2
 70
     0
  3
___ _ _ ___ _ _ ___ _ _ ___ _ _ ___ _ _ ___ _ _
 72
    65
 73
     6
 40
1.25
 49
0.625
 74
     0
 49
-0.125
 74
     0
 49
0.125
 74
     0
 49
-0.125
 74
     0
 49
0.125
 74
     0
 49
-0.125
 74
     0
  0
LTYPE
  5
19F3
100
AcDbSymbolTableRecord
100
AcDbLinetypeTableRecord
  2
FANTOMEX2
 70
     0
  3
____________    ____    ____    ____________   
 72
    65
 73
     6
 40
5.0
 49
2.5
 74
     0
 49
-0.5
 74
     0
 49
0.5
 74
     0
 49
-0.5
 74
     0
 49
0.5
 74
     0
 49
-0.5
 74
     0
  0
LTYPE
  5
19F4
100
AcDbSymbolTableRecord
100
AcDbLinetypeTableRecord
  2
0
 70
     0
  3
MEDUSA PEN 0
 72
    65
 73
     0
 40
0.0
  0
ENDTAB
  0
TABLE
  2
LAYER
  5
19C0
100
AcDbSymbolTable
 70
    21
  0
LAYER
  5
19CC
100
AcDbSymbolTableRecord
100
AcDbLayerTableRecord
  2
0
 70
     0
 62
   255
  6
CONTINUOUS
  0
LAYER
  5
19DD
100
AcDbSymbolTableRecord
100
AcDbLayerTableRecord
  2
TEXTE
 70
     0
 62
   131
  6
CONTINUOUS
  0
LAYER
  5
19F5
100
AcDbSymbolTableRecord
100
AcDbLayerTableRecord
  2
AXE
 70
     0
 62
    80
  6
AXES2
  0
LAYER
  5
19F6
100
AcDbSymbolTableRecord
100
AcDbLayerTableRecord
  2
CONSTRUCTION
 70
     0
 62
     6
  6
CONTINUOUS
  0
LAYER
  5
19F7
100
AcDbSymbolTableRecord
100
AcDbLayerTableRecord
  2
COTATION1
 70
     0
 62
     2
  6
CONTINUOUS
  0
LAYER
  5
19F8
100
AcDbSymbolTableRecord
100
AcDbLayerTableRecord
  2
HACHURES
 70
     0
 62
     9
  6
CONTINUOUS
  0
LAYER
  5
19F9
100
AcDbSymbolTableRecord
100
AcDbLayerTableRecord
  2
FMULT
 70
     0
 62
     6
  6
CONTINUOUS
  0
LAYER
  5
19FA
100
AcDbSymbolTableRecord
100
AcDbLayerTableRecord
  2
FDP_CARTOUCHE
 70
     0
 62
     4
  6
CONTINUOUS
  0
LAYER
  5
19FB
100
AcDbSymbolTableRecord
100
AcDbLayerTableRecord
  2
FDP_TEXTES
 70
     0
 62
     5
  6
CONTINUOUS
  0
LAYER
  5
19FC
100
AcDbSymbolTableRecord
100
AcDbLayerTableRecord
  2
FDP_LOGO_MG
 70
     0
 62
    30
  6
CONTINUOUS
  0
LAYER
  5
19FD
100
AcDbSymbolTableRecord
100
AcDbLayerTableRecord
  2
FDP_LOGO_SCH
 70
     0
 62
     3
  6
CONTINUOUS
  0
LAYER
  5
19FE
100
AcDbSymbolTableRecord
100
AcDbLayerTableRecord
  2
FDP_FDP
 70
     0
 62
     5
  6
CONTINUOUS
  0
LAYER
  5
19FF
100
AcDbSymbolTableRecord
100
AcDbLayerTableRecord
  2
COTATION2
 70
     0
 62
     2
  6
CONTINUOUS
  0
LAYER
  5
1A00
100
AcDbSymbolTableRecord
100
AcDbLayerTableRecord
  2
COTATION3
 70
     0
 62
     2
  6
CONTINUOUS
  0
LAYER
  5
1A01
100
AcDbSymbolTableRecord
100
AcDbLayerTableRecord
  2
COTATION4
 70
     0
 62
     2
  6
CONTINUOUS
  0
LAYER
  5
1A02
100
AcDbSymbolTableRecord
100
AcDbLayerTableRecord
  2
ASHADE
 70
     0
 62
     7
  6
CONTINUOUS
  0
LAYER
  5
1A03
100
AcDbSymbolTableRecord
100
AcDbLayerTableRecord
  2
POINTILLE_COURT
 70
     0
 62
    40
  6
CACHE2
  0
LAYER
  5
1A04
100
AcDbSymbolTableRecord
100
AcDbLayerTableRecord
  2
POINTILLE_MOYEN
 70
     0
 62
   140
  6
CACHE
  0
LAYER
  5
1A05
100
AcDbSymbolTableRecord
100
AcDbLayerTableRecord
  2
POINTILLE_LONG
 70
     0
 62
   240
  6
CACHEX2
  0
LAYER
  5
1A06
100
AcDbSymbolTableRecord
100
AcDbLayerTableRecord
  2
ALPHA
 70
     0
 62
   255
  6
CONTINUOUS
  0
LAYER
  5
1A07
100
AcDbSymbolTableRecord
100
AcDbLayerTableRecord
  2
DEFPOINTS
 70
     0
 62
     7
  6
CONTINUOUS
  0
ENDTAB
  0
TABLE
  2
STYLE
  5
19C1
100
AcDbSymbolTable
 70
     4
  0
STYLE
  5
19CD
100
AcDbSymbolTableRecord
100
AcDbTextStyleTableRecord
  2
STANDARD
 70
     0
 40
0.0
 41
1.0
 50
0.0
 71
     0
 42
0.2
  3
txt
  4

  0
STYLE
  5
19DE
100
AcDbSymbolTableRecord
100
AcDbTextStyleTableRecord
  2
ROMANS
 70
     0
 40
0.0
 41
1.0
 50
0.0
 71
     0
 42
3.5
  3
romans.shx
  4

  0
STYLE
  5
1A08
100
AcDbSymbolTableRecord
100
AcDbTextStyleTableRecord
  2
INFOCAR
 70
     0
 40
0.0
 41
1.34
 50
0.0
 71
     0
 42
2.0
  3
ROMANS.SHX
  4

  0
STYLE
  5
1A09
100
AcDbSymbolTableRecord
100
AcDbTextStyleTableRecord
  2
CARTOUCHE
 70
     0
 40
0.0
 41
1.0
 50
0.0
 71
     0
 42
0.2
  3
ROMANS.SHX
  4

  0
ENDTAB
  0
TABLE
  2
VIEW
  5
19C4
100
AcDbSymbolTable
 70
     0
  0
ENDTAB
  0
TABLE
  2
UCS
  5
19C5
100
AcDbSymbolTable
 70
     0
  0
ENDTAB
  0
TABLE
  2
APPID
  5
19C7
100
AcDbSymbolTable
 70
     3
  0
APPID
  5
19CE
100
AcDbSymbolTableRecord
100
AcDbRegAppTableRecord
  2
ACAD
 70
     0
  0
APPID
  5
1A0A
100
AcDbSymbolTableRecord
100
AcDbRegAppTableRecord
  2
AVE_RENDER
 70
     0
  0
APPID
  5
1A0B
100
AcDbSymbolTableRecord
100
AcDbRegAppTableRecord
  2
AVE_MATERIAL
 70
     0
  0
ENDTAB
  0
TABLE
  2
DIMSTYLE
  5
19C8
100
AcDbSymbolTable
 70
     2
  0
DIMSTYLE
105
1A0C
100
AcDbSymbolTableRecord
100
AcDbDimStyleTableRecord
  2
STANDARD
 70
     0
  3

  4

  5

  6

  7

 40
1.0
 41
0.18
 42
0.0625
 43
0.38
 44
0.18
 45
0.0
 46
0.0
 47
0.0
 48
0.0
140
0.18
141
0.09
142
0.0
143
25.4
144
1.0
145
0.0
146
1.0
147
0.09
 71
     0
 72
     0
 73
     1
 74
     1
 75
     0
 76
     0
 77
     0
 78
     0
170
     0
171
     2
172
     0
173
     0
174
     0
175
     0
176
     0
177
     0
178
     0
270
     2
271
     4
272
     4
273
     2
274
     2
340
19CD
275
     0
280
     0
281
     0
282
     0
283
     1
284
     0
285
     0
286
     0
287
     3
288
     0
  0
DIMSTYLE
105
1A0D
102
{ACAD_REACTORS
330
171B
330
171C
330
1739
330
188E
330
18B3
330
1942
102
}
100
AcDbSymbolTableRecord
100
AcDbDimStyleTableRecord
  2
SC_STAND
 70
     0
  3

  4

  5

  6

  7

 40
1.0
 41
3.0
 42
1.0
 43
0.38
 44
1.0
 45
0.01
 46
0.0
 47
0.0
 48
0.0
140
2.5
141
0.09
142
0.0
143
25.4
144
1.0
145
0.0
146
1.0
147
1.0
 71
     0
 72
     0
 73
     0
 74
     0
 75
     0
 76
     0
 77
     1
 78
    12
170
     0
171
     2
172
     0
173
     0
174
     0
175
     0
176
     0
177
     0
178
     0
270
     2
271
     4
272
     4
273
     2
274
     2
340
19CD
275
     0
280
     0
281
     0
282
     0
283
     1
284
     0
285
     0
286
     0
287
     3
288
     0
  0
ENDTAB
  0
TABLE
  2
BLOCK_RECORD
  5
19BF
100
AcDbSymbolTable
 70
    15
  0
BLOCK_RECORD
  5
19D6
100
AcDbSymbolTableRecord
100
AcDbBlockTableRecord
  2
*MODEL_SPACE
  0
BLOCK_RECORD
  5
19D3
100
AcDbSymbolTableRecord
100
AcDbBlockTableRecord
  2
*PAPER_SPACE
  0
BLOCK_RECORD
  5
1A0F
100
AcDbSymbolTableRecord
100
AcDbBlockTableRecord
  2
AVE_RENDER
  0
BLOCK_RECORD
  5
1A10
100
AcDbSymbolTableRecord
100
AcDbBlockTableRecord
  2
AVE_GLOBAL
  0
BLOCK_RECORD
  5
1A17
100
AcDbSymbolTableRecord
100
AcDbBlockTableRecord
  2
A$C3204
  0
BLOCK_RECORD
  5
1A18
100
AcDbSymbolTableRecord
100
AcDbBlockTableRecord
  2
*D9
  0
BLOCK_RECORD
  5
1A19
100
AcDbSymbolTableRecord
100
AcDbBlockTableRecord
  2
*D10
  0
BLOCK_RECORD
  5
1A1A
100
AcDbSymbolTableRecord
100
AcDbBlockTableRecord
  2
*D11
  0
BLOCK_RECORD
  5
1A1B
100
AcDbSymbolTableRecord
100
AcDbBlockTableRecord
  2
*D12
  0
BLOCK_RECORD
  5
1A1C
100
AcDbSymbolTableRecord
100
AcDbBlockTableRecord
  2
*D13
  0
BLOCK_RECORD
  5
1A1D
100
AcDbSymbolTableRecord
100
AcDbBlockTableRecord
  2
*D14
  0
ENDTAB
  0
ENDSEC
  0
SECTION
  2
BLOCKS
  0
BLOCK
  5
19D7
100
AcDbEntity
  8
0
100
AcDbBlockBegin
  2
*MODEL_SPACE
 70
     0
 10
0.0
 20
0.0
 30
0.0
  3
*MODEL_SPACE
  1

  0
ENDBLK
  5
19D8
100
AcDbEntity
  8
0
100
AcDbBlockEnd
  0
BLOCK
  5
19D4
100
AcDbEntity
 67
     1
  8
0
100
AcDbBlockBegin
  2
*PAPER_SPACE
 70
     0
 10
0.0
 20
0.0
 30
0.0
  3
*PAPER_SPACE
  1

  0
ENDBLK
  5
19D5
100
AcDbEntity
 67
     1
  8
0
100
AcDbBlockEnd
  0
BLOCK
  5
163A
100
AcDbEntity
  8
0
100
AcDbBlockBegin
  2
AVE_RENDER
 70
     0
 10
0.0
 20
0.0
 30
0.0
  3
AVE_RENDER
  1
AVE_RENDER
  0
ENDBLK
  5
163B
100
AcDbEntity
  8
0
100
AcDbBlockEnd
  0
BLOCK
  5
1648
100
AcDbEntity
  8
0
100
AcDbBlockBegin
  2
AVE_GLOBAL
 70
     0
 10
0.0
 20
0.0
 30
0.0
  3
AVE_GLOBAL
  1
AVE_GLOBAL
  0
ENDBLK
  5
1649
100
AcDbEntity
  8
0
100
AcDbBlockEnd
  0
BLOCK
  5
195D
100
AcDbEntity
  8
0
100
AcDbBlockBegin
  2
A$C3204
 70
     0
 10
0.0
 20
0.0
 30
0.0
  3
A$C3204
  1

  0
LINE
  5
1953
100
AcDbEntity
  8
ALPHA
100
AcDbLine
 10
3.785282
 20
3.0401
 30
0.0
 11
6.083379
 21
5.338197
 31
0.0
  0
LINE
  5
1954
100
AcDbEntity
  8
ALPHA
100
AcDbLine
 10
3.078176
 20
3.747207
 30
0.0
 11
5.376273
 21
6.045304
 31
0.0
  0
LINE
  5
1955
100
AcDbEntity
  8
ALPHA
100
AcDbLine
 10
5.343861
 20
1.481521
 30
0.0
 11
3.785282
 21
3.0401
 31
0.0
  0
LINE
  5
1956
100
AcDbEntity
  8
ALPHA
100
AcDbLine
 10
2.371069
 20
3.0401
 30
0.0
 11
0.81249
 21
4.598679
 31
0.0
  0
LINE
  5
1957
100
AcDbEntity
  8
ALPHA
100
AcDbLine
 10
0.072972
 20
0.742003
 30
0.0
 11
2.371069
 21
3.0401
 31
0.0
  0
LINE
  5
1958
100
AcDbEntity
  8
ALPHA
100
AcDbLine
 10
0.780078
 20
0.034897
 30
0.0
 11
3.078176
 21
2.332994
 31
0.0
  0
LINE
  5
1959
100
AcDbEntity
  8
ALPHA
100
AcDbLine
 10
4.636754
 20
0.774415
 30
0.0
 11
3.078176
 21
2.332994
 31
0.0
  0
LINE
  5
195A
100
AcDbEntity
  8
ALPHA
100
AcDbLine
 10
3.078176
 20
3.747207
 30
0.0
 11
1.519597
 21
5.305786
 31
0.0
  0
ARC
  5
195B
100
AcDbEntity
  8
ALPHA
100
AcDbCircle
 10
3.078176
 20
3.0401
 30
0.0
 40
2.75
100
AcDbArc
 50
124.524318
 51
145.475682
  0
ARC
  5
195C
100
AcDbEntity
  8
ALPHA
100
AcDbCircle
 10
3.078176
 20
3.0401
 30
0.0
 40
2.75
100
AcDbArc
 50
304.524318
 51
325.475682
  0
ENDBLK
  5
195E
100
AcDbEntity
  8
0
100
AcDbBlockEnd
  0
BLOCK
  5
197B
100
AcDbEntity
  8
0
100
AcDbBlockBegin
  2
*D9
 70
     1
 10
0.0
 20
0.0
 30
0.0
  3
*D9
  1

  0
LINE
  5
197C
100
AcDbEntity
  8
0
  6
BYBLOCK
 62
     0
100
AcDbLine
 10
81.953509
 20
153.658692
 30
0.0
 11
74.442641
 21
153.658692
 31
0.0
  0
LINE
  5
197D
100
AcDbEntity
  8
0
  6
BYBLOCK
 62
     0
100
AcDbLine
 10
81.953509
 20
162.658692
 30
0.0
 11
74.442641
 21
162.658692
 31
0.0
  0
LINE
  5
197E
100
AcDbEntity
  8
0
  6
BYBLOCK
 62
     0
100
AcDbLine
 10
75.442641
 20
150.658692
 30
0.0
 11
75.442641
 21
147.658692
 31
0.0
  0
LINE
  5
197F
100
AcDbEntity
  8
0
  6
BYBLOCK
 62
     0
100
AcDbLine
 10
75.442641
 20
165.658692
 30
0.0
 11
75.442641
 21
168.658692
 31
0.0
  0
LINE
  5
1980
100
AcDbEntity
  8
0
  6
BYBLOCK
 62
     0
100
AcDbLine
 10
75.442641
 20
168.658692
 30
0.0
 11
75.442641
 21
171.206311
 31
0.0
  0
SOLID
  5
1981
100
AcDbEntity
  8
0
  6
BYBLOCK
 62
     0
100
AcDbTrace
 10
74.942641
 20
150.658692
 30
0.0
 11
75.942641
 21
150.658692
 31
0.0
 12
75.442641
 22
153.658692
 32
0.0
 13
75.442641
 23
153.658692
 33
0.0
  0
SOLID
  5
1982
100
AcDbEntity
  8
0
  6
BYBLOCK
 62
     0
100
AcDbTrace
 10
74.942641
 20
165.658692
 30
0.0
 11
75.942641
 21
165.658692
 31
0.0
 12
75.442641
 22
162.658692
 32
0.0
 13
75.442641
 23
162.658692
 33
0.0
  0
TEXT
  5
1983
100
AcDbEntity
  8
0
  6
BYBLOCK
 62
     0
100
AcDbText
 10
74.192641
 20
169.30155
 30
0.0
 40
2.5
  1
9
 50
90.0
  7
ROMANS
 72
     1
 11
72.942641
 21
170.432502
 31
0.0
100
AcDbText
 73
     2
  0
POINT
  5
1984
100
AcDbEntity
  8
DEFPOINTS
  6
BYBLOCK
 62
     0
100
AcDbPoint
 10
82.953509
 20
153.658692
 30
0.0
  0
POINT
  5
1985
100
AcDbEntity
  8
DEFPOINTS
  6
BYBLOCK
 62
     0
100
AcDbPoint
 10
82.953509
 20
162.658692
 30
0.0
  0
POINT
  5
1986
100
AcDbEntity
  8
DEFPOINTS
  6
BYBLOCK
 62
     0
100
AcDbPoint
 10
75.442641
 20
162.658692
 30
0.0
  0
ENDBLK
  5
1987
100
AcDbEntity
  8
0
100
AcDbBlockEnd
  0
BLOCK
  5
1988
100
AcDbEntity
  8
0
100
AcDbBlockBegin
  2
*D10
 70
     1
 10
0.0
 20
0.0
 30
0.0
  3
*D10
  1

  0
LINE
  5
1989
100
AcDbEntity
  8
0
  6
BYBLOCK
 62
     0
100
AcDbLine
 10
96.903509
 20
166.158692
 30
0.0
 11
96.903509
 21
171.319013
 31
0.0
  0
LINE
  5
198A
100
AcDbEntity
  8
0
  6
BYBLOCK
 62
     0
100
AcDbLine
 10
113.503509
 20
166.158692
 30
0.0
 11
113.503509
 21
171.319013
 31
0.0
  0
LINE
  5
198B
100
AcDbEntity
  8
0
  6
BYBLOCK
 62
     0
100
AcDbLine
 10
99.903509
 20
170.319013
 30
0.0
 11
110.503509
 21
170.319013
 31
0.0
  0
SOLID
  5
198C
100
AcDbEntity
  8
0
  6
BYBLOCK
 62
     0
100
AcDbTrace
 10
99.903509
 20
170.819013
 30
0.0
 11
99.903509
 21
169.819013
 31
0.0
 12
96.903509
 22
170.319013
 32
0.0
 13
96.903509
 23
170.319013
 33
0.0
  0
SOLID
  5
198D
100
AcDbEntity
  8
0
  6
BYBLOCK
 62
     0
100
AcDbTrace
 10
110.503509
 20
170.819013
 30
0.0
 11
110.503509
 21
169.819013
 31
0.0
 12
113.503509
 22
170.319013
 32
0.0
 13
113.503509
 23
170.319013
 33
0.0
  0
TEXT
  5
198E
100
AcDbEntity
  8
0
  6
BYBLOCK
 62
     0
100
AcDbText
 10
100.858271
 20
171.569013
 30
0.0
 40
2.5
  1
16.6
  7
ROMANS
 72
     1
 11
105.203509
 21
172.819013
 31
0.0
100
AcDbText
 73
     2
  0
POINT
  5
198F
100
AcDbEntity
  8
DEFPOINTS
  6
BYBLOCK
 62
     0
100
AcDbPoint
 10
96.903509
 20
165.158692
 30
0.0
  0
POINT
  5
1990
100
AcDbEntity
  8
DEFPOINTS
  6
BYBLOCK
 62
     0
100
AcDbPoint
 10
113.503509
 20
165.158692
 30
0.0
  0
POINT
  5
1991
100
AcDbEntity
  8
DEFPOINTS
  6
BYBLOCK
 62
     0
100
AcDbPoint
 10
113.503509
 20
170.319013
 30
0.0
  0
ENDBLK
  5
1992
100
AcDbEntity
  8
0
100
AcDbBlockEnd
  0
BLOCK
  5
1993
100
AcDbEntity
  8
0
100
AcDbBlockBegin
  2
*D11
 70
     1
 10
0.0
 20
0.0
 30
0.0
  3
*D11
  1

  0
LINE
  5
1994
100
AcDbEntity
  8
0
  6
BYBLOCK
 62
     0
100
AcDbLine
 10
113.503509
 20
166.158692
 30
0.0
 11
113.503509
 21
171.319013
 31
0.0
  0
LINE
  5
1995
100
AcDbEntity
  8
0
  6
BYBLOCK
 62
     0
100
AcDbLine
 10
127.453509
 20
163.658692
 30
0.0
 11
127.453509
 21
171.319013
 31
0.0
  0
LINE
  5
1996
100
AcDbEntity
  8
0
  6
BYBLOCK
 62
     0
100
AcDbLine
 10
116.503509
 20
170.319013
 30
0.0
 11
124.453509
 21
170.319013
 31
0.0
  0
SOLID
  5
1997
100
AcDbEntity
  8
0
  6
BYBLOCK
 62
     0
100
AcDbTrace
 10
116.503509
 20
170.819013
 30
0.0
 11
116.503509
 21
169.819013
 31
0.0
 12
113.503509
 22
170.319013
 32
0.0
 13
113.503509
 23
170.319013
 33
0.0
  0
SOLID
  5
1998
100
AcDbEntity
  8
0
  6
BYBLOCK
 62
     0
100
AcDbTrace
 10
124.453509
 20
170.819013
 30
0.0
 11
124.453509
 21
169.819013
 31
0.0
 12
127.453509
 22
170.319013
 32
0.0
 13
127.453509
 23
170.319013
 33
0.0
  0
TEXT
  5
1999
100
AcDbEntity
  8
0
  6
BYBLOCK
 62
     0
100
AcDbText
 10
128.917795
 20
169.069013
 30
0.0
 40
2.5
  1
13.95
  7
ROMANS
 72
     1
 11
134.453509
 21
170.319013
 31
0.0
100
AcDbText
 73
     2
  0
POINT
  5
199A
100
AcDbEntity
  8
DEFPOINTS
  6
BYBLOCK
 62
     0
100
AcDbPoint
 10
113.503509
 20
165.158692
 30
0.0
  0
POINT
  5
199B
100
AcDbEntity
  8
DEFPOINTS
  6
BYBLOCK
 62
     0
100
AcDbPoint
 10
127.453509
 20
162.658692
 30
0.0
  0
POINT
  5
199C
100
AcDbEntity
  8
DEFPOINTS
  6
BYBLOCK
 62
     0
100
AcDbPoint
 10
127.453509
 20
170.319013
 30
0.0
  0
ENDBLK
  5
199D
100
AcDbEntity
  8
0
100
AcDbBlockEnd
  0
BLOCK
  5
199E
100
AcDbEntity
  8
0
100
AcDbBlockBegin
  2
*D12
 70
     1
 10
0.0
 20
0.0
 30
0.0
  3
*D12
  1

  0
LINE
  5
199F
100
AcDbEntity
  8
0
  6
BYBLOCK
 62
     0
100
AcDbLine
 10
128.453509
 20
161.658692
 30
0.0
 11
137.48974
 21
161.658692
 31
0.0
  0
LINE
  5
19A0
100
AcDbEntity
  8
0
  6
BYBLOCK
 62
     0
100
AcDbLine
 10
128.453509
 20
153.658692
 30
0.0
 11
137.48974
 21
153.658692
 31
0.0
  0
LINE
  5
19A1
100
AcDbEntity
  8
0
  6
BYBLOCK
 62
     0
100
AcDbLine
 10
136.48974
 20
158.658692
 30
0.0
 11
136.48974
 21
156.658692
 31
0.0
  0
SOLID
  5
19A2
100
AcDbEntity
  8
0
  6
BYBLOCK
 62
     0
100
AcDbTrace
 10
135.98974
 20
158.658692
 30
0.0
 11
136.98974
 21
158.658692
 31
0.0
 12
136.48974
 22
161.658692
 32
0.0
 13
136.48974
 23
161.658692
 33
0.0
  0
SOLID
  5
19A3
100
AcDbEntity
  8
0
  6
BYBLOCK
 62
     0
100
AcDbTrace
 10
135.98974
 20
156.658692
 30
0.0
 11
136.98974
 21
156.658692
 31
0.0
 12
136.48974
 22
153.658692
 32
0.0
 13
136.48974
 23
153.658692
 33
0.0
  0
TEXT
  5
19A4
100
AcDbEntity
  8
0
  6
BYBLOCK
 62
     0
100
AcDbText
 10
137.73974
 20
156.468216
 30
0.0
 40
2.5
  1
8
 50
90.0
  7
ROMANS
 72
     1
 11
136.48974
 21
157.658692
 31
0.0
100
AcDbText
 73
     2
  0
POINT
  5
19A5
100
AcDbEntity
  8
DEFPOINTS
  6
BYBLOCK
 62
     0
100
AcDbPoint
 10
127.453509
 20
161.658692
 30
0.0
  0
POINT
  5
19A6
100
AcDbEntity
  8
DEFPOINTS
  6
BYBLOCK
 62
     0
100
AcDbPoint
 10
127.453509
 20
153.658692
 30
0.0
  0
POINT
  5
19A7
100
AcDbEntity
  8
DEFPOINTS
  6
BYBLOCK
 62
     0
100
AcDbPoint
 10
136.48974
 20
153.658692
 30
0.0
  0
ENDBLK
  5
19A8
100
AcDbEntity
  8
0
100
AcDbBlockEnd
  0
BLOCK
  5
19A9
100
AcDbEntity
  8
0
100
AcDbBlockBegin
  2
*D13
 70
     1
 10
0.0
 20
0.0
 30
0.0
  3
*D13
  1

  0
LINE
  5
19AA
100
AcDbEntity
  8
0
  6
BYBLOCK
 62
     0
100
AcDbLine
 10
82.953509
 20
163.658692
 30
0.0
 11
82.953509
 21
171.319013
 31
0.0
  0
LINE
  5
19AB
100
AcDbEntity
  8
0
  6
BYBLOCK
 62
     0
100
AcDbLine
 10
96.903509
 20
166.158692
 30
0.0
 11
96.903509
 21
171.319013
 31
0.0
  0
LINE
  5
19AC
100
AcDbEntity
  8
0
  6
BYBLOCK
 62
     0
100
AcDbLine
 10
85.953509
 20
170.319013
 30
0.0
 11
93.903509
 21
170.319013
 31
0.0
  0
SOLID
  5
19AD
100
AcDbEntity
  8
0
  6
BYBLOCK
 62
     0
100
AcDbTrace
 10
85.953509
 20
170.819013
 30
0.0
 11
85.953509
 21
169.819013
 31
0.0
 12
82.953509
 22
170.319013
 32
0.0
 13
82.953509
 23
170.319013
 33
0.0
  0
SOLID
  5
19AE
100
AcDbEntity
  8
0
  6
BYBLOCK
 62
     0
100
AcDbTrace
 10
93.903509
 20
170.819013
 30
0.0
 11
93.903509
 21
169.819013
 31
0.0
 12
96.903509
 22
170.319013
 32
0.0
 13
96.903509
 23
170.319013
 33
0.0
  0
TEXT
  5
19AF
100
AcDbEntity
  8
0
  6
BYBLOCK
 62
     0
100
AcDbText
 10
70.417795
 20
169.069013
 30
0.0
 40
2.5
  1
13.95
  7
ROMANS
 72
     1
 11
75.953509
 21
170.319013
 31
0.0
100
AcDbText
 73
     2
  0
POINT
  5
19B0
100
AcDbEntity
  8
DEFPOINTS
  6
BYBLOCK
 62
     0
100
AcDbPoint
 10
82.953509
 20
162.658692
 30
0.0
  0
POINT
  5
19B1
100
AcDbEntity
  8
DEFPOINTS
  6
BYBLOCK
 62
     0
100
AcDbPoint
 10
96.903509
 20
165.158692
 30
0.0
  0
POINT
  5
19B2
100
AcDbEntity
  8
DEFPOINTS
  6
BYBLOCK
 62
     0
100
AcDbPoint
 10
96.903509
 20
170.319013
 30
0.0
  0
ENDBLK
  5
19B3
100
AcDbEntity
  8
0
100
AcDbBlockEnd
  0
BLOCK
  5
19B4
100
AcDbEntity
  8
0
100
AcDbBlockBegin
  2
*D14
 70
     1
 10
0.0
 20
0.0
 30
0.0
  3
*D14
  1

  0
LINE
  5
19B5
100
AcDbEntity
  8
0
  6
BYBLOCK
 62
     0
100
AcDbLine
 10
82.953509
 20
152.658692
 30
0.0
 11
82.953509
 21
143.068915
 31
0.0
  0
LINE
  5
19B6
100
AcDbEntity
  8
0
  6
BYBLOCK
 62
     0
100
AcDbLine
 10
127.453509
 20
152.658692
 30
0.0
 11
127.453509
 21
143.068915
 31
0.0
  0
LINE
  5
19B7
100
AcDbEntity
  8
0
  6
BYBLOCK
 62
     0
100
AcDbLine
 10
85.953509
 20
144.068915
 30
0.0
 11
124.453509
 21
144.068915
 31
0.0
  0
SOLID
  5
19B8
100
AcDbEntity
  8
0
  6
BYBLOCK
 62
     0
100
AcDbTrace
 10
85.953509
 20
144.568915
 30
0.0
 11
85.953509
 21
143.568915
 31
0.0
 12
82.953509
 22
144.068915
 32
0.0
 13
82.953509
 23
144.068915
 33
0.0
  0
SOLID
  5
19B9
100
AcDbEntity
  8
0
  6
BYBLOCK
 62
     0
100
AcDbTrace
 10
124.453509
 20
144.568915
 30
0.0
 11
124.453509
 21
143.568915
 31
0.0
 12
127.453509
 22
144.068915
 32
0.0
 13
127.453509
 23
144.068915
 33
0.0
  0
TEXT
  5
19BA
100
AcDbEntity
  8
0
  6
BYBLOCK
 62
     0
100
AcDbText
 10
101.036842
 20
145.318915
 30
0.0
 40
2.5
  1
44.5
  7
ROMANS
 72
     1
 11
105.203509
 21
146.568915
 31
0.0
100
AcDbText
 73
     2
  0
POINT
  5
19BB
100
AcDbEntity
  8
DEFPOINTS
  6
BYBLOCK
 62
     0
100
AcDbPoint
 10
82.953509
 20
153.658692
 30
0.0
  0
POINT
  5
19BC
100
AcDbEntity
  8
DEFPOINTS
  6
BYBLOCK
 62
     0
100
AcDbPoint
 10
127.453509
 20
153.658692
 30
0.0
  0
POINT
  5
19BD
100
AcDbEntity
  8
DEFPOINTS
  6
BYBLOCK
 62
     0
100
AcDbPoint
 10
127.453509
 20
144.068915
 30
0.0
  0
ENDBLK
  5
19BE
100
AcDbEntity
  8
0
100
AcDbBlockEnd
  0
ENDSEC
  0
SECTION
  2
ENTITIES
  0
INSERT
  5
163C
100
AcDbEntity
  8
ASHADE
 62
     1
100
AcDbBlockReference
  2
AVE_RENDER
 10
0.0
 20
0.0
 30
0.0
1001
AVE_RENDER
1002
{
1070
     6
1000
Pref
1070
    50
1070
    20
1070
     1
1070
     0
1000

1070
    10
1070
     1
1070
    30
1040
25.4
1070
     1
1040
0.3
1040
0.7
1040
0.0
1040
10.0
1010
-1.0
1020
-1.0
1030
-1.0
1040
0.3
1070
    49
1070
     0
1070
     0
1010
1.0
1020
1.0
1030
1.0
1040
45.0
1070
     1
1070
     0
1000
WCS
1040
0.0
1002
}
  0
INSERT
  5
163D
100
AcDbEntity
  8
ASHADE
 62
     3
100
AcDbBlockReference
  2
AVE_RENDER
 10
0.0
 20
0.0
 30
0.0
1001
AVE_RENDER
1002
{
1070
     0
1000
Full Opt
1070
     0
1070
     1
1070
     1
1070
     1
1070
     0
1070
     0
1070
     0
1070
     1
1070
     1
1040
0.0001
1040
0.0001
1002
}
  0
INSERT
  5
163E
100
AcDbEntity
  8
ASHADE
 62
     4
100
AcDbBlockReference
  2
AVE_RENDER
 10
0.0
 20
0.0
 30
0.0
1001
AVE_RENDER
1002
{
1070
     0
1000
Quick Opt
1070
     0
1070
     1
1070
     1
1070
     1
1070
     0
1070
     0
1070
     1
1002
}
  0
INSERT
  5
163F
100
AcDbEntity
  8
ASHADE
 62
     5
100
AcDbBlockReference
  2
AVE_RENDER
 10
0.0
 20
0.0
 30
0.0
1001
AVE_RENDER
1002
{
1070
     1
1000
Scanl Opt
1070
     2
1070
     0
1070
     2
1040
2.0
1040
4.0
1070
     0
1070
     1
1070
     0
1040
0.03
1002
}
  0
INSERT
  5
1640
100
AcDbEntity
  8
ASHADE
 62
     6
100
AcDbBlockReference
  2
AVE_RENDER
 10
0.0
 20
0.0
 30
0.0
1001
AVE_RENDER
1002
{
1070
     2
1000
Raytr Opt
1070
     2
1070
     0
1070
     2
1040
2.0
1040
4.0
1070
     0
1070
     1
1070
     1
1040
0.03
1070
     3
1040
0.03
1002
}
  0
INSERT
  5
1641
100
AcDbEntity
  8
ASHADE
 62
     7
100
AcDbBlockReference
  2
AVE_RENDER
 10
0.0
 20
0.0
 30
0.0
1001
AVE_RENDER
1002
{
1070
     0
1000
RFile Opt
1070
     5
1070
   640
1070
   480
1070
 10000
1070
     3
1070
    32
1070
    24
1070
     0
1070
     0
1070
     0
1070
     1
1070
     0
1070
     0
1070
     0
1002
}
  0
INSERT
  5
1642
100
AcDbEntity
  8
ASHADE
 62
     8
100
AcDbBlockReference
  2
AVE_RENDER
 10
0.0
 20
0.0
 30
0.0
1001
AVE_RENDER
1002
{
1070
     0
1000
Fog Opt
1070
     0
1070
     0
1040
0.0
1040
1.0
1040
0.0
1040
1.0
1010
0.5
1020
0.5
1030
0.5
1002
}
  0
INSERT
  5
1643
100
AcDbEntity
  8
ASHADE
 62
     9
100
AcDbBlockReference
  2
AVE_RENDER
 10
0.0
 20
0.0
 30
0.0
1001
AVE_RENDER
1002
{
1070
     0
1000
BG Opt
1070
     0
1070
     1
1010
0.0
1020
0.0
1030
0.0
1010
1.0
1020
0.0
1030
0.0
1010
0.0
1020
1.0
1030
0.0
1010
0.0
1020
0.0
1030
1.0
1040
0.5
1040
0.33
1040
0.0
1000

1070
     1
1000

1070
     1
1070
     1
1040
1.0
1040
1.0
1040
0.0
1040
0.0
1070
     0
1002
}
  0
INSERT
  5
164A
100
AcDbEntity
  8
ASHADE
 62
     1
100
AcDbBlockReference
  2
AVE_GLOBAL
 10
0.0
 20
0.0
 30
0.0
1001
AVE_MATERIAL
1002
{
1000
*GLOBAL*
1000
1
1000
Finition globale.
1002
{
1002
}
1002
{
1070
    63
1002
{
1002
{
1010
-1.0
1020
-1.0
1030
-1.0
1002
}
1040
0.1
1000

1040
0.0
1002
{
1002
}
1040
0.0
1002
{
1002
}
1040
0.0
1002
}
1002
{
1002
{
1010
-1.0
1020
-1.0
1030
-1.0
1002
}
1040
0.7
1000

1040
0.0
1002
{
1002
}
1040
0.0
1002
{
1002
}
1040
0.0
1002
}
1002
{
1002
{
1010
-1.0
1020
-1.0
1030
-1.0
1002
}
1040
0.2
1000

1040
0.0
1002
{
1002
}
1040
0.0
1002
{
1002
}
1040
0.0
1002
}
1002
{
1070
     0
1002
{
1070
     1
1002
{
1040
1.0
1040
1.0
1000

1040
0.0
1002
{
1002
}
1040
0.0
1002
{
1002
}
1040
0.0
1002
}
1002
}
1040
1.0
1040
0.0
1040
0.0
1002
}
1002
{
1040
1.0
1040
1.0
1000

1040
0.0
1002
{
1002
}
1040
0.0
1002
{
1002
}
1040
0.0
1002
}
1002
{
1040
0.5
1040
1.0
1000

1040
0.0
1002
{
1002
}
1040
0.0
1002
{
1002
}
1040
0.0
1002
}
1002
{
1070
     0
1040
0.0
1002
{
1002
}
1040
1.0
1002
{
1002
}
1040
0.0
1002
}
1002
{
1040
0.0
1002
{
1002
{
1010
0.0
1020
0.0
1030
0.0
1002
}
1040
1.0
1000

1040
0.0
1002
{
1002
}
1040
0.0
1002
{
1002
}
1040
0.0
1002
}
1002
}
1002
{
1002
{
1070
     1
1002
{
1040
0.0
1040
1.0
1000

1040
0.0
1002
{
1002
}
1040
0.0
1002
{
1002
}
1040
0.0
1002
}
1002
}
1040
0.0
1002
{
1002
}
1010
1.0
1020
0.0
1030
0.0
1010
0.0
1020
1.0
1030
0.0
1010
0.0
1020
0.0
1030
1.0
1070
     0
1002
}
1002
{
1002
{
1040
1.0
1040
1.0
1002
{
1070
     1
1002
{
1040
1.0
1040
1.0
1000

1040
0.0
1002
{
1002
}
1040
0.0
1002
{
1002
}
1040
0.0
1002
}
1002
}
1002
}
1070
     0
1040
0.0
1002
{
1002
}
1002
}
1002
{
1002
}
1002
}
1002
{
1071
        3
1070
     3
1070
     0
1002
{
1070
     2
1070
     0
1070
     0
1040
0.0
1002
}
1070
     0
1070
     2
1002
{
1002
}
1002
}
1002
{
1040
8030.0
1040
190.300003
1040
0.305
1040
228.0
1040
545.0
1040
14.0
1040
17.4
1040
0.456
1002
}
1002
}
  0
DIMENSION
  5
171B
100
AcDbEntity
  8
COTATION1
100
AcDbDimension
  2
*D14
 10
127.453509
 20
144.068915
 30
0.0
 11
105.203509
 21
146.568915
 31
0.0
  3
SC_STAND
100
AcDbAlignedDimension
 13
82.953509
 23
153.658692
 33
0.0
 14
127.453509
 24
153.658692
 34
0.0
100
AcDbRotatedDimension
  0
DIMENSION
  5
171C
100
AcDbEntity
  8
COTATION1
100
AcDbDimension
  2
*D13
 10
96.903509
 20
170.319013
 30
0.0
 11
75.953509
 21
170.319013
 31
0.0
 70
   128
  3
SC_STAND
100
AcDbAlignedDimension
 13
82.953509
 23
162.658692
 33
0.0
 14
96.903509
 24
165.158692
 34
0.0
100
AcDbRotatedDimension
  0
TEXT
  5
171D
100
AcDbEntity
  8
TEXTE
100
AcDbText
 10
92.890001
 20
156.658692
 30
0.0
 40
2.0
  1
14
 50
180.0
  7
ROMANS
100
AcDbText
  0
LINE
  5
171E
100
AcDbEntity
  8
ALPHA
100
AcDbLine
 10
82.953509
 20
161.658692
 30
0.0
 11
127.453509
 21
161.658692
 31
0.0
  0
TEXT
  5
171F
100
AcDbEntity
  8
TEXTE
100
AcDbText
 10
89.22462
 20
158.658692
 30
0.0
 40
2.0
  1
11
  7
ROMANS
 72
     2
 11
92.177001
 21
158.658692
 31
0.0
100
AcDbText
  0
LINE
  5
1720
100
AcDbEntity
  8
ALPHA
100
AcDbLine
 10
82.953509
 20
162.658692
 30
0.0
 11
127.453509
 21
162.658692
 31
0.0
  0
LINE
  5
1721
100
AcDbEntity
  8
AXE
100
AcDbLine
 10
80.453509
 20
157.658692
 30
0.0
 11
129.953509
 21
157.658692
 31
0.0
  0
LINE
  5
1722
100
AcDbEntity
  8
ALPHA
100
AcDbLine
 10
82.953509
 20
153.658692
 30
0.0
 11
127.453509
 21
153.658692
 31
0.0
  0
LINE
  5
1723
100
AcDbEntity
  8
ALPHA
100
AcDbLine
 10
82.953509
 20
153.658692
 30
0.0
 11
82.953509
 21
162.658692
 31
0.0
  0
LINE
  5
1724
100
AcDbEntity
  8
ALPHA
100
AcDbLine
 10
88.703509
 20
153.658692
 30
0.0
 11
88.703509
 21
161.658692
 31
0.0
  0
LINE
  5
1725
100
AcDbEntity
  8
ALPHA
100
AcDbLine
 10
85.703509
 20
153.658692
 30
0.0
 11
85.703509
 21
161.658692
 31
0.0
  0
LINE
  5
1726
100
AcDbEntity
  8
ALPHA
100
AcDbLine
 10
85.453509
 20
153.658692
 30
0.0
 11
85.453509
 21
161.658692
 31
0.0
  0
LINE
  5
1727
100
AcDbEntity
  8
ALPHA
100
AcDbLine
 10
88.953509
 20
153.658692
 30
0.0
 11
88.953509
 21
161.658692
 31
0.0
  0
LINE
  5
1728
100
AcDbEntity
  8
AXE
100
AcDbLine
 10
87.203509
 20
151.158692
 30
0.0
 11
87.203509
 21
165.158692
 31
0.0
  0
CIRCLE
  5
1729
100
AcDbEntity
  8
ALPHA
100
AcDbCircle
 10
96.903509
 20
157.658692
 30
0.0
 40
3.75
  0
CIRCLE
  5
172A
100
AcDbEntity
  8
ALPHA
100
AcDbCircle
 10
96.903509
 20
157.658692
 30
0.0
 40
3.125
  0
LINE
  5
172B
100
AcDbEntity
  8
AXE
100
AcDbLine
 10
96.903509
 20
151.158692
 30
0.0
 11
96.903509
 21
165.158692
 31
0.0
  0
LINE
  5
172C
100
AcDbEntity
  8
AXE
100
AcDbLine
 10
105.203509
 20
151.158692
 30
0.0
 11
105.203509
 21
165.158692
 31
0.0
  0
LINE
  5
172D
100
AcDbEntity
  8
ALPHA
100
AcDbLine
 10
104.203509
 20
153.408692
 30
0.0
 11
106.203509
 21
153.408692
 31
0.0
  0
LINE
  5
172E
100
AcDbEntity
  8
ALPHA
100
AcDbLine
 10
104.203509
 20
153.408692
 30
0.0
 11
104.203509
 21
153.658692
 31
0.0
  0
LINE
  5
172F
100
AcDbEntity
  8
ALPHA
100
AcDbLine
 10
106.203509
 20
153.408692
 30
0.0
 11
106.203509
 21
153.658692
 31
0.0
  0
CIRCLE
  5
1730
100
AcDbEntity
  8
ALPHA
100
AcDbCircle
 10
113.503509
 20
157.658692
 30
0.0
 40
3.75
  0
CIRCLE
  5
1731
100
AcDbEntity
  8
ALPHA
100
AcDbCircle
 10
113.503509
 20
157.658692
 30
0.0
 40
3.125
  0
LINE
  5
1732
100
AcDbEntity
  8
AXE
100
AcDbLine
 10
113.503509
 20
151.158692
 30
0.0
 11
113.503509
 21
165.158692
 31
0.0
  0
TEXT
  5
1733
100
AcDbEntity
  8
TEXTE
100
AcDbText
 10
117.271434
 20
158.658692
 30
0.0
 40
2.0
  1
12
  7
ROMANS
 72
     2
 11
120.795244
 21
158.658692
 31
0.0
100
AcDbText
  0
LINE
  5
1734
100
AcDbEntity
  8
ALPHA
100
AcDbLine
 10
124.703509
 20
153.658692
 30
0.0
 11
124.703509
 21
161.658692
 31
0.0
  0
LINE
  5
1735
100
AcDbEntity
  8
ALPHA
100
AcDbLine
 10
121.453509
 20
153.658692
 30
0.0
 11
121.453509
 21
161.658692
 31
0.0
  0
LINE
  5
1736
100
AcDbEntity
  8
ALPHA
100
AcDbLine
 10
121.703509
 20
153.658692
 30
0.0
 11
121.703509
 21
161.658692
 31
0.0
  0
LINE
  5
1737
100
AcDbEntity
  8
AXE
100
AcDbLine
 10
123.203509
 20
151.158692
 30
0.0
 11
123.203509
 21
165.158692
 31
0.0
  0
TEXT
  5
1738
100
AcDbEntity
  8
TEXTE
100
AcDbText
 10
121.468188
 20
156.658692
 30
0.0
 40
2.0
  1
13
 50
180.0
  7
ROMANS
100
AcDbText
  0
DIMENSION
  5
1739
100
AcDbEntity
  8
COTATION1
100
AcDbDimension
  2
*D12
 10
136.48974
 20
153.658692
 30
0.0
 11
136.48974
 21
157.658692
 31
0.0
 70
   128
  3
SC_STAND
100
AcDbAlignedDimension
 13
127.453509
 23
161.658692
 33
0.0
 14
127.453509
 24
153.658692
 34
0.0
 50
90.0
100
AcDbRotatedDimension
  0
LINE
  5
173A
100
AcDbEntity
  8
ALPHA
100
AcDbLine
 10
124.953509
 20
153.658692
 30
0.0
 11
124.953509
 21
161.658692
 31
0.0
  0
LINE
  5
173B
100
AcDbEntity
  8
ALPHA
100
AcDbLine
 10
127.453509
 20
153.658692
 30
0.0
 11
127.453509
 21
162.658692
 31
0.0
  0
DIMENSION
  5
188E
100
AcDbEntity
  8
COTATION1
100
AcDbDimension
  2
*D11
 10
127.453509
 20
170.319013
 30
0.0
 11
134.453509
 21
170.319013
 31
0.0
 70
   128
  3
SC_STAND
100
AcDbAlignedDimension
 13
113.503509
 23
165.158692
 33
0.0
 14
127.453509
 24
162.658692
 34
0.0
100
AcDbRotatedDimension
  0
DIMENSION
  5
18B3
100
AcDbEntity
  8
COTATION1
100
AcDbDimension
  2
*D10
 10
113.503509
 20
170.319013
 30
0.0
 11
105.203509
 21
172.819013
 31
0.0
  3
SC_STAND
100
AcDbAlignedDimension
 13
96.903509
 23
165.158692
 33
0.0
 14
113.503509
 24
165.158692
 34
0.0
100
AcDbRotatedDimension
  0
DIMENSION
  5
1942
100
AcDbEntity
  8
COTATION1
100
AcDbDimension
  2
*D9
 10
75.442641
 20
162.658692
 30
0.0
 11
72.942641
 21
170.432502
 31
0.0
  3
SC_STAND
100
AcDbAlignedDimension
 13
82.953509
 23
153.658692
 33
0.0
 14
82.953509
 24
162.658692
 34
0.0
 50
90.0
100
AcDbRotatedDimension
  0
TEXT
  5
1979
100
AcDbEntity
  8
TEXTE
100
AcDbText
 10
93.870176
 20
135.026831
 30
0.0
 40
3.5
  1
GV2-AE1
  7
ROMANS
 72
     1
 11
105.203509
 21
135.026831
 31
0.0
100
AcDbText
  0
VIEWPORT
  5
1FE
100
AcDbEntity
 67
     1
  8
0
100
AcDbViewport
 10
251.108558
 20
148.5
 30
0.0
 40
8035.473851
 41
4752.0
 68
    -1
 69
     1
1001
ACAD
1000
MVIEW
1002
{
1070
    16
1010
0.0
1020
0.0
1030
0.0
1010
0.0
1020
0.0
1030
1.0
1040
0.0
1040
4752.0
1040
251.108558
1040
148.5
1040
50.0
1040
0.0
1040
0.0
1070
     0
1070
   100
1070
     1
1070
     1
1070
     0
1070
     0
1070
     0
1070
     0
1040
0.0
1040
0.0
1040
0.0
1040
1.0
1040
1.0
1040
0.0
1040
0.0
1070
     0
1002
{
1002
}
1002
}
  0
ENDSEC
  0
SECTION
  2
OBJECTS
  0
DICTIONARY
  5
19CA
100
AcDbDictionary
  3
ACAD_GROUP
350
19CB
  3
ACAD_MLINESTYLE
350
19D9
  0
DICTIONARY
  5
19CB
102
{ACAD_REACTORS
330
19CA
102
}
100
AcDbDictionary
  0
DICTIONARY
  5
19D9
102
{ACAD_REACTORS
330
19CA
102
}
100
AcDbDictionary
  3
STANDARD
350
19DA
  0
MLINESTYLE
  5
19DA
102
{ACAD_REACTORS
330
19D9
102
}
100
AcDbMlineStyle
  2
STANDARD
 70
     0
  3

 62
   256
 51
90.0
 52
90.0
 71
     2
 49
0.5
 62
   256
  6
BYLAYER
 49
-0.5
 62
   256
  6
BYLAYER
  0
ENDSEC
  0
EOF
