  0
SECTION
  2
HEADER
  9
$ACADVER
  1
AC1012
  9
$DWGCODEPAGE
  3
ANSI_1252
  9
$INSBASE
 10
0.0
 20
0.0
 30
0.0
  9
$EXTMIN
 10
14.453272
 20
11.855893
 30
0.0
  9
$EXTMAX
 10
127.464695
 20
166.079295
 30
0.0
  9
$LIMMIN
 10
17.594103
 20
64.047426
  9
$LIMMAX
 10
172.57758
 20
179.573363
  9
$ORTHOMODE
 70
     1
  9
$REGENMODE
 70
     1
  9
$FILLMODE
 70
     1
  9
$QTEXTMODE
 70
     0
  9
$MIRRTEXT
 70
     1
  9
$DRAGMODE
 70
     2
  9
$LTSCALE
 40
10.0
  9
$OSMODE
 70
    37
  9
$ATTMODE
 70
     1
  9
$TEXTSIZE
 40
0.2
  9
$TRACEWID
 40
0.05
  9
$TEXTSTYLE
  7
STANDARD
  9
$CLAYER
  8
0
  9
$CELTYPE
  6
CONTINUOUS
  9
$CECOLOR
 62
   256
  9
$CELTSCALE
 40
1.0
  9
$DELOBJ
 70
     1
  9
$DISPSILH
 70
     0
  9
$DIMSCALE
 40
1.0
  9
$DIMASZ
 40
0.18
  9
$DIMEXO
 40
0.0625
  9
$DIMDLI
 40
0.38
  9
$DIMRND
 40
0.0
  9
$DIMDLE
 40
0.0
  9
$DIMEXE
 40
0.18
  9
$DIMTP
 40
0.0
  9
$DIMTM
 40
0.0
  9
$DIMTXT
 40
0.18
  9
$DIMCEN
 40
0.09
  9
$DIMTSZ
 40
0.0
  9
$DIMTOL
 70
     0
  9
$DIMLIM
 70
     0
  9
$DIMTIH
 70
     1
  9
$DIMTOH
 70
     1
  9
$DIMSE1
 70
     0
  9
$DIMSE2
 70
     0
  9
$DIMTAD
 70
     0
  9
$DIMZIN
 70
     0
  9
$DIMBLK
  1

  9
$DIMASO
 70
     1
  9
$DIMSHO
 70
     1
  9
$DIMPOST
  1

  9
$DIMAPOST
  1

  9
$DIMALT
 70
     0
  9
$DIMALTD
 70
     2
  9
$DIMALTF
 40
25.4
  9
$DIMLFAC
 40
1.0
  9
$DIMTOFL
 70
     0
  9
$DIMTVP
 40
0.0
  9
$DIMTIX
 70
     0
  9
$DIMSOXD
 70
     0
  9
$DIMSAH
 70
     0
  9
$DIMBLK1
  1

  9
$DIMBLK2
  1

  9
$DIMSTYLE
  2
STANDARD
  9
$DIMCLRD
 70
     0
  9
$DIMCLRE
 70
     0
  9
$DIMCLRT
 70
     0
  9
$DIMTFAC
 40
1.0
  9
$DIMGAP
 40
0.09
  9
$DIMJUST
 70
     0
  9
$DIMSD1
 70
     0
  9
$DIMSD2
 70
     0
  9
$DIMTOLJ
 70
     1
  9
$DIMTZIN
 70
     0
  9
$DIMALTZ
 70
     0
  9
$DIMALTTZ
 70
     0
  9
$DIMFIT
 70
     3
  9
$DIMUPT
 70
     0
  9
$DIMUNIT
 70
     2
  9
$DIMDEC
 70
     4
  9
$DIMTDEC
 70
     4
  9
$DIMALTU
 70
     2
  9
$DIMALTTD
 70
     2
  9
$DIMTXSTY
  7
STANDARD
  9
$DIMAUNIT
 70
     0
  9
$LUNITS
 70
     2
  9
$LUPREC
 70
     4
  9
$SKETCHINC
 40
0.1
  9
$FILLETRAD
 40
0.0
  9
$AUNITS
 70
     0
  9
$AUPREC
 70
     0
  9
$MENU
  1
acad
  9
$ELEVATION
 40
0.0
  9
$PELEVATION
 40
0.0
  9
$THICKNESS
 40
0.0
  9
$LIMCHECK
 70
     0
  9
$BLIPMODE
 70
     0
  9
$CHAMFERA
 40
0.0
  9
$CHAMFERB
 40
0.0
  9
$CHAMFERC
 40
0.0
  9
$CHAMFERD
 40
0.0
  9
$SKPOLY
 70
     0
  9
$TDCREATE
 40
2453607.506704282
  9
$TDUPDATE
 40
2453644.601870220
  9
$TDINDWG
 40
0.2007694792
  9
$TDUSRTIMER
 40
0.2007694792
  9
$USRTIMER
 70
     1
  9
$ANGBASE
 50
0.0
  9
$ANGDIR
 70
     0
  9
$PDMODE
 70
     0
  9
$PDSIZE
 40
0.0
  9
$PLINEWID
 40
0.0
  9
$COORDS
 70
     1
  9
$SPLFRAME
 70
     0
  9
$SPLINETYPE
 70
     6
  9
$SPLINESEGS
 70
     8
  9
$ATTDIA
 70
     0
  9
$ATTREQ
 70
     1
  9
$HANDLING
 70
     1
  9
$HANDSEED
  5
146C
  9
$SURFTAB1
 70
     6
  9
$SURFTAB2
 70
     6
  9
$SURFTYPE
 70
     6
  9
$SURFU
 70
     6
  9
$SURFV
 70
     6
  9
$UCSNAME
  2

  9
$UCSORG
 10
0.0
 20
0.0
 30
0.0
  9
$UCSXDIR
 10
1.0
 20
0.0
 30
0.0
  9
$UCSYDIR
 10
0.0
 20
1.0
 30
0.0
  9
$PUCSNAME
  2

  9
$PUCSORG
 10
0.0
 20
0.0
 30
0.0
  9
$PUCSXDIR
 10
1.0
 20
0.0
 30
0.0
  9
$PUCSYDIR
 10
0.0
 20
1.0
 30
0.0
  9
$USERI1
 70
     0
  9
$USERI2
 70
     0
  9
$USERI3
 70
     0
  9
$USERI4
 70
     0
  9
$USERI5
 70
     0
  9
$USERR1
 40
0.0
  9
$USERR2
 40
0.0
  9
$USERR3
 40
0.0
  9
$USERR4
 40
0.0
  9
$USERR5
 40
0.0
  9
$WORLDVIEW
 70
     1
  9
$SHADEDGE
 70
     3
  9
$SHADEDIF
 70
    70
  9
$TILEMODE
 70
     1
  9
$MAXACTVP
 70
    16
  9
$PINSBASE
 10
0.0
 20
0.0
 30
0.0
  9
$PLIMCHECK
 70
     0
  9
$PEXTMIN
 10
1.000000E+20
 20
1.000000E+20
 30
1.000000E+20
  9
$PEXTMAX
 10
-1.000000E+20
 20
-1.000000E+20
 30
-1.000000E+20
  9
$PLIMMIN
 10
0.0
 20
0.0
  9
$PLIMMAX
 10
12.0
 20
9.0
  9
$UNITMODE
 70
     0
  9
$VISRETAIN
 70
     0
  9
$PLINEGEN
 70
     1
  9
$PSLTSCALE
 70
     0
  9
$TREEDEPTH
 70
  3020
  9
$PICKSTYLE
 70
     0
  9
$CMLSTYLE
  2
STANDARD
  9
$CMLJUST
 70
     0
  9
$CMLSCALE
 40
1.0
  9
$SAVEIMAGES
 70
     0
  0
ENDSEC
  0
SECTION
  2
CLASSES
  0
CLASS
  1
LWPOLYLINE
  2
AcDbPolyline
  3
"AutoCAD"
 90
    32768
280
     0
281
     1
  0
CLASS
  1
IMAGE
  2
AcDbRasterImage
  3
ISM
 90
    32895
280
     0
281
     1
  0
CLASS
  1
OLE2FRAME
  2
AcDbOle2Frame
  3
""
 90
    32768
280
     0
281
     1
  0
CLASS
  1
HATCH
  2
AcDbHatch
  3
"ACAD_SEDONA"
 90
    32768
280
     0
281
     1
  0
CLASS
  1
DICTIONARYVAR
  2
AcDbDictionaryVar
  3
"AutoCAD"
 90
    32768
280
     0
281
     0
  0
CLASS
  1
RASTERVARIABLES
  2
AcDbRasterVariables
  3
ISM
 90
    32768
280
     0
281
     0
  0
CLASS
  1
IMAGEDEF
  2
AcDbRasterImageDef
  3
ISM
 90
    32768
280
     0
281
     0
  0
CLASS
  1
IMAGEDEF_REACTOR
  2
AcDbRasterImageDefReactor
  3
ISM
 90
    32769
280
     0
281
     0
  0
CLASS
  1
SPATIAL_FILTER
  2
AcDbSpatialFilter
  3
"Acad"
 90
    32768
280
     0
281
     0
  0
CLASS
  1
XRECORD
  2
AcDbXrecord
  3
"<Built In>"
 90
    32768
280
     0
281
     0
  0
CLASS
  1
SORTENTSTABLE
  2
AcDbSortentsTable
  3
"AutoCAD"
 90
    32768
280
     0
281
     0
  0
CLASS
  1
LAYER_INDEX
  2
AcDbLayerIndex
  3
"Acad"
 90
    32768
280
     0
281
     0
  0
CLASS
  1
SPATIAL_INDEX
  2
AcDbSpatialIndex
  3
"Acad"
 90
    32768
280
     0
281
     0
  0
CLASS
  1
OBJECT_PTR
  2
CAseDLPNTableRecord
  3
ASE-LPNTableRecord
 90
    32769
280
     0
281
     0
  0
CLASS
  1
LAYOUT
  2
AcDbLayout
  3
AutoCAD 2000
 90
    32768
280
     0
281
     0
  0
CLASS
  1
PLOTSETTINGS
  2
AcDbPlotSettings
  3
AutoCAD 2000
 90
    32768
280
     0
281
     0
  0
CLASS
  1
ACDBDICTIONARYWDFLT
  2
AcDbDictionaryWithDefault
  3
AutoCAD 2000
 90
    32768
280
     0
281
     0
  0
CLASS
  1
ACDBPLACEHOLDER
  2
AcDbPlaceHolder
  3
AutoCAD 2000
 90
    32768
280
     0
281
     0
  0
CLASS
  1
VBA_PROJECT
  2
AcDbVbaProject
  3
acad
 90
    32768
280
     0
281
     0
  0
CLASS
  1
WIPEOUT
  2
AcDbWipeout
  3
WipeOut|AutoCAD Express Tool|expresstools@autodesk.com
 90
    32895
280
     0
281
     1
  0
CLASS
  1
WIPEOUTVARIABLES
  2
AcDbWipeoutVariables
  3
WipeOut|AutoCAD Express Tool|expresstools@autodesk.com
 90
    32768
280
     0
281
     0
  0
CLASS
  1
RTEXT
  2
RText
  3
RText|AutoCAD Express Tool|expresstools@autodesk.com
 90
    32768
280
     0
281
     1
  0
CLASS
  1
ARCALIGNEDTEXT
  2
AcDbArcAlignedText
  3
ATEXT|AutoCAD Express Tool|expresstools@autodesk.com
 90
    32768
280
     0
281
     1
  0
CLASS
  1
TABLESTYLE
  2
AcDbTableStyle
  3
ObjectDBX Classes
 90
    34815
280
     0
281
     0
  0
CLASS
  1
ACAD_PROXY_OBJECT_WRAPPER
  2
AcDbProxyObjectWrapper
  3
AutoCAD 2000
 90
    32768
280
     0
281
     0
  0
CLASS
  1
LONG_TRANSACTION
  2
AcDbLongTransaction
  3
AutoCAD 2000
 90
    32768
280
     0
281
     0
  0
CLASS
  1
LWPOLYLINE
  2
AcDbPolyline
  3
"AutoCAD"
 90
    32768
280
     0
281
     1
  0
CLASS
  1
HATCH
  2
AcDbHatch
  3
"ACAD_SEDONA"
 90
    32768
280
     0
281
     1
  0
CLASS
  1
XRECORD
  2
AcDbXrecord
  3
"<Built In>"
 90
    32768
280
     0
281
     0
  0
CLASS
  1
LONG_TRANSACTION
  2
AcDbLongTransaction
  3
AutoCAD 2000
 90
    32768
280
     0
281
     0
  0
CLASS
  1
LWPOLYLINE
  2
AcDbPolyline
  3
"AutoCAD"
 90
    32768
280
     0
281
     1
  0
CLASS
  1
HATCH
  2
AcDbHatch
  3
"ACAD_SEDONA"
 90
    32768
280
     0
281
     1
  0
CLASS
  1
XRECORD
  2
AcDbXrecord
  3
"<Built In>"
 90
    32768
280
     0
281
     0
  0
ENDSEC
  0
SECTION
  2
TABLES
  0
TABLE
  2
VPORT
  5
7
100
AcDbSymbolTable
 70
     2
  0
VPORT
  5
146B
100
AcDbSymbolTableRecord
100
AcDbViewportTableRecord
  2
*ACTIVE
 70
     0
 10
0.0
 20
0.0
 11
1.0
 21
1.0
 12
70.958983
 22
88.967594
 13
0.0
 23
0.0
 14
1.0
 24
1.0
 15
0.0
 25
0.0
 16
0.0
 26
0.0
 36
1.0
 17
0.0
 27
0.0
 37
0.0
 40
155.827112
 41
1.673611
 42
50.0
 43
0.0
 44
0.0
 50
0.0
 51
0.0
 71
     0
 72
   100
 73
     1
 74
     3
 75
     0
 76
     0
 77
     0
 78
     0
  0
ENDTAB
  0
TABLE
  2
LTYPE
  5
4
100
AcDbSymbolTable
 70
     3
  0
LTYPE
  5
11
102
{ACAD_XDICTIONARY
360
142B
102
}
100
AcDbSymbolTableRecord
100
AcDbLinetypeTableRecord
  2
BYBLOCK
 70
     0
  3

 72
    65
 73
     0
 40
0.0
  0
LTYPE
  5
12
102
{ACAD_XDICTIONARY
360
142D
102
}
100
AcDbSymbolTableRecord
100
AcDbLinetypeTableRecord
  2
BYLAYER
 70
     0
  3

 72
    65
 73
     0
 40
0.0
  0
LTYPE
  5
13
102
{ACAD_XDICTIONARY
360
142F
102
}
100
AcDbSymbolTableRecord
100
AcDbLinetypeTableRecord
  2
CONTINUOUS
 70
     0
  3
Solid line
 72
    65
 73
     0
 40
0.0
  0
LTYPE
  5
13B
100
AcDbSymbolTableRecord
100
AcDbLinetypeTableRecord
  2
AXES2
 70
     0
  3
___ _ ___ _ ___ _ ___ _ ___ _ ___ _ ___ _ ___ _
 72
    65
 73
     4
 40
1.125
 49
0.75
 74
     0
 49
-0.125
 74
     0
 49
0.125
 74
     0
 49
-0.125
 74
     0
  0
LTYPE
  5
13C
100
AcDbSymbolTableRecord
100
AcDbLinetypeTableRecord
  2
CACHE2
 70
     0
  3
Caché (x.5) _ _ _ _ _ _ _ _ _ _ _ _ _ _ _ _ _
 72
    65
 73
     2
 40
0.1875
 49
0.125
 74
     0
 49
-0.0625
 74
     0
  0
ENDTAB
  0
TABLE
  2
LAYER
  5
2
102
{ACAD_XDICTIONARY
360
13D2
102
}
100
AcDbSymbolTable
 70
     6
  0
LAYER
  5
14
100
AcDbSymbolTableRecord
100
AcDbLayerTableRecord
  2
0
 70
     0
 62
     7
  6
CONTINUOUS
  0
LAYER
  5
13D
100
AcDbSymbolTableRecord
100
AcDbLayerTableRecord
  2
COTATION1
 70
     0
 62
     2
  6
CONTINUOUS
  0
LAYER
  5
13E
100
AcDbSymbolTableRecord
100
AcDbLayerTableRecord
  2
AXE
 70
     0
 62
    80
  6
AXES2
  0
LAYER
  5
13F
102
{ACAD_XDICTIONARY
360
1462
102
}
100
AcDbSymbolTableRecord
100
AcDbLayerTableRecord
  2
DEFPOINTS
 70
     0
 62
     7
  6
CONTINUOUS
  0
LAYER
  5
140
100
AcDbSymbolTableRecord
100
AcDbLayerTableRecord
  2
ALPHA
 70
     0
 62
   254
  6
CONTINUOUS
  0
LAYER
  5
141
100
AcDbSymbolTableRecord
100
AcDbLayerTableRecord
  2
POINTILLE_COURT
 70
     0
 62
    41
  6
CACHE2
  0
ENDTAB
  0
TABLE
  2
STYLE
  5
3
100
AcDbSymbolTable
 70
     2
  0
STYLE
  5
17
102
{ACAD_XDICTIONARY
360
1431
102
}
100
AcDbSymbolTableRecord
100
AcDbTextStyleTableRecord
  2
STANDARD
 70
     0
 40
0.0
 41
1.0
 50
0.0
 71
     0
 42
0.0
  3
txt
  4

  0
STYLE
  5
142
100
AcDbSymbolTableRecord
100
AcDbTextStyleTableRecord
  2
ROMANS
 70
     0
 40
0.0
 41
1.0
 50
0.0
 71
     0
 42
6.0
  3
romans
  4

  0
ENDTAB
  0
TABLE
  2
VIEW
  5
5
100
AcDbSymbolTable
 70
     0
  0
ENDTAB
  0
TABLE
  2
UCS
  5
6
100
AcDbSymbolTable
 70
     0
  0
ENDTAB
  0
TABLE
  2
APPID
  5
8
100
AcDbSymbolTable
 70
     2
  0
APPID
  5
16
100
AcDbSymbolTableRecord
100
AcDbRegAppTableRecord
  2
ACAD
 70
     0
  0
APPID
  5
104
100
AcDbSymbolTableRecord
100
AcDbRegAppTableRecord
  2
DCO15
 70
     0
  0
ENDTAB
  0
TABLE
  2
DIMSTYLE
  5
9
100
AcDbSymbolTable
 70
     2
  0
DIMSTYLE
105
18
102
{ACAD_XDICTIONARY
360
1429
102
}
100
AcDbSymbolTableRecord
100
AcDbDimStyleTableRecord
  2
STANDARD
 70
     0
  3

  4

  5

  6

  7

 40
1.0
 41
0.18
 42
0.0625
 43
0.38
 44
0.18
 45
0.0
 46
0.0
 47
0.0
 48
0.0
140
0.18
141
0.09
142
0.0
143
25.4
144
1.0
145
0.0
146
1.0
147
0.09
 71
     0
 72
     0
 73
     1
 74
     1
 75
     0
 76
     0
 77
     0
 78
     0
170
     0
171
     2
172
     0
173
     0
174
     0
175
     0
176
     0
177
     0
178
     0
270
     2
271
     4
272
     4
273
     2
274
     2
340
17
275
     0
280
     0
281
     0
282
     0
283
     1
284
     0
285
     0
286
     0
287
     3
288
     0
  0
DIMSTYLE
105
143
102
{ACAD_XDICTIONARY
360
1464
102
}
102
{ACAD_REACTORS
330
D7B
330
DD7
330
E21
330
F25
330
F26
330
F27
330
1193
330
1194
330
1191
330
1192
330
1190
102
}
100
AcDbSymbolTableRecord
100
AcDbDimStyleTableRecord
  2
SC_DEFAUT
 70
     0
  3

  4

  5
OPEN30
  6

  7

 40
1.0
 41
5.0
 42
2.0
 43
0.38
 44
2.5
 45
0.0
 46
0.0
 47
0.0
 48
0.0
140
2.5
141
0.0
142
0.0
143
25.4
144
1.0
145
0.0
146
1.0
147
2.0
 71
     0
 72
     0
 73
     1
 74
     1
 75
     0
 76
     0
 77
     1
 78
    12
170
     0
171
     2
172
     0
173
     0
174
     0
175
     0
176
     0
177
     0
178
     0
270
     2
271
     1
272
     1
273
     2
274
     2
340
142
275
     0
280
     0
281
     0
282
     0
283
     1
284
    12
285
    12
286
    12
287
     5
288
     0
  0
ENDTAB
  0
TABLE
  2
BLOCK_RECORD
  5
1
100
AcDbSymbolTable
 70
    12
  0
BLOCK_RECORD
  5
A
102
{ACAD_XDICTIONARY
360
20B
102
}
100
AcDbSymbolTableRecord
100
AcDbBlockTableRecord
  2
*MODEL_SPACE
  0
BLOCK_RECORD
  5
B
102
{ACAD_XDICTIONARY
360
1413
102
}
100
AcDbSymbolTableRecord
100
AcDbBlockTableRecord
  2
*PAPER_SPACE
  0
BLOCK_RECORD
  5
110
100
AcDbSymbolTableRecord
100
AcDbBlockTableRecord
  2
_OPEN30
  0
BLOCK_RECORD
  5
D7C
100
AcDbSymbolTableRecord
100
AcDbBlockTableRecord
  2
*D1
  0
BLOCK_RECORD
  5
DD8
100
AcDbSymbolTableRecord
100
AcDbBlockTableRecord
  2
*D2
  0
BLOCK_RECORD
  5
E22
100
AcDbSymbolTableRecord
100
AcDbBlockTableRecord
  2
*D3
  0
BLOCK_RECORD
  5
F28
100
AcDbSymbolTableRecord
100
AcDbBlockTableRecord
  2
*D4
  0
BLOCK_RECORD
  5
F35
100
AcDbSymbolTableRecord
100
AcDbBlockTableRecord
  2
*D5
  0
BLOCK_RECORD
  5
F42
100
AcDbSymbolTableRecord
100
AcDbBlockTableRecord
  2
*D6
  0
BLOCK_RECORD
  5
1195
100
AcDbSymbolTableRecord
100
AcDbBlockTableRecord
  2
*D7
  0
BLOCK_RECORD
  5
11A1
100
AcDbSymbolTableRecord
100
AcDbBlockTableRecord
  2
*D8
  0
BLOCK_RECORD
  5
11AD
100
AcDbSymbolTableRecord
100
AcDbBlockTableRecord
  2
*D9
  0
BLOCK_RECORD
  5
11BA
100
AcDbSymbolTableRecord
100
AcDbBlockTableRecord
  2
*D10
  0
BLOCK_RECORD
  5
11C7
100
AcDbSymbolTableRecord
100
AcDbBlockTableRecord
  2
*D11
  0
ENDTAB
  0
ENDSEC
  0
SECTION
  2
BLOCKS
  0
BLOCK
  5
D
100
AcDbEntity
  8
0
100
AcDbBlockBegin
  2
*MODEL_SPACE
 70
     0
 10
0.0
 20
0.0
 30
0.0
  3
*MODEL_SPACE
  1

  0
ENDBLK
  5
E
100
AcDbEntity
  8
0
100
AcDbBlockEnd
  0
BLOCK
  5
F
100
AcDbEntity
 67
     1
  8
0
100
AcDbBlockBegin
  2
*PAPER_SPACE
 70
     0
 10
0.0
 20
0.0
 30
0.0
  3
*PAPER_SPACE
  1

  0
ENDBLK
  5
10
100
AcDbEntity
 67
     1
  8
0
100
AcDbBlockEnd
  0
BLOCK
  5
111
100
AcDbEntity
  8
0
100
AcDbBlockBegin
  2
_OPEN30
 70
     0
 10
0.0
 20
0.0
 30
0.0
  3
_OPEN30
  1

  0
LINE
  5
112
100
AcDbEntity
  8
COTATION1
 62
     0
100
AcDbLine
 10
-1.0
 20
0.267949
 30
0.0
 11
0.0
 21
0.0
 31
0.0
1001
ACAD
1000
RTLwPs
1070
   158
  0
LINE
  5
113
100
AcDbEntity
  8
COTATION1
 62
     0
100
AcDbLine
 10
0.0
 20
0.0
 30
0.0
 11
-1.0
 21
-0.267949
 31
0.0
1001
ACAD
1000
RTLwPs
1070
   158
  0
LINE
  5
114
100
AcDbEntity
  8
COTATION1
 62
     0
100
AcDbLine
 10
0.0
 20
0.0
 30
0.0
 11
-1.0
 21
0.0
 31
0.0
1001
ACAD
1000
RTLwPs
1070
   158
  0
ENDBLK
  5
115
100
AcDbEntity
  8
0
100
AcDbBlockEnd
  0
BLOCK
  5
D87
100
AcDbEntity
  8
0
100
AcDbBlockBegin
  2
*D1
 70
     1
 10
0.0
 20
0.0
 30
0.0
  3
*D1
  1

1001
ACAD
1000
RTLwPs
1070
   128
  0
LINE
  5
1340
100
AcDbEntity
  8
COTATION1
 62
     0
100
AcDbLine
 10
53.836837
 20
139.75963
 30
0.0
 11
14.458097
 21
139.75963
 31
0.0
1001
ACAD
1000
RTLwPs
1070
   158
  0
LINE
  5
1341
100
AcDbEntity
  8
COTATION1
 62
     0
100
AcDbLine
 10
46.334718
 20
155.768308
 30
0.0
 11
14.458097
 21
155.768308
 31
0.0
1001
ACAD
1000
RTLwPs
1070
   158
  0
LINE
  5
1342
100
AcDbEntity
  8
COTATION1
 62
     0
100
AcDbLine
 10
16.958097
 20
134.75963
 30
0.0
 11
16.958097
 21
129.75963
 31
0.0
1001
ACAD
1000
RTLwPs
1070
   158
  0
LINE
  5
1343
100
AcDbEntity
  8
COTATION1
 62
     0
100
AcDbLine
 10
16.958097
 20
160.768308
 30
0.0
 11
16.958097
 21
165.768308
 31
0.0
1001
ACAD
1000
RTLwPs
1070
   158
  0
MTEXT
  5
1344
100
AcDbEntity
  8
COTATION1
 62
     0
100
AcDbMText
 10
16.958097
 20
147.763969
 30
0.0
 40
2.5
 41
0.0
 71
     5
 72
     1
  1
\A1;=
  7
ROMANS
1001
ACAD
1000
MTEXTBEGIN
1070
    73
1070
     1
1070
    44
1040
1.0
1070
    74
1070
     0
1000
MTEXTEND
1000
MTEXTBEGIN
1070
    73
1070
     1
1070
    44
1040
1.0
1070
    74
1070
     0
1000
MTEXTEND
1000
MTEXTBEGIN
1070
    73
1070
     1
1070
    44
1040
1.0
1070
    74
1070
     0
1000
MTEXTEND
  0
INSERT
  5
1345
100
AcDbEntity
  8
COTATION1
 62
     0
100
AcDbBlockReference
  2
_OPEN30
 10
16.958097
 20
139.75963
 30
0.0
 41
5.0
 42
5.0
 43
5.0
 50
90.0
1001
ACAD
1000
RTLwPs
1070
   158
  0
INSERT
  5
1346
100
AcDbEntity
  8
COTATION1
 62
     0
100
AcDbBlockReference
  2
_OPEN30
 10
16.958097
 20
155.768308
 30
0.0
 41
5.0
 42
5.0
 43
5.0
 50
270.0
1001
ACAD
1000
RTLwPs
1070
   158
  0
POINT
  5
1347
100
AcDbEntity
  8
DEFPOINTS
 62
     0
100
AcDbPoint
 10
55.836837
 20
139.75963
 30
0.0
1001
ACAD
1000
RTLwPs
1070
   128
  0
POINT
  5
1348
100
AcDbEntity
  8
DEFPOINTS
 62
     0
100
AcDbPoint
 10
48.334718
 20
155.768308
 30
0.0
1001
ACAD
1000
RTLwPs
1070
   128
  0
POINT
  5
1349
100
AcDbEntity
  8
DEFPOINTS
 62
     0
100
AcDbPoint
 10
16.958097
 20
155.768308
 30
0.0
1001
ACAD
1000
RTLwPs
1070
   128
  0
ENDBLK
  5
D88
100
AcDbEntity
  8
0
100
AcDbBlockEnd
1001
ACAD
1000
RTLwPs
1070
   128
  0
BLOCK
  5
DE3
100
AcDbEntity
  8
0
100
AcDbBlockBegin
  2
*D2
 70
     1
 10
0.0
 20
0.0
 30
0.0
  3
*D2
  1

1001
ACAD
1000
RTLwPs
1070
   128
  0
LINE
  5
134A
100
AcDbEntity
  8
COTATION1
 62
     0
100
AcDbLine
 10
46.334718
 20
49.768239
 30
0.0
 11
14.458097
 21
49.768239
 31
0.0
1001
ACAD
1000
RTLwPs
1070
   158
  0
LINE
  5
134B
100
AcDbEntity
  8
COTATION1
 62
     0
100
AcDbLine
 10
53.836837
 20
65.778347
 30
0.0
 11
14.458097
 21
65.778347
 31
0.0
1001
ACAD
1000
RTLwPs
1070
   158
  0
LINE
  5
134C
100
AcDbEntity
  8
COTATION1
 62
     0
100
AcDbLine
 10
16.958097
 20
44.768239
 30
0.0
 11
16.958097
 21
39.768239
 31
0.0
1001
ACAD
1000
RTLwPs
1070
   158
  0
LINE
  5
134D
100
AcDbEntity
  8
COTATION1
 62
     0
100
AcDbLine
 10
16.958097
 20
70.778347
 30
0.0
 11
16.958097
 21
75.778347
 31
0.0
1001
ACAD
1000
RTLwPs
1070
   158
  0
MTEXT
  5
134E
100
AcDbEntity
  8
COTATION1
 62
     0
100
AcDbMText
 10
16.958097
 20
57.348293
 30
0.0
 40
2.5
 41
0.0
 71
     5
 72
     1
  1
\A1;=
  7
ROMANS
1001
ACAD
1000
MTEXTBEGIN
1070
    73
1070
     1
1070
    44
1040
1.0
1070
    74
1070
     0
1000
MTEXTEND
1000
MTEXTBEGIN
1070
    73
1070
     1
1070
    44
1040
1.0
1070
    74
1070
     0
1000
MTEXTEND
1000
MTEXTBEGIN
1070
    73
1070
     1
1070
    44
1040
1.0
1070
    74
1070
     0
1000
MTEXTEND
  0
INSERT
  5
134F
100
AcDbEntity
  8
COTATION1
 62
     0
100
AcDbBlockReference
  2
_OPEN30
 10
16.958097
 20
49.768239
 30
0.0
 41
5.0
 42
5.0
 43
5.0
 50
90.0
1001
ACAD
1000
RTLwPs
1070
   158
  0
INSERT
  5
1350
100
AcDbEntity
  8
COTATION1
 62
     0
100
AcDbBlockReference
  2
_OPEN30
 10
16.958097
 20
65.778347
 30
0.0
 41
5.0
 42
5.0
 43
5.0
 50
270.0
1001
ACAD
1000
RTLwPs
1070
   158
  0
POINT
  5
1351
100
AcDbEntity
  8
DEFPOINTS
 62
     0
100
AcDbPoint
 10
48.334718
 20
49.768239
 30
0.0
1001
ACAD
1000
RTLwPs
1070
   128
  0
POINT
  5
1352
100
AcDbEntity
  8
DEFPOINTS
 62
     0
100
AcDbPoint
 10
55.836837
 20
65.778347
 30
0.0
1001
ACAD
1000
RTLwPs
1070
   128
  0
POINT
  5
1353
100
AcDbEntity
  8
DEFPOINTS
 62
     0
100
AcDbPoint
 10
16.958097
 20
65.778347
 30
0.0
1001
ACAD
1000
RTLwPs
1070
   128
  0
ENDBLK
  5
DE4
100
AcDbEntity
  8
0
100
AcDbBlockEnd
1001
ACAD
1000
RTLwPs
1070
   128
  0
BLOCK
  5
E2D
100
AcDbEntity
  8
0
100
AcDbBlockBegin
  2
*D3
 70
     1
 10
0.0
 20
0.0
 30
0.0
  3
*D3
  1

1001
ACAD
1000
RTLwPs
1070
   128
  0
LINE
  5
1354
100
AcDbEntity
  8
COTATION1
 62
     0
100
AcDbLine
 10
53.836837
 20
65.778347
 30
0.0
 11
14.458097
 21
65.778347
 31
0.0
1001
ACAD
1000
RTLwPs
1070
   158
  0
LINE
  5
1355
100
AcDbEntity
  8
COTATION1
 62
     0
100
AcDbLine
 10
53.836837
 20
139.75963
 30
0.0
 11
14.458097
 21
139.75963
 31
0.0
1001
ACAD
1000
RTLwPs
1070
   158
  0
LINE
  5
1356
100
AcDbEntity
  8
COTATION1
 62
     0
100
AcDbLine
 10
16.958097
 20
70.778347
 30
0.0
 11
16.958097
 21
100.948748
 31
0.0
1001
ACAD
1000
RTLwPs
1070
   158
  0
LINE
  5
1357
100
AcDbEntity
  8
COTATION1
 62
     0
100
AcDbLine
 10
16.958097
 20
134.75963
 30
0.0
 11
16.958097
 21
107.448748
 31
0.0
1001
ACAD
1000
RTLwPs
1070
   158
  0
MTEXT
  5
1358
100
AcDbEntity
  8
COTATION1
 62
     0
100
AcDbMText
 10
16.958097
 20
104.198748
 30
0.0
 40
2.5
 41
0.0
 71
     5
 72
     1
  1
\A1;74
  7
ROMANS
1001
ACAD
1000
MTEXTBEGIN
1070
    73
1070
     1
1070
    44
1040
1.0
1070
    74
1070
     0
1000
MTEXTEND
1000
MTEXTBEGIN
1070
    73
1070
     1
1070
    44
1040
1.0
1070
    74
1070
     0
1000
MTEXTEND
1000
MTEXTBEGIN
1070
    73
1070
     1
1070
    44
1040
1.0
1070
    74
1070
     0
1000
MTEXTEND
  0
INSERT
  5
1359
100
AcDbEntity
  8
COTATION1
 62
     0
100
AcDbBlockReference
  2
_OPEN30
 10
16.958097
 20
65.778347
 30
0.0
 41
5.0
 42
5.0
 43
5.0
 50
270.0
1001
ACAD
1000
RTLwPs
1070
   158
  0
INSERT
  5
135A
100
AcDbEntity
  8
COTATION1
 62
     0
100
AcDbBlockReference
  2
_OPEN30
 10
16.958097
 20
139.75963
 30
0.0
 41
5.0
 42
5.0
 43
5.0
 50
90.0
1001
ACAD
1000
RTLwPs
1070
   158
  0
POINT
  5
135B
100
AcDbEntity
  8
DEFPOINTS
 62
     0
100
AcDbPoint
 10
55.836837
 20
65.778347
 30
0.0
1001
ACAD
1000
RTLwPs
1070
   128
  0
POINT
  5
135C
100
AcDbEntity
  8
DEFPOINTS
 62
     0
100
AcDbPoint
 10
55.836837
 20
139.75963
 30
0.0
1001
ACAD
1000
RTLwPs
1070
   128
  0
POINT
  5
135D
100
AcDbEntity
  8
DEFPOINTS
 62
     0
100
AcDbPoint
 10
16.958097
 20
139.75963
 30
0.0
1001
ACAD
1000
RTLwPs
1070
   128
  0
ENDBLK
  5
E2E
100
AcDbEntity
  8
0
100
AcDbBlockEnd
1001
ACAD
1000
RTLwPs
1070
   128
  0
BLOCK
  5
F33
100
AcDbEntity
  8
0
100
AcDbBlockBegin
  2
*D4
 70
     1
 10
0.0
 20
0.0
 30
0.0
  3
*D4
  1

1001
ACAD
1000
RTLwPs
1070
   128
  0
LINE
  5
135E
100
AcDbEntity
  8
COTATION1
 62
     0
100
AcDbLine
 10
46.244606
 20
68.637865
 30
0.0
 11
127.45721
 21
68.637865
 31
0.0
1001
ACAD
1000
RTLwPs
1070
   158
  0
LINE
  5
135F
100
AcDbEntity
  8
COTATION1
 62
     0
100
AcDbLine
 10
85.58059
 20
49.768239
 30
0.0
 11
127.45721
 21
49.768239
 31
0.0
1001
ACAD
1000
RTLwPs
1070
   158
  0
LINE
  5
1360
100
AcDbEntity
  8
COTATION1
 62
     0
100
AcDbLine
 10
124.95721
 20
63.637865
 30
0.0
 11
124.95721
 21
62.028052
 31
0.0
1001
ACAD
1000
RTLwPs
1070
   158
  0
LINE
  5
1361
100
AcDbEntity
  8
COTATION1
 62
     0
100
AcDbLine
 10
124.95721
 20
54.768239
 30
0.0
 11
124.95721
 21
55.528052
 31
0.0
1001
ACAD
1000
RTLwPs
1070
   158
  0
MTEXT
  5
1362
100
AcDbEntity
  8
COTATION1
 62
     0
100
AcDbMText
 10
124.95721
 20
58.778052
 30
0.0
 40
2.5
 41
0.0
 71
     5
 72
     1
  1
\A1;=
  7
ROMANS
1001
ACAD
1000
MTEXTBEGIN
1070
    73
1070
     1
1070
    44
1040
1.0
1070
    74
1070
     0
1000
MTEXTEND
1000
MTEXTBEGIN
1070
    73
1070
     1
1070
    44
1040
1.0
1070
    74
1070
     0
1000
MTEXTEND
1000
MTEXTBEGIN
1070
    73
1070
     1
1070
    44
1040
1.0
1070
    74
1070
     0
1000
MTEXTEND
  0
INSERT
  5
1363
100
AcDbEntity
  8
COTATION1
 62
     0
100
AcDbBlockReference
  2
_OPEN30
 10
124.95721
 20
68.637865
 30
0.0
 41
5.0
 42
5.0
 43
5.0
 50
90.0
1001
ACAD
1000
RTLwPs
1070
   158
  0
INSERT
  5
1364
100
AcDbEntity
  8
COTATION1
 62
     0
100
AcDbBlockReference
  2
_OPEN30
 10
124.95721
 20
49.768239
 30
0.0
 41
5.0
 42
5.0
 43
5.0
 50
270.0
1001
ACAD
1000
RTLwPs
1070
   158
  0
POINT
  5
1365
100
AcDbEntity
  8
DEFPOINTS
 62
     0
100
AcDbPoint
 10
44.244606
 20
68.637865
 30
0.0
1001
ACAD
1000
RTLwPs
1070
   128
  0
POINT
  5
1366
100
AcDbEntity
  8
DEFPOINTS
 62
     0
100
AcDbPoint
 10
83.58059
 20
49.768239
 30
0.0
1001
ACAD
1000
RTLwPs
1070
   128
  0
POINT
  5
1367
100
AcDbEntity
  8
DEFPOINTS
 62
     0
100
AcDbPoint
 10
124.95721
 20
49.768239
 30
0.0
1001
ACAD
1000
RTLwPs
1070
   128
  0
ENDBLK
  5
F34
100
AcDbEntity
  8
0
100
AcDbBlockEnd
1001
ACAD
1000
RTLwPs
1070
   128
  0
BLOCK
  5
F40
100
AcDbEntity
  8
0
100
AcDbBlockBegin
  2
*D5
 70
     1
 10
0.0
 20
0.0
 30
0.0
  3
*D5
  1

1001
ACAD
1000
RTLwPs
1070
   128
  0
LINE
  5
1368
100
AcDbEntity
  8
COTATION1
 62
     0
100
AcDbLine
 10
85.58059
 20
155.768308
 30
0.0
 11
127.45721
 21
155.768308
 31
0.0
1001
ACAD
1000
RTLwPs
1070
   158
  0
LINE
  5
1369
100
AcDbEntity
  8
COTATION1
 62
     0
100
AcDbLine
 10
100.64978
 20
136.665398
 30
0.0
 11
127.45721
 21
136.665398
 31
0.0
1001
ACAD
1000
RTLwPs
1070
   158
  0
LINE
  5
136A
100
AcDbEntity
  8
COTATION1
 62
     0
100
AcDbLine
 10
124.95721
 20
150.768308
 30
0.0
 11
124.95721
 21
149.891853
 31
0.0
1001
ACAD
1000
RTLwPs
1070
   158
  0
LINE
  5
136B
100
AcDbEntity
  8
COTATION1
 62
     0
100
AcDbLine
 10
124.95721
 20
141.665398
 30
0.0
 11
124.95721
 21
143.391853
 31
0.0
1001
ACAD
1000
RTLwPs
1070
   158
  0
MTEXT
  5
136C
100
AcDbEntity
  8
COTATION1
 62
     0
100
AcDbMText
 10
124.95721
 20
146.641853
 30
0.0
 40
2.5
 41
0.0
 71
     5
 72
     1
  1
\A1;=
  7
ROMANS
1001
ACAD
1000
MTEXTBEGIN
1070
    73
1070
     1
1070
    44
1040
1.0
1070
    74
1070
     0
1000
MTEXTEND
1000
MTEXTBEGIN
1070
    73
1070
     1
1070
    44
1040
1.0
1070
    74
1070
     0
1000
MTEXTEND
1000
MTEXTBEGIN
1070
    73
1070
     1
1070
    44
1040
1.0
1070
    74
1070
     0
1000
MTEXTEND
  0
INSERT
  5
136D
100
AcDbEntity
  8
COTATION1
 62
     0
100
AcDbBlockReference
  2
_OPEN30
 10
124.95721
 20
155.768308
 30
0.0
 41
5.0
 42
5.0
 43
5.0
 50
90.0
1001
ACAD
1000
RTLwPs
1070
   158
  0
INSERT
  5
136E
100
AcDbEntity
  8
COTATION1
 62
     0
100
AcDbBlockReference
  2
_OPEN30
 10
124.95721
 20
136.665398
 30
0.0
 41
5.0
 42
5.0
 43
5.0
 50
270.0
1001
ACAD
1000
RTLwPs
1070
   158
  0
POINT
  5
136F
100
AcDbEntity
  8
DEFPOINTS
 62
     0
100
AcDbPoint
 10
83.58059
 20
155.768308
 30
0.0
1001
ACAD
1000
RTLwPs
1070
   128
  0
POINT
  5
1370
100
AcDbEntity
  8
DEFPOINTS
 62
     0
100
AcDbPoint
 10
98.64978
 20
136.665398
 30
0.0
1001
ACAD
1000
RTLwPs
1070
   128
  0
POINT
  5
1371
100
AcDbEntity
  8
DEFPOINTS
 62
     0
100
AcDbPoint
 10
124.95721
 20
136.665398
 30
0.0
1001
ACAD
1000
RTLwPs
1070
   128
  0
ENDBLK
  5
F41
100
AcDbEntity
  8
0
100
AcDbBlockEnd
1001
ACAD
1000
RTLwPs
1070
   128
  0
BLOCK
  5
F4D
100
AcDbEntity
  8
0
100
AcDbBlockBegin
  2
*D6
 70
     1
 10
0.0
 20
0.0
 30
0.0
  3
*D6
  1

1001
ACAD
1000
RTLwPs
1070
   128
  0
LINE
  5
1372
100
AcDbEntity
  8
COTATION1
 62
     0
100
AcDbLine
 10
100.64978
 20
136.665398
 30
0.0
 11
127.45721
 21
136.665398
 31
0.0
1001
ACAD
1000
RTLwPs
1070
   158
  0
LINE
  5
1373
100
AcDbEntity
  8
COTATION1
 62
     0
100
AcDbLine
 10
46.244606
 20
68.637865
 30
0.0
 11
127.45721
 21
68.637865
 31
0.0
1001
ACAD
1000
RTLwPs
1070
   158
  0
LINE
  5
1374
100
AcDbEntity
  8
COTATION1
 62
     0
100
AcDbLine
 10
124.95721
 20
131.665398
 30
0.0
 11
124.95721
 21
105.901631
 31
0.0
1001
ACAD
1000
RTLwPs
1070
   158
  0
LINE
  5
1375
100
AcDbEntity
  8
COTATION1
 62
     0
100
AcDbLine
 10
124.95721
 20
73.637865
 30
0.0
 11
124.95721
 21
99.401631
 31
0.0
1001
ACAD
1000
RTLwPs
1070
   158
  0
MTEXT
  5
1376
100
AcDbEntity
  8
COTATION1
 62
     0
100
AcDbMText
 10
124.95721
 20
102.651631
 30
0.0
 40
2.5
 41
0.0
 71
     5
 72
     1
  1
\A1;68
  7
ROMANS
1001
ACAD
1000
MTEXTBEGIN
1070
    73
1070
     1
1070
    44
1040
1.0
1070
    74
1070
     0
1000
MTEXTEND
1000
MTEXTBEGIN
1070
    73
1070
     1
1070
    44
1040
1.0
1070
    74
1070
     0
1000
MTEXTEND
1000
MTEXTBEGIN
1070
    73
1070
     1
1070
    44
1040
1.0
1070
    74
1070
     0
1000
MTEXTEND
  0
INSERT
  5
1377
100
AcDbEntity
  8
COTATION1
 62
     0
100
AcDbBlockReference
  2
_OPEN30
 10
124.95721
 20
136.665398
 30
0.0
 41
5.0
 42
5.0
 43
5.0
 50
90.0
1001
ACAD
1000
RTLwPs
1070
   158
  0
INSERT
  5
1378
100
AcDbEntity
  8
COTATION1
 62
     0
100
AcDbBlockReference
  2
_OPEN30
 10
124.95721
 20
68.637865
 30
0.0
 41
5.0
 42
5.0
 43
5.0
 50
270.0
1001
ACAD
1000
RTLwPs
1070
   158
  0
POINT
  5
1379
100
AcDbEntity
  8
DEFPOINTS
 62
     0
100
AcDbPoint
 10
98.64978
 20
136.665398
 30
0.0
1001
ACAD
1000
RTLwPs
1070
   128
  0
POINT
  5
137A
100
AcDbEntity
  8
DEFPOINTS
 62
     0
100
AcDbPoint
 10
44.244606
 20
68.637865
 30
0.0
1001
ACAD
1000
RTLwPs
1070
   128
  0
POINT
  5
137B
100
AcDbEntity
  8
DEFPOINTS
 62
     0
100
AcDbPoint
 10
124.95721
 20
68.637865
 30
0.0
1001
ACAD
1000
RTLwPs
1070
   128
  0
ENDBLK
  5
F4E
100
AcDbEntity
  8
0
100
AcDbBlockEnd
1001
ACAD
1000
RTLwPs
1070
   128
  0
BLOCK
  5
119F
100
AcDbEntity
  8
0
100
AcDbBlockBegin
  2
*D7
 70
     1
 10
0.0
 20
0.0
 30
0.0
  3
*D7
  1

1001
ACAD
1000
RTLwPs
1070
   128
  0
LINE
  5
1399
100
AcDbEntity
  8
COTATION1
 62
     0
100
AcDbLine
 10
39.031034
 20
60.42821
 30
0.0
 11
39.031034
 21
21.861011
 31
0.0
1001
ACAD
1000
RTLwPs
1070
   158
  0
LINE
  5
139A
100
AcDbEntity
  8
COTATION1
 62
     0
100
AcDbLine
 10
65.961773
 20
32.361011
 30
0.0
 11
65.961773
 21
21.861011
 31
0.0
1001
ACAD
1000
RTLwPs
1070
   158
  0
LINE
  5
139B
100
AcDbEntity
  8
COTATION1
 62
     0
100
AcDbLine
 10
44.031034
 20
24.361011
 30
0.0
 11
60.961773
 21
24.361011
 31
0.0
1001
ACAD
1000
RTLwPs
1070
   158
  0
INSERT
  5
139C
100
AcDbEntity
  8
COTATION1
 62
     0
100
AcDbBlockReference
  2
_OPEN30
 10
39.031034
 20
24.361011
 30
0.0
 41
5.0
 42
5.0
 43
5.0
 50
180.0
1001
ACAD
1000
RTLwPs
1070
   158
  0
INSERT
  5
139D
100
AcDbEntity
  8
COTATION1
 62
     0
100
AcDbBlockReference
  2
_OPEN30
 10
65.961773
 20
24.361011
 30
0.0
 41
5.0
 42
5.0
 43
5.0
1001
ACAD
1000
RTLwPs
1070
   158
  0
MTEXT
  5
139E
100
AcDbEntity
  8
COTATION1
 62
     0
100
AcDbMText
 10
52.496403
 20
27.611011
 30
0.0
 40
2.5
 41
0.0
 71
     5
 72
     1
  1
\A1;=
  7
ROMANS
1001
ACAD
1000
MTEXTBEGIN
1070
    73
1070
     1
1070
    44
1040
1.0
1070
    74
1070
     0
1000
MTEXTEND
1000
MTEXTBEGIN
1070
    73
1070
     1
1070
    44
1040
1.0
1070
    74
1070
     0
1000
MTEXTEND
1000
MTEXTBEGIN
1070
    73
1070
     1
1070
    44
1040
1.0
1070
    74
1070
     0
1000
MTEXTEND
  0
POINT
  5
139F
100
AcDbEntity
  8
DEFPOINTS
 62
     0
100
AcDbPoint
 10
39.031034
 20
62.42821
 30
0.0
1001
ACAD
1000
RTLwPs
1070
   128
  0
POINT
  5
13A0
100
AcDbEntity
  8
DEFPOINTS
 62
     0
100
AcDbPoint
 10
65.961773
 20
34.361011
 30
0.0
1001
ACAD
1000
RTLwPs
1070
   128
  0
POINT
  5
13A1
100
AcDbEntity
  8
DEFPOINTS
 62
     0
100
AcDbPoint
 10
65.961773
 20
24.361011
 30
0.0
1001
ACAD
1000
RTLwPs
1070
   128
  0
ENDBLK
  5
11A0
100
AcDbEntity
  8
0
100
AcDbBlockEnd
1001
ACAD
1000
RTLwPs
1070
   128
  0
BLOCK
  5
11AB
100
AcDbEntity
  8
0
100
AcDbBlockBegin
  2
*D8
 70
     1
 10
0.0
 20
0.0
 30
0.0
  3
*D8
  1

1001
ACAD
1000
RTLwPs
1070
   128
  0
LINE
  5
13A2
100
AcDbEntity
  8
COTATION1
 62
     0
100
AcDbLine
 10
65.961773
 20
32.361011
 30
0.0
 11
65.961773
 21
21.861011
 31
0.0
1001
ACAD
1000
RTLwPs
1070
   158
  0
LINE
  5
13A3
100
AcDbEntity
  8
COTATION1
 62
     0
100
AcDbLine
 10
93.042992
 20
129.451826
 30
0.0
 11
93.042992
 21
21.861011
 31
0.0
1001
ACAD
1000
RTLwPs
1070
   158
  0
LINE
  5
13A4
100
AcDbEntity
  8
COTATION1
 62
     0
100
AcDbLine
 10
70.961773
 20
24.361011
 30
0.0
 11
88.042992
 21
24.361011
 31
0.0
1001
ACAD
1000
RTLwPs
1070
   158
  0
INSERT
  5
13A5
100
AcDbEntity
  8
COTATION1
 62
     0
100
AcDbBlockReference
  2
_OPEN30
 10
65.961773
 20
24.361011
 30
0.0
 41
5.0
 42
5.0
 43
5.0
 50
180.0
1001
ACAD
1000
RTLwPs
1070
   158
  0
INSERT
  5
13A6
100
AcDbEntity
  8
COTATION1
 62
     0
100
AcDbBlockReference
  2
_OPEN30
 10
93.042992
 20
24.361011
 30
0.0
 41
5.0
 42
5.0
 43
5.0
1001
ACAD
1000
RTLwPs
1070
   158
  0
MTEXT
  5
13A7
100
AcDbEntity
  8
COTATION1
 62
     0
100
AcDbMText
 10
79.502383
 20
27.611011
 30
0.0
 40
2.5
 41
0.0
 71
     5
 72
     1
  1
\A1;=
  7
ROMANS
1001
ACAD
1000
MTEXTBEGIN
1070
    73
1070
     1
1070
    44
1040
1.0
1070
    74
1070
     0
1000
MTEXTEND
1000
MTEXTBEGIN
1070
    73
1070
     1
1070
    44
1040
1.0
1070
    74
1070
     0
1000
MTEXTEND
1000
MTEXTBEGIN
1070
    73
1070
     1
1070
    44
1040
1.0
1070
    74
1070
     0
1000
MTEXTEND
  0
POINT
  5
13A8
100
AcDbEntity
  8
DEFPOINTS
 62
     0
100
AcDbPoint
 10
65.961773
 20
34.361011
 30
0.0
1001
ACAD
1000
RTLwPs
1070
   128
  0
POINT
  5
13A9
100
AcDbEntity
  8
DEFPOINTS
 62
     0
100
AcDbPoint
 10
93.042992
 20
131.451826
 30
0.0
1001
ACAD
1000
RTLwPs
1070
   128
  0
POINT
  5
13AA
100
AcDbEntity
  8
DEFPOINTS
 62
     0
100
AcDbPoint
 10
93.042992
 20
24.361011
 30
0.0
1001
ACAD
1000
RTLwPs
1070
   128
  0
ENDBLK
  5
11AC
100
AcDbEntity
  8
0
100
AcDbBlockEnd
1001
ACAD
1000
RTLwPs
1070
   128
  0
BLOCK
  5
11B8
100
AcDbEntity
  8
0
100
AcDbBlockBegin
  2
*D9
 70
     1
 10
0.0
 20
0.0
 30
0.0
  3
*D9
  1

1001
ACAD
1000
RTLwPs
1070
   128
  0
LINE
  5
1385
100
AcDbEntity
  8
COTATION1
 62
     0
100
AcDbLine
 10
31.958097
 20
54.917506
 30
0.0
 11
31.958097
 21
11.861011
 31
0.0
1001
ACAD
1000
RTLwPs
1070
   158
  0
LINE
  5
1386
100
AcDbEntity
  8
COTATION1
 62
     0
100
AcDbLine
 10
39.031034
 20
60.42821
 30
0.0
 11
39.031034
 21
11.861011
 31
0.0
1001
ACAD
1000
RTLwPs
1070
   158
  0
LINE
  5
1387
100
AcDbEntity
  8
COTATION1
 62
     0
100
AcDbLine
 10
26.958097
 20
14.361011
 30
0.0
 11
21.958097
 21
14.361011
 31
0.0
1001
ACAD
1000
RTLwPs
1070
   158
  0
LINE
  5
1388
100
AcDbEntity
  8
COTATION1
 62
     0
100
AcDbLine
 10
44.031034
 20
14.361011
 30
0.0
 11
49.031034
 21
14.361011
 31
0.0
1001
ACAD
1000
RTLwPs
1070
   158
  0
MTEXT
  5
1389
100
AcDbEntity
  8
COTATION1
 62
     0
100
AcDbMText
 10
35.318612
 20
17.485797
 30
0.0
 40
2.5
 41
0.0
 71
     5
 72
     1
  1
\A1;=
  7
ROMANS
1001
ACAD
1000
MTEXTBEGIN
1070
    73
1070
     1
1070
    44
1040
1.0
1070
    74
1070
     0
1000
MTEXTEND
1000
MTEXTBEGIN
1070
    73
1070
     1
1070
    44
1040
1.0
1070
    74
1070
     0
1000
MTEXTEND
1000
MTEXTBEGIN
1070
    73
1070
     1
1070
    44
1040
1.0
1070
    74
1070
     0
1000
MTEXTEND
  0
INSERT
  5
138A
100
AcDbEntity
  8
COTATION1
 62
     0
100
AcDbBlockReference
  2
_OPEN30
 10
31.958097
 20
14.361011
 30
0.0
 41
5.0
 42
5.0
 43
5.0
1001
ACAD
1000
RTLwPs
1070
   158
  0
INSERT
  5
138B
100
AcDbEntity
  8
COTATION1
 62
     0
100
AcDbBlockReference
  2
_OPEN30
 10
39.031034
 20
14.361011
 30
0.0
 41
5.0
 42
5.0
 43
5.0
 50
180.0
1001
ACAD
1000
RTLwPs
1070
   158
  0
POINT
  5
138C
100
AcDbEntity
  8
DEFPOINTS
 62
     0
100
AcDbPoint
 10
31.958097
 20
56.917506
 30
0.0
1001
ACAD
1000
RTLwPs
1070
   128
  0
POINT
  5
138D
100
AcDbEntity
  8
DEFPOINTS
 62
     0
100
AcDbPoint
 10
39.031034
 20
62.42821
 30
0.0
1001
ACAD
1000
RTLwPs
1070
   128
  0
POINT
  5
138E
100
AcDbEntity
  8
DEFPOINTS
 62
     0
100
AcDbPoint
 10
39.031034
 20
14.361011
 30
0.0
1001
ACAD
1000
RTLwPs
1070
   128
  0
ENDBLK
  5
11B9
100
AcDbEntity
  8
0
100
AcDbBlockEnd
1001
ACAD
1000
RTLwPs
1070
   128
  0
BLOCK
  5
11C5
100
AcDbEntity
  8
0
100
AcDbBlockBegin
  2
*D10
 70
     1
 10
0.0
 20
0.0
 30
0.0
  3
*D10
  1

1001
ACAD
1000
RTLwPs
1070
   128
  0
LINE
  5
138F
100
AcDbEntity
  8
COTATION1
 62
     0
100
AcDbLine
 10
93.042992
 20
129.451826
 30
0.0
 11
93.042992
 21
11.861011
 31
0.0
1001
ACAD
1000
RTLwPs
1070
   158
  0
LINE
  5
1390
100
AcDbEntity
  8
COTATION1
 62
     0
100
AcDbLine
 10
99.95721
 20
54.917506
 30
0.0
 11
99.95721
 21
11.861011
 31
0.0
1001
ACAD
1000
RTLwPs
1070
   158
  0
LINE
  5
1391
100
AcDbEntity
  8
COTATION1
 62
     0
100
AcDbLine
 10
88.042992
 20
14.361011
 30
0.0
 11
83.042992
 21
14.361011
 31
0.0
1001
ACAD
1000
RTLwPs
1070
   158
  0
LINE
  5
1392
100
AcDbEntity
  8
COTATION1
 62
     0
100
AcDbLine
 10
104.95721
 20
14.361011
 30
0.0
 11
109.95721
 21
14.361011
 31
0.0
1001
ACAD
1000
RTLwPs
1070
   158
  0
MTEXT
  5
1393
100
AcDbEntity
  8
COTATION1
 62
     0
100
AcDbMText
 10
96.399385
 20
17.456943
 30
0.0
 40
2.5
 41
0.0
 71
     5
 72
     1
  1
\A1;=
  7
ROMANS
1001
ACAD
1000
MTEXTBEGIN
1070
    73
1070
     1
1070
    44
1040
1.0
1070
    74
1070
     0
1000
MTEXTEND
1000
MTEXTBEGIN
1070
    73
1070
     1
1070
    44
1040
1.0
1070
    74
1070
     0
1000
MTEXTEND
1000
MTEXTBEGIN
1070
    73
1070
     1
1070
    44
1040
1.0
1070
    74
1070
     0
1000
MTEXTEND
  0
INSERT
  5
1394
100
AcDbEntity
  8
COTATION1
 62
     0
100
AcDbBlockReference
  2
_OPEN30
 10
93.042992
 20
14.361011
 30
0.0
 41
5.0
 42
5.0
 43
5.0
1001
ACAD
1000
RTLwPs
1070
   158
  0
INSERT
  5
1395
100
AcDbEntity
  8
COTATION1
 62
     0
100
AcDbBlockReference
  2
_OPEN30
 10
99.95721
 20
14.361011
 30
0.0
 41
5.0
 42
5.0
 43
5.0
 50
180.0
1001
ACAD
1000
RTLwPs
1070
   158
  0
POINT
  5
1396
100
AcDbEntity
  8
DEFPOINTS
 62
     0
100
AcDbPoint
 10
93.042992
 20
131.451826
 30
0.0
1001
ACAD
1000
RTLwPs
1070
   128
  0
POINT
  5
1397
100
AcDbEntity
  8
DEFPOINTS
 62
     0
100
AcDbPoint
 10
99.95721
 20
56.917506
 30
0.0
1001
ACAD
1000
RTLwPs
1070
   128
  0
POINT
  5
1398
100
AcDbEntity
  8
DEFPOINTS
 62
     0
100
AcDbPoint
 10
99.95721
 20
14.361011
 30
0.0
1001
ACAD
1000
RTLwPs
1070
   128
  0
ENDBLK
  5
11C6
100
AcDbEntity
  8
0
100
AcDbBlockEnd
1001
ACAD
1000
RTLwPs
1070
   128
  0
BLOCK
  5
11D1
100
AcDbEntity
  8
0
100
AcDbBlockBegin
  2
*D11
 70
     1
 10
0.0
 20
0.0
 30
0.0
  3
*D11
  1

1001
ACAD
1000
RTLwPs
1070
   128
  0
LINE
  5
137C
100
AcDbEntity
  8
COTATION1
 62
     0
100
AcDbLine
 10
39.031034
 20
60.42821
 30
0.0
 11
39.031034
 21
11.861011
 31
0.0
1001
ACAD
1000
RTLwPs
1070
   158
  0
LINE
  5
137D
100
AcDbEntity
  8
COTATION1
 62
     0
100
AcDbLine
 10
93.042992
 20
129.451826
 30
0.0
 11
93.042992
 21
11.861011
 31
0.0
1001
ACAD
1000
RTLwPs
1070
   158
  0
LINE
  5
137E
100
AcDbEntity
  8
COTATION1
 62
     0
100
AcDbLine
 10
44.031034
 20
14.361011
 30
0.0
 11
88.042992
 21
14.361011
 31
0.0
1001
ACAD
1000
RTLwPs
1070
   158
  0
INSERT
  5
137F
100
AcDbEntity
  8
COTATION1
 62
     0
100
AcDbBlockReference
  2
_OPEN30
 10
39.031034
 20
14.361011
 30
0.0
 41
5.0
 42
5.0
 43
5.0
 50
180.0
1001
ACAD
1000
RTLwPs
1070
   158
  0
INSERT
  5
1380
100
AcDbEntity
  8
COTATION1
 62
     0
100
AcDbBlockReference
  2
_OPEN30
 10
93.042992
 20
14.361011
 30
0.0
 41
5.0
 42
5.0
 43
5.0
1001
ACAD
1000
RTLwPs
1070
   158
  0
MTEXT
  5
1381
100
AcDbEntity
  8
COTATION1
 62
     0
100
AcDbMText
 10
66.037013
 20
17.611011
 30
0.0
 40
2.5
 41
0.0
 71
     5
 72
     1
  1
\A1;54
  7
ROMANS
1001
ACAD
1000
MTEXTBEGIN
1070
    73
1070
     1
1070
    44
1040
1.0
1070
    74
1070
     0
1000
MTEXTEND
1000
MTEXTBEGIN
1070
    73
1070
     1
1070
    44
1040
1.0
1070
    74
1070
     0
1000
MTEXTEND
1000
MTEXTBEGIN
1070
    73
1070
     1
1070
    44
1040
1.0
1070
    74
1070
     0
1000
MTEXTEND
  0
POINT
  5
1382
100
AcDbEntity
  8
DEFPOINTS
 62
     0
100
AcDbPoint
 10
39.031034
 20
62.42821
 30
0.0
1001
ACAD
1000
RTLwPs
1070
   128
  0
POINT
  5
1383
100
AcDbEntity
  8
DEFPOINTS
 62
     0
100
AcDbPoint
 10
93.042992
 20
131.451826
 30
0.0
1001
ACAD
1000
RTLwPs
1070
   128
  0
POINT
  5
1384
100
AcDbEntity
  8
DEFPOINTS
 62
     0
100
AcDbPoint
 10
93.042992
 20
14.361011
 30
0.0
1001
ACAD
1000
RTLwPs
1070
   128
  0
ENDBLK
  5
11D2
100
AcDbEntity
  8
0
100
AcDbBlockEnd
1001
ACAD
1000
RTLwPs
1070
   128
  0
ENDSEC
  0
SECTION
  2
ENTITIES
  0
CIRCLE
  5
9D
100
AcDbEntity
  8
ALPHA
100
AcDbCircle
 10
41.11389
 20
145.97635
 30
0.0
 40
2.094546
  0
CIRCLE
  5
9C
100
AcDbEntity
  8
ALPHA
100
AcDbCircle
 10
90.731766
 20
145.97635
 30
0.0
 40
2.094546
  0
CIRCLE
  5
9B
100
AcDbEntity
  8
ALPHA
100
AcDbCircle
 10
41.11389
 20
59.592399
 30
0.0
 40
2.094785
  0
CIRCLE
  5
9A
100
AcDbEntity
  8
ALPHA
100
AcDbCircle
 10
90.731766
 20
59.592399
 30
0.0
 40
2.094785
  0
CIRCLE
  5
97
100
AcDbEntity
  8
POINTILLE_COURT
100
AcDbCircle
 10
65.961773
 20
65.777871
 30
0.0
 40
7.124936
  0
CIRCLE
  5
96
100
AcDbEntity
  8
POINTILLE_COURT
100
AcDbCircle
 10
65.961773
 20
139.759154
 30
0.0
 40
7.124936
  0
SPLINE
  5
268
100
AcDbEntity
  8
ALPHA
100
AcDbSpline
210
-0.195306973555007
220
0.9807421608561467
230
0.0
 70
    24
 71
     3
 72
     8
 73
     4
 74
     0
 42
0.0000001
 43
0.0000001
 40
0.0
 40
0.0
 40
0.0
 40
0.0
 40
1.0
 40
1.0
 40
1.0
 40
1.0
 10
83.58059004551291
 20
49.76823910365283
 30
0.0
 10
83.58059004551291
 20
49.76823910365283
 30
0.0
 10
96.25806333783049
 20
52.29285672474657
 30
0.0
 10
96.25806333783049
 20
52.29285672474657
 30
0.0
  0
SPLINE
  5
269
100
AcDbEntity
  8
ALPHA
100
AcDbSpline
210
0.0
220
0.0
230
1.0
 70
     8
 71
     3
 72
     8
 73
     4
 74
     0
 42
0.0000001
 43
0.0000001
 40
1.0
 40
1.0
 40
1.0
 40
1.0
 40
2.0
 40
2.0
 40
2.0
 40
2.0
 10
96.25806333783049
 20
52.29285672474657
 30
0.0
 10
98.36572785974897
 20
52.7813692803021
 30
0.0
 10
99.95721016964466
 20
54.66290592005908
 30
0.0
 10
99.95721016964466
 20
56.91750585907806
 30
0.0
  0
SPLINE
  5
26A
100
AcDbEntity
  8
ALPHA
100
AcDbSpline
210
-1.0
220
0.0
230
0.0
 70
    24
 71
     3
 72
     8
 73
     4
 74
     0
 42
0.0000001
 43
0.0000001
 40
2.0
 40
2.0
 40
2.0
 40
2.0
 40
3.0
 40
3.0
 40
3.0
 40
3.0
 10
99.95721016964466
 20
56.91750585907806
 30
0.0
 10
99.95721016964466
 20
56.91750585907806
 30
0.0
 10
99.95721016964466
 20
148.619040958145
 30
0.0
 10
99.95721016964466
 20
148.619040958145
 30
0.0
  0
SPLINE
  5
26B
100
AcDbEntity
  8
ALPHA
100
AcDbSpline
210
0.0
220
0.0
230
1.0
 70
     8
 71
     3
 72
     8
 73
     4
 74
     0
 42
0.0000001
 43
0.0000001
 40
3.0
 40
3.0
 40
3.0
 40
3.0
 40
4.0
 40
4.0
 40
4.0
 40
4.0
 10
99.95721016964466
 20
148.619040958145
 30
0.0
 10
99.95721016964466
 20
150.8750720862916
 30
0.0
 10
98.36572785974897
 20
152.756131663006
 30
0.0
 10
96.25806333783049
 20
153.2436900924765
 30
0.0
  0
SPLINE
  5
26C
100
AcDbEntity
  8
ALPHA
100
AcDbSpline
210
0.1953069735550112
220
0.9807421608561458
230
0.0
 70
    24
 71
     3
 72
     8
 73
     4
 74
     0
 42
0.0000001
 43
0.0000001
 40
4.0
 40
4.0
 40
4.0
 40
4.0
 40
5.0
 40
5.0
 40
5.0
 40
5.0
 10
96.25806333783049
 20
153.2436900924765
 30
0.0
 10
96.25806333783049
 20
153.2436900924765
 30
0.0
 10
83.58059004551291
 20
155.7683077135703
 30
0.0
 10
83.58059004551291
 20
155.7683077135703
 30
0.0
  0
SPLINE
  5
26D
100
AcDbEntity
  8
ALPHA
100
AcDbSpline
210
0.0
220
1.0
230
0.0
 70
    24
 71
     3
 72
     8
 73
     4
 74
     0
 42
0.0000001
 43
0.0000001
 40
5.0
 40
5.0
 40
5.0
 40
5.0
 40
6.0
 40
6.0
 40
6.0
 40
6.0
 10
83.58059004551291
 20
155.7683077135703
 30
0.0
 10
83.58059004551291
 20
155.7683077135703
 30
0.0
 10
48.33471757480964
 20
155.7683077135703
 30
0.0
 10
48.33471757480964
 20
155.7683077135703
 30
0.0
  0
SPLINE
  5
26E
100
AcDbEntity
  8
ALPHA
100
AcDbSpline
210
-0.1952928361502646
220
0.9807449761015275
230
0.0
 70
    24
 71
     3
 72
     8
 73
     4
 74
     0
 42
0.0000001
 43
0.0000001
 40
6.0
 40
6.0
 40
6.0
 40
6.0
 40
7.0
 40
7.0
 40
7.0
 40
7.0
 10
48.33471757480964
 20
155.7683077135703
 30
0.0
 10
48.33471757480964
 20
155.7683077135703
 30
0.0
 10
35.65629015640699
 20
153.2436900924765
 30
0.0
 10
35.65629015640699
 20
153.2436900924765
 30
0.0
  0
SPLINE
  5
26F
100
AcDbEntity
  8
ALPHA
100
AcDbSpline
210
0.0
220
0.0
230
-1.0
 70
     8
 71
     3
 72
     8
 73
     4
 74
     0
 42
0.0000001
 43
0.0000001
 40
7.0
 40
7.0
 40
7.0
 40
7.0
 40
8.0
 40
8.0
 40
8.0
 40
8.0
 10
35.65629015640699
 20
153.2436900924765
 30
0.0
 10
33.54957976057362
 20
152.756131663006
 30
0.0
 10
31.95809745067764
 20
150.8750720862916
 30
0.0
 10
31.95809745067764
 20
148.619040958145
 30
0.0
  0
SPLINE
  5
270
100
AcDbEntity
  8
ALPHA
100
AcDbSpline
210
-1.0
220
0.0
230
0.0
 70
    24
 71
     3
 72
     8
 73
     4
 74
     0
 42
0.0000001
 43
0.0000001
 40
8.0
 40
8.0
 40
8.0
 40
8.0
 40
9.0
 40
9.0
 40
9.0
 40
9.0
 10
31.95809745067764
 20
148.619040958145
 30
0.0
 10
31.95809745067764
 20
148.619040958145
 30
0.0
 10
31.95809745067764
 20
56.91750585907806
 30
0.0
 10
31.95809745067764
 20
56.91750585907806
 30
0.0
  0
SPLINE
  5
271
100
AcDbEntity
  8
ALPHA
100
AcDbSpline
210
0.0
220
0.0
230
-1.0
 70
     8
 71
     3
 72
     8
 73
     4
 74
     0
 42
0.0000001
 43
0.0000001
 40
9.0
 40
9.0
 40
9.0
 40
9.0
 40
10.0
 40
10.0
 40
10.0
 40
10.0
 10
31.95809745067764
 20
56.91750585907806
 30
0.0
 10
31.95809745067764
 20
54.66290592005908
 30
0.0
 10
33.54957976057362
 20
52.7813692803021
 30
0.0
 10
35.65629015640699
 20
52.29285672474657
 30
0.0
  0
SPLINE
  5
272
100
AcDbEntity
  8
ALPHA
100
AcDbSpline
210
0.1952928361502604
220
0.9807449761015284
230
0.0
 70
    24
 71
     3
 72
     8
 73
     4
 74
     0
 42
0.0000001
 43
0.0000001
 40
10.0
 40
10.0
 40
10.0
 40
10.0
 40
11.0
 40
11.0
 40
11.0
 40
11.0
 10
35.65629015640699
 20
52.29285672474657
 30
0.0
 10
35.65629015640699
 20
52.29285672474657
 30
0.0
 10
48.33471757480964
 20
49.76823910365283
 30
0.0
 10
48.33471757480964
 20
49.76823910365283
 30
0.0
  0
SPLINE
  5
273
100
AcDbEntity
  8
ALPHA
100
AcDbSpline
210
0.0
220
1.0
230
0.0
 70
    24
 71
     3
 72
     8
 73
     4
 74
     0
 42
0.0000001
 43
0.0000001
 40
11.0
 40
11.0
 40
11.0
 40
11.0
 40
12.0
 40
12.0
 40
12.0
 40
12.0
 10
48.33471757480964
 20
49.76823910365283
 30
0.0
 10
48.33471757480964
 20
49.76823910365283
 30
0.0
 10
83.58059004551291
 20
49.76823910365283
 30
0.0
 10
83.58059004551291
 20
49.76823910365283
 30
0.0
  0
SPLINE
  5
274
100
AcDbEntity
  8
ALPHA
100
AcDbSpline
210
0.0
220
0.0
230
1.0
 70
     8
 71
     3
 72
    11
 73
     7
 74
     0
 42
0.0000001
 43
0.0000001
 40
0.0
 40
0.0
 40
0.0
 40
0.0
 40
1.0
 40
1.0
 40
1.0
 40
2.0
 40
2.0
 40
2.0
 40
2.0
 10
95.35913125818641
 20
138.880402349638
 30
0.0
 10
95.90870788318644
 20
138.3036331312134
 30
0.0
 10
96.2502850216412
 20
137.5250662457968
 30
0.0
 10
96.2502850216412
 20
136.6653986431492
 30
0.0
 10
96.2502850216412
 20
135.8066851665868
 30
0.0
 10
95.90870788318644
 20
135.0276412181275
 30
0.0
 10
95.35913125818641
 20
134.4513490627456
 30
0.0
  0
SPLINE
  5
275
100
AcDbEntity
  8
ALPHA
100
AcDbSpline
210
0.0
220
1.0
230
0.0
 70
    24
 71
     3
 72
     8
 73
     4
 74
     0
 42
0.0000001
 43
0.0000001
 40
2.0
 40
2.0
 40
2.0
 40
2.0
 40
3.0
 40
3.0
 40
3.0
 40
3.0
 10
95.35913125818641
 20
134.4513490627456
 30
0.0
 10
95.35913125818641
 20
134.4513490627456
 30
0.0
 10
90.7287573673444
 20
134.4513490627456
 30
0.0
 10
90.7287573673444
 20
134.4513490627456
 30
0.0
  0
SPLINE
  5
276
100
AcDbEntity
  8
ALPHA
100
AcDbSpline
210
0.0
220
0.0
230
-1.0
 70
     8
 71
     3
 72
    11
 73
     7
 74
     0
 42
0.0000001
 43
0.0000001
 40
3.0
 40
3.0
 40
3.0
 40
3.0
 40
4.0
 40
4.0
 40
4.0
 40
5.0
 40
5.0
 40
5.0
 40
5.0
 10
90.7287573673444
 20
134.4513490627456
 30
0.0
 10
90.17822661625936
 20
135.0276412181275
 30
0.0
 10
89.83760360388956
 20
135.8066851665868
 30
0.0
 10
89.83760360388956
 20
136.6653986431492
 30
0.0
 10
89.83760360388956
 20
137.5250662457968
 30
0.0
 10
90.17822661625936
 20
138.3036331312134
 30
0.0
 10
90.7287573673444
 20
138.880402349638
 30
0.0
  0
SPLINE
  5
277
100
AcDbEntity
  8
ALPHA
100
AcDbSpline
210
0.0
220
1.0
230
0.0
 70
    24
 71
     3
 72
     8
 73
     4
 74
     0
 42
0.0000001
 43
0.0000001
 40
5.0
 40
5.0
 40
5.0
 40
5.0
 40
6.0
 40
6.0
 40
6.0
 40
6.0
 10
90.7287573673444
 20
138.880402349638
 30
0.0
 10
90.7287573673444
 20
138.880402349638
 30
0.0
 10
95.35913125818641
 20
138.880402349638
 30
0.0
 10
95.35913125818641
 20
138.880402349638
 30
0.0
  0
SPLINE
  5
278
100
AcDbEntity
  8
ALPHA
100
AcDbSpline
210
0.0
220
0.0
230
1.0
 70
     8
 71
     3
 72
    11
 73
     7
 74
     0
 42
0.0000001
 43
0.0000001
 40
0.0
 40
0.0
 40
0.0
 40
0.0
 40
1.0
 40
1.0
 40
1.0
 40
2.0
 40
2.0
 40
2.0
 40
2.0
 10
41.2446066366587
 20
66.31456732913012
 30
0.0
 10
40.66926860736173
 20
65.76403657804513
 30
0.0
 10
39.88974759585993
 20
65.42341356567539
 30
0.0
 10
39.03103411929741
 20
65.42341356567539
 30
0.0
 10
38.17136651664997
 20
65.42341356567539
 30
0.0
 10
37.39279963123333
 20
65.76403657804513
 30
0.0
 10
36.81746160193641
 20
66.31456732913012
 30
0.0
  0
SPLINE
  5
279
100
AcDbEntity
  8
ALPHA
100
AcDbSpline
210
-1.0
220
0.0
230
0.0
 70
    24
 71
     3
 72
     8
 73
     4
 74
     0
 42
0.0000001
 43
0.0000001
 40
2.0
 40
2.0
 40
2.0
 40
2.0
 40
3.0
 40
3.0
 40
3.0
 40
3.0
 10
36.81746160193641
 20
66.31456732913012
 30
0.0
 10
36.81746160193641
 20
66.31456732913012
 30
0.0
 10
36.81746160193641
 20
70.94494121997223
 30
0.0
 10
36.81746160193641
 20
70.94494121997223
 30
0.0
  0
SPLINE
  5
27A
100
AcDbEntity
  8
ALPHA
100
AcDbSpline
210
0.0
220
0.0
230
-1.0
 70
     8
 71
     3
 72
    11
 73
     7
 74
     0
 42
0.0000001
 43
0.0000001
 40
3.0
 40
3.0
 40
3.0
 40
3.0
 40
4.0
 40
4.0
 40
4.0
 40
5.0
 40
5.0
 40
5.0
 40
5.0
 10
36.81746160193641
 20
70.94494121997223
 30
0.0
 10
37.39279963123333
 20
71.49547197105738
 30
0.0
 10
38.17136651664997
 20
71.83609498342708
 30
0.0
 10
39.03103411929741
 20
71.83609498342708
 30
0.0
 10
39.88974759585993
 20
71.83609498342708
 30
0.0
 10
40.66926860736173
 20
71.49547197105738
 30
0.0
 10
41.2446066366587
 20
70.94494121997223
 30
0.0
  0
SPLINE
  5
27B
100
AcDbEntity
  8
ALPHA
100
AcDbSpline
210
-1.0
220
0.0
230
0.0
 70
    24
 71
     3
 72
     8
 73
     4
 74
     0
 42
0.0000001
 43
0.0000001
 40
5.0
 40
5.0
 40
5.0
 40
5.0
 40
6.0
 40
6.0
 40
6.0
 40
6.0
 10
41.2446066366587
 20
70.94494121997223
 30
0.0
 10
41.2446066366587
 20
70.94494121997223
 30
0.0
 10
41.2446066366587
 20
66.31456732913012
 30
0.0
 10
41.2446066366587
 20
66.31456732913012
 30
0.0
  0
SPLINE
  5
27C
100
AcDbEntity
  8
ALPHA
100
AcDbSpline
210
0.0
220
0.0
230
1.0
 70
     8
 71
     3
 72
     8
 73
     4
 74
     0
 42
0.0000001
 43
0.0000001
 40
0.0
 40
0.0
 40
0.0
 40
0.0
 40
1.0
 40
1.0
 40
1.0
 40
1.0
 10
52.69125727923671
 20
52.38636108108341
 30
0.0
 10
51.23239849516557
 20
52.38636108108341
 30
0.0
 10
50.0130253584469
 20
53.40823011819271
 30
0.0
 10
49.70961326339477
 20
54.77453867201211
 30
0.0
  0
SPLINE
  5
27D
100
AcDbEntity
  8
ALPHA
100
AcDbSpline
210
-0.9922367451517251
220
-0.1243633449643035
230
0.0
 70
    24
 71
     3
 72
     8
 73
     4
 74
     0
 42
0.0000001
 43
0.0000001
 40
1.0
 40
1.0
 40
1.0
 40
1.0
 40
2.0
 40
2.0
 40
2.0
 40
2.0
 10
49.70961326339477
 20
54.77453867201211
 30
0.0
 10
49.70961326339477
 20
54.77453867201211
 30
0.0
 10
47.70976498908919
 20
70.73038919262836
 30
0.0
 10
47.70976498908919
 20
70.73038919262836
 30
0.0
  0
SPLINE
  5
27E
100
AcDbEntity
  8
ALPHA
100
AcDbSpline
210
0.0
220
0.0
230
-1.0
 70
     8
 71
     3
 72
     8
 73
     4
 74
     0
 42
0.0000001
 43
0.0000001
 40
2.0
 40
2.0
 40
2.0
 40
2.0
 40
3.0
 40
3.0
 40
3.0
 40
3.0
 10
47.70976498908919
 20
70.73038919262836
 30
0.0
 10
47.70976498908919
 20
74.56406780243742
 30
0.0
 10
44.60313045610313
 20
77.67070233542364
 30
0.0
 10
40.77136009846417
 20
77.67070233542364
 30
0.0
  0
SPLINE
  5
27F
100
AcDbEntity
  8
ALPHA
100
AcDbSpline
210
0.1204123065580004
220
0.9927239678930806
230
0.0
 70
    24
 71
     3
 72
     8
 73
     4
 74
     0
 42
0.0000001
 43
0.0000001
 40
3.0
 40
3.0
 40
3.0
 40
3.0
 40
4.0
 40
4.0
 40
4.0
 40
4.0
 10
40.77136009846417
 20
77.67070233542364
 30
0.0
 10
40.77136009846417
 20
77.67070233542364
 30
0.0
 10
38.32498081634615
 20
77.9674355478802
 30
0.0
 10
38.32498081634615
 20
77.9674355478802
 30
0.0
  0
SPLINE
  5
280
100
AcDbEntity
  8
ALPHA
100
AcDbSpline
210
0.0
220
0.0
230
-1.0
 70
     8
 71
     3
 72
     8
 73
     4
 74
     0
 42
0.0000001
 43
0.0000001
 40
4.0
 40
4.0
 40
4.0
 40
4.0
 40
5.0
 40
5.0
 40
5.0
 40
5.0
 10
38.32498081634615
 20
77.9674355478802
 30
0.0
 10
37.15045160562566
 20
77.9674355478802
 30
0.0
 10
36.19727964664114
 20
78.92013044382207
 30
0.0
 10
36.19727964664114
 20
80.09465965454257
 30
0.0
  0
SPLINE
  5
281
100
AcDbEntity
  8
ALPHA
100
AcDbSpline
210
-1.0
220
0.0
230
0.0
 70
    24
 71
     3
 72
     8
 73
     4
 74
     0
 42
0.0000001
 43
0.0000001
 40
5.0
 40
5.0
 40
5.0
 40
5.0
 40
6.0
 40
6.0
 40
6.0
 40
6.0
 10
36.19727964664114
 20
80.09465965454257
 30
0.0
 10
36.19727964664114
 20
80.09465965454257
 30
0.0
 10
36.19727964664114
 20
130.2001139489218
 30
0.0
 10
36.19727964664114
 20
130.2001139489218
 30
0.0
  0
SPLINE
  5
282
100
AcDbEntity
  8
ALPHA
100
AcDbSpline
210
0.0
220
0.0
230
-1.0
 70
     8
 71
     3
 72
     8
 73
     4
 74
     0
 42
0.0000001
 43
0.0000001
 40
6.0
 40
6.0
 40
6.0
 40
6.0
 40
7.0
 40
7.0
 40
7.0
 40
7.0
 10
36.19727964664114
 20
130.2001139489218
 30
0.0
 10
36.19727964664114
 20
130.8589380106623
 30
0.0
 10
36.49687523735308
 20
131.576917889677
 30
0.0
 10
37.09415816660656
 20
132.174677881973
 30
0.0
  0
SPLINE
  5
283
100
AcDbEntity
  8
ALPHA
100
AcDbSpline
210
0.0
220
0.0
230
1.0
 70
     8
 71
     3
 72
     8
 73
     4
 74
     0
 42
0.0000001
 43
0.0000001
 40
7.0
 40
7.0
 40
7.0
 40
7.0
 40
8.0
 40
8.0
 40
8.0
 40
8.0
 10
37.09415816660656
 20
132.174677881973
 30
0.0
 10
37.49679937450575
 20
132.5773190898723
 30
0.0
 10
43.32460150210993
 20
138.5129374650894
 30
0.0
 10
43.32460150210993
 20
138.5129374650894
 30
0.0
  0
SPLINE
  5
284
100
AcDbEntity
  8
ALPHA
100
AcDbSpline
210
-0.7135878011984279
220
0.7005658070308551
230
0.0
 70
    24
 71
     3
 72
     8
 73
     4
 74
     0
 42
0.0000001
 43
0.0000001
 40
8.0
 40
8.0
 40
8.0
 40
8.0
 40
9.0
 40
9.0
 40
9.0
 40
9.0
 10
43.32460150210993
 20
138.5129374650894
 30
0.0
 10
43.32460150210993
 20
138.5129374650894
 30
0.0
 10
47.1487388510684
 20
142.4081572073853
 30
0.0
 10
47.1487388510684
 20
142.4081572073853
 30
0.0
  0
SPLINE
  5
285
100
AcDbEntity
  8
ALPHA
100
AcDbSpline
210
0.0
220
0.0
230
1.0
 70
     8
 71
     3
 72
     8
 73
     4
 74
     0
 42
0.0000001
 43
0.0000001
 40
9.0
 40
9.0
 40
9.0
 40
9.0
 40
10.0
 40
10.0
 40
10.0
 40
10.0
 10
47.1487388510684
 20
142.4081572073853
 30
0.0
 10
48.34616708783051
 20
143.6656953875068
 30
0.0
 10
48.88429419980969
 20
144.5625739074721
 30
0.0
 10
49.30315555115521
 20
146.8968433745946
 30
0.0
  0
SPLINE
  5
286
100
AcDbEntity
  8
ALPHA
100
AcDbSpline
210
-0.9928928684643503
220
0.1190115614242345
230
0.0
 70
    24
 71
     3
 72
     8
 73
     4
 74
     0
 42
0.0000001
 43
0.0000001
 40
10.0
 40
10.0
 40
10.0
 40
10.0
 40
11.0
 40
11.0
 40
11.0
 40
11.0
 10
49.30315555115521
 20
146.8968433745946
 30
0.0
 10
49.30315555115521
 20
146.8968433745946
 30
0.0
 10
49.75541131547817
 20
150.6699349780018
 30
0.0
 10
49.75541131547817
 20
150.6699349780018
 30
0.0
  0
SPLINE
  5
287
100
AcDbEntity
  8
ALPHA
100
AcDbSpline
210
0.0
220
0.0
230
-1.0
 70
     8
 71
     3
 72
     8
 73
     4
 74
     0
 42
0.0000001
 43
0.0000001
 40
11.0
 40
11.0
 40
11.0
 40
11.0
 40
12.0
 40
12.0
 40
12.0
 40
12.0
 10
49.75541131547817
 20
150.6699349780018
 30
0.0
 10
50.02352074538271
 20
152.0829957099895
 30
0.0
 10
51.26483878205795
 20
153.1516169252673
 30
0.0
 10
52.75518372693648
 20
153.1516169252673
 30
0.0
  0
SPLINE
  5
288
100
AcDbEntity
  8
ALPHA
100
AcDbSpline
210
0.0
220
1.0
230
0.0
 70
    24
 71
     3
 72
     8
 73
     4
 74
     0
 42
0.0000001
 43
0.0000001
 40
12.0
 40
12.0
 40
12.0
 40
12.0
 40
13.0
 40
13.0
 40
13.0
 40
13.0
 10
52.75518372693648
 20
153.1516169252673
 30
0.0
 10
52.75518372693648
 20
153.1516169252673
 30
0.0
 10
78.87484019395026
 20
153.1516169252673
 30
0.0
 10
78.87484019395026
 20
153.1516169252673
 30
0.0
  0
SPLINE
  5
289
100
AcDbEntity
  8
ALPHA
100
AcDbSpline
210
0.0
220
0.0
230
-1.0
 70
     8
 71
     3
 72
     8
 73
     4
 74
     0
 42
0.0000001
 43
0.0000001
 40
13.0
 40
13.0
 40
13.0
 40
13.0
 40
14.0
 40
14.0
 40
14.0
 40
14.0
 10
78.87484019395026
 20
153.1516169252673
 30
0.0
 10
80.4262492082732
 20
153.1516169252673
 30
0.0
 10
81.70764054052142
 20
151.9937849210355
 30
0.0
 10
81.90228226187571
 20
150.4953299044339
 30
0.0
  0
SPLINE
  5
28A
100
AcDbEntity
  8
ALPHA
100
AcDbSpline
210
-0.9948803133664211
220
-0.1010601903616446
230
0.0
 70
    24
 71
     3
 72
     8
 73
     4
 74
     0
 42
0.0000001
 43
0.0000001
 40
14.0
 40
14.0
 40
14.0
 40
14.0
 40
15.0
 40
15.0
 40
15.0
 40
15.0
 10
81.90228226187571
 20
150.4953299044339
 30
0.0
 10
81.90228226187571
 20
150.4953299044339
 30
0.0
 10
82.8621331034555
 20
141.0461422209486
 30
0.0
 10
82.8621331034555
 20
141.0461422209486
 30
0.0
  0
SPLINE
  5
28B
100
AcDbEntity
  8
ALPHA
100
AcDbSpline
210
0.0
220
0.0
230
-1.0
 70
     8
 71
     3
 72
     8
 73
     4
 74
     0
 42
0.0000001
 43
0.0000001
 40
15.0
 40
15.0
 40
15.0
 40
15.0
 40
16.0
 40
16.0
 40
16.0
 40
16.0
 10
82.8621331034555
 20
141.0461422209486
 30
0.0
 10
82.8621331034555
 20
141.0461422209486
 30
0.0
 10
83.48994806743121
 20
136.0193289417604
 30
0.0
 10
83.75996574950585
 20
135.2116612107491
 30
0.0
  0
SPLINE
  5
28C
100
AcDbEntity
  8
ALPHA
100
AcDbSpline
210
0.0
220
0.0
230
-1.0
 70
     8
 71
     3
 72
     8
 73
     4
 74
     0
 42
0.0000001
 43
0.0000001
 40
16.0
 40
16.0
 40
16.0
 40
16.0
 40
17.0
 40
17.0
 40
17.0
 40
17.0
 10
83.75996574950585
 20
135.2116612107491
 30
0.0
 10
84.02902930549544
 20
134.4035164166953
 30
0.0
 10
84.47746856547809
 20
133.2370972776978
 30
0.0
 10
85.19592550753538
 20
132.4289524836439
 30
0.0
  0
SPLINE
  5
28D
100
AcDbEntity
  8
ALPHA
100
AcDbSpline
210
0.0
220
0.0
230
1.0
 70
     8
 71
     3
 72
     8
 73
     4
 74
     0
 42
0.0000001
 43
0.0000001
 40
17.0
 40
17.0
 40
17.0
 40
17.0
 40
18.0
 40
18.0
 40
18.0
 40
18.0
 10
85.19592550753538
 20
132.4289524836439
 30
0.0
 10
85.57471356330792
 20
132.0029351866605
 30
0.0
 10
94.95854360996588
 20
122.7340773332534
 30
0.0
 10
94.95854360996588
 20
122.7340773332534
 30
0.0
  0
SPLINE
  5
28E
100
AcDbEntity
  8
ALPHA
100
AcDbSpline
210
0.0
220
0.0
230
1.0
 70
     8
 71
     3
 72
     8
 73
     4
 74
     0
 42
0.0000001
 43
0.0000001
 40
18.0
 40
18.0
 40
18.0
 40
18.0
 40
19.0
 40
19.0
 40
19.0
 40
19.0
 10
94.95854360996588
 20
122.7340773332534
 30
0.0
 10
95.45182679594683
 20
122.24031708423
 30
0.0
 10
95.67222992159788
 20
122.0156203911961
 30
0.0
 10
95.71802797368116
 20
121.5671811312136
 30
0.0
  0
SPLINE
  5
28F
100
AcDbEntity
  8
ALPHA
100
AcDbSpline
210
-1.0
220
0.0
230
0.0
 70
    24
 71
     3
 72
     8
 73
     4
 74
     0
 42
0.0000001
 43
0.0000001
 40
19.0
 40
19.0
 40
19.0
 40
19.0
 40
20.0
 40
20.0
 40
20.0
 40
20.0
 10
95.71802797368116
 20
121.5671811312136
 30
0.0
 10
95.71802797368116
 20
121.5671811312136
 30
0.0
 10
95.71802797368116
 20
75.33643286830124
 30
0.0
 10
95.71802797368116
 20
75.33643286830124
 30
0.0
  0
SPLINE
  5
290
100
AcDbEntity
  8
ALPHA
100
AcDbSpline
210
0.0
220
0.0
230
1.0
 70
     8
 71
     3
 72
    11
 73
     7
 74
     0
 42
0.0000001
 43
0.0000001
 40
20.0
 40
20.0
 40
20.0
 40
20.0
 40
21.0
 40
21.0
 40
21.0
 40
22.0
 40
22.0
 40
22.0
 40
22.0
 10
95.71802797368116
 20
75.33643286830124
 30
0.0
 10
95.71802797368116
 20
74.67856293264578
 30
0.0
 10
95.3697719526308
 20
73.9610601166736
 30
0.0
 10
94.77058077120721
 20
73.3618689352499
 30
0.0
 10
94.36793956330797
 20
72.95922772735071
 30
0.0
 10
88.54109156178884
 20
67.02360935213357
 30
0.0
 10
88.54109156178884
 20
67.02360935213357
 30
0.0
  0
SPLINE
  5
291
100
AcDbEntity
  8
ALPHA
100
AcDbSpline
210
-0.7135449039210739
220
0.7006094989994538
230
0.0
 70
    24
 71
     3
 72
     8
 73
     4
 74
     0
 42
0.0000001
 43
0.0000001
 40
22.0
 40
22.0
 40
22.0
 40
22.0
 40
23.0
 40
23.0
 40
23.0
 40
23.0
 10
88.54109156178884
 20
67.02360935213357
 30
0.0
 10
88.54109156178884
 20
67.02360935213357
 30
0.0
 10
84.71695421283044
 20
63.12886667288018
 30
0.0
 10
84.71695421283044
 20
63.12886667288018
 30
0.0
  0
SPLINE
  5
292
100
AcDbEntity
  8
ALPHA
100
AcDbSpline
210
0.0
220
0.0
230
-1.0
 70
     8
 71
     3
 72
     8
 73
     4
 74
     0
 42
0.0000001
 43
0.0000001
 40
23.0
 40
23.0
 40
23.0
 40
23.0
 40
24.0
 40
24.0
 40
24.0
 40
24.0
 10
84.71695421283044
 20
63.12886667288018
 30
0.0
 10
83.52048010215339
 20
61.87228261884382
 30
0.0
 10
82.9823529901742
 20
60.97444997279336
 30
0.0
 10
82.56253751274375
 20
58.63970344262838
 30
0.0
  0
SPLINE
  5
293
100
AcDbEntity
  8
ALPHA
100
AcDbSpline
210
-0.9907879798935946
220
0.1354222245363368
230
0.0
 70
    24
 71
     3
 72
     8
 73
     4
 74
     0
 42
0.0000001
 43
0.0000001
 40
24.0
 40
24.0
 40
24.0
 40
24.0
 40
25.0
 40
25.0
 40
25.0
 40
25.0
 10
82.56253751274375
 20
58.63970344262838
 30
0.0
 10
82.56253751274375
 20
58.63970344262838
 30
0.0
 10
82.05875893982705
 20
54.95391437600523
 30
0.0
 10
82.05875893982705
 20
54.95391437600523
 30
0.0
  0
SPLINE
  5
294
100
AcDbEntity
  8
ALPHA
100
AcDbSpline
210
0.0
220
0.0
230
1.0
 70
     8
 71
     3
 72
     8
 73
     4
 74
     0
 42
0.0000001
 43
0.0000001
 40
25.0
 40
25.0
 40
25.0
 40
25.0
 40
26.0
 40
26.0
 40
26.0
 40
26.0
 10
82.05875893982705
 20
54.95391437600523
 30
0.0
 10
81.82499804898498
 20
53.49791797018935
 30
0.0
 10
80.56364336452316
 20
52.38636108108341
 30
0.0
 10
79.04372051100768
 20
52.38636108108341
 30
0.0
  0
SPLINE
  5
295
100
AcDbEntity
  8
ALPHA
100
AcDbSpline
210
0.0
220
1.0
230
0.0
 70
    24
 71
     3
 72
     8
 73
     4
 74
     0
 42
0.0000001
 43
0.0000001
 40
26.0
 40
26.0
 40
26.0
 40
26.0
 40
27.0
 40
27.0
 40
27.0
 40
27.0
 10
79.04372051100768
 20
52.38636108108341
 30
0.0
 10
79.04372051100768
 20
52.38636108108341
 30
0.0
 10
52.69125727923671
 20
52.38636108108341
 30
0.0
 10
52.69125727923671
 20
52.38636108108341
 30
0.0
  0
LINE
  5
D59
100
AcDbEntity
  8
AXE
100
AcDbLine
 10
44.244606
 20
68.637865
 30
0.0
 11
33.816506
 21
68.637865
 31
0.0
  0
LINE
  5
D5A
100
AcDbEntity
  8
AXE
100
AcDbLine
 10
39.031034
 20
74.839889
 30
0.0
 11
39.031034
 21
62.42821
 31
0.0
  0
LINE
  5
D5C
100
AcDbEntity
  8
AXE
100
AcDbLine
 10
65.961773
 20
34.361011
 30
0.0
 11
65.961773
 21
160.827189
 31
0.0
  0
TEXT
  5
D5D
100
AcDbEntity
  8
AXE
100
AcDbText
 10
58.485583
 20
34.361011
 30
0.0
 40
8.0
  1
Y
  7
ROMANS
 72
     2
 11
64.961773
 21
34.361011
 31
0.0
100
AcDbText
  0
LINE
  5
D5E
100
AcDbEntity
  8
AXE
100
AcDbLine
 10
28.337344
 20
102.628732
 30
0.0
 11
114.956256
 21
102.628732
 31
0.0
  0
TEXT
  5
D5F
100
AcDbEntity
  8
AXE
100
AcDbText
 10
108.480066
 20
103.628732
 30
0.0
 40
8.0
  1
X
  7
ROMANS
 72
     2
 11
114.956256
 21
103.628732
 31
0.0
100
AcDbText
  0
LINE
  5
D60
100
AcDbEntity
  8
AXE
100
AcDbLine
 10
99.24978
 20
136.665398
 30
0.0
 11
86.837157
 21
136.665398
 31
0.0
  0
LINE
  5
D61
100
AcDbEntity
  8
AXE
100
AcDbLine
 10
93.042992
 20
141.879925
 30
0.0
 11
93.042992
 21
131.451826
 31
0.0
  0
LINE
  5
D62
100
AcDbEntity
  8
AXE
100
AcDbLine
 10
55.836837
 20
139.75963
 30
0.0
 11
76.08671
 21
139.75963
 31
0.0
  0
LINE
  5
D63
100
AcDbEntity
  8
AXE
100
AcDbLine
 10
55.836837
 20
65.778347
 30
0.0
 11
76.08671
 21
65.778347
 31
0.0
  0
DIMENSION
  5
D7B
100
AcDbEntity
  8
COTATION1
100
AcDbDimension
  2
*D1
 10
16.958097
 20
155.768308
 30
0.0
 11
16.958097
 21
147.763969
 31
0.0
 70
   160
  1
=
  3
SC_DEFAUT
100
AcDbAlignedDimension
 13
55.836837
 23
139.75963
 33
0.0
 14
48.334718
 24
155.768308
 34
0.0
 50
90.0
100
AcDbRotatedDimension
  0
DIMENSION
  5
DD7
100
AcDbEntity
  8
COTATION1
100
AcDbDimension
  2
*D2
 10
16.958097
 20
65.778347
 30
0.0
 11
16.958097
 21
57.348293
 31
0.0
 70
   160
  1
=
  3
SC_DEFAUT
100
AcDbAlignedDimension
 13
48.334718
 23
49.768239
 33
0.0
 14
55.836837
 24
65.778347
 34
0.0
 50
90.0
100
AcDbRotatedDimension
  0
DIMENSION
  5
E21
100
AcDbEntity
  8
COTATION1
100
AcDbDimension
  2
*D3
 10
16.958097
 20
139.75963
 30
0.0
 11
16.958097
 21
104.198748
 31
0.0
 70
   160
  3
SC_DEFAUT
100
AcDbAlignedDimension
 13
55.836837
 23
65.778347
 33
0.0
 14
55.836837
 24
139.75963
 34
0.0
 50
90.0
100
AcDbRotatedDimension
  0
DIMENSION
  5
F25
100
AcDbEntity
  8
COTATION1
100
AcDbDimension
  2
*D4
 10
124.95721
 20
49.768239
 30
0.0
 11
124.95721
 21
58.778052
 31
0.0
 70
   160
  1
=
  3
SC_DEFAUT
100
AcDbAlignedDimension
 13
44.244606
 23
68.637865
 33
0.0
 14
83.58059
 24
49.768239
 34
0.0
 50
90.0
100
AcDbRotatedDimension
  0
DIMENSION
  5
F26
100
AcDbEntity
  8
COTATION1
100
AcDbDimension
  2
*D5
 10
124.95721
 20
136.665398
 30
0.0
 11
124.95721
 21
146.641853
 31
0.0
 70
   160
  1
=
  3
SC_DEFAUT
100
AcDbAlignedDimension
 13
83.58059
 23
155.768308
 33
0.0
 14
98.64978
 24
136.665398
 34
0.0
 50
90.0
100
AcDbRotatedDimension
  0
DIMENSION
  5
F27
100
AcDbEntity
  8
COTATION1
100
AcDbDimension
  2
*D6
 10
124.95721
 20
68.637865
 30
0.0
 11
124.95721
 21
102.651631
 31
0.0
 70
   160
  3
SC_DEFAUT
100
AcDbAlignedDimension
 13
98.64978
 23
136.665398
 33
0.0
 14
44.244606
 24
68.637865
 34
0.0
 50
90.0
100
AcDbRotatedDimension
  0
DIMENSION
  5
1190
100
AcDbEntity
  8
COTATION1
100
AcDbDimension
  2
*D11
 10
93.042992
 20
14.361011
 30
0.0
 11
66.037013
 21
17.611011
 31
0.0
 70
    32
  3
SC_DEFAUT
100
AcDbAlignedDimension
 13
39.031034
 23
62.42821
 33
0.0
 14
93.042992
 24
131.451826
 34
0.0
100
AcDbRotatedDimension
  0
DIMENSION
  5
1191
100
AcDbEntity
  8
COTATION1
100
AcDbDimension
  2
*D9
 10
39.031034
 20
14.361011
 30
0.0
 11
35.318612
 21
17.485797
 31
0.0
 70
   160
  1
=
  3
SC_DEFAUT
100
AcDbAlignedDimension
 13
31.958097
 23
56.917506
 33
0.0
 14
39.031034
 24
62.42821
 34
0.0
100
AcDbRotatedDimension
  0
DIMENSION
  5
1192
100
AcDbEntity
  8
COTATION1
100
AcDbDimension
  2
*D10
 10
99.95721
 20
14.361011
 30
0.0
 11
96.399385
 21
17.456943
 31
0.0
 70
   160
  1
=
  3
SC_DEFAUT
100
AcDbAlignedDimension
 13
93.042992
 23
131.451826
 33
0.0
 14
99.95721
 24
56.917506
 34
0.0
100
AcDbRotatedDimension
  0
DIMENSION
  5
1193
100
AcDbEntity
  8
COTATION1
100
AcDbDimension
  2
*D7
 10
65.961773
 20
24.361011
 30
0.0
 11
52.496403
 21
27.611011
 31
0.0
 70
    32
  1
=
  3
SC_DEFAUT
100
AcDbAlignedDimension
 13
39.031034
 23
62.42821
 33
0.0
 14
65.961773
 24
34.361011
 34
0.0
100
AcDbRotatedDimension
  0
DIMENSION
  5
1194
100
AcDbEntity
  8
COTATION1
100
AcDbDimension
  2
*D8
 10
93.042992
 20
24.361011
 30
0.0
 11
79.502383
 21
27.611011
 31
0.0
 70
    32
  1
=
  3
SC_DEFAUT
100
AcDbAlignedDimension
 13
65.961773
 23
34.361011
 33
0.0
 14
93.042992
 24
131.451826
 34
0.0
100
AcDbRotatedDimension
  0
LEADER
  5
12A2
100
AcDbEntity
  8
COTATION1
100
AcDbLeader
  3
SC_DEFAUT
 73
     0
 74
     0
 75
     1
 40
2.97619
 41
11.904762
 76
     3
 10
95.359131
 20
138.880402
 30
0.0
 10
104.11625
 20
164.823751
 30
0.0
 10
109.11625
 20
164.823751
 30
0.0
 77
   256
340
12A3
213
0.0
223
-1.25
233
0.0
1001
ACAD
1000
DSTYLE
1002
{
1070
     5
1000
OPEN30
1070
    77
1070
     0
1070
   147
1040
2.0
1070
   342
1005
110
1002
}
1000
LEANOF
1010
0.0
1020
-1.25
1030
0.0
  0
MTEXT
  5
12A3
102
{ACAD_REACTORS
330
12A2
102
}
100
AcDbEntity
  8
COTATION1
100
AcDbMText
 10
111.11625
 20
166.073751
 30
0.0
 40
2.5
 41
0.0
 71
     1
 72
     1
  1
2x%%c4,3
  7
ROMANS
1001
ACAD
1000
MTEXTBEGIN
1070
    73
1070
     1
1070
    44
1040
1.0
1070
    74
1070
     0
1000
MTEXTEND
1000
MTEXTBEGIN
1070
    73
1070
     1
1070
    44
1040
1.0
1070
    74
1070
     0
1000
MTEXTEND
1000
MTEXTBEGIN
1070
    73
1070
     1
1070
    44
1040
1.0
1070
    74
1070
     0
1000
MTEXTEND
  0
ENDSEC
  0
SECTION
  2
OBJECTS
  0
DICTIONARY
  5
19
102
{ACAD_XDICTIONARY
360
1458
102
}
100
AcDbDictionary
  3
ACAD_COLOR
350
FC
  3
ACAD_GROUP
350
1A
  3
ACAD_LAYOUT
350
1E
  3
ACAD_MATERIAL
350
FB
  3
ACAD_MLINESTYLE
350
1B
  3
ACAD_PLOTSETTINGS
350
22
  3
ACAD_PLOTSTYLENAME
350
1F
  3
ACAD_TABLESTYLE
350
FD
  3
ACAD_WIPEOUT_VARS
350
23
  3
ACDBHEADERROUNDTRIPXREC
350
1435
  3
ACDBVARIABLEDICTIONARY
350
362
  3
AEC_CLASSIFICATION_SYSTEM_DEFS
350
420
  3
AEC_PROPERTY_SET_DEFS
350
421
  3
ASE_INDEX_DICTIONARY
350
103
  0
DICTIONARY
  5
142B
100
AcDbDictionary
  3
ACAD_XREC_ROUNDTRIP
360
142C
  0
DICTIONARY
  5
142D
100
AcDbDictionary
  3
ACAD_XREC_ROUNDTRIP
360
142E
  0
DICTIONARY
  5
142F
100
AcDbDictionary
  3
ACAD_XREC_ROUNDTRIP
360
1430
  0
DICTIONARY
  5
13D2
100
AcDbDictionary
  3
ACAD_LAYERFILTERS
360
13D4
  3
ACLYDICTIONARY
360
13D3
  0
DICTIONARY
  5
1462
100
AcDbDictionary
  3
ACAD_XREC_ROUNDTRIP
360
1463
  0
DICTIONARY
  5
1431
100
AcDbDictionary
  3
ACAD_XREC_ROUNDTRIP
360
1432
  0
DICTIONARY
  5
1429
100
AcDbDictionary
  3
ACAD_XREC_ROUNDTRIP
360
142A
  0
DICTIONARY
  5
1464
100
AcDbDictionary
  3
ACAD_XREC_ROUNDTRIP
360
1465
  0
DICTIONARY
  5
20B
100
AcDbDictionary
  3
ACAD_LAYOUTSELFREF
360
1456
  3
ACAD_SORTENTS
360
20C
  0
DICTIONARY
  5
1413
100
AcDbDictionary
  3
ACAD_LAYOUTSELFREF
360
1457
  0
DICTIONARY
  5
1458
100
AcDbDictionary
  3
ACAD_XREC_ROUNDTRIP
360
1459
  0
DICTIONARY
  5
FC
102
{ACAD_REACTORS
330
19
102
}
100
AcDbDictionary
  0
DICTIONARY
  5
1A
102
{ACAD_REACTORS
330
19
102
}
100
AcDbDictionary
  0
DICTIONARY
  5
1E
102
{ACAD_XDICTIONARY
360
145C
102
}
102
{ACAD_REACTORS
330
19
102
}
100
AcDbDictionary
  3
LAYOUT1
350
21
  3
MODEL
350
20
  0
DICTIONARY
  5
FB
102
{ACAD_REACTORS
330
19
102
}
100
AcDbDictionary
  0
DICTIONARY
  5
1B
102
{ACAD_XDICTIONARY
360
145A
102
}
102
{ACAD_REACTORS
330
19
102
}
100
AcDbDictionary
  3
STANDARD
350
1C
  0
DICTIONARY
  5
22
102
{ACAD_REACTORS
330
19
102
}
100
AcDbDictionary
  0
ACAD_ZOMBIE_OBJECT
  5
1F
102
{ACAD_REACTORS
330
19
102
}
100
AcDbZombieObject
 90
      499
 91
      517
 93
       86
310
405010041939BDC9B585B2
350
1D
340
1D
 94
        0
  0
DICTIONARY
  5
FD
102
{ACAD_XDICTIONARY
360
145E
102
}
102
{ACAD_REACTORS
330
19
102
}
100
AcDbDictionary
  3
STANDARD
350
FE
  0
ACAD_ZOMBIE_OBJECT
  5
23
100
AcDbZombieObject
 90
      499
 91
      521
 93
       10
310
4040
 94
        0
  0
DICTIONARY
  5
1435
102
{ACAD_REACTORS
330
19
102
}
100
AcDbDictionary
  3
CEPSNTYPE
350
143F
  3
DIMSTYLEDATA
350
1443
  3
FINGERPRINTGUID
350
1440
  3
HYPERLINKBASE
350
1438
  3
INSUNITS
350
143E
  3
LAYOUTDICT
350
143A
  3
LWETCUNION
350
143D
  3
PLOTSETDICT
350
143B
  3
PLOTSTYLNAMDICT
350
143C
  3
PSVPSCALE
350
1442
  3
PUCSBASE
350
1446
  3
PUCSORGBACK
350
144C
  3
PUCSORGBOTTOM
350
1448
  3
PUCSORGFRONT
350
144B
  3
PUCSORGLEFT
350
1449
  3
PUCSORGRIGHT
350
144A
  3
PUCSORGTOP
350
1447
  3
PUCSORTHOREF
350
1444
  3
PUCSORTHOVIEW
350
1445
  3
STYLESHEET
350
1439
  3
TSTACKALIGN
350
1436
  3
TSTACKSIZE
350
1437
  3
UCSBASE
350
144F
  3
UCSORGBACK
350
1455
  3
UCSORGBOTTOM
350
1451
  3
UCSORGFRONT
350
1454
  3
UCSORGLEFT
350
1452
  3
UCSORGRIGHT
350
1453
  3
UCSORGTOP
350
1450
  3
UCSORTHOREF
350
144D
  3
UCSORTHOVIEW
350
144E
  3
VERSIONGUID
350
1441
  0
DICTIONARY
  5
362
102
{ACAD_REACTORS
330
19
102
}
100
AcDbDictionary
  3
CTABLESTYLE
350
363
  3
DIMASSOC
350
AF0
  3
PROJECTNAME
350
AF1
  0
DICTIONARY
  5
420
102
{ACAD_REACTORS
330
19
102
}
100
AcDbDictionary
  0
DICTIONARY
  5
421
102
{ACAD_REACTORS
330
19
102
}
100
AcDbDictionary
  0
DICTIONARY
  5
103
102
{ACAD_XDICTIONARY
360
1460
102
}
102
{ACAD_REACTORS
330
19
102
}
100
AcDbDictionary
  3
ASEBLOCKHIERARCHYINDEXRECORD
350
105
1001
DCO15
1040
1538305377.921
  0
XRECORD
  5
142C
102
{ACAD_REACTORS
330
142B
102
}
100
AcDbXrecord
102
EXTNAMES
  1
BYBLOCK
  2
ByBlock
  0
XRECORD
  5
142E
102
{ACAD_REACTORS
330
142D
102
}
100
AcDbXrecord
102
EXTNAMES
  1
BYLAYER
  2
ByLayer
  0
XRECORD
  5
1430
102
{ACAD_REACTORS
330
142F
102
}
100
AcDbXrecord
102
EXTNAMES
  1
CONTINUOUS
  2
Continuous
  0
DICTIONARY
  5
13D4
102
{ACAD_REACTORS
330
13D2
102
}
100
AcDbDictionary
  0
DICTIONARY
  5
13D3
102
{ACAD_REACTORS
330
13D2
102
}
100
AcDbDictionary
1001
ACAD
1000
<All
  0
XRECORD
  5
1463
102
{ACAD_REACTORS
330
1462
102
}
100
AcDbXrecord
102
PLOTBIT
280
     0
  0
XRECORD
  5
1432
102
{ACAD_REACTORS
330
1431
102
}
100
AcDbXrecord
102
EXTNAMES
  1
STANDARD
  2
Standard
  0
XRECORD
  5
142A
102
{ACAD_REACTORS
330
1429
102
}
100
AcDbXrecord
102
EXTNAMES
  1
STANDARD
  2
Standard
  0
XRECORD
  5
1465
102
{ACAD_REACTORS
330
1464
102
}
100
AcDbXrecord
102
ACADR14ROUNDTRIP
1000
DSTYLE
1002
{
1070
   279
 70
     2
1070
   341
340
110
1070
   342
340
110
1002
}
  0
XRECORD
  5
1456
102
{ACAD_REACTORS
330
20B
102
}
100
AcDbXrecord
340
A
  0
SORTENTSTABLE
  5
20C
102
{ACAD_REACTORS
330
20B
102
}
100
AcDbSortentsTable
330
A
331
274
  5
27A
331
28A
  5
268
331
27D
  5
25B
331
26E
  5
288
331
291
  5
26F
331
9A
  5
27E
331
284
  5
262
331
268
  5
282
331
275
  5
27B
331
28B
  5
269
331
27E
  5
25C
331
285
  5
263
331
278
  5
276
331
9B
  5
27F
331
292
  5
270
331
26F
  5
289
331
27F
  5
25D
331
28C
  5
26A
331
269
  5
283
331
276
  5
27C
331
286
  5
264
331
279
  5
277
331
293
  5
271
331
9C
  5
280
331
270
  5
28A
331
280
  5
25E
331
96
  5
274
331
26A
  5
284
331
277
  5
27D
331
28D
  5
26B
331
27A
  5
278
331
287
  5
265
331
271
  5
28B
331
294
  5
272
331
9D
  5
281
331
281
  5
25F
331
97
  5
275
331
26B
  5
285
331
28E
  5
26C
331
27B
  5
279
331
272
  5
28C
331
295
  5
273
331
288
  5
266
331
282
  5
260
331
26C
  5
286
331
28F
  5
26D
331
273
  5
28D
331
289
  5
267
331
27C
  5
25A
331
26D
  5
287
331
290
  5
26E
331
283
  5
261
  0
XRECORD
  5
1457
102
{ACAD_REACTORS
330
1413
102
}
100
AcDbXrecord
340
B
  0
XRECORD
  5
1459
102
{ACAD_REACTORS
330
1458
102
}
100
AcDbXrecord
102
EXTNAMES
  1
ACDBVARIABLEDICTIONARY
  2
AcDbVariableDictionary
  0
DICTIONARY
  5
145C
100
AcDbDictionary
  3
ACAD_XREC_ROUNDTRIP
360
145D
  0
ACAD_ZOMBIE_OBJECT
  5
21
102
{ACAD_XDICTIONARY
360
13D9
102
}
102
{ACAD_REACTORS
330
1E
102
}
100
AcDbZombieObject
 90
      499
 91
      515
 93
      812
310
AAAAAAAAAA5A69074C61796F757431406A800000000000000000000000000000000000000000000A1000000000000008902A6A6A10232D5E076BC5510408CB5781DAF154410232D5E076BC5510408CB5781DAF15C410232D5E076BC5710408CB5781DAF15C45
330
B
330
0
340
0
340
0
 94
        0
  0
ACAD_ZOMBIE_OBJECT
  5
20
102
{ACAD_XDICTIONARY
360
13D7
102
}
102
{ACAD_REACTORS
330
1E
102
}
100
AcDbZombieObject
 90
      499
 91
      515
 93
      420
310
A00012AAAAAAAA5A69054D6F64656CAA80000000000000000000000000000000000000000000000000000000000000002AAAAAAAAA
330
A
330
0
340
0
340
0
 94
        0
  0
DICTIONARY
  5
145A
100
AcDbDictionary
  3
ACAD_XREC_ROUNDTRIP
360
145B
  0
MLINESTYLE
  5
1C
102
{ACAD_REACTORS
330
1B
102
}
100
AcDbMlineStyle
  2
STANDARD
 70
     0
  3

 62
     0
 51
90.0
 52
90.0
 71
     2
 49
0.5
 62
   256
  6
BYLAYER
 49
-0.5
 62
   256
  6
BYLAYER
  0
ACAD_ZOMBIE_OBJECT
  5
1D
102
{ACAD_REACTORS
330
1F
102
}
100
AcDbZombieObject
 90
      499
 91
      518
 93
        0
 94
        0
  0
DICTIONARY
  5
145E
100
AcDbDictionary
  3
ACAD_XREC_ROUNDTRIP
360
145F
  0
ACAD_ZOMBIE_OBJECT
  5
FE
102
{ACAD_REACTORS
330
FD
102
}
100
AcDbZombieObject
 90
      499
 91
      525
 93
     1841
310
4214DD185B99185C9928000000000000F83F0000000000003E0FC00000000000004901028000000C1008070000C3001FDFF8000000C1003FBFF000000182007F7FE00000030400FEFFC00000060801FDFF8000000C1003FBFF000000182000000000000000C2020B0000001820100E000186003FBFF000000182007F7FE000
310
00030400FEFFC00000060801FDFF8000000C1003FBFF000000182007F7FE0000003040000000000000012404160000003040201C00030C007F7FE00000030400FEFFC00000060801FDFF8000000C1003FBFF000000182007F7FE00000030400FEFFC000000608000
340
17
340
17
340
17
 94
        0
1001
ACAD
1000
AcadProxyRoundTripData
1071
      524
1071
   393239
1070
     0
  0
XRECORD
  5
143F
102
{ACAD_REACTORS
330
1435
102
}
100
AcDbXrecord
 90
        0
  0
XRECORD
  5
1443
102
{ACAD_REACTORS
330
1435
102
}
100
AcDbXrecord
1000
DSTYLE
1002
{
1070
   278
 70
     0
1070
   371
 70
     0
1070
   372
 70
     0
1002
}
  0
XRECORD
  5
1440
102
{ACAD_REACTORS
330
1435
102
}
100
AcDbXrecord
  1

  0
XRECORD
  5
1438
102
{ACAD_REACTORS
330
1435
102
}
100
AcDbXrecord
  1

  0
XRECORD
  5
143E
102
{ACAD_REACTORS
330
1435
102
}
100
AcDbXrecord
 90
        0
  0
XRECORD
  5
143A
102
{ACAD_REACTORS
330
1435
102
}
100
AcDbXrecord
340
1E
  0
XRECORD
  5
143D
102
{ACAD_REACTORS
330
1435
102
}
100
AcDbXrecord
 90
    10752
  0
XRECORD
  5
143B
102
{ACAD_REACTORS
330
1435
102
}
100
AcDbXrecord
340
22
  0
XRECORD
  5
143C
102
{ACAD_REACTORS
330
1435
102
}
100
AcDbXrecord
340
1F
  0
XRECORD
  5
1442
102
{ACAD_REACTORS
330
1435
102
}
100
AcDbXrecord
 40
0.0
  0
XRECORD
  5
1446
102
{ACAD_REACTORS
330
1435
102
}
100
AcDbXrecord
340
0
  0
XRECORD
  5
144C
102
{ACAD_REACTORS
330
1435
102
}
100
AcDbXrecord
 10
0.0
 20
0.0
 30
0.0
  0
XRECORD
  5
1448
102
{ACAD_REACTORS
330
1435
102
}
100
AcDbXrecord
 10
0.0
 20
0.0
 30
0.0
  0
XRECORD
  5
144B
102
{ACAD_REACTORS
330
1435
102
}
100
AcDbXrecord
 10
0.0
 20
0.0
 30
0.0
  0
XRECORD
  5
1449
102
{ACAD_REACTORS
330
1435
102
}
100
AcDbXrecord
 10
0.0
 20
0.0
 30
0.0
  0
XRECORD
  5
144A
102
{ACAD_REACTORS
330
1435
102
}
100
AcDbXrecord
 10
0.0
 20
0.0
 30
0.0
  0
XRECORD
  5
1447
102
{ACAD_REACTORS
330
1435
102
}
100
AcDbXrecord
 10
0.0
 20
0.0
 30
0.0
  0
XRECORD
  5
1444
102
{ACAD_REACTORS
330
1435
102
}
100
AcDbXrecord
340
0
  0
XRECORD
  5
1445
102
{ACAD_REACTORS
330
1435
102
}
100
AcDbXrecord
 70
     0
  0
XRECORD
  5
1439
102
{ACAD_REACTORS
330
1435
102
}
100
AcDbXrecord
  1

  0
XRECORD
  5
1436
102
{ACAD_REACTORS
330
1435
102
}
100
AcDbXrecord
 90
        1
  0
XRECORD
  5
1437
102
{ACAD_REACTORS
330
1435
102
}
100
AcDbXrecord
 90
       70
  0
XRECORD
  5
144F
102
{ACAD_REACTORS
330
1435
102
}
100
AcDbXrecord
340
0
  0
XRECORD
  5
1455
102
{ACAD_REACTORS
330
1435
102
}
100
AcDbXrecord
 10
0.0
 20
0.0
 30
0.0
  0
XRECORD
  5
1451
102
{ACAD_REACTORS
330
1435
102
}
100
AcDbXrecord
 10
0.0
 20
0.0
 30
0.0
  0
XRECORD
  5
1454
102
{ACAD_REACTORS
330
1435
102
}
100
AcDbXrecord
 10
0.0
 20
0.0
 30
0.0
  0
XRECORD
  5
1452
102
{ACAD_REACTORS
330
1435
102
}
100
AcDbXrecord
 10
0.0
 20
0.0
 30
0.0
  0
XRECORD
  5
1453
102
{ACAD_REACTORS
330
1435
102
}
100
AcDbXrecord
 10
0.0
 20
0.0
 30
0.0
  0
XRECORD
  5
1450
102
{ACAD_REACTORS
330
1435
102
}
100
AcDbXrecord
 10
0.0
 20
0.0
 30
0.0
  0
XRECORD
  5
144D
102
{ACAD_REACTORS
330
1435
102
}
100
AcDbXrecord
340
0
  0
XRECORD
  5
144E
102
{ACAD_REACTORS
330
1435
102
}
100
AcDbXrecord
 70
     0
  0
XRECORD
  5
1441
102
{ACAD_REACTORS
330
1435
102
}
100
AcDbXrecord
  1
{A6B58D1E-8A25-4FE3-85E9-423048805B0E}
  0
DICTIONARYVAR
  5
363
102
{ACAD_REACTORS
330
362
102
}
100
DictionaryVariables
280
     0
  1
STANDARD
  0
DICTIONARYVAR
  5
AF0
102
{ACAD_REACTORS
330
362
102
}
100
DictionaryVariables
280
     0
  1
1
  0
DICTIONARYVAR
  5
AF1
102
{ACAD_REACTORS
330
362
102
}
100
DictionaryVariables
280
     0
  1

  0
DICTIONARY
  5
1460
100
AcDbDictionary
  3
ACAD_XREC_ROUNDTRIP
360
1461
  0
XRECORD
  5
105
102
{ACAD_REACTORS
330
103
102
}
100
AcDbXrecord
330
0
330
0
330
0
330
0
330
0
330
0
330
0
330
0
330
0
330
0
330
0
330
0
330
0
330
0
330
0
330
0
330
0
330
0
330
0
330
0
330
0
330
0
330
0
330
0
330
0
330
0
330
0
330
0
330
0
330
0
330
0
330
0
330
0
330
0
330
0
330
0
330
0
330
0
330
0
330
0
330
0
330
0
330
0
330
0
330
0
330
0
330
0
330
0
330
0
330
0
330
0
330
0
330
0
330
0
330
0
330
0
330
0
330
0
330
0
330
0
  0
XRECORD
  5
145D
102
{ACAD_REACTORS
330
145C
102
}
100
AcDbXrecord
102
EXTNAMES
  1
LAYOUT1
  2
Layout1
  1
MODEL
  2
Model
  0
DICTIONARY
  5
13D9
100
AcDbDictionary
  3
ACAD_XREC_ROUNDTRIP
360
13DA
  0
DICTIONARY
  5
13D7
100
AcDbDictionary
  3
ACAD_XREC_ROUNDTRIP
360
13D8
  0
XRECORD
  5
145B
102
{ACAD_REACTORS
330
145A
102
}
100
AcDbXrecord
102
EXTNAMES
  1
STANDARD
  2
Standard
  0
XRECORD
  5
145F
102
{ACAD_REACTORS
330
145E
102
}
100
AcDbXrecord
102
EXTNAMES
  1
STANDARD
  2
Standard
  0
XRECORD
  5
1461
102
{ACAD_REACTORS
330
1460
102
}
100
AcDbXrecord
102
EXTNAMES
  1
ASEBLOCKHIERARCHYINDEXRECORD
  2
ASEBlockHierarchyIndexRecord
  0
XRECORD
  5
13DA
102
{ACAD_REACTORS
330
13D9
102
}
100
AcDbXrecord
102
SHADEPLOT
 70
     0
102
SHADEPLOTRESLEVEL
 70
     2
102
SHADEPLOTCUSTOMDPI
 70
   300
  0
XRECORD
  5
13D8
102
{ACAD_REACTORS
330
13D7
102
}
100
AcDbXrecord
102
SHADEPLOT
 70
     0
102
SHADEPLOTRESLEVEL
 70
     2
102
SHADEPLOTCUSTOMDPI
 70
   300
  0
ENDSEC
  0
EOF
