  0
SECTION
  2
HEADER
  9
$ACADVER
  1
AC1009
  9
$INSBASE
 10
402.590624
 20
-1.041018
 30
0.0
  9
$EXTMIN
 10
-4.82194
 20
0.388406
 30
0.0
  9
$EXTMAX
 10
66.826351
 20
101.22456
 30
0.0
  9
$LIMMIN
 10
-407.970438
 20
-367.832444
  9
$LIMMAX
 10
429.804077
 20
234.370848
  9
$ORTHOMODE
 70
     1
  9
$REGENMODE
 70
     1
  9
$FILLMODE
 70
     1
  9
$QTEXTMODE
 70
     0
  9
$MIRRTEXT
 70
     1
  9
$DRAGMODE
 70
     2
  9
$LTSCALE
 40
10.0
  9
$OSMODE
 70
    35
  9
$ATTMODE
 70
     1
  9
$TEXTSIZE
 40
6.0
  9
$TRACEWID
 40
1.0
  9
$TEXTSTYLE
  7
ROMANS
  9
$CLAYER
  8
ALPHA
  9
$CELTYPE
  6
BYLAYER
  9
$CECOLOR
 62
   256
  9
$DIMSCALE
 40
1.0
  9
$DIMASZ
 40
5.0
  9
$DIMEXO
 40
2.0
  9
$DIMDLI
 40
0.38
  9
$DIMRND
 40
0.0
  9
$DIMDLE
 40
0.0
  9
$DIMEXE
 40
2.5
  9
$DIMTP
 40
0.0
  9
$DIMTM
 40
0.0
  9
$DIMTXT
 40
2.5
  9
$DIMCEN
 40
0.0
  9
$DIMTSZ
 40
0.0
  9
$DIMTOL
 70
     0
  9
$DIMLIM
 70
     0
  9
$DIMTIH
 70
     1
  9
$DIMTOH
 70
     1
  9
$DIMSE1
 70
     0
  9
$DIMSE2
 70
     0
  9
$DIMTAD
 70
     1
  9
$DIMZIN
 70
    12
  9
$DIMBLK
  1
OPEN30
  9
$DIMASO
 70
     1
  9
$DIMSHO
 70
     1
  9
$DIMPOST
  1

  9
$DIMAPOST
  1

  9
$DIMALT
 70
     0
  9
$DIMALTD
 70
     2
  9
$DIMALTF
 40
25.4
  9
$DIMLFAC
 40
1.0
  9
$DIMTOFL
 70
     0
  9
$DIMTVP
 40
0.0
  9
$DIMTIX
 70
     0
  9
$DIMSOXD
 70
     0
  9
$DIMSAH
 70
     0
  9
$DIMBLK1
  1

  9
$DIMBLK2
  1

  9
$DIMSTYLE
  2
SC_DEFAUT
  9
$DIMCLRD
 70
     0
  9
$DIMCLRE
 70
     0
  9
$DIMCLRT
 70
     0
  9
$DIMTFAC
 40
1.0
  9
$DIMGAP
 40
2.0
  9
$LUNITS
 70
     2
  9
$LUPREC
 70
     1
  9
$SKETCHINC
 40
0.1
  9
$FILLETRAD
 40
0.0
  9
$AUNITS
 70
     0
  9
$AUPREC
 70
     0
  9
$MENU
  1
acad
  9
$ELEVATION
 40
0.0
  9
$PELEVATION
 40
0.0
  9
$THICKNESS
 40
0.0
  9
$LIMCHECK
 70
     0
  9
$BLIPMODE
 70
     0
  9
$CHAMFERA
 40
0.0
  9
$CHAMFERB
 40
0.0
  9
$SKPOLY
 70
     0
  9
$TDCREATE
 40
2450373.687919
  9
$TDUPDATE
 40
2453038.419973
  9
$TDINDWG
 40
1.14565
  9
$TDUSRTIMER
 40
1.14565
  9
$USRTIMER
 70
     1
  9
$ANGBASE
 50
0.0
  9
$ANGDIR
 70
     0
  9
$PDMODE
 70
    32
  9
$PDSIZE
 40
0.0
  9
$PLINEWID
 40
0.0
  9
$COORDS
 70
     1
  9
$SPLFRAME
 70
     0
  9
$SPLINETYPE
 70
     6
  9
$SPLINESEGS
 70
     8
  9
$ATTDIA
 70
     0
  9
$ATTREQ
 70
     1
  9
$HANDLING
 70
     1
  9
$HANDSEED
  5
F284
  9
$SURFTAB1
 70
     6
  9
$SURFTAB2
 70
     6
  9
$SURFTYPE
 70
     6
  9
$SURFU
 70
     6
  9
$SURFV
 70
     6
  9
$UCSNAME
  2

  9
$UCSORG
 10
0.0
 20
0.0
 30
0.0
  9
$UCSXDIR
 10
1.0
 20
0.0
 30
0.0
  9
$UCSYDIR
 10
0.0
 20
1.0
 30
0.0
  9
$PUCSNAME
  2

  9
$PUCSORG
 10
0.0
 20
0.0
 30
0.0
  9
$PUCSXDIR
 10
1.0
 20
0.0
 30
0.0
  9
$PUCSYDIR
 10
0.0
 20
1.0
 30
0.0
  9
$USERI1
 70
     0
  9
$USERI2
 70
     0
  9
$USERI3
 70
     0
  9
$USERI4
 70
     0
  9
$USERI5
 70
     0
  9
$USERR1
 40
0.0
  9
$USERR2
 40
0.0
  9
$USERR3
 40
0.0
  9
$USERR4
 40
0.0
  9
$USERR5
 40
0.0
  9
$WORLDVIEW
 70
     1
  9
$SHADEDGE
 70
     3
  9
$SHADEDIF
 70
    70
  9
$TILEMODE
 70
     1
  9
$MAXACTVP
 70
    16
  9
$PLIMCHECK
 70
     0
  9
$PEXTMIN
 10
-1.452248
 20
-0.437698
 30
0.0
  9
$PEXTMAX
 10
12.749749
 20
8.310198
 30
0.0
  9
$PLIMMIN
 10
0.0
 20
0.0
  9
$PLIMMAX
 10
12.0
 20
9.0
  9
$UNITMODE
 70
     0
  9
$VISRETAIN
 70
     0
  9
$PLINEGEN
 70
     0
  9
$PSLTSCALE
 70
     0
  0
ENDSEC
  0
SECTION
  2
TABLES
  0
TABLE
  2
VPORT
 70
     2
  0
VPORT
  2
*ACTIVE
 70
     0
 10
0.0
 20
0.0
 11
1.0
 21
1.0
 12
30.986798
 22
50.795145
 13
0.0
 23
0.0
 14
1.0
 24
1.0
 15
10.0
 25
10.0
 16
0.0
 26
0.0
 36
1.0
 17
0.0
 27
0.0
 37
0.0
 40
101.620772
 41
1.466346
 42
50.0
 43
0.0
 44
0.0
 50
0.0
 51
0.0
 71
     0
 72
   100
 73
     1
 74
     0
 75
     0
 76
     0
 77
     0
 78
     0
  0
ENDTAB
  0
TABLE
  2
LTYPE
 70
     3
  0
LTYPE
  2
CONTINUOUS
 70
     0
  3
Solid line
 72
    65
 73
     0
 40
0.0
  0
LTYPE
  2
AXES2
 70
     0
  3
___ _ ___ _ ___ _ ___ _ ___ _ ___ _ ___ _ ___ _
 72
    65
 73
     4
 40
1.125
 49
0.75
 49
-0.125
 49
0.125
 49
-0.125
  0
LTYPE
  2
CENTER
 70
     0
  3
____ _ ____ _ ____ _ ____ _ ____ _ ____ _ ____
 72
    65
 73
     4
 40
0.6
 49
0.375
 49
-0.075
 49
0.075
 49
-0.075
  0
ENDTAB
  0
TABLE
  2
LAYER
 70
     6
  0
LAYER
  2
0
 70
     0
 62
   255
  6
CONTINUOUS
  0
LAYER
  2
COTATION1
 70
     0
 62
     2
  6
CONTINUOUS
  0
LAYER
  2
AXE
 70
     0
 62
    80
  6
AXES2
  0
LAYER
  2
DEFPOINTS
 70
     0
 62
     7
  6
CONTINUOUS
  0
LAYER
  2
ALPHA
 70
     0
 62
   254
  6
CONTINUOUS
  0
LAYER
  2
DEFAULT_1
 70
     0
 62
     7
  6
CENTER
  0
ENDTAB
  0
TABLE
  2
STYLE
 70
     2
  0
STYLE
  2
ROMANS
 70
     0
 40
0.0
 41
1.0
 50
0.0
 71
     0
 42
6.0
  3
romans
  4

  0
STYLE
  2
STANDARD
 70
     0
 40
0.0
 41
1.0
 50
0.0
 71
     0
 42
0.2
  3
txt
  4

  0
ENDTAB
  0
TABLE
  2
VIEW
 70
     0
  0
ENDTAB
  0
TABLE
  2
UCS
 70
     0
  0
ENDTAB
  0
TABLE
  2
APPID
 70
     1
  0
APPID
  2
ACAD
 70
     0
  0
ENDTAB
  0
TABLE
  2
DIMSTYLE
 70
     2
  0
DIMSTYLE
  2
SC_DEFAUT
 70
     0
  3

  4

  5
OPEN30
  6

  7

 40
1.0
 41
5.0
 42
2.0
 43
0.38
 44
2.5
 45
0.0
 46
0.0
 47
0.0
 48
0.0
140
2.5
141
0.0
142
0.0
143
25.4
144
1.0
145
0.0
146
1.0
147
2.0
 71
     0
 72
     0
 73
     1
 74
     1
 75
     0
 76
     0
 77
     1
 78
    12
170
     0
171
     2
172
     0
173
     0
174
     0
175
     0
176
     0
177
     0
178
     0
  0
DIMSTYLE
  2
STANDARD
 70
     0
  3

  4

  5

  6

  7

 40
1.0
 41
0.18
 42
0.0625
 43
0.38
 44
0.18
 45
0.0
 46
0.0
 47
0.0
 48
0.0
140
0.18
141
0.09
142
0.0
143
25.4
144
1.0
145
0.0
146
1.0
147
0.09
 71
     0
 72
     0
 73
     1
 74
     1
 75
     0
 76
     0
 77
     0
 78
     0
170
     0
171
     2
172
     0
173
     0
174
     0
175
     0
176
     0
177
     0
178
     0
  0
ENDTAB
  0
ENDSEC
  0
SECTION
  2
BLOCKS
  0
BLOCK
  8
0
  2
$MODEL_SPACE
 70
     0
 10
0.0
 20
0.0
 30
0.0
  3
$MODEL_SPACE
  1

  0
ENDBLK
  5
EBB2
  8
0
  0
BLOCK
 67
     1
  8
0
  2
$PAPER_SPACE
 70
     0
 10
0.0
 20
0.0
 30
0.0
  3
$PAPER_SPACE
  1

  0
ENDBLK
  5
EBB0
 67
     1
  8
0
  0
BLOCK
  8
0
  2
COTE
 70
     0
 10
0.0
 20
0.0
 30
0.0
  3
COTE
  1

  0
ENDBLK
  5
F
  8
0
  0
BLOCK
  8
0
  2
FOND
 70
     0
 10
0.0
 20
0.0
 30
0.0
  3
FOND
  1

  0
ENDBLK
  5
75
  8
0
  0
BLOCK
  8
0
  2
_OPEN30
 70
     0
 10
0.0
 20
0.0
 30
0.0
  3
_OPEN30
  1

  0
LINE
  5
4B05
  8
COTATION1
 62
     0
 10
-1.0
 20
0.267949
 30
0.0
 11
0.0
 21
0.0
 31
0.0
1001
ACAD
1000
RTLwPs
1070
   158
  0
LINE
  5
4B06
  8
COTATION1
 62
     0
 10
0.0
 20
0.0
 30
0.0
 11
-1.0
 21
-0.267949
 31
0.0
1001
ACAD
1000
RTLwPs
1070
   158
  0
LINE
  5
4B07
  8
COTATION1
 62
     0
 10
0.0
 20
0.0
 30
0.0
 11
-1.0
 21
0.0
 31
0.0
1001
ACAD
1000
RTLwPs
1070
   158
  0
ENDBLK
  5
4B09
  8
0
  0
BLOCK
  8
0
  2
*D3
 70
     1
 10
0.0
 20
0.0
 30
0.0
  3
*D3
  1

  0
LINE
  5
DA1E
  8
COTATION1
 62
     0
 10
12.535064
 20
28.02456
 30
0.0
 11
12.535064
 21
0.388406
 31
0.0
1001
ACAD
1000
RTLwPs
1070
   158
  0
LINE
  5
DA1F
  8
COTATION1
 62
     0
 10
43.531923
 20
28.02456
 30
0.0
 11
43.531923
 21
0.388406
 31
0.0
1001
ACAD
1000
RTLwPs
1070
   158
  0
LINE
  5
DA20
  8
COTATION1
 62
     0
 10
17.535064
 20
2.888406
 30
0.0
 11
38.531923
 21
2.888406
 31
0.0
1001
ACAD
1000
RTLwPs
1070
   158
  0
INSERT
  5
DA21
  8
COTATION1
 62
     0
  2
_OPEN30
 10
12.535064
 20
2.888406
 30
0.0
 41
5.0
 42
5.0
 43
5.0
 50
180.0
1001
ACAD
1000
RTLwPs
1070
   158
  0
INSERT
  5
DA22
  8
COTATION1
 62
     0
  2
_OPEN30
 10
43.531923
 20
2.888406
 30
0.0
 41
5.0
 42
5.0
 43
5.0
1001
ACAD
1000
RTLwPs
1070
   158
  0
TEXT
  5
DA23
  8
COTATION1
 62
     0
 10
26.009684
 20
4.888406
 30
0.0
 40
2.5
  1
31
1001
ACAD
1000
MTEXTBEGIN
1070
    73
1070
     1
1070
    44
1040
1.0
1070
    74
1070
     0
1000
MTEXTEND
  0
POINT
  5
DA24
  8
DEFPOINTS
 62
     0
 10
12.535064
 20
30.02456
 30
0.0
  0
POINT
  5
DA25
  8
DEFPOINTS
 62
     0
 10
43.531923
 20
30.02456
 30
0.0
  0
POINT
  5
DA26
  8
DEFPOINTS
 62
     0
 10
43.531923
 20
2.888406
 30
0.0
  0
ENDBLK
  5
D9CC
  8
0
  0
BLOCK
  8
0
  2
*D4
 70
     1
 10
0.0
 20
0.0
 30
0.0
  3
*D4
  1

  0
LINE
  5
DA27
  8
COTATION1
 62
     0
 10
38.033537
 20
88.72456
 30
0.0
 11
65.933494
 21
88.72456
 31
0.0
1001
ACAD
1000
RTLwPs
1070
   158
  0
LINE
  5
DA28
  8
COTATION1
 62
     0
 10
45.416734
 20
23.62456
 30
0.0
 11
65.933494
 21
23.62456
 31
0.0
1001
ACAD
1000
RTLwPs
1070
   158
  0
LINE
  5
DA29
  8
COTATION1
 62
     0
 10
63.433494
 20
83.72456
 30
0.0
 11
63.433494
 21
59.42456
 31
0.0
1001
ACAD
1000
RTLwPs
1070
   158
  0
LINE
  5
DA2A
  8
COTATION1
 62
     0
 10
63.433494
 20
28.62456
 30
0.0
 11
63.433494
 21
52.92456
 31
0.0
1001
ACAD
1000
RTLwPs
1070
   158
  0
INSERT
  5
DA2B
  8
COTATION1
 62
     0
  2
_OPEN30
 10
63.433494
 20
88.72456
 30
0.0
 41
5.0
 42
5.0
 43
5.0
 50
90.0
1001
ACAD
1000
RTLwPs
1070
   158
  0
INSERT
  5
DA2C
  8
COTATION1
 62
     0
  2
_OPEN30
 10
63.433494
 20
23.62456
 30
0.0
 41
5.0
 42
5.0
 43
5.0
 50
270.0
1001
ACAD
1000
RTLwPs
1070
   158
  0
TEXT
  5
DA2D
  8
COTATION1
 62
     0
 10
59.564446
 20
54.92456
 30
0.0
 40
2.5
  1
65.1
1001
ACAD
1000
MTEXTBEGIN
1070
    73
1070
     1
1070
    44
1040
1.0
1070
    74
1070
     0
1000
MTEXTEND
  0
POINT
  5
DA2E
  8
DEFPOINTS
 62
     0
 10
36.033537
 20
88.72456
 30
0.0
  0
POINT
  5
DA2F
  8
DEFPOINTS
 62
     0
 10
43.416734
 20
23.62456
 30
0.0
  0
POINT
  5
DA30
  8
DEFPOINTS
 62
     0
 10
63.433494
 20
23.62456
 30
0.0
  0
ENDBLK
  5
D9D9
  8
0
  0
ENDSEC
  0
SECTION
  2
ENTITIES
  0
INSERT
  5
A
  8
0
  2
COTE
 10
0.0
 20
0.0
 30
0.0
  0
INSERT
  5
17
  8
0
  2
COTE
 10
284.010391
 20
6.373258
 30
0.0
  0
INSERT
  5
72
  8
0
  2
FOND
 10
0.0
 20
0.0
 30
0.0
  0
LINE
  5
D7E0
  8
0
  6
CONTINUOUS
 62
     2
 10
-4.82194
 20
44.07456
 30
0.0
 11
5.17806
 21
44.07456
 31
0.0
  0
LINE
  5
D7E1
  8
0
  6
CONTINUOUS
 62
     2
 10
5.17806
 20
39.07456
 30
0.0
 11
-4.82194
 21
39.07456
 31
0.0
  0
LINE
  5
D7E2
  8
0
  6
CONTINUOUS
 62
     2
 10
24.254646
 20
31.57456
 30
0.0
 11
0.17806
 21
31.57456
 31
0.0
  0
TEXT
  5
D7E3
  8
0
  6
CONTINUOUS
 62
     2
 10
-3.57194
 20
40.32456
 30
0.0
 40
2.5
  1
ENTRY
 41
0.642857
  7
STANDARD
 72
     5
 11
3.92806
 21
40.32456
 31
0.0
  0
LINE
  5
D7E4
  8
0
  6
CONTINUOUS
 62
     2
 10
-4.82194
 20
39.07456
 30
0.0
 11
-4.82194
 21
44.07456
 31
0.0
  0
LINE
  5
D7E5
  8
0
  6
CONTINUOUS
 62
     2
 10
0.17806
 20
34.07456
 30
0.0
 11
0.17806
 21
39.07456
 31
0.0
  0
SOLID
  5
D7E6
  8
0
  6
CONTINUOUS
 62
     2
 10
1.621436
 20
31.57456
 30
0.0
 11
-1.265315
 21
31.57456
 31
0.0
 12
0.17806
 22
34.07456
 32
0.0
 13
0.17806
 23
34.07456
 33
0.0
  0
LINE
  5
D7F2
  8
0
  6
CONTINUOUS
 62
     2
 10
5.17806
 20
44.07456
 30
0.0
 11
5.17806
 21
39.07456
 31
0.0
  0
LINE
  5
D802
  8
0
  6
CONTINUOUS
 62
     2
 10
-4.07194
 20
101.22456
 30
0.0
 11
4.42806
 21
101.22456
 31
0.0
  0
LINE
  5
D803
  8
0
  6
CONTINUOUS
 62
     2
 10
4.42806
 20
96.22456
 30
0.0
 11
-4.07194
 21
96.22456
 31
0.0
  0
TEXT
  5
D804
  8
0
  6
CONTINUOUS
 62
     2
 10
-2.82194
 20
97.47456
 30
0.0
 40
2.5
  1
HEAD
 41
0.654545
  7
STANDARD
 72
     5
 11
3.17806
 21
97.47456
 31
0.0
  0
SOLID
  5
D805
  8
0
  6
CONTINUOUS
 62
     2
 10
1.621436
 20
88.72456
 30
0.0
 11
-1.265315
 21
88.72456
 31
0.0
 12
0.17806
 22
91.22456
 32
0.0
 13
0.17806
 23
91.22456
 33
0.0
  0
LINE
  5
D806
  8
0
  6
CONTINUOUS
 62
     2
 10
-4.07194
 20
96.22456
 30
0.0
 11
-4.07194
 21
101.22456
 31
0.0
  0
LINE
  5
D807
  8
0
  6
CONTINUOUS
 62
     2
 10
0.17806
 20
91.22456
 30
0.0
 11
0.17806
 21
96.22456
 31
0.0
  0
LINE
  5
D80C
  8
0
  6
CONTINUOUS
 62
     2
 10
20.03345
 20
88.72456
 30
0.0
 11
0.17806
 21
88.72456
 31
0.0
  0
LINE
  5
D90D
  8
0
  6
CONTINUOUS
 62
     2
 10
4.42806
 20
101.22456
 30
0.0
 11
4.42806
 21
96.22456
 31
0.0
  0
LINE
  5
D9B7
  8
AXE
 10
28.033494
 20
12.888406
 30
0.0
 11
28.033494
 21
93.72456
 31
0.0
  0
LINE
  5
D9B8
  8
AXE
 10
48.433494
 20
56.07456
 30
0.0
 11
2.633494
 21
56.07456
 31
0.0
  0
TEXT
  5
D9B9
  8
AXE
 10
6.681113
 20
57.07456
 30
0.0
 40
5.0
  1
X
 71
     2
 72
     2
 11
2.633494
 21
57.07456
 31
0.0
  0
DIMENSION
  5
D9BA
  8
COTATION1
  2
*D4
 10
63.433494
 20
23.62456
 30
0.0
 11
63.433494
 21
56.17456
 31
0.0
 13
36.033537
 23
88.72456
 33
0.0
 14
43.416734
 24
23.62456
 34
0.0
 50
90.0
  0
DIMENSION
  5
D9BD
  8
COTATION1
  2
*D3
 10
43.531923
 20
2.888406
 30
0.0
 11
28.033494
 21
6.138406
 31
0.0
 13
12.535064
 23
30.02456
 33
0.0
 14
43.531923
 24
30.02456
 34
0.0
  0
TEXT
  5
D9C0
  8
AXE
 10
22.985874
 20
12.888406
 30
0.0
 40
5.0
  1
Y
 72
     2
 11
27.033494
 21
12.888406
 31
0.0
  0
ARC
  5
DF30
  8
ALPHA
 10
28.033494
 20
27.66206
 30
0.0
 40
61.0625
 50
76.029932
 51
103.970068
  0
LINE
  5
DF32
  8
ALPHA
 10
28.408494
 20
64.618176
 30
0.0
 11
28.483493
 21
64.426689
 31
0.0
  0
LINE
  5
DF33
  8
ALPHA
 10
28.783494
 20
61.02243
 30
0.0
 11
28.408494
 21
61.02243
 31
0.0
  0
LINE
  5
DF34
  8
ALPHA
 10
31.033494
 20
58.72456
 30
0.0
 11
28.333494
 21
58.72456
 31
0.0
  0
LINE
  5
DF35
  8
ALPHA
 10
28.333494
 20
59.043709
 30
0.0
 11
30.433494
 21
60.639454
 31
0.0
  0
LINE
  5
DF36
  8
ALPHA
 10
28.408494
 20
61.02243
 30
0.0
 11
28.483493
 21
61.277752
 31
0.0
  0
LINE
  5
DF37
  8
ALPHA
 10
28.483493
 20
66.02243
 30
0.0
 11
28.408494
 21
65.830944
 31
0.0
  0
LINE
  5
DF38
  8
ALPHA
 10
34.533494
 20
42.72456
 30
0.0
 11
21.533494
 21
42.72456
 31
0.0
  0
LINE
  5
DF39
  8
ALPHA
 10
21.533494
 20
34.72456
 30
0.0
 11
34.533494
 21
34.72456
 31
0.0
  0
LINE
  5
DF3A
  8
ALPHA
 10
28.733493
 20
34.02456
 30
0.0
 11
28.358493
 21
34.02456
 31
0.0
  0
LINE
  5
DF3B
  8
ALPHA
 10
28.808493
 20
33.705411
 30
0.0
 11
28.283494
 21
33.705411
 31
0.0
  0
LINE
  5
DF3C
  8
ALPHA
 10
28.283494
 20
32.428815
 30
0.0
 11
28.808493
 21
32.428815
 31
0.0
  0
LINE
  5
DF3D
  8
ALPHA
 10
28.358493
 20
32.109666
 30
0.0
 11
28.733493
 21
32.109666
 31
0.0
  0
POLYLINE
  5
DF3E
  8
ALPHA
 66
     1
 10
0.0
 20
0.0
 30
0.0
  0
VERTEX
  5
EBB8
  8
ALPHA
 10
36.485608
 20
30.341691
 30
0.0
  0
VERTEX
  5
EBB9
  8
ALPHA
 10
34.836934
 20
30.362803
 30
0.0
  0
VERTEX
  5
EBBA
  8
ALPHA
 10
33.016363
 20
30.379152
 30
0.0
  0
VERTEX
  5
EBBB
  8
ALPHA
 10
31.074446
 20
30.390272
 30
0.0
  0
VERTEX
  5
EBBC
  8
ALPHA
 10
29.056244
 20
30.395908
 30
0.0
  0
VERTEX
  5
EBBD
  8
ALPHA
 10
27.010742
 20
30.395908
 30
0.0
  0
VERTEX
  5
EBBE
  8
ALPHA
 10
24.992418
 20
30.390272
 30
0.0
  0
VERTEX
  5
EBBF
  8
ALPHA
 10
23.050501
 20
30.379151
 30
0.0
  0
VERTEX
  5
EBC0
  8
ALPHA
 10
21.230084
 20
30.362803
 30
0.0
  0
VERTEX
  5
EBC1
  8
ALPHA
 10
19.581379
 20
30.341691
 30
0.0
  0
SEQEND
  5
EBC2
  8
ALPHA
  0
POLYLINE
  5
DF3F
  8
ALPHA
 66
     1
 10
0.0
 20
0.0
 30
0.0
  0
VERTEX
  5
EBC3
  8
ALPHA
 10
36.550624
 20
30.441675
 30
0.0
  0
VERTEX
  5
EBC4
  8
ALPHA
 10
34.891998
 20
30.462758
 30
0.0
  0
VERTEX
  5
EBC5
  8
ALPHA
 10
33.056797
 20
30.479122
 30
0.0
  0
VERTEX
  5
EBC6
  8
ALPHA
 10
31.09918
 20
30.490252
 30
0.0
  0
VERTEX
  5
EBC7
  8
ALPHA
 10
29.064549
 20
30.495892
 30
0.0
  0
VERTEX
  5
EBC8
  8
ALPHA
 10
27.002326
 20
30.495892
 30
0.0
  0
VERTEX
  5
EBC9
  8
ALPHA
 10
24.967586
 20
30.490251
 30
0.0
  0
VERTEX
  5
EBCA
  8
ALPHA
 10
23.009982
 20
30.47912
 30
0.0
  0
VERTEX
  5
EBCB
  8
ALPHA
 10
21.174944
 20
30.462758
 30
0.0
  0
VERTEX
  5
EBCC
  8
ALPHA
 10
19.516363
 20
30.441675
 30
0.0
  0
SEQEND
  5
EBCD
  8
ALPHA
  0
LINE
  5
DF40
  8
ALPHA
 10
28.808493
 20
31.343709
 30
0.0
 11
28.358493
 21
31.343709
 31
0.0
  0
LINE
  5
DF41
  8
ALPHA
 10
28.433494
 20
31.02456
 30
0.0
 11
28.733493
 21
31.02456
 31
0.0
  0
LINE
  5
DF42
  8
ALPHA
 10
36.633509
 20
30.52456
 30
0.0
 11
19.433478
 21
30.52456
 31
0.0
  0
POLYLINE
  5
DF43
  8
ALPHA
 66
     1
 10
0.0
 20
0.0
 30
0.0
  0
VERTEX
  5
EBCE
  8
ALPHA
 10
19.516363
 20
25.007445
 30
0.0
  0
VERTEX
  5
EBCF
  8
ALPHA
 10
21.174928
 20
24.986362
 30
0.0
  0
VERTEX
  5
EBD0
  8
ALPHA
 10
23.00996
 20
24.969999
 30
0.0
  0
VERTEX
  5
EBD1
  8
ALPHA
 10
24.967564
 20
24.958869
 30
0.0
  0
VERTEX
  5
EBD2
  8
ALPHA
 10
27.002304
 20
24.953228
 30
0.0
  0
VERTEX
  5
EBD3
  8
ALPHA
 10
29.064526
 20
24.953228
 30
0.0
  0
VERTEX
  5
EBD4
  8
ALPHA
 10
31.099159
 20
24.958868
 30
0.0
  0
VERTEX
  5
EBD5
  8
ALPHA
 10
33.056776
 20
24.969998
 30
0.0
  0
VERTEX
  5
EBD6
  8
ALPHA
 10
34.891982
 20
24.986361
 30
0.0
  0
VERTEX
  5
EBD7
  8
ALPHA
 10
36.550624
 20
25.007445
 30
0.0
  0
SEQEND
  5
EBD8
  8
ALPHA
  0
LINE
  5
DF44
  8
ALPHA
 10
36.633509
 20
24.92456
 30
0.0
 11
19.433478
 21
24.92456
 31
0.0
  0
LINE
  5
DF45
  8
ALPHA
 10
40.233494
 20
23.72456
 30
0.0
 11
15.833494
 21
23.72456
 31
0.0
  0
LINE
  5
DF46
  8
ALPHA
 10
38.155368
 20
23.67456
 30
0.0
 11
17.911619
 21
23.67456
 31
0.0
  0
POLYLINE
  5
DF47
  8
ALPHA
 66
     1
 10
0.0
 20
0.0
 30
0.0
  0
VERTEX
  5
EBD9
  8
ALPHA
 10
36.485608
 20
25.107429
 30
0.0
  0
VERTEX
  5
EBDA
  8
ALPHA
 10
34.836928
 20
25.086317
 30
0.0
  0
VERTEX
  5
EBDB
  8
ALPHA
 10
33.016358
 20
25.069967
 30
0.0
  0
VERTEX
  5
EBDC
  8
ALPHA
 10
31.074444
 20
25.058847
 30
0.0
  0
VERTEX
  5
EBDD
  8
ALPHA
 10
29.05624
 20
25.053212
 30
0.0
  0
VERTEX
  5
EBDE
  8
ALPHA
 10
27.010737
 20
25.053212
 30
0.0
  0
VERTEX
  5
EBDF
  8
ALPHA
 10
24.992416
 20
25.058848
 30
0.0
  0
VERTEX
  5
EBE0
  8
ALPHA
 10
23.050497
 20
25.069968
 30
0.0
  0
VERTEX
  5
EBE1
  8
ALPHA
 10
21.230079
 20
25.086317
 30
0.0
  0
VERTEX
  5
EBE2
  8
ALPHA
 10
19.581379
 20
25.107429
 30
0.0
  0
SEQEND
  5
EBE3
  8
ALPHA
  0
LINE
  5
DF49
  8
ALPHA
 10
22.033494
 20
48.22456
 30
0.0
 11
22.033494
 21
43.22456
 31
0.0
  0
LINE
  5
DF4A
  8
ALPHA
 10
12.535064
 20
30.02456
 30
0.0
 11
12.535064
 21
70.725151
 31
0.0
  0
CIRCLE
  5
DF54
  8
ALPHA
 10
18.533494
 20
27.72456
 30
0.0
 40
1.85
  0
ARC
  5
DF55
  8
ALPHA
 10
18.533494
 20
27.72456
 30
0.0
 40
2.5
 50
290.252013
 51
69.747987
  0
ARC
  5
DF56
  8
ALPHA
 10
21.533494
 20
38.72456
 30
0.0
 40
4.0
 50
90.0
 51
270.0
  0
POLYLINE
  5
DF57
  8
ALPHA
 66
     1
 10
0.0
 20
0.0
 30
0.0
  0
VERTEX
  5
EBE4
  8
ALPHA
 10
19.479729
 20
25.321248
 30
0.0
  0
VERTEX
  5
EBE5
  8
ALPHA
 10
19.65765
 20
25.402153
 30
0.0
  0
VERTEX
  5
EBE6
  8
ALPHA
 10
19.847611
 20
25.507346
 30
0.0
  0
VERTEX
  5
EBE7
  8
ALPHA
 10
20.044086
 20
25.639662
 30
0.0
  0
VERTEX
  5
EBE8
  8
ALPHA
 10
20.241082
 20
25.80125
 30
0.0
  0
VERTEX
  5
EBE9
  8
ALPHA
 10
20.431415
 20
25.992463
 30
0.0
  0
VERTEX
  5
EBEA
  8
ALPHA
 10
20.606847
 20
26.21056
 30
0.0
  0
VERTEX
  5
EBEB
  8
ALPHA
 10
20.759669
 20
26.449551
 30
0.0
  0
VERTEX
  5
EBEC
  8
ALPHA
 10
20.885235
 20
26.703165
 30
0.0
  0
VERTEX
  5
EBED
  8
ALPHA
 10
20.985074
 20
26.977692
 30
0.0
  0
VERTEX
  5
EBEE
  8
ALPHA
 10
21.059626
 20
27.297471
 30
0.0
  0
VERTEX
  5
EBEF
  8
ALPHA
 10
21.094447
 20
27.667282
 30
0.0
  0
VERTEX
  5
EBF0
  8
ALPHA
 10
21.074893
 20
28.047305
 30
0.0
  0
VERTEX
  5
EBF1
  8
ALPHA
 10
21.008434
 20
28.388916
 30
0.0
  0
VERTEX
  5
EBF2
  8
ALPHA
 10
20.912534
 20
28.679799
 30
0.0
  0
VERTEX
  5
EBF3
  8
ALPHA
 10
20.78577
 20
28.952225
 30
0.0
  0
VERTEX
  5
EBF4
  8
ALPHA
 10
20.621632
 20
29.217791
 30
0.0
  0
VERTEX
  5
EBF5
  8
ALPHA
 10
20.423067
 20
29.465917
 30
0.0
  0
VERTEX
  5
EBF6
  8
ALPHA
 10
20.197523
 20
29.686438
 30
0.0
  0
VERTEX
  5
EBF7
  8
ALPHA
 10
19.955498
 20
29.872336
 30
0.0
  0
VERTEX
  5
EBF8
  8
ALPHA
 10
19.710951
 20
30.019512
 30
0.0
  0
VERTEX
  5
EBF9
  8
ALPHA
 10
19.479733
 20
30.127874
 30
0.0
  0
SEQEND
  5
EBFA
  8
ALPHA
  0
POLYLINE
  5
DF58
  8
ALPHA
 66
     1
 10
0.0
 20
0.0
 30
0.0
  0
VERTEX
  5
EBFB
  8
ALPHA
 10
19.581379
 20
25.228179
 30
0.0
  0
VERTEX
  5
EBFC
  8
ALPHA
 10
19.756456
 20
25.307963
 30
0.0
  0
VERTEX
  5
EBFD
  8
ALPHA
 10
19.942831
 20
25.410476
 30
0.0
  0
VERTEX
  5
EBFE
  8
ALPHA
 10
20.135766
 20
25.538418
 30
0.0
  0
VERTEX
  5
EBFF
  8
ALPHA
 10
20.330151
 20
25.693988
 30
0.0
  0
VERTEX
  5
EC00
  8
ALPHA
 10
20.51959
 20
25.877778
 30
0.0
  0
VERTEX
  5
EC01
  8
ALPHA
 10
20.696719
 20
26.087856
 30
0.0
  0
VERTEX
  5
EC02
  8
ALPHA
 10
20.854409
 20
26.319552
 30
0.0
  0
VERTEX
  5
EC03
  8
ALPHA
 10
20.986455
 20
26.564691
 30
0.0
  0
VERTEX
  5
EC04
  8
ALPHA
 10
21.093946
 20
26.82596
 30
0.0
  0
VERTEX
  5
EC05
  8
ALPHA
 10
21.179852
 20
27.123814
 30
0.0
  0
VERTEX
  5
EC06
  8
ALPHA
 10
21.235392
 20
27.471129
 30
0.0
  0
VERTEX
  5
EC07
  8
ALPHA
 10
21.244443
 20
27.84815
 30
0.0
  0
VERTEX
  5
EC08
  8
ALPHA
 10
21.203388
 20
28.210262
 30
0.0
  0
VERTEX
  5
EC09
  8
ALPHA
 10
21.125695
 20
28.527153
 30
0.0
  0
VERTEX
  5
EC0A
  8
ALPHA
 10
21.021105
 20
28.808287
 30
0.0
  0
VERTEX
  5
EC0B
  8
ALPHA
 10
20.885721
 20
29.07664
 30
0.0
  0
VERTEX
  5
EC0C
  8
ALPHA
 10
20.715455
 20
29.336293
 30
0.0
  0
VERTEX
  5
EC0D
  8
ALPHA
 10
20.513886
 20
29.577427
 30
0.0
  0
VERTEX
  5
EC0E
  8
ALPHA
 10
20.288516
 20
29.790993
 30
0.0
  0
VERTEX
  5
EC0F
  8
ALPHA
 10
20.049322
 20
29.970994
 30
0.0
  0
VERTEX
  5
EC10
  8
ALPHA
 10
19.808967
 20
30.114202
 30
0.0
  0
VERTEX
  5
EC11
  8
ALPHA
 10
19.581379
 20
30.220908
 30
0.0
  0
SEQEND
  5
EC12
  8
ALPHA
  0
LINE
  5
DF59
  8
ALPHA
 10
18.533494
 20
32.52456
 30
0.0
 11
22.733494
 21
32.52456
 31
0.0
  0
LINE
  5
DF5A
  8
ALPHA
 10
18.533494
 20
30.52456
 30
0.0
 11
18.533494
 21
33.52456
 31
0.0
  0
LINE
  5
DF5B
  8
ALPHA
 10
15.833494
 20
23.72456
 30
0.0
 11
15.833494
 21
29.72456
 31
0.0
  0
LINE
  5
DF5C
  8
ALPHA
 10
15.583494
 20
27.562124
 30
0.0
 11
15.583494
 21
23.62456
 31
0.0
  0
LINE
  5
DF5D
  8
ALPHA
 10
14.883494
 20
27.984984
 30
0.0
 11
14.883494
 21
25.63759
 31
0.0
  0
LINE
  5
DF5E
  8
ALPHA
 10
12.67022
 20
27.625172
 30
0.0
 11
12.670741
 21
27.271763
 31
0.0
  0
LINE
  5
DF5F
  8
ALPHA
 10
12.683959
 20
27.984984
 30
0.0
 11
12.688433
 21
25.63759
 31
0.0
  0
LINE
  5
DF60
  8
ALPHA
 10
12.601553
 20
27.398429
 30
0.0
 11
12.601348
 21
27.47737
 31
0.0
  0
LINE
  5
DF61
  8
ALPHA
 10
12.602614
 20
26.233444
 30
0.0
 11
12.587956
 21
27.995906
 31
0.0
  0
LINE
  5
DF62
  8
ALPHA
 10
12.595782
 20
26.986541
 30
0.0
 11
12.591155
 21
27.565393
 31
0.0
  0
LINE
  5
DF63
  8
ALPHA
 10
15.583494
 20
27.068639
 30
0.0
 11
14.904052
 21
28.245466
 31
0.0
  0
LINE
  5
DF64
  8
ALPHA
 10
14.883494
 20
25.63759
 30
0.0
 11
12.688433
 21
25.63759
 31
0.0
  0
LINE
  5
DF65
  8
ALPHA
 10
12.650253
 20
23.62456
 30
0.0
 11
15.583494
 21
23.62456
 31
0.0
  0
POLYLINE
  5
DF66
  8
ALPHA
 66
     1
 10
0.0
 20
0.0
 30
0.0
  0
VERTEX
  5
EC13
  8
ALPHA
 10
12.681052
 20
23.62456
 30
0.0
  0
VERTEX
  5
EC14
  8
ALPHA
 10
12.683177
 20
23.680464
 30
0.0
  0
VERTEX
  5
EC15
  8
ALPHA
 10
12.685154
 20
23.845393
 30
0.0
  0
VERTEX
  5
EC16
  8
ALPHA
 10
12.686805
 20
24.103228
 30
0.0
  0
VERTEX
  5
EC17
  8
ALPHA
 10
12.688045
 20
24.441556
 30
0.0
  0
VERTEX
  5
EC18
  8
ALPHA
 10
12.688749
 20
24.825904
 30
0.0
  0
VERTEX
  5
EC19
  8
ALPHA
 10
12.688884
 20
25.237247
 30
0.0
  0
VERTEX
  5
EC1A
  8
ALPHA
 10
12.688433
 20
25.63759
 30
0.0
  0
SEQEND
  5
EC1B
  8
ALPHA
  0
POLYLINE
  5
DF67
  8
ALPHA
 66
     1
 10
0.0
 20
0.0
 30
0.0
  0
VERTEX
  5
EC1C
  8
ALPHA
 10
12.670741
 20
27.271763
 30
0.0
  0
VERTEX
  5
EC1D
  8
ALPHA
 10
12.670614
 20
27.156331
 30
0.0
  0
VERTEX
  5
EC1E
  8
ALPHA
 10
12.670279
 20
27.062052
 30
0.0
  0
VERTEX
  5
EC1F
  8
ALPHA
 10
12.669764
 20
26.996845
 30
0.0
  0
VERTEX
  5
EC20
  8
ALPHA
 10
12.66917
 20
26.97456
 30
0.0
  0
SEQEND
  5
EC21
  8
ALPHA
  0
LINE
  5
DF68
  8
ALPHA
 10
12.655426
 20
27.270663
 30
0.0
 11
12.65536
 21
27.32456
 31
0.0
  0
POLYLINE
  5
DF69
  8
ALPHA
 66
     1
 10
0.0
 20
0.0
 30
0.0
  0
VERTEX
  5
EC22
  8
ALPHA
 10
12.656837
 20
27.010896
 30
0.0
  0
VERTEX
  5
EC23
  8
ALPHA
 10
12.655999
 20
27.114622
 30
0.0
  0
VERTEX
  5
EC24
  8
ALPHA
 10
12.655426
 20
27.270663
 30
0.0
  0
SEQEND
  5
EC25
  8
ALPHA
  0
LINE
  5
DF6A
  8
ALPHA
 10
12.599865
 20
26.525331
 30
0.0
 11
12.595782
 21
26.986541
 31
0.0
  0
LINE
  5
DF6B
  8
ALPHA
 10
12.603104
 20
26.192228
 30
0.0
 11
12.599865
 21
26.525331
 31
0.0
  0
LINE
  5
DF6C
  8
ALPHA
 10
12.608347
 20
25.694628
 30
0.0
 11
12.603104
 21
26.192228
 31
0.0
  0
POLYLINE
  5
DF6D
  8
ALPHA
 66
     1
 10
0.0
 20
0.0
 30
0.0
  0
VERTEX
  5
EC26
  8
ALPHA
 10
12.602614
 20
26.233444
 30
0.0
  0
VERTEX
  5
EC27
  8
ALPHA
 10
12.618442
 20
24.902496
 30
0.0
  0
VERTEX
  5
EC28
  8
ALPHA
 10
12.634474
 20
24.044029
 30
0.0
  0
VERTEX
  5
EC29
  8
ALPHA
 10
12.650231
 20
23.624851
 30
0.0
  0
SEQEND
  5
EC2A
  8
ALPHA
  0
POLYLINE
  5
DF6E
  8
ALPHA
 66
     1
 10
0.0
 20
0.0
 30
0.0
  0
VERTEX
  5
EC2B
  8
ALPHA
 10
12.621753
 20
24.691103
 30
0.0
  0
VERTEX
  5
EC2C
  8
ALPHA
 10
12.617202
 20
24.992257
 30
0.0
  0
VERTEX
  5
EC2D
  8
ALPHA
 10
12.612731
 20
25.327019
 30
0.0
  0
VERTEX
  5
EC2E
  8
ALPHA
 10
12.608347
 20
25.694628
 30
0.0
  0
SEQEND
  5
EC2F
  8
ALPHA
  0
POLYLINE
  5
DF6F
  8
ALPHA
 66
     1
 10
0.0
 20
0.0
 30
0.0
  0
VERTEX
  5
EC30
  8
ALPHA
 10
12.602366
 20
27.32456
 30
0.0
  0
VERTEX
  5
EC31
  8
ALPHA
 10
12.601916
 20
27.343969
 30
0.0
  0
VERTEX
  5
EC32
  8
ALPHA
 10
12.601553
 20
27.398429
 30
0.0
  0
SEQEND
  5
EC33
  8
ALPHA
  0
POLYLINE
  5
DF70
  8
ALPHA
 66
     1
 10
0.0
 20
0.0
 30
0.0
  0
VERTEX
  5
EC34
  8
ALPHA
 10
12.635813
 20
23.995366
 30
0.0
  0
VERTEX
  5
EC35
  8
ALPHA
 10
12.63107
 20
24.191881
 30
0.0
  0
VERTEX
  5
EC36
  8
ALPHA
 10
12.626376
 20
24.424169
 30
0.0
  0
VERTEX
  5
EC37
  8
ALPHA
 10
12.621753
 20
24.691103
 30
0.0
  0
SEQEND
  5
EC38
  8
ALPHA
  0
LINE
  5
DF71
  8
ALPHA
 10
12.657816
 20
26.97456
 30
0.0
 11
12.656837
 21
27.010896
 31
0.0
  0
POLYLINE
  5
DF72
  8
ALPHA
 66
     1
 10
0.0
 20
0.0
 30
0.0
  0
VERTEX
  5
EC39
  8
ALPHA
 10
12.650253
 20
23.62456
 30
0.0
  0
VERTEX
  5
EC3A
  8
ALPHA
 10
12.645405
 20
23.711525
 30
0.0
  0
VERTEX
  5
EC3B
  8
ALPHA
 10
12.640592
 20
23.83521
 30
0.0
  0
VERTEX
  5
EC3C
  8
ALPHA
 10
12.635813
 20
23.995366
 30
0.0
  0
SEQEND
  5
EC3D
  8
ALPHA
  0
LINE
  5
DF73
  8
ALPHA
 10
12.670629
 20
27.32456
 30
0.0
 11
12.602366
 21
27.32456
 31
0.0
  0
LINE
  5
DF74
  8
ALPHA
 10
15.833494
 20
27.32456
 30
0.0
 11
15.583494
 21
27.32456
 31
0.0
  0
LINE
  5
DF75
  8
ALPHA
 10
15.583494
 20
26.82456
 30
0.0
 11
15.833494
 21
26.82456
 31
0.0
  0
POLYLINE
  5
DF76
  8
ALPHA
 66
     1
 10
0.0
 20
0.0
 30
0.0
  0
VERTEX
  5
EC3E
  8
ALPHA
 10
15.583494
 20
23.839518
 30
0.0
  0
VERTEX
  5
EC3F
  8
ALPHA
 10
15.341444
 20
24.123055
 30
0.0
  0
VERTEX
  5
EC40
  8
ALPHA
 10
15.142066
 20
24.479774
 30
0.0
  0
VERTEX
  5
EC41
  8
ALPHA
 10
14.9978
 20
24.869975
 30
0.0
  0
VERTEX
  5
EC42
  8
ALPHA
 10
14.911879
 20
25.262853
 30
0.0
  0
VERTEX
  5
EC43
  8
ALPHA
 10
14.883494
 20
25.63759
 30
0.0
  0
SEQEND
  5
EC44
  8
ALPHA
  0
LINE
  5
DF77
  8
ALPHA
 10
12.535064
 20
30.02456
 30
0.0
 11
15.533494
 21
30.02456
 31
0.0
  0
LINE
  5
DF78
  8
ALPHA
 10
12.600581
 20
29.069796
 30
0.0
 11
15.833494
 21
29.069796
 31
0.0
  0
LINE
  5
DF79
  8
ALPHA
 10
14.883494
 20
28.77456
 30
0.0
 11
12.678055
 21
28.77456
 31
0.0
  0
LINE
  5
DF7A
  8
ALPHA
 10
14.883494
 20
27.984984
 30
0.0
 11
12.683959
 21
27.984984
 31
0.0
  0
POLYLINE
  5
DF7B
  8
ALPHA
 66
     1
 10
0.0
 20
0.0
 30
0.0
  0
VERTEX
  5
EC45
  8
ALPHA
 10
12.673292
 20
28.77456
 30
0.0
  0
VERTEX
  5
EC46
  8
ALPHA
 10
12.672243
 20
28.742951
 30
0.0
  0
VERTEX
  5
EC47
  8
ALPHA
 10
12.671286
 20
28.649653
 30
0.0
  0
VERTEX
  5
EC48
  8
ALPHA
 10
12.670542
 20
28.507672
 30
0.0
  0
VERTEX
  5
EC49
  8
ALPHA
 10
12.670054
 20
28.324788
 30
0.0
  0
SEQEND
  5
EC4A
  8
ALPHA
  0
LINE
  5
DF7C
  8
ALPHA
 10
12.670054
 20
28.324788
 30
0.0
 11
12.669938
 21
27.974582
 31
0.0
  0
LINE
  5
DF7D
  8
ALPHA
 10
12.601562
 20
27.97456
 30
0.0
 11
12.601348
 21
27.47737
 31
0.0
  0
LINE
  5
DF7E
  8
ALPHA
 10
12.601451
 20
28.514423
 30
0.0
 11
12.601562
 21
27.97456
 31
0.0
  0
LINE
  5
DF7F
  8
ALPHA
 10
12.587935
 20
30.02456
 30
0.0
 11
12.58798
 21
27.988943
 31
0.0
  0
LINE
  5
DF80
  8
ALPHA
 10
12.67022
 20
27.625172
 30
0.0
 11
12.669938
 21
27.974582
 31
0.0
  0
LINE
  5
DF81
  8
ALPHA
 10
12.601122
 20
28.798166
 30
0.0
 11
12.601451
 21
28.514423
 31
0.0
  0
LINE
  5
DF82
  8
ALPHA
 10
12.59825
 20
30.02456
 30
0.0
 11
12.601122
 21
28.798166
 31
0.0
  0
POLYLINE
  5
DF83
  8
ALPHA
 66
     1
 10
0.0
 20
0.0
 30
0.0
  0
VERTEX
  5
EC4B
  8
ALPHA
 10
12.683959
 20
27.984984
 30
0.0
  0
VERTEX
  5
EC4C
  8
ALPHA
 10
12.68304
 20
28.305072
 30
0.0
  0
VERTEX
  5
EC4D
  8
ALPHA
 10
12.681659
 20
28.557541
 30
0.0
  0
VERTEX
  5
EC4E
  8
ALPHA
 10
12.679944
 20
28.71902
 30
0.0
  0
VERTEX
  5
EC4F
  8
ALPHA
 10
12.678055
 20
28.77456
 30
0.0
  0
SEQEND
  5
EC50
  8
ALPHA
  0
LINE
  5
DF84
  8
ALPHA
 10
12.591155
 20
27.565393
 30
0.0
 11
12.588335
 21
27.945008
 31
0.0
  0
LINE
  5
DF85
  8
ALPHA
 10
12.601562
 20
28.22456
 30
0.0
 11
12.669971
 21
28.22456
 31
0.0
  0
LINE
  5
DF86
  8
ALPHA
 10
12.601562
 20
27.97456
 30
0.0
 11
12.669938
 21
27.97456
 31
0.0
  0
LINE
  5
DF87
  8
ALPHA
 10
12.670322
 20
27.565469
 30
0.0
 11
12.601341
 21
27.565469
 31
0.0
  0
ARC
  5
DF88
  8
ALPHA
 10
15.533494
 20
29.72456
 30
0.0
 40
0.3
 50
0.0
 51
90.0
  0
POLYLINE
  5
DF89
  8
ALPHA
 66
     1
 10
0.0
 20
0.0
 30
0.0
  0
VERTEX
  5
EC51
  8
ALPHA
 10
14.904052
 20
28.245466
 30
0.0
  0
VERTEX
  5
EC52
  8
ALPHA
 10
14.932412
 20
28.467067
 30
0.0
  0
VERTEX
  5
EC53
  8
ALPHA
 10
14.932412
 20
28.633582
 30
0.0
  0
VERTEX
  5
EC54
  8
ALPHA
 10
14.904052
 20
28.738951
 30
0.0
  0
SEQEND
  5
EC55
  8
ALPHA
  0
POLYLINE
  5
DF8A
  8
ALPHA
 66
     1
 10
0.0
 20
0.0
 30
0.0
  0
VERTEX
  5
EC56
  8
ALPHA
 10
14.883494
 20
27.984984
 30
0.0
  0
VERTEX
  5
EC57
  8
ALPHA
 10
14.888653
 20
28.119291
 30
0.0
  0
VERTEX
  5
EC58
  8
ALPHA
 10
14.904052
 20
28.245466
 30
0.0
  0
SEQEND
  5
EC59
  8
ALPHA
  0
LINE
  5
DF8B
  8
ALPHA
 10
15.583494
 20
27.562124
 30
0.0
 11
14.883494
 21
28.77456
 31
0.0
  0
LINE
  5
DF8C
  8
ALPHA
 10
15.201036
 20
28.22456
 30
0.0
 11
15.833494
 21
28.22456
 31
0.0
  0
LINE
  5
DF8D
  8
ALPHA
 10
15.345374
 20
27.97456
 30
0.0
 11
15.833494
 21
27.97456
 31
0.0
  0
LINE
  5
DF8E
  8
ALPHA
 10
15.833494
 20
27.565469
 30
0.0
 11
15.583494
 21
27.565469
 31
0.0
  0
CIRCLE
  5
DF8F
  8
ALPHA
 10
18.533494
 20
27.72456
 30
0.0
 40
1.54467
  0
POLYLINE
  5
DF90
  8
ALPHA
 66
     1
 10
0.0
 20
0.0
 30
0.0
  0
VERTEX
  5
EC5A
  8
ALPHA
 10
18.814797
 20
29.150481
 30
0.0
  0
VERTEX
  5
EC5B
  8
ALPHA
 10
19.197538
 20
29.024643
 30
0.0
  0
VERTEX
  5
EC5C
  8
ALPHA
 10
19.515213
 20
28.81173
 30
0.0
  0
VERTEX
  5
EC5D
  8
ALPHA
 10
19.759425
 20
28.532881
 30
0.0
  0
VERTEX
  5
EC5E
  8
ALPHA
 10
19.919837
 20
28.215502
 30
0.0
  0
VERTEX
  5
EC5F
  8
ALPHA
 10
19.997432
 20
27.876272
 30
0.0
  0
VERTEX
  5
EC60
  8
ALPHA
 10
19.992762
 20
27.533563
 30
0.0
  0
VERTEX
  5
EC61
  8
ALPHA
 10
19.905351
 20
27.195047
 30
0.0
  0
VERTEX
  5
EC62
  8
ALPHA
 10
19.736679
 20
26.883327
 30
0.0
  0
VERTEX
  5
EC63
  8
ALPHA
 10
19.486007
 20
26.612296
 30
0.0
  0
VERTEX
  5
EC64
  8
ALPHA
 10
19.157598
 20
26.405556
 30
0.0
  0
VERTEX
  5
EC65
  8
ALPHA
 10
18.773228
 20
26.291807
 30
0.0
  0
VERTEX
  5
EC66
  8
ALPHA
 10
18.387639
 20
26.286399
 30
0.0
  0
VERTEX
  5
EC67
  8
ALPHA
 10
18.038607
 20
26.373856
 30
0.0
  0
SEQEND
  5
EC68
  8
ALPHA
  0
POLYLINE
  5
DF91
  8
ALPHA
 66
     1
 10
0.0
 20
0.0
 30
0.0
  0
VERTEX
  5
EC69
  8
ALPHA
 10
18.038607
 20
26.373856
 30
0.0
  0
VERTEX
  5
EC6A
  8
ALPHA
 10
17.751473
 20
26.524634
 30
0.0
  0
VERTEX
  5
EC6B
  8
ALPHA
 10
17.525135
 20
26.714835
 30
0.0
  0
VERTEX
  5
EC6C
  8
ALPHA
 10
17.348342
 20
26.937558
 30
0.0
  0
VERTEX
  5
EC6D
  8
ALPHA
 10
17.218781
 20
27.189738
 30
0.0
  0
VERTEX
  5
EC6E
  8
ALPHA
 10
17.141049
 20
27.460435
 30
0.0
  0
VERTEX
  5
EC6F
  8
ALPHA
 10
17.11687
 20
27.72456
 30
0.0
  0
SEQEND
  5
EC70
  8
ALPHA
  0
ARC
  5
DF92
  8
ALPHA
 10
17.911619
 20
24.17456
 30
0.0
 40
0.5
 50
245.478972
 51
270.0
  0
LINE
  5
DF93
  8
ALPHA
 10
19.433478
 20
24.92456
 30
0.0
 11
19.516363
 21
25.007445
 31
0.0
  0
LINE
  5
DF94
  8
ALPHA
 10
19.333494
 20
25.024545
 30
0.0
 11
19.416378
 21
25.107429
 31
0.0
  0
POLYLINE
  5
DF95
  8
ALPHA
 66
     1
 10
0.0
 20
0.0
 30
0.0
  0
VERTEX
  5
EC71
  8
ALPHA
 10
19.333494
 20
25.285308
 30
0.0
  0
VERTEX
  5
EC72
  8
ALPHA
 10
19.341612
 20
25.324776
 30
0.0
  0
VERTEX
  5
EC73
  8
ALPHA
 10
19.364651
 20
25.357833
 30
0.0
  0
VERTEX
  5
EC74
  8
ALPHA
 10
19.398869
 20
25.379112
 30
0.0
  0
SEQEND
  5
EC75
  8
ALPHA
  0
POLYLINE
  5
DF96
  8
ALPHA
 66
     1
 10
0.0
 20
0.0
 30
0.0
  0
VERTEX
  5
EC76
  8
ALPHA
 10
19.416378
 20
25.228212
 30
0.0
  0
VERTEX
  5
EC77
  8
ALPHA
 10
19.423621
 20
25.265559
 30
0.0
  0
VERTEX
  5
EC78
  8
ALPHA
 10
19.444745
 20
25.297974
 30
0.0
  0
VERTEX
  5
EC79
  8
ALPHA
 10
19.479733
 20
25.321245
 30
0.0
  0
SEQEND
  5
EC7A
  8
ALPHA
  0
LINE
  5
DF97
  8
ALPHA
 10
19.581379
 20
25.228212
 30
0.0
 11
19.581379
 21
25.107429
 31
0.0
  0
LINE
  5
DF98
  8
ALPHA
 10
19.416378
 20
25.228211
 30
0.0
 11
19.416378
 21
25.107429
 31
0.0
  0
LINE
  5
DF99
  8
ALPHA
 10
19.333494
 20
25.285308
 30
0.0
 11
19.333494
 21
25.024545
 31
0.0
  0
POLYLINE
  5
DF9A
  8
ALPHA
 66
     1
 10
0.0
 20
0.0
 30
0.0
  0
VERTEX
  5
EC7B
  8
ALPHA
 10
19.581379
 20
25.228212
 30
0.0
  0
VERTEX
  5
EC7C
  8
ALPHA
 10
19.566943
 20
25.265136
 30
0.0
  0
VERTEX
  5
EC7D
  8
ALPHA
 10
19.542104
 20
25.300743
 30
0.0
  0
VERTEX
  5
EC7E
  8
ALPHA
 10
19.509088
 20
25.320973
 30
0.0
  0
VERTEX
  5
EC7F
  8
ALPHA
 10
19.479733
 20
25.321245
 30
0.0
  0
SEQEND
  5
EC80
  8
ALPHA
  0
POLYLINE
  5
DF9B
  8
ALPHA
 66
     1
 10
0.0
 20
0.0
 30
0.0
  0
VERTEX
  5
EC81
  8
ALPHA
 10
19.398869
 20
25.379112
 30
0.0
  0
VERTEX
  5
EC82
  8
ALPHA
 10
19.425823
 20
25.359666
 30
0.0
  0
VERTEX
  5
EC83
  8
ALPHA
 10
19.452778
 20
25.340378
 30
0.0
  0
VERTEX
  5
EC84
  8
ALPHA
 10
19.479729
 20
25.321248
 30
0.0
  0
SEQEND
  5
EC85
  8
ALPHA
  0
POLYLINE
  5
DF9C
  8
ALPHA
 66
     1
 10
0.0
 20
0.0
 30
0.0
  0
VERTEX
  5
EC86
  8
ALPHA
 10
19.516362
 20
25.007444
 30
0.0
  0
VERTEX
  5
EC87
  8
ALPHA
 10
19.538804
 20
25.013771
 30
0.0
  0
VERTEX
  5
EC88
  8
ALPHA
 10
19.556911
 20
25.030272
 30
0.0
  0
VERTEX
  5
EC89
  8
ALPHA
 10
19.571487
 20
25.055339
 30
0.0
  0
VERTEX
  5
EC8A
  8
ALPHA
 10
19.580363
 20
25.083631
 30
0.0
  0
VERTEX
  5
EC8B
  8
ALPHA
 10
19.581379
 20
25.107429
 30
0.0
  0
SEQEND
  5
EC8C
  8
ALPHA
  0
POLYLINE
  5
DF9D
  8
ALPHA
 66
     1
 10
0.0
 20
0.0
 30
0.0
  0
VERTEX
  5
EC8D
  8
ALPHA
 10
19.333494
 20
25.285308
 30
0.0
  0
VERTEX
  5
EC8E
  8
ALPHA
 10
19.361136
 20
25.266119
 30
0.0
  0
VERTEX
  5
EC8F
  8
ALPHA
 10
19.416378
 20
25.228211
 30
0.0
  0
SEQEND
  5
EC90
  8
ALPHA
  0
POLYLINE
  5
DF9E
  8
ALPHA
 66
     1
 10
0.0
 20
0.0
 30
0.0
  0
VERTEX
  5
EC91
  8
ALPHA
 10
19.516362
 20
25.007444
 30
0.0
  0
VERTEX
  5
EC92
  8
ALPHA
 10
19.466379
 20
25.02085
 30
0.0
  0
VERTEX
  5
EC93
  8
ALPHA
 10
19.429783
 20
25.057445
 30
0.0
  0
VERTEX
  5
EC94
  8
ALPHA
 10
19.416378
 20
25.107429
 30
0.0
  0
SEQEND
  5
EC95
  8
ALPHA
  0
POLYLINE
  5
DF9F
  8
ALPHA
 66
     1
 10
0.0
 20
0.0
 30
0.0
  0
VERTEX
  5
EC96
  8
ALPHA
 10
19.433478
 20
24.92456
 30
0.0
  0
VERTEX
  5
EC97
  8
ALPHA
 10
19.383484
 20
24.937954
 30
0.0
  0
VERTEX
  5
EC98
  8
ALPHA
 10
19.346888
 20
24.97455
 30
0.0
  0
VERTEX
  5
EC99
  8
ALPHA
 10
19.333494
 20
25.024545
 30
0.0
  0
SEQEND
  5
EC9A
  8
ALPHA
  0
LINE
  5
DFA0
  8
ALPHA
 10
19.416378
 20
25.228212
 30
0.0
 11
19.581379
 21
25.228212
 31
0.0
  0
LINE
  5
DFA1
  8
ALPHA
 10
19.416378
 20
25.107429
 30
0.0
 11
19.581379
 21
25.107429
 31
0.0
  0
POLYLINE
  5
DFA2
  8
ALPHA
 66
     1
 10
0.0
 20
0.0
 30
0.0
  0
VERTEX
  5
EC9B
  8
ALPHA
 10
18.814797
 20
29.150481
 30
0.0
  0
VERTEX
  5
EC9C
  8
ALPHA
 10
18.399766
 20
29.164134
 30
0.0
  0
VERTEX
  5
EC9D
  8
ALPHA
 10
18.051021
 20
29.080023
 30
0.0
  0
VERTEX
  5
EC9E
  8
ALPHA
 10
17.764795
 20
28.933419
 30
0.0
  0
VERTEX
  5
EC9F
  8
ALPHA
 10
17.533994
 20
28.743352
 30
0.0
  0
VERTEX
  5
ECA0
  8
ALPHA
 10
17.352536
 20
28.51803
 30
0.0
  0
VERTEX
  5
ECA1
  8
ALPHA
 10
17.221422
 20
28.266009
 30
0.0
  0
VERTEX
  5
ECA2
  8
ALPHA
 10
17.141775
 20
27.992586
 30
0.0
  0
VERTEX
  5
ECA3
  8
ALPHA
 10
17.11687
 20
27.72456
 30
0.0
  0
SEQEND
  5
ECA4
  8
ALPHA
  0
POLYLINE
  5
DFA3
  8
ALPHA
 66
     1
 10
0.0
 20
0.0
 30
0.0
  0
VERTEX
  5
ECA5
  8
ALPHA
 10
19.333494
 20
30.163811
 30
0.0
  0
VERTEX
  5
ECA6
  8
ALPHA
 10
19.388764
 20
30.202032
 30
0.0
  0
VERTEX
  5
ECA7
  8
ALPHA
 10
19.416378
 20
30.220908
 30
0.0
  0
SEQEND
  5
ECA8
  8
ALPHA
  0
POLYLINE
  5
DFA4
  8
ALPHA
 66
     1
 10
0.0
 20
0.0
 30
0.0
  0
VERTEX
  5
ECA9
  8
ALPHA
 10
19.398869
 20
30.070008
 30
0.0
  0
VERTEX
  5
ECAA
  8
ALPHA
 10
19.425823
 20
30.089454
 30
0.0
  0
VERTEX
  5
ECAB
  8
ALPHA
 10
19.452778
 20
30.108742
 30
0.0
  0
VERTEX
  5
ECAC
  8
ALPHA
 10
19.479733
 20
30.127874
 30
0.0
  0
SEQEND
  5
ECAD
  8
ALPHA
  0
POLYLINE
  5
DFA5
  8
ALPHA
 66
     1
 10
0.0
 20
0.0
 30
0.0
  0
VERTEX
  5
ECAE
  8
ALPHA
 10
19.581379
 20
30.220908
 30
0.0
  0
VERTEX
  5
ECAF
  8
ALPHA
 10
19.572592
 20
30.192398
 30
0.0
  0
VERTEX
  5
ECB0
  8
ALPHA
 10
19.553477
 20
30.162043
 30
0.0
  0
VERTEX
  5
ECB1
  8
ALPHA
 10
19.528874
 20
30.138153
 30
0.0
  0
VERTEX
  5
ECB2
  8
ALPHA
 10
19.503561
 20
30.126192
 30
0.0
  0
VERTEX
  5
ECB3
  8
ALPHA
 10
19.479733
 20
30.127874
 30
0.0
  0
SEQEND
  5
ECB4
  8
ALPHA
  0
POLYLINE
  5
DFA6
  8
ALPHA
 66
     1
 10
0.0
 20
0.0
 30
0.0
  0
VERTEX
  5
ECB5
  8
ALPHA
 10
19.333494
 20
30.424575
 30
0.0
  0
VERTEX
  5
ECB6
  8
ALPHA
 10
19.346888
 20
30.474569
 30
0.0
  0
VERTEX
  5
ECB7
  8
ALPHA
 10
19.383484
 20
30.511166
 30
0.0
  0
VERTEX
  5
ECB8
  8
ALPHA
 10
19.433478
 20
30.52456
 30
0.0
  0
SEQEND
  5
ECB9
  8
ALPHA
  0
LINE
  5
DFA7
  8
ALPHA
 10
19.581379
 20
30.341691
 30
0.0
 11
19.581379
 21
30.220908
 31
0.0
  0
LINE
  5
DFA8
  8
ALPHA
 10
19.416378
 20
30.341691
 30
0.0
 11
19.416378
 21
30.220908
 31
0.0
  0
LINE
  5
DFA9
  8
ALPHA
 10
19.333494
 20
30.424575
 30
0.0
 11
19.333494
 21
30.163811
 31
0.0
  0
LINE
  5
DFAA
  8
ALPHA
 10
19.516363
 20
30.441675
 30
0.0
 11
19.433478
 21
30.52456
 31
0.0
  0
LINE
  5
DFAB
  8
ALPHA
 10
19.416378
 20
30.341691
 30
0.0
 11
19.333494
 21
30.424575
 31
0.0
  0
POLYLINE
  5
DFAC
  8
ALPHA
 66
     1
 10
0.0
 20
0.0
 30
0.0
  0
VERTEX
  5
ECBA
  8
ALPHA
 10
19.516362
 20
30.441676
 30
0.0
  0
VERTEX
  5
ECBB
  8
ALPHA
 10
19.466379
 20
30.42827
 30
0.0
  0
VERTEX
  5
ECBC
  8
ALPHA
 10
19.429783
 20
30.391674
 30
0.0
  0
VERTEX
  5
ECBD
  8
ALPHA
 10
19.416378
 20
30.341691
 30
0.0
  0
SEQEND
  5
ECBE
  8
ALPHA
  0
POLYLINE
  5
DFAD
  8
ALPHA
 66
     1
 10
0.0
 20
0.0
 30
0.0
  0
VERTEX
  5
ECBF
  8
ALPHA
 10
19.479733
 20
30.127874
 30
0.0
  0
VERTEX
  5
ECC0
  8
ALPHA
 10
19.446503
 20
30.149387
 30
0.0
  0
VERTEX
  5
ECC1
  8
ALPHA
 10
19.42422
 20
30.182107
 30
0.0
  0
VERTEX
  5
ECC2
  8
ALPHA
 10
19.416378
 20
30.220908
 30
0.0
  0
SEQEND
  5
ECC3
  8
ALPHA
  0
POLYLINE
  5
DFAE
  8
ALPHA
 66
     1
 10
0.0
 20
0.0
 30
0.0
  0
VERTEX
  5
ECC4
  8
ALPHA
 10
19.398869
 20
30.070008
 30
0.0
  0
VERTEX
  5
ECC5
  8
ALPHA
 10
19.364651
 20
30.091287
 30
0.0
  0
VERTEX
  5
ECC6
  8
ALPHA
 10
19.341612
 20
30.124343
 30
0.0
  0
VERTEX
  5
ECC7
  8
ALPHA
 10
19.333494
 20
30.163811
 30
0.0
  0
SEQEND
  5
ECC8
  8
ALPHA
  0
POLYLINE
  5
DFAF
  8
ALPHA
 66
     1
 10
0.0
 20
0.0
 30
0.0
  0
VERTEX
  5
ECC9
  8
ALPHA
 10
19.516362
 20
30.441676
 30
0.0
  0
VERTEX
  5
ECCA
  8
ALPHA
 10
19.538801
 20
30.435349
 30
0.0
  0
VERTEX
  5
ECCB
  8
ALPHA
 10
19.556908
 20
30.418849
 30
0.0
  0
VERTEX
  5
ECCC
  8
ALPHA
 10
19.571485
 20
30.393782
 30
0.0
  0
VERTEX
  5
ECCD
  8
ALPHA
 10
19.580361
 20
30.365489
 30
0.0
  0
VERTEX
  5
ECCE
  8
ALPHA
 10
19.581379
 20
30.341691
 30
0.0
  0
SEQEND
  5
ECCF
  8
ALPHA
  0
LINE
  5
DFB0
  8
ALPHA
 10
19.416378
 20
30.341691
 30
0.0
 11
19.581379
 21
30.341691
 31
0.0
  0
LINE
  5
DFB1
  8
ALPHA
 10
19.416378
 20
30.220908
 30
0.0
 11
19.581379
 21
30.220908
 31
0.0
  0
LINE
  5
DFB2
  8
ALPHA
 10
26.183493
 20
33.513922
 30
0.0
 11
25.733494
 21
33.067113
 31
0.0
  0
LINE
  5
DFB3
  8
ALPHA
 10
27.383494
 20
33.513922
 30
0.0
 11
27.233493
 21
33.194773
 31
0.0
  0
LINE
  5
DFB4
  8
ALPHA
 10
27.683494
 20
33.322433
 30
0.0
 11
27.608493
 21
33.130942
 31
0.0
  0
LINE
  5
DFB5
  8
ALPHA
 10
26.633494
 20
34.02456
 30
0.0
 11
26.633494
 21
31.02456
 31
0.0
  0
LINE
  5
DFB6
  8
ALPHA
 10
26.183493
 20
31.02456
 30
0.0
 11
26.183493
 21
33.513922
 31
0.0
  0
LINE
  5
DFB7
  8
ALPHA
 10
25.733494
 20
33.067113
 30
0.0
 11
25.733494
 21
33.577751
 31
0.0
  0
LINE
  5
DFB8
  8
ALPHA
 10
22.033494
 20
34.22456
 30
0.0
 11
22.033494
 21
33.07456
 31
0.0
  0
LINE
  5
DFB9
  8
ALPHA
 10
22.033494
 20
32.07456
 30
0.0
 11
22.033494
 21
30.87456
 31
0.0
  0
LINE
  5
DFBA
  8
ALPHA
 10
21.033494
 20
27.72456
 30
0.0
 11
20.383494
 21
27.72456
 31
0.0
  0
LINE
  5
DFBB
  8
ALPHA
 10
26.633494
 20
31.02456
 30
0.0
 11
26.183493
 21
31.02456
 31
0.0
  0
LINE
  5
DFBC
  8
ALPHA
 10
27.608493
 20
33.130942
 30
0.0
 11
27.608493
 21
33.003284
 31
0.0
  0
LINE
  5
DFBD
  8
ALPHA
 10
27.233493
 20
33.194773
 30
0.0
 11
27.233493
 21
32.939453
 31
0.0
  0
LINE
  5
DFBE
  8
ALPHA
 10
27.608493
 20
33.003284
 30
0.0
 11
27.683494
 21
32.811794
 31
0.0
  0
LINE
  5
DFBF
  8
ALPHA
 10
27.383494
 20
31.726687
 30
0.0
 11
27.458494
 21
31.535198
 31
0.0
  0
LINE
  5
DFC0
  8
ALPHA
 10
27.233493
 20
32.939453
 30
0.0
 11
27.383494
 21
32.620304
 31
0.0
  0
LINE
  5
DFC1
  8
ALPHA
 10
27.683494
 20
32.811794
 30
0.0
 11
27.833493
 21
32.620304
 31
0.0
  0
LINE
  5
DFC2
  8
ALPHA
 10
27.908494
 20
31.535198
 30
0.0
 11
27.758493
 21
31.726687
 31
0.0
  0
LINE
  5
DFC3
  8
ALPHA
 10
27.383494
 20
32.620304
 30
0.0
 11
27.608493
 21
32.364985
 31
0.0
  0
LINE
  5
DFC4
  8
ALPHA
 10
27.458494
 20
31.535198
 30
0.0
 11
27.683494
 21
31.279879
 31
0.0
  0
LINE
  5
DFC5
  8
ALPHA
 10
27.833493
 20
32.620304
 30
0.0
 11
28.058494
 21
32.492645
 31
0.0
  0
LINE
  5
DFC6
  8
ALPHA
 10
28.133494
 20
31.407538
 30
0.0
 11
27.908494
 21
31.535198
 31
0.0
  0
LINE
  5
DFC7
  8
ALPHA
 10
27.608493
 20
32.364985
 30
0.0
 11
27.983493
 21
32.173496
 31
0.0
  0
LINE
  5
DFC8
  8
ALPHA
 10
27.683494
 20
31.279879
 30
0.0
 11
28.058494
 21
31.088389
 31
0.0
  0
LINE
  5
DFC9
  8
ALPHA
 10
28.058494
 20
32.492645
 30
0.0
 11
28.283494
 21
32.428815
 31
0.0
  0
LINE
  5
DFCA
  8
ALPHA
 10
28.358493
 20
31.343709
 30
0.0
 11
28.133494
 21
31.407538
 31
0.0
  0
LINE
  5
DFCB
  8
ALPHA
 10
27.983493
 20
32.173496
 30
0.0
 11
28.358493
 21
32.109666
 31
0.0
  0
LINE
  5
DFCC
  8
ALPHA
 10
28.058494
 20
31.088389
 30
0.0
 11
28.433494
 21
31.02456
 31
0.0
  0
LINE
  5
DFCD
  8
ALPHA
 10
27.758493
 20
31.726687
 30
0.0
 11
27.383494
 21
31.726687
 31
0.0
  0
LINE
  5
DFCE
  8
ALPHA
 10
26.183493
 20
34.02456
 30
0.0
 11
26.633494
 21
34.02456
 31
0.0
  0
LINE
  5
DFCF
  8
ALPHA
 10
25.733494
 20
33.577751
 30
0.0
 11
26.183493
 21
34.02456
 31
0.0
  0
LINE
  5
DFD0
  8
ALPHA
 10
27.983493
 20
33.96073
 30
0.0
 11
27.608493
 21
33.76924
 31
0.0
  0
LINE
  5
DFD1
  8
ALPHA
 10
28.058494
 20
33.641582
 30
0.0
 11
27.833493
 21
33.513922
 31
0.0
  0
LINE
  5
DFD2
  8
ALPHA
 10
27.608493
 20
33.76924
 30
0.0
 11
27.383494
 21
33.513922
 31
0.0
  0
LINE
  5
DFD3
  8
ALPHA
 10
27.833493
 20
33.513922
 30
0.0
 11
27.683494
 21
33.322433
 31
0.0
  0
LINE
  5
DFD4
  8
ALPHA
 10
28.358493
 20
34.02456
 30
0.0
 11
27.983493
 21
33.96073
 31
0.0
  0
LINE
  5
DFD5
  8
ALPHA
 10
28.283494
 20
33.705411
 30
0.0
 11
28.058494
 21
33.641582
 31
0.0
  0
LINE
  5
DFDE
  8
ALPHA
 10
22.033494
 20
72.42456
 30
0.0
 11
22.033494
 21
65.22456
 31
0.0
  0
LINE
  5
DFDF
  8
ALPHA
 10
18.033494
 20
64.72456
 30
0.0
 11
24.533494
 21
64.72456
 31
0.0
  0
LINE
  5
DFE0
  8
ALPHA
 10
17.033494
 20
59.72456
 30
0.0
 11
24.533494
 21
59.72456
 31
0.0
  0
LINE
  5
DFE1
  8
ALPHA
 10
17.033494
 20
61.72456
 30
0.0
 11
17.033494
 21
58.72456
 31
0.0
  0
LINE
  5
DFE2
  8
ALPHA
 10
18.033494
 20
66.72456
 30
0.0
 11
18.033494
 21
63.72456
 31
0.0
  0
LINE
  5
DFE3
  8
ALPHA
 10
22.033494
 20
59.12456
 30
0.0
 11
22.033494
 21
53.22456
 31
0.0
  0
LINE
  5
DFE4
  8
ALPHA
 10
22.001579
 20
50.44956
 30
0.0
 11
22.129238
 21
50.674561
 31
0.0
  0
LINE
  5
DFE5
  8
ALPHA
 10
21.873919
 20
50.899559
 30
0.0
 11
21.68243
 21
50.524559
 31
0.0
  0
LINE
  5
DFE6
  8
ALPHA
 10
23.469664
 20
50.524559
 30
0.0
 11
23.278174
 21
50.899559
 31
0.0
  0
LINE
  5
DFE7
  8
ALPHA
 10
20.852643
 20
48.94956
 30
0.0
 11
20.852643
 21
51.124559
 31
0.0
  0
LINE
  5
DFE8
  8
ALPHA
 10
23.022855
 20
50.674561
 30
0.0
 11
23.150515
 21
50.44956
 31
0.0
  0
LINE
  5
DFE9
  8
ALPHA
 10
20.533494
 20
51.124559
 30
0.0
 11
20.533494
 21
48.57456
 31
0.0
  0
LINE
  5
DFEA
  8
ALPHA
 10
21.937749
 20
50.149559
 30
0.0
 11
22.001579
 21
50.44956
 31
0.0
  0
LINE
  5
DFEB
  8
ALPHA
 10
21.68243
 20
50.524559
 30
0.0
 11
21.6186
 21
50.149559
 31
0.0
  0
LINE
  5
DFEC
  8
ALPHA
 10
22.193068
 20
48.57456
 30
0.0
 11
22.193068
 21
49.09956
 31
0.0
  0
LINE
  5
DFED
  8
ALPHA
 10
21.937749
 20
49.69956
 30
0.0
 11
21.937749
 21
50.149559
 31
0.0
  0
LINE
  5
DFEE
  8
ALPHA
 10
21.6186
 20
50.149559
 30
0.0
 11
21.6186
 21
49.69956
 31
0.0
  0
LINE
  5
DFEF
  8
ALPHA
 10
21.6186
 20
49.69956
 30
0.0
 11
21.68243
 21
49.32456
 31
0.0
  0
LINE
  5
DFF0
  8
ALPHA
 10
22.001579
 20
49.399559
 30
0.0
 11
21.937749
 21
49.69956
 31
0.0
  0
LINE
  5
DFF1
  8
ALPHA
 10
21.68243
 20
49.32456
 30
0.0
 11
21.873919
 21
48.94956
 31
0.0
  0
LINE
  5
DFF2
  8
ALPHA
 10
22.193068
 20
49.09956
 30
0.0
 11
22.001579
 21
49.399559
 31
0.0
  0
LINE
  5
DFF3
  8
ALPHA
 10
21.873919
 20
48.94956
 30
0.0
 11
20.852643
 21
48.94956
 31
0.0
  0
LINE
  5
DFF4
  8
ALPHA
 10
20.533494
 20
48.57456
 30
0.0
 11
22.193068
 21
48.57456
 31
0.0
  0
LINE
  5
DFF5
  8
ALPHA
 10
22.767536
 20
48.57456
 30
0.0
 11
23.022855
 21
48.72456
 31
0.0
  0
LINE
  5
DFF6
  8
ALPHA
 10
23.022855
 20
49.174561
 30
0.0
 11
22.767536
 21
49.024559
 31
0.0
  0
LINE
  5
DFF7
  8
ALPHA
 10
23.022855
 20
48.72456
 30
0.0
 11
23.278174
 21
48.94956
 31
0.0
  0
LINE
  5
DFF8
  8
ALPHA
 10
23.150515
 20
49.399559
 30
0.0
 11
23.022855
 21
49.174561
 31
0.0
  0
LINE
  5
DFF9
  8
ALPHA
 10
23.278174
 20
48.94956
 30
0.0
 11
23.469664
 21
49.32456
 31
0.0
  0
LINE
  5
DFFA
  8
ALPHA
 10
23.214344
 20
49.69956
 30
0.0
 11
23.150515
 21
49.399559
 31
0.0
  0
LINE
  5
DFFB
  8
ALPHA
 10
23.469664
 20
49.32456
 30
0.0
 11
23.533494
 21
49.69956
 31
0.0
  0
LINE
  5
DFFC
  8
ALPHA
 10
23.533494
 20
49.69956
 30
0.0
 11
23.533494
 21
50.149559
 31
0.0
  0
LINE
  5
DFFD
  8
ALPHA
 10
23.214344
 20
50.149559
 30
0.0
 11
23.214344
 21
49.69956
 31
0.0
  0
LINE
  5
DFFE
  8
ALPHA
 10
23.533494
 20
50.149559
 30
0.0
 11
23.469664
 21
50.524559
 31
0.0
  0
LINE
  5
DFFF
  8
ALPHA
 10
23.150515
 20
50.44956
 30
0.0
 11
23.214344
 21
50.149559
 31
0.0
  0
LINE
  5
E000
  8
ALPHA
 10
22.767536
 20
49.024559
 30
0.0
 11
22.767536
 21
48.57456
 31
0.0
  0
LINE
  5
E001
  8
ALPHA
 10
22.448387
 20
51.274559
 30
0.0
 11
22.129238
 21
51.124559
 31
0.0
  0
LINE
  5
E002
  8
ALPHA
 10
22.129238
 20
50.674561
 30
0.0
 11
22.320727
 21
50.82456
 31
0.0
  0
LINE
  5
E003
  8
ALPHA
 10
20.533494
 20
52.774559
 30
0.0
 11
23.533494
 21
52.774559
 31
0.0
  0
LINE
  5
E004
  8
ALPHA
 10
23.533494
 20
52.32456
 30
0.0
 11
21.044132
 21
52.32456
 31
0.0
  0
LINE
  5
E005
  8
ALPHA
 10
22.129238
 20
51.124559
 30
0.0
 11
21.873919
 21
50.899559
 31
0.0
  0
LINE
  5
E006
  8
ALPHA
 10
21.49094
 20
51.874559
 30
0.0
 11
20.980302
 21
51.874559
 31
0.0
  0
LINE
  5
E007
  8
ALPHA
 10
20.852643
 20
51.124559
 30
0.0
 11
20.533494
 21
51.124559
 31
0.0
  0
LINE
  5
E008
  8
ALPHA
 10
21.044132
 20
52.32456
 30
0.0
 11
21.49094
 21
51.874559
 31
0.0
  0
LINE
  5
E009
  8
ALPHA
 10
20.980302
 20
51.874559
 30
0.0
 11
20.533494
 21
52.32456
 31
0.0
  0
LINE
  5
E00A
  8
ALPHA
 10
20.533494
 20
52.32456
 30
0.0
 11
20.533494
 21
52.774559
 31
0.0
  0
LINE
  5
E00B
  8
ALPHA
 10
22.320727
 20
50.82456
 30
0.0
 11
22.512217
 21
50.899559
 31
0.0
  0
LINE
  5
E00C
  8
ALPHA
 10
23.533494
 20
52.774559
 30
0.0
 11
23.533494
 21
52.32456
 31
0.0
  0
LINE
  5
E00D
  8
ALPHA
 10
22.703706
 20
51.274559
 30
0.0
 11
22.448387
 21
51.274559
 31
0.0
  0
LINE
  5
E00E
  8
ALPHA
 10
22.512217
 20
50.899559
 30
0.0
 11
22.639876
 21
50.899559
 31
0.0
  0
LINE
  5
E00F
  8
ALPHA
 10
23.278174
 20
50.899559
 30
0.0
 11
23.022855
 21
51.124559
 31
0.0
  0
LINE
  5
E010
  8
ALPHA
 10
22.831366
 20
50.82456
 30
0.0
 11
23.022855
 21
50.674561
 31
0.0
  0
LINE
  5
E011
  8
ALPHA
 10
23.022855
 20
51.124559
 30
0.0
 11
22.703706
 21
51.274559
 31
0.0
  0
LINE
  5
E012
  8
ALPHA
 10
22.639876
 20
50.899559
 30
0.0
 11
22.831366
 21
50.82456
 31
0.0
  0
LINE
  5
E013
  8
ALPHA
 10
22.033494
 20
64.22456
 30
0.0
 11
22.033494
 21
60.12456
 31
0.0
  0
LINE
  5
E014
  8
ALPHA
 10
26.308493
 20
61.72456
 30
0.0
 11
26.608494
 21
61.72456
 31
0.0
  0
LINE
  5
E015
  8
ALPHA
 10
26.533494
 20
61.405411
 30
0.0
 11
26.233494
 21
61.405411
 31
0.0
  0
LINE
  5
E016
  8
ALPHA
 10
25.633493
 20
59.043709
 30
0.0
 11
27.733493
 21
59.043709
 31
0.0
  0
LINE
  5
E017
  8
ALPHA
 10
27.733493
 20
58.72456
 30
0.0
 11
25.033494
 21
58.72456
 31
0.0
  0
LINE
  5
E018
  8
ALPHA
 10
27.508494
 20
60.447964
 30
0.0
 11
25.633493
 21
59.043709
 31
0.0
  0
LINE
  5
E019
  8
ALPHA
 10
25.033494
 20
59.043709
 30
0.0
 11
27.133494
 21
60.639454
 31
0.0
  0
LINE
  5
E01A
  8
ALPHA
 10
25.483494
 20
61.02243
 30
0.0
 11
25.108494
 21
61.02243
 31
0.0
  0
LINE
  5
E01B
  8
ALPHA
 10
25.783494
 20
61.660728
 30
0.0
 11
26.308493
 21
61.72456
 31
0.0
  0
LINE
  5
E01C
  8
ALPHA
 10
26.233494
 20
61.405411
 30
0.0
 11
25.858494
 21
61.341579
 31
0.0
  0
LINE
  5
E01D
  8
ALPHA
 10
25.858494
 20
61.341579
 30
0.0
 11
25.633493
 21
61.213921
 31
0.0
  0
LINE
  5
E01E
  8
ALPHA
 10
25.633493
 20
61.213921
 30
0.0
 11
25.483494
 21
61.02243
 31
0.0
  0
LINE
  5
E01F
  8
ALPHA
 10
25.108494
 20
61.02243
 30
0.0
 11
25.183494
 21
61.277752
 31
0.0
  0
LINE
  5
E020
  8
ALPHA
 10
25.033494
 20
58.72456
 30
0.0
 11
25.033494
 21
59.043709
 31
0.0
  0
LINE
  5
E021
  8
ALPHA
 10
25.483494
 20
61.53307
 30
0.0
 11
25.783494
 21
61.660728
 31
0.0
  0
LINE
  5
E022
  8
ALPHA
 10
25.183494
 20
61.277752
 30
0.0
 11
25.483494
 21
61.53307
 31
0.0
  0
LINE
  5
E023
  8
ALPHA
 10
27.358493
 20
61.53307
 30
0.0
 11
27.658494
 21
61.277752
 31
0.0
  0
LINE
  5
E024
  8
ALPHA
 10
27.133494
 20
61.213921
 30
0.0
 11
26.908494
 21
61.341579
 31
0.0
  0
LINE
  5
E025
  8
ALPHA
 10
27.058493
 20
61.660728
 30
0.0
 11
27.358493
 21
61.53307
 31
0.0
  0
LINE
  5
E026
  8
ALPHA
 10
26.908494
 20
61.341579
 30
0.0
 11
26.533494
 21
61.405411
 31
0.0
  0
LINE
  5
E027
  8
ALPHA
 10
26.608494
 20
61.72456
 30
0.0
 11
27.058493
 21
61.660728
 31
0.0
  0
LINE
  5
E028
  8
ALPHA
 10
27.658494
 20
61.277752
 30
0.0
 11
27.733493
 21
61.02243
 31
0.0
  0
LINE
  5
E029
  8
ALPHA
 10
27.283494
 20
61.02243
 30
0.0
 11
27.133494
 21
61.213921
 31
0.0
  0
LINE
  5
E02A
  8
ALPHA
 10
27.733493
 20
60.894772
 30
0.0
 11
27.658494
 21
60.639454
 31
0.0
  0
LINE
  5
E02B
  8
ALPHA
 10
28.333494
 20
58.72456
 30
0.0
 11
28.333494
 21
59.043709
 31
0.0
  0
LINE
  5
E02C
  8
ALPHA
 10
27.733493
 20
59.043709
 30
0.0
 11
27.733493
 21
58.72456
 31
0.0
  0
LINE
  5
E02D
  8
ALPHA
 10
27.733493
 20
61.02243
 30
0.0
 11
27.733493
 21
60.894772
 31
0.0
  0
LINE
  5
E02E
  8
ALPHA
 10
27.283494
 20
60.894772
 30
0.0
 11
27.283494
 21
61.02243
 31
0.0
  0
LINE
  5
E02F
  8
ALPHA
 10
27.658494
 20
60.639454
 30
0.0
 11
27.508494
 21
60.447964
 31
0.0
  0
LINE
  5
E030
  8
ALPHA
 10
27.133494
 20
60.639454
 30
0.0
 11
27.283494
 21
60.894772
 31
0.0
  0
LINE
  5
E031
  8
ALPHA
 10
26.308493
 20
66.72456
 30
0.0
 11
26.608494
 21
66.72456
 31
0.0
  0
LINE
  5
E032
  8
ALPHA
 10
26.533494
 20
66.405411
 30
0.0
 11
26.233494
 21
66.405411
 31
0.0
  0
LINE
  5
E033
  8
ALPHA
 10
25.633493
 20
64.043709
 30
0.0
 11
27.733493
 21
64.043709
 31
0.0
  0
LINE
  5
E034
  8
ALPHA
 10
27.733493
 20
63.72456
 30
0.0
 11
25.033494
 21
63.72456
 31
0.0
  0
LINE
  5
E035
  8
ALPHA
 10
27.508494
 20
65.447964
 30
0.0
 11
25.633493
 21
64.043709
 31
0.0
  0
LINE
  5
E036
  8
ALPHA
 10
25.033494
 20
64.043709
 30
0.0
 11
27.133494
 21
65.639454
 31
0.0
  0
LINE
  5
E037
  8
ALPHA
 10
25.483494
 20
66.02243
 30
0.0
 11
25.108494
 21
66.02243
 31
0.0
  0
LINE
  5
E038
  8
ALPHA
 10
25.783494
 20
66.660728
 30
0.0
 11
26.308493
 21
66.72456
 31
0.0
  0
LINE
  5
E039
  8
ALPHA
 10
26.233494
 20
66.405411
 30
0.0
 11
25.858494
 21
66.341579
 31
0.0
  0
LINE
  5
E03A
  8
ALPHA
 10
25.033494
 20
63.72456
 30
0.0
 11
25.033494
 21
64.043709
 31
0.0
  0
LINE
  5
E03B
  8
ALPHA
 10
25.108494
 20
66.02243
 30
0.0
 11
25.183494
 21
66.277752
 31
0.0
  0
LINE
  5
E03C
  8
ALPHA
 10
25.483494
 20
66.53307
 30
0.0
 11
25.783494
 21
66.660728
 31
0.0
  0
LINE
  5
E03D
  8
ALPHA
 10
25.858494
 20
66.341579
 30
0.0
 11
25.633493
 21
66.213921
 31
0.0
  0
LINE
  5
E03E
  8
ALPHA
 10
25.183494
 20
66.277752
 30
0.0
 11
25.483494
 21
66.53307
 31
0.0
  0
LINE
  5
E03F
  8
ALPHA
 10
25.633493
 20
66.213921
 30
0.0
 11
25.483494
 21
66.02243
 31
0.0
  0
LINE
  5
E040
  8
ALPHA
 10
27.058493
 20
66.660728
 30
0.0
 11
27.358493
 21
66.53307
 31
0.0
  0
LINE
  5
E041
  8
ALPHA
 10
26.908494
 20
66.341579
 30
0.0
 11
26.533494
 21
66.405411
 31
0.0
  0
LINE
  5
E042
  8
ALPHA
 10
26.608494
 20
66.72456
 30
0.0
 11
27.058493
 21
66.660728
 31
0.0
  0
LINE
  5
E043
  8
ALPHA
 10
27.358493
 20
66.53307
 30
0.0
 11
27.658494
 21
66.277752
 31
0.0
  0
LINE
  5
E044
  8
ALPHA
 10
27.133494
 20
66.213921
 30
0.0
 11
26.908494
 21
66.341579
 31
0.0
  0
LINE
  5
E045
  8
ALPHA
 10
27.283494
 20
66.02243
 30
0.0
 11
27.133494
 21
66.213921
 31
0.0
  0
LINE
  5
E046
  8
ALPHA
 10
28.333494
 20
64.937325
 30
0.0
 11
28.408494
 21
64.618176
 31
0.0
  0
LINE
  5
E047
  8
ALPHA
 10
27.658494
 20
66.277752
 30
0.0
 11
27.733493
 21
66.02243
 31
0.0
  0
LINE
  5
E048
  8
ALPHA
 10
28.408494
 20
65.830944
 30
0.0
 11
28.333494
 21
65.511795
 31
0.0
  0
LINE
  5
E049
  8
ALPHA
 10
28.333494
 20
65.511795
 30
0.0
 11
28.333494
 21
64.937325
 31
0.0
  0
LINE
  5
E04A
  8
ALPHA
 10
27.733493
 20
64.043709
 30
0.0
 11
27.733493
 21
63.72456
 31
0.0
  0
LINE
  5
E04B
  8
ALPHA
 10
27.733493
 20
66.02243
 30
0.0
 11
27.733493
 21
65.894772
 31
0.0
  0
LINE
  5
E04C
  8
ALPHA
 10
27.283494
 20
65.894772
 30
0.0
 11
27.283494
 21
66.02243
 31
0.0
  0
LINE
  5
E04D
  8
ALPHA
 10
27.733493
 20
65.894772
 30
0.0
 11
27.658494
 21
65.639454
 31
0.0
  0
LINE
  5
E04E
  8
ALPHA
 10
27.658494
 20
65.639454
 30
0.0
 11
27.508494
 21
65.447964
 31
0.0
  0
LINE
  5
E04F
  8
ALPHA
 10
27.133494
 20
65.639454
 30
0.0
 11
27.283494
 21
65.894772
 31
0.0
  0
ARC
  5
E050
  8
ALPHA
 10
18.033494
 20
78.72456
 30
0.0
 40
2.1
 50
270.0
 51
58.411864
  0
ARC
  5
E051
  8
ALPHA
 10
28.033494
 20
29.545075
 30
0.0
 40
44.0
 50
96.524979
 51
110.626388
  0
LINE
  5
E052
  8
ALPHA
 10
20.03345
 20
88.72456
 30
0.0
 11
26.62947
 21
88.72456
 31
0.0
  0
LINE
  5
E053
  8
ALPHA
 10
17.215305
 20
86.17456
 30
0.0
 11
27.128211
 21
86.17456
 31
0.0
  0
LINE
  5
E054
  8
ALPHA
 10
17.533494
 20
85.57456
 30
0.0
 11
20.687083
 21
85.57456
 31
0.0
  0
LINE
  5
E055
  8
ALPHA
 10
18.533494
 20
85.539552
 30
0.0
 11
20.704115
 21
85.539552
 31
0.0
  0
LINE
  5
E056
  8
ALPHA
 10
18.533494
 20
84.97456
 30
0.0
 11
22.333494
 21
84.97456
 31
0.0
  0
LINE
  5
E057
  8
ALPHA
 10
20.283494
 20
83.37456
 30
0.0
 11
18.683494
 21
83.37456
 31
0.0
  0
LINE
  5
E058
  8
ALPHA
 10
18.415122
 20
83.156372
 30
0.0
 11
21.033494
 21
83.156372
 31
0.0
  0
LINE
  5
E059
  8
ALPHA
 10
20.133494
 20
78.72456
 30
0.0
 11
21.033494
 21
78.72456
 31
0.0
  0
LINE
  5
E05A
  8
ALPHA
 10
14.933494
 20
78.72456
 30
0.0
 11
14.933494
 21
80.72456
 31
0.0
  0
LINE
  5
E05B
  8
ALPHA
 10
12.533494
 20
85.948023
 30
0.0
 11
12.533494
 21
70.72456
 31
0.0
  0
ARC
  5
E05C
  8
ALPHA
 10
28.033494
 20
30.37456
 30
0.0
 40
44.1
 50
100.524713
 51
108.71374
  0
ARC
  5
E05D
  8
ALPHA
 10
17.033494
 20
78.72456
 30
0.0
 40
3.2
 50
235.150095
 51
262.337914
  0
ARC
  5
E05E
  8
ALPHA
 10
17.033494
 20
78.72456
 30
0.0
 40
3.378901
 50
235.150095
 51
270.0
  0
ARC
  5
E05F
  8
ALPHA
 10
28.033494
 20
30.37456
 30
0.0
 40
44.278901
 50
100.716397
 51
108.39259
  0
ARC
  5
E060
  8
ALPHA
 10
17.033494
 20
78.72456
 30
0.0
 40
2.1
 50
180.0
 51
259.984399
  0
LINE
  5
E061
  8
ALPHA
 10
13.812394
 20
72.571841
 30
0.0
 11
13.812394
 21
75.277822
 31
0.0
  0
LINE
  5
E062
  8
ALPHA
 10
13.633494
 20
72.32309
 30
0.0
 11
13.633494
 21
75.277822
 31
0.0
  0
POLYLINE
  5
E063
  8
ALPHA
 66
     1
 10
0.0
 20
0.0
 30
0.0
  0
VERTEX
  5
ECD0
  8
ALPHA
 10
13.884444
 20
72.143141
 30
0.0
  0
VERTEX
  5
ECD1
  8
ALPHA
 10
13.795518
 20
72.135165
 30
0.0
  0
VERTEX
  5
ECD2
  8
ALPHA
 10
13.712769
 20
72.168687
 30
0.0
  0
VERTEX
  5
ECD3
  8
ALPHA
 10
13.654469
 20
72.236306
 30
0.0
  0
VERTEX
  5
ECD4
  8
ALPHA
 10
13.633494
 20
72.32309
 30
0.0
  0
SEQEND
  5
ECD5
  8
ALPHA
  0
POLYLINE
  5
E064
  8
ALPHA
 66
     1
 10
0.0
 20
0.0
 30
0.0
  0
VERTEX
  5
ECD6
  8
ALPHA
 10
13.812394
 20
72.571841
 30
0.0
  0
VERTEX
  5
ECD7
  8
ALPHA
 10
13.833249
 20
72.485295
 30
0.0
  0
VERTEX
  5
ECD8
  8
ALPHA
 10
13.891237
 20
72.417749
 30
0.0
  0
VERTEX
  5
ECD9
  8
ALPHA
 10
13.973629
 20
72.384035
 30
0.0
  0
VERTEX
  5
ECDA
  8
ALPHA
 10
14.062335
 20
72.391554
 30
0.0
  0
SEQEND
  5
ECDB
  8
ALPHA
  0
POLYLINE
  5
E065
  8
ALPHA
 66
     1
 10
0.0
 20
0.0
 30
0.0
  0
VERTEX
  5
ECDC
  8
ALPHA
 10
14.062335
 20
72.391554
 30
0.0
  0
VERTEX
  5
ECDD
  8
ALPHA
 10
14.003077
 20
72.308968
 30
0.0
  0
VERTEX
  5
ECDE
  8
ALPHA
 10
13.884444
 20
72.143141
 30
0.0
  0
SEQEND
  5
ECDF
  8
ALPHA
  0
POLYLINE
  5
E066
  8
ALPHA
 66
     1
 10
0.0
 20
0.0
 30
0.0
  0
VERTEX
  5
ECE0
  8
ALPHA
 10
13.812394
 20
72.571841
 30
0.0
  0
VERTEX
  5
ECE1
  8
ALPHA
 10
13.752801
 20
72.489143
 30
0.0
  0
VERTEX
  5
ECE2
  8
ALPHA
 10
13.633494
 20
72.32309
 30
0.0
  0
SEQEND
  5
ECE3
  8
ALPHA
  0
ARC
  5
E067
  8
ALPHA
 10
14.633494
 20
75.277822
 30
0.0
 40
1.0
 50
55.150095
 51
180.0
  0
ARC
  5
E068
  8
ALPHA
 10
14.633494
 20
75.277822
 30
0.0
 40
0.821099
 50
55.150095
 51
180.0
  0
LINE
  5
E069
  8
ALPHA
 10
13.812394
 20
75.277822
 30
0.0
 11
13.633494
 21
75.277822
 31
0.0
  0
LINE
  5
E06A
  8
ALPHA
 10
15.102693
 20
75.951659
 30
0.0
 11
15.204922
 21
76.098474
 31
0.0
  0
POLYLINE
  5
E06B
  8
ALPHA
 66
     1
 10
0.0
 20
0.0
 30
0.0
  0
VERTEX
  5
ECE4
  8
ALPHA
 10
19.799929
 20
73.88122
 30
0.0
  0
VERTEX
  5
ECE5
  8
ALPHA
 10
19.91874
 20
73.78225
 30
0.0
  0
VERTEX
  5
ECE6
  8
ALPHA
 10
19.978205
 20
73.732631
 30
0.0
  0
SEQEND
  5
ECE7
  8
ALPHA
  0
POLYLINE
  5
E06C
  8
ALPHA
 66
     1
 10
0.0
 20
0.0
 30
0.0
  0
VERTEX
  5
ECE8
  8
ALPHA
 10
20.133494
 20
73.919427
 30
0.0
  0
VERTEX
  5
ECE9
  8
ALPHA
 10
20.113545
 20
73.834678
 30
0.0
  0
VERTEX
  5
ECEA
  8
ALPHA
 10
20.057885
 20
73.767724
 30
0.0
  0
VERTEX
  5
ECEB
  8
ALPHA
 10
19.978205
 20
73.732631
 30
0.0
  0
SEQEND
  5
ECEC
  8
ALPHA
  0
POLYLINE
  5
E06D
  8
ALPHA
 66
     1
 10
0.0
 20
0.0
 30
0.0
  0
VERTEX
  5
ECED
  8
ALPHA
 10
18.233494
 20
76.459608
 30
0.0
  0
VERTEX
  5
ECEE
  8
ALPHA
 10
18.174027
 20
76.449907
 30
0.0
  0
VERTEX
  5
ECEF
  8
ALPHA
 10
18.114808
 20
76.441828
 30
0.0
  0
SEQEND
  5
ECF0
  8
ALPHA
  0
POLYLINE
  5
E06E
  8
ALPHA
 66
     1
 10
0.0
 20
0.0
 30
0.0
  0
VERTEX
  5
ECF1
  8
ALPHA
 10
18.3148
 20
75.405874
 30
0.0
  0
VERTEX
  5
ECF2
  8
ALPHA
 10
18.238161
 20
75.421141
 30
0.0
  0
VERTEX
  5
ECF3
  8
ALPHA
 10
18.173384
 20
75.46445
 30
0.0
  0
VERTEX
  5
ECF4
  8
ALPHA
 10
18.130075
 20
75.529228
 30
0.0
  0
VERTEX
  5
ECF5
  8
ALPHA
 10
18.114808
 20
75.605867
 30
0.0
  0
SEQEND
  5
ECF6
  8
ALPHA
  0
LINE
  5
E06F
  8
ALPHA
 10
18.3148
 20
75.405874
 30
0.0
 11
17.033494
 21
75.405874
 31
0.0
  0
LINE
  5
E070
  8
ALPHA
 10
17.033494
 20
75.345659
 30
0.0
 11
19.7646
 21
75.345659
 31
0.0
  0
POLYLINE
  5
E071
  8
ALPHA
 66
     1
 10
0.0
 20
0.0
 30
0.0
  0
VERTEX
  5
ECF7
  8
ALPHA
 10
18.114808
 20
76.441828
 30
0.0
  0
VERTEX
  5
ECF8
  8
ALPHA
 10
18.127804
 20
76.512746
 30
0.0
  0
VERTEX
  5
ECF9
  8
ALPHA
 10
18.164988
 20
76.574318
 30
0.0
  0
VERTEX
  5
ECFA
  8
ALPHA
 10
18.221551
 20
76.618754
 30
0.0
  0
VERTEX
  5
ECFB
  8
ALPHA
 10
18.290353
 20
76.640328
 30
0.0
  0
SEQEND
  5
ECFC
  8
ALPHA
  0
LINE
  5
E072
  8
ALPHA
 10
18.233494
 20
75.724552
 30
0.0
 11
18.114808
 21
75.605867
 31
0.0
  0
ARC
  5
E073
  8
ALPHA
 10
17.033494
 20
78.72456
 30
0.0
 40
3.318685
 50
264.824871
 51
270.0
  0
ARC
  5
E074
  8
ALPHA
 10
17.033494
 20
78.72456
 30
0.0
 40
2.1
 50
262.974332
 51
270.0
  0
LINE
  5
E075
  8
ALPHA
 10
17.033494
 20
76.62456
 30
0.0
 11
18.033494
 21
76.62456
 31
0.0
  0
POLYLINE
  5
E076
  8
ALPHA
 66
     1
 10
0.0
 20
0.0
 30
0.0
  0
VERTEX
  5
ECFD
  8
ALPHA
 10
16.606836
 20
75.553131
 30
0.0
  0
VERTEX
  5
ECFE
  8
ALPHA
 10
16.691151
 20
75.559832
 30
0.0
  0
VERTEX
  5
ECFF
  8
ALPHA
 10
16.765154
 20
75.600786
 30
0.0
  0
VERTEX
  5
ED00
  8
ALPHA
 10
16.815609
 20
75.668668
 30
0.0
  0
VERTEX
  5
ED01
  8
ALPHA
 10
16.833494
 20
75.751336
 30
0.0
  0
SEQEND
  5
ED02
  8
ALPHA
  0
POLYLINE
  5
E077
  8
ALPHA
 66
     1
 10
0.0
 20
0.0
 30
0.0
  0
VERTEX
  5
ED03
  8
ALPHA
 10
16.952179
 20
76.441828
 30
0.0
  0
VERTEX
  5
ED04
  8
ALPHA
 10
16.891844
 20
76.450075
 30
0.0
  0
VERTEX
  5
ED05
  8
ALPHA
 10
16.833494
 20
76.459608
 30
0.0
  0
SEQEND
  5
ED06
  8
ALPHA
  0
POLYLINE
  5
E078
  8
ALPHA
 66
     1
 10
0.0
 20
0.0
 30
0.0
  0
VERTEX
  5
ED07
  8
ALPHA
 10
16.776634
 20
76.640328
 30
0.0
  0
VERTEX
  5
ED08
  8
ALPHA
 10
16.845436
 20
76.618753
 30
0.0
  0
VERTEX
  5
ED09
  8
ALPHA
 10
16.901999
 20
76.574317
 30
0.0
  0
VERTEX
  5
ED0A
  8
ALPHA
 10
16.939183
 20
76.512746
 30
0.0
  0
VERTEX
  5
ED0B
  8
ALPHA
 10
16.952179
 20
76.441827
 30
0.0
  0
SEQEND
  5
ED0C
  8
ALPHA
  0
POLYLINE
  5
E079
  8
ALPHA
 66
     1
 10
0.0
 20
0.0
 30
0.0
  0
VERTEX
  5
ED0D
  8
ALPHA
 10
16.833494
 20
75.751336
 30
0.0
  0
VERTEX
  5
ED0E
  8
ALPHA
 10
16.893018
 20
75.68403
 30
0.0
  0
VERTEX
  5
ED0F
  8
ALPHA
 10
16.952179
 20
75.61858
 30
0.0
  0
SEQEND
  5
ED10
  8
ALPHA
  0
POLYLINE
  5
E07A
  8
ALPHA
 66
     1
 10
0.0
 20
0.0
 30
0.0
  0
VERTEX
  5
ED11
  8
ALPHA
 10
16.606836
 20
75.553131
 30
0.0
  0
VERTEX
  5
ED12
  8
ALPHA
 10
16.670719
 20
75.485334
 30
0.0
  0
VERTEX
  5
ED13
  8
ALPHA
 10
16.734147
 20
75.419403
 30
0.0
  0
SEQEND
  5
ED14
  8
ALPHA
  0
POLYLINE
  5
E07B
  8
ALPHA
 66
     1
 10
0.0
 20
0.0
 30
0.0
  0
VERTEX
  5
ED15
  8
ALPHA
 10
16.833494
 20
76.459608
 30
0.0
  0
VERTEX
  5
ED16
  8
ALPHA
 10
16.812229
 20
76.549349
 30
0.0
  0
VERTEX
  5
ED17
  8
ALPHA
 10
16.75295
 20
76.620013
 30
0.0
  0
VERTEX
  5
ED18
  8
ALPHA
 10
16.668269
 20
76.656563
 30
0.0
  0
SEQEND
  5
ED19
  8
ALPHA
  0
LINE
  5
E07C
  8
ALPHA
 10
18.114808
 20
75.605867
 30
0.0
 11
18.114808
 21
76.441828
 31
0.0
  0
LINE
  5
E07D
  8
ALPHA
 10
17.033494
 20
75.345659
 30
0.0
 11
17.033494
 21
75.405874
 31
0.0
  0
LINE
  5
E07E
  8
ALPHA
 10
16.952179
 20
76.441827
 30
0.0
 11
16.952179
 21
75.61858
 31
0.0
  0
LINE
  5
E07F
  8
ALPHA
 10
16.833494
 20
76.459608
 30
0.0
 11
16.833494
 21
75.751336
 31
0.0
  0
POLYLINE
  5
E080
  8
ALPHA
 66
     1
 10
0.0
 20
0.0
 30
0.0
  0
VERTEX
  5
ED1A
  8
ALPHA
 10
16.952179
 20
75.61858
 30
0.0
  0
VERTEX
  5
ED1B
  8
ALPHA
 10
16.935181
 20
75.537893
 30
0.0
  0
VERTEX
  5
ED1C
  8
ALPHA
 10
16.887075
 20
75.470922
 30
0.0
  0
VERTEX
  5
ED1D
  8
ALPHA
 10
16.816038
 20
75.429053
 30
0.0
  0
VERTEX
  5
ED1E
  8
ALPHA
 10
16.734147
 20
75.419403
 30
0.0
  0
SEQEND
  5
ED1F
  8
ALPHA
  0
POLYLINE
  5
E081
  8
ALPHA
 66
     1
 10
0.0
 20
0.0
 30
0.0
  0
VERTEX
  5
ED20
  8
ALPHA
 10
19.943501
 20
75.52456
 30
0.0
  0
VERTEX
  5
ED21
  8
ALPHA
 10
20.016308
 20
75.510057
 30
0.0
  0
VERTEX
  5
ED22
  8
ALPHA
 10
20.077847
 20
75.468913
 30
0.0
  0
VERTEX
  5
ED23
  8
ALPHA
 10
20.11899
 20
75.407374
 30
0.0
  0
VERTEX
  5
ED24
  8
ALPHA
 10
20.133494
 20
75.334567
 30
0.0
  0
SEQEND
  5
ED25
  8
ALPHA
  0
LINE
  5
E082
  8
ALPHA
 10
18.433486
 20
75.52456
 30
0.0
 11
19.943501
 21
75.52456
 31
0.0
  0
POLYLINE
  5
E083
  8
ALPHA
 66
     1
 10
0.0
 20
0.0
 30
0.0
  0
VERTEX
  5
ED26
  8
ALPHA
 10
19.954593
 20
74.067899
 30
0.0
  0
VERTEX
  5
ED27
  8
ALPHA
 10
20.07382
 20
73.969007
 30
0.0
  0
VERTEX
  5
ED28
  8
ALPHA
 10
20.133494
 20
73.919427
 30
0.0
  0
SEQEND
  5
ED29
  8
ALPHA
  0
POLYLINE
  5
E084
  8
ALPHA
 66
     1
 10
0.0
 20
0.0
 30
0.0
  0
VERTEX
  5
ED2A
  8
ALPHA
 10
19.954593
 20
75.155666
 30
0.0
  0
VERTEX
  5
ED2B
  8
ALPHA
 10
19.94009
 20
75.228474
 30
0.0
  0
VERTEX
  5
ED2C
  8
ALPHA
 10
19.898946
 20
75.290012
 30
0.0
  0
VERTEX
  5
ED2D
  8
ALPHA
 10
19.837407
 20
75.331156
 30
0.0
  0
VERTEX
  5
ED2E
  8
ALPHA
 10
19.7646
 20
75.345659
 30
0.0
  0
SEQEND
  5
ED2F
  8
ALPHA
  0
POLYLINE
  5
E085
  8
ALPHA
 66
     1
 10
0.0
 20
0.0
 30
0.0
  0
VERTEX
  5
ED30
  8
ALPHA
 10
18.233494
 20
75.724552
 30
0.0
  0
VERTEX
  5
ED31
  8
ALPHA
 10
18.24876
 20
75.647913
 30
0.0
  0
VERTEX
  5
ED32
  8
ALPHA
 10
18.292069
 20
75.583135
 30
0.0
  0
VERTEX
  5
ED33
  8
ALPHA
 10
18.356847
 20
75.539826
 30
0.0
  0
VERTEX
  5
ED34
  8
ALPHA
 10
18.433486
 20
75.52456
 30
0.0
  0
SEQEND
  5
ED35
  8
ALPHA
  0
LINE
  5
E086
  8
ALPHA
 10
20.133494
 20
75.334567
 30
0.0
 11
20.133494
 21
73.919427
 31
0.0
  0
LINE
  5
E087
  8
ALPHA
 10
19.954593
 20
75.155666
 30
0.0
 11
19.954593
 21
74.067899
 31
0.0
  0
LINE
  5
E088
  8
ALPHA
 10
18.233494
 20
75.724552
 30
0.0
 11
18.233494
 21
76.459608
 31
0.0
  0
POLYLINE
  5
E089
  8
ALPHA
 66
     1
 10
0.0
 20
0.0
 30
0.0
  0
VERTEX
  5
ED36
  8
ALPHA
 10
19.954593
 20
74.067899
 30
0.0
  0
VERTEX
  5
ED37
  8
ALPHA
 10
19.934738
 20
73.983339
 30
0.0
  0
VERTEX
  5
ED38
  8
ALPHA
 10
19.879322
 20
73.916452
 30
0.0
  0
VERTEX
  5
ED39
  8
ALPHA
 10
19.799929
 20
73.88122
 30
0.0
  0
SEQEND
  5
ED3A
  8
ALPHA
  0
LINE
  5
E08A
  8
ALPHA
 10
19.954593
 20
75.155666
 30
0.0
 11
20.133494
 21
75.334567
 31
0.0
  0
LINE
  5
E08B
  8
ALPHA
 10
19.7646
 20
75.345659
 30
0.0
 11
19.943501
 21
75.52456
 31
0.0
  0
LINE
  5
E08C
  8
ALPHA
 10
18.433486
 20
75.52456
 30
0.0
 11
18.3148
 21
75.405874
 31
0.0
  0
POLYLINE
  5
E08D
  8
ALPHA
 66
     1
 10
0.0
 20
0.0
 30
0.0
  0
VERTEX
  5
ED3B
  8
ALPHA
 10
18.398718
 20
76.656563
 30
0.0
  0
VERTEX
  5
ED3C
  8
ALPHA
 10
18.314037
 20
76.620013
 30
0.0
  0
VERTEX
  5
ED3D
  8
ALPHA
 10
18.254758
 20
76.549349
 30
0.0
  0
VERTEX
  5
ED3E
  8
ALPHA
 10
18.233494
 20
76.459608
 30
0.0
  0
SEQEND
  5
ED3F
  8
ALPHA
  0
ARC
  5
E08E
  8
ALPHA
 10
28.033494
 20
27.66206
 30
0.0
 40
59.2
 50
101.338765
 51
103.926581
  0
ARC
  5
E08F
  8
ALPHA
 10
17.033494
 20
80.72456
 30
0.0
 40
2.1
 50
0.0
 51
180.0
  0
POLYLINE
  5
E090
  8
ALPHA
 66
     1
 10
0.0
 20
0.0
 30
0.0
  0
VERTEX
  5
ED40
  8
ALPHA
 10
15.985783
 20
85.20767
 30
0.0
  0
VERTEX
  5
ED41
  8
ALPHA
 10
16.072226
 20
85.206644
 30
0.0
  0
VERTEX
  5
ED42
  8
ALPHA
 10
16.151934
 20
85.167831
 30
0.0
  0
VERTEX
  5
ED43
  8
ALPHA
 10
16.207061
 20
85.098353
 30
0.0
  0
VERTEX
  5
ED44
  8
ALPHA
 10
16.22673
 20
85.011944
 30
0.0
  0
SEQEND
  5
ED45
  8
ALPHA
  0
POLYLINE
  5
E091
  8
ALPHA
 66
     1
 10
0.0
 20
0.0
 30
0.0
  0
VERTEX
  5
ED46
  8
ALPHA
 10
16.02676
 20
85.011944
 30
0.0
  0
VERTEX
  5
ED47
  8
ALPHA
 10
16.100118
 20
85.011794
 30
0.0
  0
VERTEX
  5
ED48
  8
ALPHA
 10
16.16456
 20
85.012162
 30
0.0
  0
VERTEX
  5
ED49
  8
ALPHA
 10
16.210228
 20
85.011737
 30
0.0
  0
VERTEX
  5
ED4A
  8
ALPHA
 10
16.22673
 20
85.011944
 30
0.0
  0
SEQEND
  5
ED4B
  8
ALPHA
  0
LINE
  5
E092
  8
ALPHA
 10
16.02676
 20
84.499352
 30
0.0
 11
16.22673
 21
84.499352
 31
0.0
  0
POLYLINE
  5
E093
  8
ALPHA
 66
     1
 10
0.0
 20
0.0
 30
0.0
  0
VERTEX
  5
ED4C
  8
ALPHA
 10
16.207587
 20
83.655072
 30
0.0
  0
VERTEX
  5
ED4D
  8
ALPHA
 10
16.068557
 20
83.761034
 30
0.0
  0
VERTEX
  5
ED4E
  8
ALPHA
 10
15.928802
 20
83.865663
 30
0.0
  0
SEQEND
  5
ED4F
  8
ALPHA
  0
POLYLINE
  5
E094
  8
ALPHA
 66
     1
 10
0.0
 20
0.0
 30
0.0
  0
VERTEX
  5
ED50
  8
ALPHA
 10
16.338649
 20
83.950578
 30
0.0
  0
VERTEX
  5
ED51
  8
ALPHA
 10
16.241409
 20
84.020331
 30
0.0
  0
VERTEX
  5
ED52
  8
ALPHA
 10
16.144134
 20
84.089389
 30
0.0
  0
VERTEX
  5
ED53
  8
ALPHA
 10
16.046733
 20
84.157871
 30
0.0
  0
SEQEND
  5
ED54
  8
ALPHA
  0
POLYLINE
  5
E095
  8
ALPHA
 66
     1
 10
0.0
 20
0.0
 30
0.0
  0
VERTEX
  5
ED55
  8
ALPHA
 10
16.467803
 20
83.975713
 30
0.0
  0
VERTEX
  5
ED56
  8
ALPHA
 10
16.340373
 20
84.087391
 30
0.0
  0
VERTEX
  5
ED57
  8
ALPHA
 10
16.210553
 20
84.197469
 30
0.0
  0
VERTEX
  5
ED58
  8
ALPHA
 10
16.078287
 20
84.306135
 30
0.0
  0
SEQEND
  5
ED59
  8
ALPHA
  0
LINE
  5
E096
  8
ALPHA
 10
16.489515
 20
82.89448
 30
0.0
 11
15.928802
 21
83.865663
 31
0.0
  0
POLYLINE
  5
E097
  8
ALPHA
 66
     1
 10
0.0
 20
0.0
 30
0.0
  0
VERTEX
  5
ED5A
  8
ALPHA
 10
16.22673
 20
84.499352
 30
0.0
  0
VERTEX
  5
ED5B
  8
ALPHA
 10
16.208536
 20
84.416049
 30
0.0
  0
VERTEX
  5
ED5C
  8
ALPHA
 10
16.155717
 20
84.34654
 30
0.0
  0
VERTEX
  5
ED5D
  8
ALPHA
 10
16.078291
 20
84.306136
 30
0.0
  0
SEQEND
  5
ED5E
  8
ALPHA
  0
POLYLINE
  5
E098
  8
ALPHA
 66
     1
 10
0.0
 20
0.0
 30
0.0
  0
VERTEX
  5
ED5F
  8
ALPHA
 10
16.394208
 20
85.706586
 30
0.0
  0
VERTEX
  5
ED60
  8
ALPHA
 10
16.258225
 20
85.540952
 30
0.0
  0
VERTEX
  5
ED61
  8
ALPHA
 10
16.122083
 20
85.374649
 30
0.0
  0
VERTEX
  5
ED62
  8
ALPHA
 10
15.985783
 20
85.20767
 30
0.0
  0
SEQEND
  5
ED63
  8
ALPHA
  0
ARC
  5
E099
  8
ALPHA
 10
14.233494
 20
83.439334
 30
0.0
 40
0.6
 50
180.0
 51
315.885381
  0
LINE
  5
E09A
  8
ALPHA
 10
14.240227
 20
84.608672
 30
0.0
 11
14.040257
 21
84.608672
 31
0.0
  0
POLYLINE
  5
E09B
  8
ALPHA
 66
     1
 10
0.0
 20
0.0
 30
0.0
  0
VERTEX
  5
ED64
  8
ALPHA
 10
13.785335
 20
85.121872
 30
0.0
  0
VERTEX
  5
ED65
  8
ALPHA
 10
13.921116
 20
85.015909
 30
0.0
  0
VERTEX
  5
ED66
  8
ALPHA
 10
14.057056
 20
84.909626
 30
0.0
  0
VERTEX
  5
ED67
  8
ALPHA
 10
14.193153
 20
84.803022
 30
0.0
  0
SEQEND
  5
ED68
  8
ALPHA
  0
POLYLINE
  5
E09C
  8
ALPHA
 66
     1
 10
0.0
 20
0.0
 30
0.0
  0
VERTEX
  5
ED69
  8
ALPHA
 10
14.164128
 20
83.262375
 30
0.0
  0
VERTEX
  5
ED6A
  8
ALPHA
 10
14.093714
 20
83.309287
 30
0.0
  0
VERTEX
  5
ED6B
  8
ALPHA
 10
14.053802
 20
83.371602
 30
0.0
  0
VERTEX
  5
ED6C
  8
ALPHA
 10
14.040257
 20
83.439334
 30
0.0
  0
SEQEND
  5
ED6D
  8
ALPHA
  0
POLYLINE
  5
E09D
  8
ALPHA
 66
     1
 10
0.0
 20
0.0
 30
0.0
  0
VERTEX
  5
ED6E
  8
ALPHA
 10
14.040257
 20
84.608672
 30
0.0
  0
VERTEX
  5
ED6F
  8
ALPHA
 10
14.059064
 20
84.693296
 30
0.0
  0
VERTEX
  5
ED70
  8
ALPHA
 10
14.113598
 20
84.763418
 30
0.0
  0
VERTEX
  5
ED71
  8
ALPHA
 10
14.193153
 20
84.803022
 30
0.0
  0
SEQEND
  5
ED72
  8
ALPHA
  0
LINE
  5
E09E
  8
ALPHA
 10
13.633494
 20
83.439334
 30
0.0
 11
14.040257
 21
83.439334
 31
0.0
  0
POLYLINE
  5
E09F
  8
ALPHA
 66
     1
 10
0.0
 20
0.0
 30
0.0
  0
VERTEX
  5
ED73
  8
ALPHA
 10
13.633494
 20
84.92778
 30
0.0
  0
VERTEX
  5
ED74
  8
ALPHA
 10
13.768926
 20
84.821731
 30
0.0
  0
VERTEX
  5
ED75
  8
ALPHA
 10
13.904514
 20
84.715362
 30
0.0
  0
VERTEX
  5
ED76
  8
ALPHA
 10
14.040257
 20
84.608672
 30
0.0
  0
SEQEND
  5
ED77
  8
ALPHA
  0
LINE
  5
E0A0
  8
ALPHA
 10
14.040257
 20
83.439334
 30
0.0
 11
14.040257
 21
84.608672
 31
0.0
  0
LINE
  5
E0A1
  8
ALPHA
 10
13.633494
 20
84.92778
 30
0.0
 11
13.633494
 21
83.439334
 31
0.0
  0
POLYLINE
  5
E0A2
  8
ALPHA
 66
     1
 10
0.0
 20
0.0
 30
0.0
  0
VERTEX
  5
ED78
  8
ALPHA
 10
13.633494
 20
84.92778
 30
0.0
  0
VERTEX
  5
ED79
  8
ALPHA
 10
13.65276
 20
85.013423
 30
0.0
  0
VERTEX
  5
ED7A
  8
ALPHA
 10
13.706846
 20
85.082559
 30
0.0
  0
VERTEX
  5
ED7B
  8
ALPHA
 10
13.785335
 20
85.121872
 30
0.0
  0
SEQEND
  5
ED7C
  8
ALPHA
  0
ARC
  5
E0A3
  8
ALPHA
 10
17.033494
 20
80.72456
 30
0.0
 40
3.572299
 50
106.03506
 51
129.894769
  0
ARC
  5
E0A4
  8
ALPHA
 10
17.033494
 20
80.72456
 30
0.0
 40
3.3
 50
133.136559
 51
135.885381
  0
ARC
  5
E0A5
  8
ALPHA
 10
17.033494
 20
80.72456
 30
0.0
 40
3.706764
 50
104.933205
 51
135.885381
  0
ARC
  5
E0A6
  8
ALPHA
 10
17.033494
 20
80.72456
 30
0.0
 40
3.906733
 50
104.930844
 51
135.642194
  0
ARC
  5
E0A7
  8
ALPHA
 10
28.033494
 20
27.66206
 30
0.0
 40
58.793236
 50
101.824618
 51
103.615617
  0
ARC
  5
E0A8
  8
ALPHA
 10
28.033494
 20
27.66206
 30
0.0
 40
58.593267
 50
101.824617
 51
103.615617
  0
POLYLINE
  5
E0A9
  8
ALPHA
 66
     1
 10
0.0
 20
0.0
 30
0.0
  0
VERTEX
  5
ED7D
  8
ALPHA
 10
14.164128
 20
83.262375
 30
0.0
  0
VERTEX
  5
ED7E
  8
ALPHA
 10
14.246577
 20
83.248862
 30
0.0
  0
VERTEX
  5
ED7F
  8
ALPHA
 10
14.31695
 20
83.266383
 30
0.0
  0
VERTEX
  5
ED80
  8
ALPHA
 10
14.372227
 20
83.304823
 30
0.0
  0
SEQEND
  5
ED81
  8
ALPHA
  0
LINE
  5
E0AA
  8
ALPHA
 10
14.664263
 20
83.021677
 30
0.0
 11
14.372227
 21
83.304823
 31
0.0
  0
LINE
  5
E0AB
  8
ALPHA
 10
14.742294
 20
83.465312
 30
0.0
 11
15.426277
 21
82.28062
 31
0.0
  0
LINE
  5
E0AC
  8
ALPHA
 10
14.777153
 20
83.132656
 30
0.0
 11
15.336655
 21
82.163571
 31
0.0
  0
POLYLINE
  5
E0AD
  8
ALPHA
 66
     1
 10
0.0
 20
0.0
 30
0.0
  0
VERTEX
  5
ED82
  8
ALPHA
 10
16.02676
 20
84.499352
 30
0.0
  0
VERTEX
  5
ED83
  8
ALPHA
 10
16.046111
 20
84.427175
 30
0.0
  0
VERTEX
  5
ED84
  8
ALPHA
 10
16.062576
 20
84.36467
 30
0.0
  0
VERTEX
  5
ED85
  8
ALPHA
 10
16.074163
 20
84.321956
 30
0.0
  0
VERTEX
  5
ED86
  8
ALPHA
 10
16.078291
 20
84.306136
 30
0.0
  0
SEQEND
  5
ED87
  8
ALPHA
  0
POLYLINE
  5
E0AE
  8
ALPHA
 66
     1
 10
0.0
 20
0.0
 30
0.0
  0
VERTEX
  5
ED88
  8
ALPHA
 10
15.928802
 20
83.865663
 30
0.0
  0
VERTEX
  5
ED89
  8
ALPHA
 10
15.902491
 20
83.951684
 30
0.0
  0
VERTEX
  5
ED8A
  8
ALPHA
 10
15.916534
 20
84.040528
 30
0.0
  0
VERTEX
  5
ED8B
  8
ALPHA
 10
15.968094
 20
84.114227
 30
0.0
  0
VERTEX
  5
ED8C
  8
ALPHA
 10
16.046733
 20
84.157871
 30
0.0
  0
SEQEND
  5
ED8D
  8
ALPHA
  0
POLYLINE
  5
E0AF
  8
ALPHA
 66
     1
 10
0.0
 20
0.0
 30
0.0
  0
VERTEX
  5
ED8E
  8
ALPHA
 10
15.426277
 20
82.28062
 30
0.0
  0
VERTEX
  5
ED8F
  8
ALPHA
 10
15.451619
 20
82.204674
 30
0.0
  0
VERTEX
  5
ED90
  8
ALPHA
 10
15.445144
 20
82.124869
 30
0.0
  0
VERTEX
  5
ED91
  8
ALPHA
 10
15.407887
 20
82.053998
 30
0.0
  0
SEQEND
  5
ED92
  8
ALPHA
  0
LINE
  5
E0B0
  8
ALPHA
 10
16.02676
 20
85.011944
 30
0.0
 11
15.985783
 21
85.20767
 31
0.0
  0
POLYLINE
  5
E0B1
  8
ALPHA
 66
     1
 10
0.0
 20
0.0
 30
0.0
  0
VERTEX
  5
ED93
  8
ALPHA
 10
14.240227
 20
84.608672
 30
0.0
  0
VERTEX
  5
ED94
  8
ALPHA
 10
14.222562
 20
84.681224
 30
0.0
  0
VERTEX
  5
ED95
  8
ALPHA
 10
14.207522
 20
84.744085
 30
0.0
  0
VERTEX
  5
ED96
  8
ALPHA
 10
14.196923
 20
84.787106
 30
0.0
  0
VERTEX
  5
ED97
  8
ALPHA
 10
14.193153
 20
84.803022
 30
0.0
  0
SEQEND
  5
ED98
  8
ALPHA
  0
LINE
  5
E0B2
  8
ALPHA
 10
16.02676
 20
85.011944
 30
0.0
 11
16.02676
 21
84.499962
 31
0.0
  0
POLYLINE
  5
E0B3
  8
ALPHA
 66
     1
 10
0.0
 20
0.0
 30
0.0
  0
VERTEX
  5
ED99
  8
ALPHA
 10
14.742294
 20
83.465312
 30
0.0
  0
VERTEX
  5
ED9A
  8
ALPHA
 10
14.75343
 20
83.35422
 30
0.0
  0
VERTEX
  5
ED9B
  8
ALPHA
 10
14.765039
 20
83.243352
 30
0.0
  0
VERTEX
  5
ED9C
  8
ALPHA
 10
14.777153
 20
83.132656
 30
0.0
  0
SEQEND
  5
ED9D
  8
ALPHA
  0
LINE
  5
E0B4
  8
ALPHA
 10
14.240227
 20
83.455902
 30
0.0
 11
14.240227
 21
84.608672
 31
0.0
  0
POLYLINE
  5
E0B5
  8
ALPHA
 66
     1
 10
0.0
 20
0.0
 30
0.0
  0
VERTEX
  5
ED9E
  8
ALPHA
 10
15.326059
 20
81.947126
 30
0.0
  0
VERTEX
  5
ED9F
  8
ALPHA
 10
15.357729
 20
82.016077
 30
0.0
  0
VERTEX
  5
EDA0
  8
ALPHA
 10
15.361438
 20
82.091861
 30
0.0
  0
VERTEX
  5
EDA1
  8
ALPHA
 10
15.336655
 20
82.163571
 30
0.0
  0
SEQEND
  5
EDA2
  8
ALPHA
  0
POLYLINE
  5
E0B6
  8
ALPHA
 66
     1
 10
0.0
 20
0.0
 30
0.0
  0
VERTEX
  5
EDA3
  8
ALPHA
 10
14.240227
 20
83.455902
 30
0.0
  0
VERTEX
  5
EDA4
  8
ALPHA
 10
14.214173
 20
83.391224
 30
0.0
  0
VERTEX
  5
EDA5
  8
ALPHA
 10
14.188788
 20
83.326664
 30
0.0
  0
VERTEX
  5
EDA6
  8
ALPHA
 10
14.164128
 20
83.262375
 30
0.0
  0
SEQEND
  5
EDA7
  8
ALPHA
  0
POLYLINE
  5
E0B7
  8
ALPHA
 66
     1
 10
0.0
 20
0.0
 30
0.0
  0
VERTEX
  5
EDA8
  8
ALPHA
 10
15.336655
 20
82.163571
 30
0.0
  0
VERTEX
  5
EDA9
  8
ALPHA
 10
15.381273
 20
82.223786
 30
0.0
  0
VERTEX
  5
EDAA
  8
ALPHA
 10
15.426277
 20
82.28062
 30
0.0
  0
SEQEND
  5
EDAB
  8
ALPHA
  0
POLYLINE
  5
E0B8
  8
ALPHA
 66
     1
 10
0.0
 20
0.0
 30
0.0
  0
VERTEX
  5
EDAC
  8
ALPHA
 10
13.292092
 20
86.918452
 30
0.0
  0
VERTEX
  5
EDAD
  8
ALPHA
 10
13.046537
 20
86.82145
 30
0.0
  0
VERTEX
  5
EDAE
  8
ALPHA
 10
12.833203
 20
86.66188
 30
0.0
  0
VERTEX
  5
EDAF
  8
ALPHA
 10
12.671694
 20
86.45527
 30
0.0
  0
VERTEX
  5
EDB0
  8
ALPHA
 10
12.568346
 20
86.209727
 30
0.0
  0
VERTEX
  5
EDB1
  8
ALPHA
 10
12.533494
 20
85.948023
 30
0.0
  0
SEQEND
  5
EDB2
  8
ALPHA
  0
POLYLINE
  5
E0B9
  8
ALPHA
 66
     1
 10
0.0
 20
0.0
 30
0.0
  0
VERTEX
  5
EDB3
  8
ALPHA
 10
18.416827
 20
85.400859
 30
0.0
  0
VERTEX
  5
EDB4
  8
ALPHA
 10
18.48033
 20
85.415677
 30
0.0
  0
VERTEX
  5
EDB5
  8
ALPHA
 10
18.519996
 20
85.432689
 30
0.0
  0
VERTEX
  5
EDB6
  8
ALPHA
 10
18.533494
 20
85.451062
 30
0.0
  0
SEQEND
  5
EDB7
  8
ALPHA
  0
LINE
  5
E0BA
  8
ALPHA
 10
18.416827
 20
85.57456
 30
0.0
 11
18.416827
 21
85.400859
 31
0.0
  0
LINE
  5
E0BB
  8
ALPHA
 10
18.183494
 20
85.57456
 30
0.0
 11
18.183494
 21
85.308958
 31
0.0
  0
LINE
  5
E0BC
  8
ALPHA
 10
17.433494
 20
86.17456
 30
0.0
 11
17.433494
 21
84.87456
 31
0.0
  0
LINE
  5
E0BD
  8
ALPHA
 10
17.215305
 20
84.356189
 30
0.0
 11
17.215305
 21
86.17456
 31
0.0
  0
LINE
  5
E0BE
  8
ALPHA
 10
16.633494
 20
84.172722
 30
0.0
 11
16.633494
 21
85.51052
 31
0.0
  0
POLYLINE
  5
E0BF
  8
ALPHA
 66
     1
 10
0.0
 20
0.0
 30
0.0
  0
VERTEX
  5
EDB8
  8
ALPHA
 10
16.633494
 20
85.51052
 30
0.0
  0
VERTEX
  5
EDB9
  8
ALPHA
 10
16.498061
 20
85.344997
 30
0.0
  0
VERTEX
  5
EDBA
  8
ALPHA
 10
16.362473
 20
85.178807
 30
0.0
  0
VERTEX
  5
EDBB
  8
ALPHA
 10
16.22673
 20
85.011944
 30
0.0
  0
SEQEND
  5
EDBC
  8
ALPHA
  0
LINE
  5
E0C0
  8
ALPHA
 10
18.433494
 20
84.87456
 30
0.0
 11
17.433494
 21
84.87456
 31
0.0
  0
LINE
  5
E0C1
  8
ALPHA
 10
18.605468
 20
84.796534
 30
0.0
 11
17.316498
 21
84.757565
 31
0.0
  0
POLYLINE
  5
E0C2
  8
ALPHA
 66
     1
 10
0.0
 20
0.0
 30
0.0
  0
VERTEX
  5
EDBD
  8
ALPHA
 10
18.416711
 20
85.228343
 30
0.0
  0
VERTEX
  5
EDBE
  8
ALPHA
 10
18.288685
 20
85.251702
 30
0.0
  0
VERTEX
  5
EDBF
  8
ALPHA
 10
18.209312
 20
85.279325
 30
0.0
  0
VERTEX
  5
EDC0
  8
ALPHA
 10
18.183494
 20
85.308958
 30
0.0
  0
SEQEND
  5
EDC1
  8
ALPHA
  0
POLYLINE
  5
E0C3
  8
ALPHA
 66
     1
 10
0.0
 20
0.0
 30
0.0
  0
VERTEX
  5
EDC2
  8
ALPHA
 10
18.415122
 20
83.156372
 30
0.0
  0
VERTEX
  5
EDC3
  8
ALPHA
 10
18.1064
 20
83.196761
 30
0.0
  0
VERTEX
  5
EDC4
  8
ALPHA
 10
17.813567
 20
83.318041
 30
0.0
  0
VERTEX
  5
EDC5
  8
ALPHA
 10
17.566701
 20
83.507768
 30
0.0
  0
VERTEX
  5
EDC6
  8
ALPHA
 10
17.376974
 20
83.754634
 30
0.0
  0
VERTEX
  5
EDC7
  8
ALPHA
 10
17.255694
 20
84.047466
 30
0.0
  0
VERTEX
  5
EDC8
  8
ALPHA
 10
17.215305
 20
84.356189
 30
0.0
  0
SEQEND
  5
EDC9
  8
ALPHA
  0
POLYLINE
  5
E0C4
  8
ALPHA
 66
     1
 10
0.0
 20
0.0
 30
0.0
  0
VERTEX
  5
EDCA
  8
ALPHA
 10
17.316498
 20
84.457382
 30
0.0
  0
VERTEX
  5
EDCB
  8
ALPHA
 10
17.334644
 20
84.253171
 30
0.0
  0
VERTEX
  5
EDCC
  8
ALPHA
 10
17.393297
 20
84.043524
 30
0.0
  0
VERTEX
  5
EDCD
  8
ALPHA
 10
17.485552
 20
83.85703
 30
0.0
  0
VERTEX
  5
EDCE
  8
ALPHA
 10
17.604956
 20
83.695982
 30
0.0
  0
VERTEX
  5
EDCF
  8
ALPHA
 10
17.748835
 20
83.559204
 30
0.0
  0
VERTEX
  5
EDD0
  8
ALPHA
 10
17.915579
 20
83.44756
 30
0.0
  0
VERTEX
  5
EDD1
  8
ALPHA
 10
18.104767
 20
83.36316
 30
0.0
  0
VERTEX
  5
EDD2
  8
ALPHA
 10
18.317186
 20
83.309944
 30
0.0
  0
VERTEX
  5
EDD3
  8
ALPHA
 10
18.553721
 20
83.29497
 30
0.0
  0
SEQEND
  5
EDD4
  8
ALPHA
  0
POLYLINE
  5
E0C5
  8
ALPHA
 66
     1
 10
0.0
 20
0.0
 30
0.0
  0
VERTEX
  5
EDD5
  8
ALPHA
 10
18.183494
 20
85.308958
 30
0.0
  0
VERTEX
  5
EDD6
  8
ALPHA
 10
18.209687
 20
85.340212
 30
0.0
  0
VERTEX
  5
EDD7
  8
ALPHA
 10
18.289026
 20
85.371764
 30
0.0
  0
VERTEX
  5
EDD8
  8
ALPHA
 10
18.416827
 20
85.400859
 30
0.0
  0
SEQEND
  5
EDD9
  8
ALPHA
  0
ARC
  5
E0C6
  8
ALPHA
 10
17.033494
 20
80.72456
 30
0.0
 40
3.3
 50
99.857042
 51
102.155112
  0
POLYLINE
  5
E0C7
  8
ALPHA
 66
     1
 10
0.0
 20
0.0
 30
0.0
  0
VERTEX
  5
EDDA
  8
ALPHA
 10
16.489515
 20
82.89448
 30
0.0
  0
VERTEX
  5
EDDB
  8
ALPHA
 10
16.56124
 20
82.905039
 30
0.0
  0
VERTEX
  5
EDDC
  8
ALPHA
 10
16.635693
 20
82.913571
 30
0.0
  0
SEQEND
  5
EDDD
  8
ALPHA
  0
POLYLINE
  5
E0C8
  8
ALPHA
 66
     1
 10
0.0
 20
0.0
 30
0.0
  0
VERTEX
  5
EDDE
  8
ALPHA
 10
16.69497
 20
82.797095
 30
0.0
  0
VERTEX
  5
EDDF
  8
ALPHA
 10
16.614965
 20
82.800265
 30
0.0
  0
VERTEX
  5
EDE0
  8
ALPHA
 10
16.542614
 20
82.83456
 30
0.0
  0
VERTEX
  5
EDE1
  8
ALPHA
 10
16.489515
 20
82.89448
 30
0.0
  0
SEQEND
  5
EDE2
  8
ALPHA
  0
POLYLINE
  5
E0C9
  8
ALPHA
 66
     1
 10
0.0
 20
0.0
 30
0.0
  0
VERTEX
  5
EDE3
  8
ALPHA
 10
16.633494
 20
84.172722
 30
0.0
  0
VERTEX
  5
EDE4
  8
ALPHA
 10
16.499975
 20
84.283244
 30
0.0
  0
VERTEX
  5
EDE5
  8
ALPHA
 10
16.364414
 20
84.39205
 30
0.0
  0
VERTEX
  5
EDE6
  8
ALPHA
 10
16.22673
 20
84.499353
 30
0.0
  0
SEQEND
  5
EDE7
  8
ALPHA
  0
POLYLINE
  5
E0CA
  8
ALPHA
 66
     1
 10
0.0
 20
0.0
 30
0.0
  0
VERTEX
  5
EDE8
  8
ALPHA
 10
16.635693
 20
82.913571
 30
0.0
  0
VERTEX
  5
EDE9
  8
ALPHA
 10
16.685403
 20
82.856253
 30
0.0
  0
VERTEX
  5
EDEA
  8
ALPHA
 10
16.752889
 20
82.821573
 30
0.0
  0
VERTEX
  5
EDEB
  8
ALPHA
 10
16.828437
 20
82.814524
 30
0.0
  0
SEQEND
  5
EDEC
  8
ALPHA
  0
LINE
  5
E0CB
  8
ALPHA
 10
16.635693
 20
82.913571
 30
0.0
 11
16.207587
 21
83.655072
 31
0.0
  0
LINE
  5
E0CC
  8
ALPHA
 10
17.316498
 20
84.757565
 30
0.0
 11
17.316498
 21
84.457382
 31
0.0
  0
LINE
  5
E0CD
  8
ALPHA
 10
16.22673
 20
85.011944
 30
0.0
 11
16.22673
 21
84.499353
 31
0.0
  0
POLYLINE
  5
E0CE
  8
ALPHA
 66
     1
 10
0.0
 20
0.0
 30
0.0
  0
VERTEX
  5
EDED
  8
ALPHA
 10
16.633494
 20
84.172722
 30
0.0
  0
VERTEX
  5
EDEE
  8
ALPHA
 10
16.612157
 20
84.082839
 30
0.0
  0
VERTEX
  5
EDEF
  8
ALPHA
 10
16.552698
 20
84.012141
 30
0.0
  0
VERTEX
  5
EDF0
  8
ALPHA
 10
16.468534
 20
83.976026
 30
0.0
  0
SEQEND
  5
EDF1
  8
ALPHA
  0
LINE
  5
E0CF
  8
ALPHA
 10
17.215305
 20
84.356189
 30
0.0
 11
17.316498
 21
84.457382
 31
0.0
  0
LINE
  5
E0D0
  8
ALPHA
 10
17.433494
 20
84.87456
 30
0.0
 11
17.316498
 21
84.757565
 31
0.0
  0
POLYLINE
  5
E0D1
  8
ALPHA
 66
     1
 10
0.0
 20
0.0
 30
0.0
  0
VERTEX
  5
EDF2
  8
ALPHA
 10
16.338649
 20
83.950578
 30
0.0
  0
VERTEX
  5
EDF3
  8
ALPHA
 10
16.254591
 20
83.910242
 30
0.0
  0
VERTEX
  5
EDF4
  8
ALPHA
 10
16.197957
 20
83.836173
 30
0.0
  0
VERTEX
  5
EDF5
  8
ALPHA
 10
16.181067
 20
83.744472
 30
0.0
  0
VERTEX
  5
EDF6
  8
ALPHA
 10
16.207587
 20
83.655072
 30
0.0
  0
SEQEND
  5
EDF7
  8
ALPHA
  0
ARC
  5
E0D2
  8
ALPHA
 10
20.033494
 20
84.62456
 30
0.0
 40
0.5
 50
134.87109
 51
150.0
  0
LINE
  5
E0D3
  8
ALPHA
 10
18.533494
 20
85.057888
 30
0.0
 11
18.433494
 21
85.070252
 31
0.0
  0
LINE
  5
E0D4
  8
ALPHA
 10
18.433494
 20
84.907631
 30
0.0
 11
19.600481
 21
84.907631
 31
0.0
  0
LINE
  5
E0D5
  8
ALPHA
 10
19.600481
 20
84.87456
 30
0.0
 11
18.683494
 21
84.87456
 31
0.0
  0
LINE
  5
E0D6
  8
ALPHA
 10
18.605468
 20
83.296534
 30
0.0
 11
18.553721
 21
83.29497
 31
0.0
  0
POLYLINE
  5
E0D7
  8
ALPHA
 66
     1
 10
0.0
 20
0.0
 30
0.0
  0
VERTEX
  5
EDF8
  8
ALPHA
 10
18.533494
 20
85.192216
 30
0.0
  0
VERTEX
  5
EDF9
  8
ALPHA
 10
18.520035
 20
85.204856
 30
0.0
  0
VERTEX
  5
EDFA
  8
ALPHA
 10
18.480406
 20
85.217142
 30
0.0
  0
VERTEX
  5
EDFB
  8
ALPHA
 10
18.416711
 20
85.228343
 30
0.0
  0
SEQEND
  5
EDFC
  8
ALPHA
  0
LINE
  5
E0D8
  8
ALPHA
 10
19.133494
 20
80.72456
 30
0.0
 11
19.133494
 21
80.513414
 31
0.0
  0
LINE
  5
E0D9
  8
ALPHA
 10
18.683494
 20
84.87456
 30
0.0
 11
18.683494
 21
83.37456
 31
0.0
  0
LINE
  5
E0DA
  8
ALPHA
 10
18.605468
 20
84.796534
 30
0.0
 11
18.605468
 21
83.296534
 31
0.0
  0
LINE
  5
E0DB
  8
ALPHA
 10
18.533494
 20
85.192216
 30
0.0
 11
18.533494
 21
84.974566
 31
0.0
  0
LINE
  5
E0DC
  8
ALPHA
 10
18.433494
 20
85.228343
 30
0.0
 11
18.433494
 21
84.87456
 31
0.0
  0
LINE
  5
E0DD
  8
ALPHA
 10
18.683494
 20
83.37456
 30
0.0
 11
18.605468
 21
83.296534
 31
0.0
  0
LINE
  5
E0DE
  8
ALPHA
 10
18.415122
 20
83.156372
 30
0.0
 11
18.553721
 21
83.29497
 31
0.0
  0
LINE
  5
E0DF
  8
ALPHA
 10
18.683494
 20
84.87456
 30
0.0
 11
18.605468
 21
84.796534
 31
0.0
  0
POLYLINE
  5
E0E0
  8
ALPHA
 66
     1
 10
0.0
 20
0.0
 30
0.0
  0
VERTEX
  5
EDFD
  8
ALPHA
 10
16.394208
 20
85.706586
 30
0.0
  0
VERTEX
  5
EDFE
  8
ALPHA
 10
16.48189
 20
85.704558
 30
0.0
  0
VERTEX
  5
EDFF
  8
ALPHA
 10
16.56027
 20
85.665204
 30
0.0
  0
VERTEX
  5
EE00
  8
ALPHA
 10
16.614265
 20
85.596092
 30
0.0
  0
VERTEX
  5
EE01
  8
ALPHA
 10
16.633494
 20
85.51052
 30
0.0
  0
SEQEND
  5
EE02
  8
ALPHA
  0
LINE
  5
E0E1
  8
ALPHA
 10
17.533494
 20
86.17456
 30
0.0
 11
17.533494
 21
85.57456
 31
0.0
  0
LINE
  5
E0E3
  8
ALPHA
 10
20.207804
 20
86.17456
 30
0.0
 11
20.207804
 21
85.57456
 31
0.0
  0
LINE
  5
E0E4
  8
ALPHA
 10
18.533494
 20
85.451062
 30
0.0
 11
18.533494
 21
85.57456
 31
0.0
  0
LINE
  5
E0E5
  8
ALPHA
 10
18.328419
 20
86.17456
 30
0.0
 11
18.328419
 21
85.57456
 31
0.0
  0
LINE
  5
E0E6
  8
ALPHA
 10
20.033494
 20
88.72456
 30
0.0
 11
19.428169
 21
88.119235
 31
0.0
  0
LINE
  5
E0E7
  8
ALPHA
 10
27.428257
 20
81.869369
 30
0.0
 11
27.428257
 21
74.770524
 31
0.0
  0
LINE
  5
E0E8
  8
ALPHA
 10
27.366347
 20
74.831143
 30
0.0
 11
27.366347
 21
81.807459
 31
0.0
  0
LINE
  5
E0E9
  8
ALPHA
 10
27.186311
 20
74.831143
 30
0.0
 11
27.186311
 21
81.807459
 31
0.0
  0
LINE
  5
E0EA
  8
ALPHA
 10
21.507944
 20
81.753667
 30
0.0
 11
21.507944
 21
74.406653
 31
0.0
  0
LINE
  5
E0EB
  8
ALPHA
 10
21.154432
 20
81.753667
 30
0.0
 11
21.154432
 21
74.406653
 31
0.0
  0
LINE
  5
E0EC
  8
ALPHA
 10
21.033494
 20
83.156372
 30
0.0
 11
21.033494
 21
74.266078
 31
0.0
  0
ARC
  5
E0ED
  8
ALPHA
 10
28.033494
 20
30.37456
 30
0.0
 40
44.105237
 50
91.168039
 51
96.509343
  0
POLYLINE
  5
E0EE
  8
ALPHA
 66
     1
 10
0.0
 20
0.0
 30
0.0
  0
VERTEX
  5
EE03
  8
ALPHA
 10
21.496426
 20
74.10732
 30
0.0
  0
VERTEX
  5
EE04
  8
ALPHA
 10
22.300451
 20
74.205637
 30
0.0
  0
VERTEX
  5
EE05
  8
ALPHA
 10
23.301824
 20
74.311569
 30
0.0
  0
VERTEX
  5
EE06
  8
ALPHA
 10
24.466536
 20
74.410199
 30
0.0
  0
VERTEX
  5
EE07
  8
ALPHA
 10
25.742152
 20
74.486891
 30
0.0
  0
VERTEX
  5
EE08
  8
ALPHA
 10
27.072737
 20
74.531437
 30
0.0
  0
SEQEND
  5
EE09
  8
ALPHA
  0
POLYLINE
  5
E0EF
  8
ALPHA
 66
     1
 10
0.0
 20
0.0
 30
0.0
  0
VERTEX
  5
EE0A
  8
ALPHA
 10
21.61782
 20
74.305092
 30
0.0
  0
VERTEX
  5
EE0B
  8
ALPHA
 10
22.408369
 20
74.404088
 30
0.0
  0
VERTEX
  5
EE0C
  8
ALPHA
 10
23.391307
 20
74.510547
 30
0.0
  0
VERTEX
  5
EE0D
  8
ALPHA
 10
24.534206
 20
74.609622
 30
0.0
  0
VERTEX
  5
EE0E
  8
ALPHA
 10
25.785519
 20
74.686631
 30
0.0
  0
VERTEX
  5
EE0F
  8
ALPHA
 10
27.090573
 20
74.731359
 30
0.0
  0
SEQEND
  5
EE10
  8
ALPHA
  0
LINE
  5
E0F0
  8
ALPHA
 10
23.033494
 20
73.260061
 30
0.0
 11
23.033494
 21
74.190196
 31
0.0
  0
ARC
  5
E0F1
  8
ALPHA
 10
28.033494
 20
30.37456
 30
0.0
 40
44.1
 50
96.510119
 51
98.679208
  0
POLYLINE
  5
E0F2
  8
ALPHA
 66
     1
 10
0.0
 20
0.0
 30
0.0
  0
VERTEX
  5
EE11
  8
ALPHA
 10
21.378711
 20
73.969558
 30
0.0
  0
VERTEX
  5
EE12
  8
ALPHA
 10
21.250812
 20
73.977723
 30
0.0
  0
VERTEX
  5
EE13
  8
ALPHA
 10
21.137997
 20
74.038527
 30
0.0
  0
VERTEX
  5
EE14
  8
ALPHA
 10
21.060865
 20
74.140875
 30
0.0
  0
VERTEX
  5
EE15
  8
ALPHA
 10
21.033494
 20
74.266078
 30
0.0
  0
SEQEND
  5
EE16
  8
ALPHA
  0
LINE
  5
E0F3
  8
ALPHA
 10
21.154432
 20
74.406653
 30
0.0
 11
21.507944
 21
74.406653
 31
0.0
  0
POLYLINE
  5
E0F4
  8
ALPHA
 66
     1
 10
0.0
 20
0.0
 30
0.0
  0
VERTEX
  5
EE17
  8
ALPHA
 10
21.507944
 20
74.406653
 30
0.0
  0
VERTEX
  5
EE18
  8
ALPHA
 10
21.51059
 20
74.383249
 30
0.0
  0
VERTEX
  5
EE19
  8
ALPHA
 10
21.519124
 20
74.359476
 30
0.0
  0
VERTEX
  5
EE1A
  8
ALPHA
 10
21.533464
 20
74.338039
 30
0.0
  0
VERTEX
  5
EE1B
  8
ALPHA
 10
21.552301
 20
74.321179
 30
0.0
  0
VERTEX
  5
EE1C
  8
ALPHA
 10
21.573812
 20
74.310034
 30
0.0
  0
VERTEX
  5
EE1D
  8
ALPHA
 10
21.596254
 20
74.304809
 30
0.0
  0
VERTEX
  5
EE1E
  8
ALPHA
 10
21.61782
 20
74.305092
 30
0.0
  0
SEQEND
  5
EE1F
  8
ALPHA
  0
POLYLINE
  5
E0F5
  8
ALPHA
 66
     1
 10
0.0
 20
0.0
 30
0.0
  0
VERTEX
  5
EE20
  8
ALPHA
 10
21.154462
 20
74.406653
 30
0.0
  0
VERTEX
  5
EE21
  8
ALPHA
 10
21.162691
 20
74.33671
 30
0.0
  0
VERTEX
  5
EE22
  8
ALPHA
 10
21.189239
 20
74.265661
 30
0.0
  0
VERTEX
  5
EE23
  8
ALPHA
 10
21.233979
 20
74.202006
 30
0.0
  0
VERTEX
  5
EE24
  8
ALPHA
 10
21.292661
 20
74.152372
 30
0.0
  0
VERTEX
  5
EE25
  8
ALPHA
 10
21.359608
 20
74.120016
 30
0.0
  0
VERTEX
  5
EE26
  8
ALPHA
 10
21.429394
 20
74.105448
 30
0.0
  0
VERTEX
  5
EE27
  8
ALPHA
 10
21.496426
 20
74.10732
 30
0.0
  0
SEQEND
  5
EE28
  8
ALPHA
  0
LINE
  5
E0F6
  8
ALPHA
 10
21.033494
 20
74.266078
 30
0.0
 11
21.154432
 21
74.406653
 31
0.0
  0
LINE
  5
E0F7
  8
ALPHA
 10
21.378712
 20
73.969558
 30
0.0
 11
21.496426
 21
74.10732
 31
0.0
  0
POLYLINE
  5
E0F8
  8
ALPHA
 66
     1
 10
0.0
 20
0.0
 30
0.0
  0
VERTEX
  5
EE29
  8
ALPHA
 10
21.496426
 20
74.10732
 30
0.0
  0
VERTEX
  5
EE2A
  8
ALPHA
 10
21.561933
 20
74.141268
 30
0.0
  0
VERTEX
  5
EE2B
  8
ALPHA
 10
21.605735
 20
74.212623
 30
0.0
  0
VERTEX
  5
EE2C
  8
ALPHA
 10
21.61783
 20
74.305092
 30
0.0
  0
SEQEND
  5
EE2D
  8
ALPHA
  0
LINE
  5
E0F9
  8
ALPHA
 10
26.783494
 20
69.22456
 30
0.0
 11
26.283494
 21
69.22456
 31
0.0
  0
LINE
  5
E0FA
  8
ALPHA
 10
25.595994
 20
72.22456
 30
0.0
 11
26.533494
 21
69.543709
 31
0.0
  0
LINE
  5
E0FB
  8
ALPHA
 10
25.033494
 20
72.22456
 30
0.0
 11
25.595994
 21
72.22456
 31
0.0
  0
LINE
  5
E0FC
  8
ALPHA
 10
25.408494
 20
69.22456
 30
0.0
 11
25.033494
 21
69.22456
 31
0.0
  0
LINE
  5
E0FD
  8
ALPHA
 10
26.283494
 20
69.22456
 30
0.0
 11
25.408494
 21
71.586262
 31
0.0
  0
LINE
  5
E0FE
  8
ALPHA
 10
25.408494
 20
71.586262
 30
0.0
 11
25.408494
 21
69.22456
 31
0.0
  0
LINE
  5
E0FF
  8
ALPHA
 10
25.033494
 20
69.22456
 30
0.0
 11
25.033494
 21
72.22456
 31
0.0
  0
LINE
  5
E100
  8
ALPHA
 10
27.470994
 20
72.22456
 30
0.0
 11
28.033494
 21
72.22456
 31
0.0
  0
LINE
  5
E101
  8
ALPHA
 10
28.033494
 20
69.22456
 30
0.0
 11
27.658494
 21
69.22456
 31
0.0
  0
LINE
  5
E102
  8
ALPHA
 10
28.033494
 20
72.22456
 30
0.0
 11
28.033494
 21
69.22456
 31
0.0
  0
LINE
  5
E103
  8
ALPHA
 10
27.658494
 20
69.22456
 30
0.0
 11
27.658494
 21
71.586262
 31
0.0
  0
LINE
  5
E104
  8
ALPHA
 10
27.658494
 20
71.586262
 30
0.0
 11
26.783494
 21
69.22456
 31
0.0
  0
LINE
  5
E105
  8
ALPHA
 10
26.533494
 20
69.543709
 30
0.0
 11
27.470994
 21
72.22456
 31
0.0
  0
LINE
  5
E106
  8
ALPHA
 10
27.366347
 20
74.831143
 30
0.0
 11
27.186311
 21
74.831143
 31
0.0
  0
POLYLINE
  5
E107
  8
ALPHA
 66
     1
 10
0.0
 20
0.0
 30
0.0
  0
VERTEX
  5
EE2E
  8
ALPHA
 10
27.072736
 20
74.531439
 30
0.0
  0
VERTEX
  5
EE2F
  8
ALPHA
 10
27.159295
 20
74.546124
 30
0.0
  0
VERTEX
  5
EE30
  8
ALPHA
 10
27.242329
 20
74.588362
 30
0.0
  0
VERTEX
  5
EE31
  8
ALPHA
 10
27.309797
 20
74.655976
 30
0.0
  0
VERTEX
  5
EE32
  8
ALPHA
 10
27.352466
 20
74.741071
 30
0.0
  0
VERTEX
  5
EE33
  8
ALPHA
 10
27.36634
 20
74.831143
 30
0.0
  0
SEQEND
  5
EE34
  8
ALPHA
  0
POLYLINE
  5
E108
  8
ALPHA
 66
     1
 10
0.0
 20
0.0
 30
0.0
  0
VERTEX
  5
EE35
  8
ALPHA
 10
27.090573
 20
74.731359
 30
0.0
  0
VERTEX
  5
EE36
  8
ALPHA
 10
27.118767
 20
74.736202
 30
0.0
  0
VERTEX
  5
EE37
  8
ALPHA
 10
27.145871
 20
74.750249
 30
0.0
  0
VERTEX
  5
EE38
  8
ALPHA
 10
27.167917
 20
74.77282
 30
0.0
  0
VERTEX
  5
EE39
  8
ALPHA
 10
27.181809
 20
74.801179
 30
0.0
  0
VERTEX
  5
EE3A
  8
ALPHA
 10
27.186311
 20
74.831143
 30
0.0
  0
SEQEND
  5
EE3B
  8
ALPHA
  0
LINE
  5
E109
  8
ALPHA
 10
27.134417
 20
74.470632
 30
0.0
 11
27.072737
 21
74.531437
 31
0.0
  0
LINE
  5
E10A
  8
ALPHA
 10
27.428257
 20
74.770524
 30
0.0
 11
27.366347
 21
74.831143
 31
0.0
  0
POLYLINE
  5
E10B
  8
ALPHA
 66
     1
 10
0.0
 20
0.0
 30
0.0
  0
VERTEX
  5
EE3C
  8
ALPHA
 10
27.428257
 20
74.770524
 30
0.0
  0
VERTEX
  5
EE3D
  8
ALPHA
 10
27.406009
 20
74.657147
 30
0.0
  0
VERTEX
  5
EE3E
  8
ALPHA
 10
27.342559
 20
74.560592
 30
0.0
  0
VERTEX
  5
EE3F
  8
ALPHA
 10
27.247316
 20
74.495186
 30
0.0
  0
VERTEX
  5
EE40
  8
ALPHA
 10
27.134421
 20
74.470632
 30
0.0
  0
SEQEND
  5
EE41
  8
ALPHA
  0
POLYLINE
  5
E10C
  8
ALPHA
 66
     1
 10
0.0
 20
0.0
 30
0.0
  0
VERTEX
  5
EE42
  8
ALPHA
 10
27.072736
 20
74.531439
 30
0.0
  0
VERTEX
  5
EE43
  8
ALPHA
 10
27.083094
 20
74.559522
 30
0.0
  0
VERTEX
  5
EE44
  8
ALPHA
 10
27.089607
 20
74.632522
 30
0.0
  0
VERTEX
  5
EE45
  8
ALPHA
 10
27.090573
 20
74.731359
 30
0.0
  0
SEQEND
  5
EE46
  8
ALPHA
  0
LINE
  5
E10D
  8
ALPHA
 10
27.088414
 20
85.97456
 30
0.0
 11
23.633494
 21
85.97456
 31
0.0
  0
POLYLINE
  5
E10E
  8
ALPHA
 66
     1
 10
0.0
 20
0.0
 30
0.0
  0
VERTEX
  5
EE47
  8
ALPHA
 10
23.633494
 20
83.444661
 30
0.0
  0
VERTEX
  5
EE48
  8
ALPHA
 10
24.724793
 20
83.434709
 30
0.0
  0
VERTEX
  5
EE49
  8
ALPHA
 10
25.884425
 20
83.427665
 30
0.0
  0
VERTEX
  5
EE4A
  8
ALPHA
 10
27.088444
 20
83.423673
 30
0.0
  0
SEQEND
  5
EE4B
  8
ALPHA
  0
POLYLINE
  5
E10F
  8
ALPHA
 66
     1
 10
0.0
 20
0.0
 30
0.0
  0
VERTEX
  5
EE4C
  8
ALPHA
 10
23.633494
 20
83.243615
 30
0.0
  0
VERTEX
  5
EE4D
  8
ALPHA
 10
24.72065
 20
83.234203
 30
0.0
  0
VERTEX
  5
EE4E
  8
ALPHA
 10
25.872043
 20
83.227523
 30
0.0
  0
VERTEX
  5
EE4F
  8
ALPHA
 10
27.066207
 20
83.223703
 30
0.0
  0
SEQEND
  5
EE50
  8
ALPHA
  0
LINE
  5
E110
  8
ALPHA
 10
27.128303
 20
83.161608
 30
0.0
 11
21.03873
 21
83.161608
 31
0.0
  0
LINE
  5
E111
  8
ALPHA
 10
21.338684
 20
82.169323
 30
0.0
 11
27.128303
 21
82.169323
 31
0.0
  0
POLYLINE
  5
E112
  8
ALPHA
 66
     1
 10
0.0
 20
0.0
 30
0.0
  0
VERTEX
  5
EE51
  8
ALPHA
 10
27.066207
 20
82.107228
 30
0.0
  0
VERTEX
  5
EE52
  8
ALPHA
 10
26.580952
 20
82.106038
 30
0.0
  0
VERTEX
  5
EE53
  8
ALPHA
 10
26.069161
 20
82.104248
 30
0.0
  0
VERTEX
  5
EE54
  8
ALPHA
 10
25.522464
 20
82.101707
 30
0.0
  0
VERTEX
  5
EE55
  8
ALPHA
 10
24.935214
 20
82.098214
 30
0.0
  0
VERTEX
  5
EE56
  8
ALPHA
 10
24.304524
 20
82.093513
 30
0.0
  0
VERTEX
  5
EE57
  8
ALPHA
 10
23.63143
 20
82.087296
 30
0.0
  0
VERTEX
  5
EE58
  8
ALPHA
 10
22.922545
 20
82.079202
 30
0.0
  0
VERTEX
  5
EE59
  8
ALPHA
 10
22.190352
 20
82.068822
 30
0.0
  0
VERTEX
  5
EE5A
  8
ALPHA
 10
21.452373
 20
82.055634
 30
0.0
  0
SEQEND
  5
EE5B
  8
ALPHA
  0
POLYLINE
  5
E113
  8
ALPHA
 66
     1
 10
0.0
 20
0.0
 30
0.0
  0
VERTEX
  5
EE5C
  8
ALPHA
 10
27.088444
 20
81.907259
 30
0.0
  0
VERTEX
  5
EE5D
  8
ALPHA
 10
26.614251
 20
81.906068
 30
0.0
  0
VERTEX
  5
EE5E
  8
ALPHA
 10
26.114276
 20
81.904278
 30
0.0
  0
VERTEX
  5
EE5F
  8
ALPHA
 10
25.580206
 20
81.901737
 30
0.0
  0
VERTEX
  5
EE60
  8
ALPHA
 10
25.00654
 20
81.898245
 30
0.0
  0
VERTEX
  5
EE61
  8
ALPHA
 10
24.390483
 20
81.893546
 30
0.0
  0
VERTEX
  5
EE62
  8
ALPHA
 10
23.73304
 20
81.88733
 30
0.0
  0
VERTEX
  5
EE63
  8
ALPHA
 10
23.040649
 20
81.879241
 30
0.0
  0
VERTEX
  5
EE64
  8
ALPHA
 10
22.325497
 20
81.868865
 30
0.0
  0
VERTEX
  5
EE65
  8
ALPHA
 10
21.603664
 20
81.855665
 30
0.0
  0
SEQEND
  5
EE66
  8
ALPHA
  0
POLYLINE
  5
E114
  8
ALPHA
 66
     1
 10
0.0
 20
0.0
 30
0.0
  0
VERTEX
  5
EE67
  8
ALPHA
 10
22.05037
 20
85.074844
 30
0.0
  0
VERTEX
  5
EE68
  8
ALPHA
 10
21.527941
 20
85.146737
 30
0.0
  0
VERTEX
  5
EE69
  8
ALPHA
 10
21.12428
 20
85.246045
 30
0.0
  0
VERTEX
  5
EE6A
  8
ALPHA
 10
20.848758
 20
85.375068
 30
0.0
  0
VERTEX
  5
EE6B
  8
ALPHA
 10
20.707274
 20
85.534061
 30
0.0
  0
SEQEND
  5
EE6C
  8
ALPHA
  0
POLYLINE
  5
E115
  8
ALPHA
 66
     1
 10
0.0
 20
0.0
 30
0.0
  0
VERTEX
  5
EE6D
  8
ALPHA
 10
21.052136
 20
85.736634
 30
0.0
  0
VERTEX
  5
EE6E
  8
ALPHA
 10
21.187661
 20
85.583224
 30
0.0
  0
VERTEX
  5
EE6F
  8
ALPHA
 10
21.448577
 20
85.459069
 30
0.0
  0
VERTEX
  5
EE70
  8
ALPHA
 10
21.831157
 20
85.361818
 30
0.0
  0
VERTEX
  5
EE71
  8
ALPHA
 10
22.333494
 20
85.288999
 30
0.0
  0
SEQEND
  5
EE72
  8
ALPHA
  0
LINE
  5
E116
  8
ALPHA
 10
23.633494
 20
83.243615
 30
0.0
 11
23.633494
 21
86.17456
 31
0.0
  0
LINE
  5
E117
  8
ALPHA
 10
23.533494
 20
85.764225
 30
0.0
 11
23.533494
 21
85.167209
 31
0.0
  0
LINE
  5
E118
  8
ALPHA
 10
22.333494
 20
85.687811
 30
0.0
 11
22.333494
 21
84.97456
 31
0.0
  0
POLYLINE
  5
E119
  8
ALPHA
 66
     1
 10
0.0
 20
0.0
 30
0.0
  0
VERTEX
  5
EE73
  8
ALPHA
 10
22.333494
 20
85.0495
 30
0.0
  0
VERTEX
  5
EE74
  8
ALPHA
 10
22.189306
 20
85.061524
 30
0.0
  0
VERTEX
  5
EE75
  8
ALPHA
 10
22.05037
 20
85.074844
 30
0.0
  0
SEQEND
  5
EE76
  8
ALPHA
  0
POLYLINE
  5
E11A
  8
ALPHA
 66
     1
 10
0.0
 20
0.0
 30
0.0
  0
VERTEX
  5
EE77
  8
ALPHA
 10
20.383505
 20
84.852897
 30
0.0
  0
VERTEX
  5
EE78
  8
ALPHA
 10
20.683564
 20
84.831658
 30
0.0
  0
VERTEX
  5
EE79
  8
ALPHA
 10
21.171964
 20
84.811668
 30
0.0
  0
VERTEX
  5
EE7A
  8
ALPHA
 10
21.837428
 20
84.793302
 30
0.0
  0
VERTEX
  5
EE7B
  8
ALPHA
 10
22.668736
 20
84.776933
 30
0.0
  0
VERTEX
  5
EE7C
  8
ALPHA
 10
23.633494
 20
84.763199
 30
0.0
  0
SEQEND
  5
EE7D
  8
ALPHA
  0
POLYLINE
  5
E11B
  8
ALPHA
 66
     1
 10
0.0
 20
0.0
 30
0.0
  0
VERTEX
  5
EE7E
  8
ALPHA
 10
23.633494
 20
83.263199
 30
0.0
  0
VERTEX
  5
EE7F
  8
ALPHA
 10
22.668736
 20
83.276933
 30
0.0
  0
VERTEX
  5
EE80
  8
ALPHA
 10
21.837428
 20
83.293302
 30
0.0
  0
VERTEX
  5
EE81
  8
ALPHA
 10
21.171964
 20
83.311668
 30
0.0
  0
VERTEX
  5
EE82
  8
ALPHA
 10
20.683564
 20
83.331658
 30
0.0
  0
VERTEX
  5
EE83
  8
ALPHA
 10
20.383505
 20
83.352897
 30
0.0
  0
VERTEX
  5
EE84
  8
ALPHA
 10
20.283494
 20
83.37456
 30
0.0
  0
SEQEND
  5
EE85
  8
ALPHA
  0
POLYLINE
  5
E11C
  8
ALPHA
 66
     1
 10
0.0
 20
0.0
 30
0.0
  0
VERTEX
  5
EE86
  8
ALPHA
 10
21.243571
 20
84.874552
 30
0.0
  0
VERTEX
  5
EE87
  8
ALPHA
 10
21.25051
 20
84.869173
 30
0.0
  0
VERTEX
  5
EE88
  8
ALPHA
 10
21.392106
 20
84.849899
 30
0.0
  0
VERTEX
  5
EE89
  8
ALPHA
 10
21.712209
 20
84.831289
 30
0.0
  0
VERTEX
  5
EE8A
  8
ALPHA
 10
22.202191
 20
84.813842
 30
0.0
  0
VERTEX
  5
EE8B
  8
ALPHA
 10
22.848869
 20
84.798028
 30
0.0
  0
VERTEX
  5
EE8C
  8
ALPHA
 10
23.633494
 20
84.784291
 30
0.0
  0
SEQEND
  5
EE8D
  8
ALPHA
  0
LINE
  5
E11D
  8
ALPHA
 10
22.050385
 20
85.074842
 30
0.0
 11
22.333494
 21
85.288999
 31
0.0
  0
ARC
  5
E11E
  8
ALPHA
 10
20.033494
 20
84.62456
 30
0.0
 40
0.5
 50
30.0
 51
45.12891
  0
LINE
  5
E11F
  8
ALPHA
 10
20.445647
 20
84.907631
 30
0.0
 11
21.513191
 21
84.907631
 31
0.0
  0
LINE
  5
E120
  8
ALPHA
 10
20.466506
 20
84.87456
 30
0.0
 11
20.283494
 21
84.87456
 31
0.0
  0
POLYLINE
  5
E121
  8
ALPHA
 66
     1
 10
0.0
 20
0.0
 30
0.0
  0
VERTEX
  5
EE8E
  8
ALPHA
 10
21.513191
 20
84.907631
 30
0.0
  0
VERTEX
  5
EE8F
  8
ALPHA
 10
21.291258
 20
84.888593
 30
0.0
  0
VERTEX
  5
EE90
  8
ALPHA
 10
21.243571
 20
84.874552
 30
0.0
  0
SEQEND
  5
EE91
  8
ALPHA
  0
LINE
  5
E122
  8
ALPHA
 10
20.283494
 20
84.87456
 30
0.0
 11
20.383505
 21
84.852897
 31
0.0
  0
LINE
  5
E123
  8
ALPHA
 10
21.154432
 20
81.753667
 30
0.0
 11
21.507944
 21
81.753667
 31
0.0
  0
POLYLINE
  5
E124
  8
ALPHA
 66
     1
 10
0.0
 20
0.0
 30
0.0
  0
VERTEX
  5
EE92
  8
ALPHA
 10
21.452373
 20
82.055634
 30
0.0
  0
VERTEX
  5
EE93
  8
ALPHA
 10
21.382248
 20
82.046728
 30
0.0
  0
VERTEX
  5
EE94
  8
ALPHA
 10
21.311445
 20
82.018992
 30
0.0
  0
VERTEX
  5
EE95
  8
ALPHA
 10
21.247009
 20
81.971584
 30
0.0
  0
VERTEX
  5
EE96
  8
ALPHA
 10
21.195912
 20
81.906571
 30
0.0
  0
VERTEX
  5
EE97
  8
ALPHA
 10
21.164334
 20
81.830384
 30
0.0
  0
VERTEX
  5
EE98
  8
ALPHA
 10
21.154432
 20
81.753667
 30
0.0
  0
SEQEND
  5
EE99
  8
ALPHA
  0
POLYLINE
  5
E125
  8
ALPHA
 66
     1
 10
0.0
 20
0.0
 30
0.0
  0
VERTEX
  5
EE9A
  8
ALPHA
 10
21.603664
 20
81.855665
 30
0.0
  0
VERTEX
  5
EE9B
  8
ALPHA
 10
21.58111
 20
81.852384
 30
0.0
  0
VERTEX
  5
EE9C
  8
ALPHA
 10
21.558355
 20
81.842817
 30
0.0
  0
VERTEX
  5
EE9D
  8
ALPHA
 10
21.537664
 20
81.826727
 30
0.0
  0
VERTEX
  5
EE9E
  8
ALPHA
 10
21.521266
 20
81.80484
 30
0.0
  0
VERTEX
  5
EE9F
  8
ALPHA
 10
21.511132
 20
81.779312
 30
0.0
  0
VERTEX
  5
EEA0
  8
ALPHA
 10
21.507944
 20
81.753667
 30
0.0
  0
SEQEND
  5
EEA1
  8
ALPHA
  0
POLYLINE
  5
E126
  8
ALPHA
 66
     1
 10
0.0
 20
0.0
 30
0.0
  0
VERTEX
  5
EEA2
  8
ALPHA
 10
21.452373
 20
82.055636
 30
0.0
  0
VERTEX
  5
EEA3
  8
ALPHA
 10
21.527524
 20
82.02809
 30
0.0
  0
VERTEX
  5
EEA4
  8
ALPHA
 10
21.582824
 20
81.954997
 30
0.0
  0
VERTEX
  5
EEA5
  8
ALPHA
 10
21.603664
 20
81.855665
 30
0.0
  0
SEQEND
  5
EEA6
  8
ALPHA
  0
LINE
  5
E127
  8
ALPHA
 10
21.338684
 20
82.169323
 30
0.0
 11
21.452373
 21
82.055634
 31
0.0
  0
LINE
  5
E128
  8
ALPHA
 10
21.03873
 20
81.869369
 30
0.0
 11
21.154432
 21
81.753667
 31
0.0
  0
LINE
  5
E129
  8
ALPHA
 10
21.513191
 20
84.841488
 30
0.0
 11
21.513191
 21
84.907631
 31
0.0
  0
LINE
  5
E12A
  8
ALPHA
 10
21.03873
 20
81.869369
 30
0.0
 11
21.03873
 21
83.161608
 31
0.0
  0
LINE
  5
E12B
  8
ALPHA
 10
20.283494
 20
84.87456
 30
0.0
 11
20.283494
 21
83.37456
 31
0.0
  0
POLYLINE
  5
E12C
  8
ALPHA
 66
     1
 10
0.0
 20
0.0
 30
0.0
  0
VERTEX
  5
EEA7
  8
ALPHA
 10
21.03873
 20
81.869369
 30
0.0
  0
VERTEX
  5
EEA8
  8
ALPHA
 10
21.061559
 20
81.984159
 30
0.0
  0
VERTEX
  5
EEA9
  8
ALPHA
 10
21.126579
 20
82.081474
 30
0.0
  0
VERTEX
  5
EEAA
  8
ALPHA
 10
21.223894
 20
82.146494
 30
0.0
  0
VERTEX
  5
EEAB
  8
ALPHA
 10
21.338684
 20
82.169323
 30
0.0
  0
SEQEND
  5
EEAC
  8
ALPHA
  0
LINE
  5
E12D
  8
ALPHA
 10
21.03873
 20
83.161608
 30
0.0
 11
21.033494
 21
83.156372
 31
0.0
  0
LINE
  5
E12E
  8
ALPHA
 10
23.533494
 20
85.27456
 30
0.0
 11
23.633494
 21
85.27456
 31
0.0
  0
POLYLINE
  5
E12F
  8
ALPHA
 66
     1
 10
0.0
 20
0.0
 30
0.0
  0
VERTEX
  5
EEAD
  8
ALPHA
 10
22.3522
 20
84.980857
 30
0.0
  0
VERTEX
  5
EEAE
  8
ALPHA
 10
22.382758
 20
84.989184
 30
0.0
  0
VERTEX
  5
EEAF
  8
ALPHA
 10
22.530668
 20
85.017077
 30
0.0
  0
VERTEX
  5
EEB0
  8
ALPHA
 10
22.773897
 20
85.057686
 30
0.0
  0
VERTEX
  5
EEB1
  8
ALPHA
 10
23.110684
 20
85.108906
 30
0.0
  0
VERTEX
  5
EEB2
  8
ALPHA
 10
23.533494
 20
85.167209
 30
0.0
  0
SEQEND
  5
EEB3
  8
ALPHA
  0
LINE
  5
E130
  8
ALPHA
 10
23.633494
 20
86.02456
 30
0.0
 11
21.624842
 21
86.02456
 31
0.0
  0
POLYLINE
  5
E131
  8
ALPHA
 66
     1
 10
0.0
 20
0.0
 30
0.0
  0
VERTEX
  5
EEB4
  8
ALPHA
 10
21.052136
 20
86.1308
 30
0.0
  0
VERTEX
  5
EEB5
  8
ALPHA
 10
21.18647
 20
85.979802
 30
0.0
  0
VERTEX
  5
EEB6
  8
ALPHA
 10
21.448187
 20
85.856248
 30
0.0
  0
VERTEX
  5
EEB7
  8
ALPHA
 10
21.833728
 20
85.759387
 30
0.0
  0
VERTEX
  5
EEB8
  8
ALPHA
 10
22.333494
 20
85.687811
 30
0.0
  0
SEQEND
  5
EEB9
  8
ALPHA
  0
ARC
  5
E132
  8
ALPHA
 10
21.624842
 20
86.52456
 30
0.0
 40
0.5
 50
225.500027
 51
270.0
  0
LINE
  5
E133
  8
ALPHA
 10
21.052136
 20
86.1308
 30
0.0
 11
21.323518
 21
86.1308
 31
0.0
  0
POLYLINE
  5
E134
  8
ALPHA
 66
     1
 10
0.0
 20
0.0
 30
0.0
  0
VERTEX
  5
EEBA
  8
ALPHA
 10
20.707274
 20
85.534061
 30
0.0
  0
VERTEX
  5
EEBB
  8
ALPHA
 10
20.705494
 20
85.536943
 30
0.0
  0
VERTEX
  5
EEBC
  8
ALPHA
 10
20.704115
 20
85.539552
 30
0.0
  0
SEQEND
  5
EEBD
  8
ALPHA
  0
LINE
  5
E135
  8
ALPHA
 10
20.704115
 20
85.539552
 30
0.0
 11
20.687083
 21
85.57456
 31
0.0
  0
LINE
  5
E136
  8
ALPHA
 10
21.033494
 20
85.77456
 30
0.0
 11
21.052136
 21
85.736634
 31
0.0
  0
LINE
  5
E137
  8
ALPHA
 10
21.033494
 20
86.17456
 30
0.0
 11
21.052136
 21
86.1308
 31
0.0
  0
LINE
  5
E138
  8
ALPHA
 10
21.052136
 20
86.1308
 30
0.0
 11
21.052136
 21
85.736634
 31
0.0
  0
LINE
  5
E139
  8
ALPHA
 10
21.033494
 20
85.77456
 30
0.0
 11
21.033494
 21
86.17456
 31
0.0
  0
LINE
  5
E13A
  8
ALPHA
 10
20.833494
 20
85.65909
 30
0.0
 11
20.833494
 21
86.17456
 31
0.0
  0
LINE
  5
E13B
  8
ALPHA
 10
20.687083
 20
85.57456
 30
0.0
 11
21.033494
 21
85.77456
 31
0.0
  0
LINE
  5
E13C
  8
ALPHA
 10
20.855465
 20
85.621573
 30
0.0
 11
21.052136
 21
85.736634
 31
0.0
  0
LINE
  5
E13D
  8
ALPHA
 10
20.707051
 20
85.534335
 30
0.0
 11
20.855465
 21
85.621573
 31
0.0
  0
POLYLINE
  5
E13E
  8
ALPHA
 66
     1
 10
0.0
 20
0.0
 30
0.0
  0
VERTEX
  5
EEBE
  8
ALPHA
 10
22.333494
 20
85.57574
 30
0.0
  0
VERTEX
  5
EEBF
  8
ALPHA
 10
22.382758
 20
85.588958
 30
0.0
  0
VERTEX
  5
EEC0
  8
ALPHA
 10
22.530668
 20
85.616418
 30
0.0
  0
VERTEX
  5
EEC1
  8
ALPHA
 10
22.773897
 20
85.656398
 30
0.0
  0
VERTEX
  5
EEC2
  8
ALPHA
 10
23.110684
 20
85.706825
 30
0.0
  0
VERTEX
  5
EEC3
  8
ALPHA
 10
23.533494
 20
85.764225
 30
0.0
  0
SEQEND
  5
EEC4
  8
ALPHA
  0
LINE
  5
E13F
  8
ALPHA
 10
23.633494
 20
85.57456
 30
0.0
 11
23.533494
 21
85.57456
 31
0.0
  0
LINE
  5
E140
  8
ALPHA
 10
23.533494
 20
85.764225
 30
0.0
 11
23.533494
 21
86.02456
 31
0.0
  0
LINE
  5
E141
  8
ALPHA
 10
23.033494
 20
86.17456
 30
0.0
 11
23.033494
 21
88.519507
 31
0.0
  0
LINE
  5
E142
  8
ALPHA
 10
27.428257
 20
85.87456
 30
0.0
 11
27.428257
 21
83.461562
 31
0.0
  0
LINE
  5
E143
  8
ALPHA
 10
27.366347
 20
83.523472
 30
0.0
 11
27.366347
 21
85.87456
 31
0.0
  0
LINE
  5
E144
  8
ALPHA
 10
27.186311
 20
83.523472
 30
0.0
 11
27.186311
 21
85.87456
 31
0.0
  0
LINE
  5
E145
  8
ALPHA
 10
27.366347
 20
83.523472
 30
0.0
 11
27.186311
 21
83.523472
 31
0.0
  0
POLYLINE
  5
E146
  8
ALPHA
 66
     1
 10
0.0
 20
0.0
 30
0.0
  0
VERTEX
  5
EEC5
  8
ALPHA
 10
27.128303
 20
82.169323
 30
0.0
  0
VERTEX
  5
EEC6
  8
ALPHA
 10
27.243093
 20
82.146494
 30
0.0
  0
VERTEX
  5
EEC7
  8
ALPHA
 10
27.340408
 20
82.081474
 30
0.0
  0
VERTEX
  5
EEC8
  8
ALPHA
 10
27.405428
 20
81.984159
 30
0.0
  0
VERTEX
  5
EEC9
  8
ALPHA
 10
27.428257
 20
81.869369
 30
0.0
  0
SEQEND
  5
EECA
  8
ALPHA
  0
LINE
  5
E147
  8
ALPHA
 10
27.366347
 20
81.807459
 30
0.0
 11
27.186311
 21
81.807459
 31
0.0
  0
POLYLINE
  5
E148
  8
ALPHA
 66
     1
 10
0.0
 20
0.0
 30
0.0
  0
VERTEX
  5
EECB
  8
ALPHA
 10
27.066207
 20
83.223703
 30
0.0
  0
VERTEX
  5
EECC
  8
ALPHA
 10
27.154787
 20
83.237023
 30
0.0
  0
VERTEX
  5
EECD
  8
ALPHA
 10
27.240059
 20
83.279068
 30
0.0
  0
VERTEX
  5
EECE
  8
ALPHA
 10
27.309171
 20
83.34744
 30
0.0
  0
VERTEX
  5
EECF
  8
ALPHA
 10
27.352491
 20
83.433448
 30
0.0
  0
VERTEX
  5
EED0
  8
ALPHA
 10
27.366347
 20
83.523472
 30
0.0
  0
SEQEND
  5
EED1
  8
ALPHA
  0
POLYLINE
  5
E149
  8
ALPHA
 66
     1
 10
0.0
 20
0.0
 30
0.0
  0
VERTEX
  5
EED2
  8
ALPHA
 10
27.088444
 20
83.423673
 30
0.0
  0
VERTEX
  5
EED3
  8
ALPHA
 10
27.117267
 20
83.428053
 30
0.0
  0
VERTEX
  5
EED4
  8
ALPHA
 10
27.145064
 20
83.441991
 30
0.0
  0
VERTEX
  5
EED5
  8
ALPHA
 10
27.167659
 20
83.464785
 30
0.0
  0
VERTEX
  5
EED6
  8
ALPHA
 10
27.181807
 20
83.493498
 30
0.0
  0
VERTEX
  5
EED7
  8
ALPHA
 10
27.186311
 20
83.523472
 30
0.0
  0
SEQEND
  5
EED8
  8
ALPHA
  0
LINE
  5
E14A
  8
ALPHA
 10
27.366347
 20
83.523472
 30
0.0
 11
27.428257
 21
83.461562
 31
0.0
  0
LINE
  5
E14B
  8
ALPHA
 10
27.066207
 20
83.223703
 30
0.0
 11
27.128303
 21
83.161608
 31
0.0
  0
POLYLINE
  5
E14C
  8
ALPHA
 66
     1
 10
0.0
 20
0.0
 30
0.0
  0
VERTEX
  5
EED9
  8
ALPHA
 10
27.066207
 20
82.107228
 30
0.0
  0
VERTEX
  5
EEDA
  8
ALPHA
 10
27.077216
 20
82.079296
 30
0.0
  0
VERTEX
  5
EEDB
  8
ALPHA
 10
27.085338
 20
82.006255
 30
0.0
  0
VERTEX
  5
EEDC
  8
ALPHA
 10
27.088444
 20
81.907259
 30
0.0
  0
SEQEND
  5
EEDD
  8
ALPHA
  0
POLYLINE
  5
E14D
  8
ALPHA
 66
     1
 10
0.0
 20
0.0
 30
0.0
  0
VERTEX
  5
EEDE
  8
ALPHA
 10
27.366347
 20
81.807459
 30
0.0
  0
VERTEX
  5
EEDF
  8
ALPHA
 10
27.352199
 20
81.898406
 30
0.0
  0
VERTEX
  5
EEE0
  8
ALPHA
 10
27.308358
 20
81.984606
 30
0.0
  0
VERTEX
  5
EEE1
  8
ALPHA
 10
27.23894
 20
82.052655
 30
0.0
  0
VERTEX
  5
EEE2
  8
ALPHA
 10
27.153903
 20
82.094179
 30
0.0
  0
VERTEX
  5
EEE3
  8
ALPHA
 10
27.066207
 20
82.107228
 30
0.0
  0
SEQEND
  5
EEE4
  8
ALPHA
  0
POLYLINE
  5
E14E
  8
ALPHA
 66
     1
 10
0.0
 20
0.0
 30
0.0
  0
VERTEX
  5
EEE5
  8
ALPHA
 10
27.186311
 20
81.807459
 30
0.0
  0
VERTEX
  5
EEE6
  8
ALPHA
 10
27.181721
 20
81.837706
 30
0.0
  0
VERTEX
  5
EEE7
  8
ALPHA
 10
27.167452
 20
81.866436
 30
0.0
  0
VERTEX
  5
EEE8
  8
ALPHA
 10
27.144762
 20
81.889158
 30
0.0
  0
VERTEX
  5
EEE9
  8
ALPHA
 10
27.117001
 20
81.902963
 30
0.0
  0
VERTEX
  5
EEEA
  8
ALPHA
 10
27.088444
 20
81.907259
 30
0.0
  0
SEQEND
  5
EEEB
  8
ALPHA
  0
POLYLINE
  5
E14F
  8
ALPHA
 66
     1
 10
0.0
 20
0.0
 30
0.0
  0
VERTEX
  5
EEEC
  8
ALPHA
 10
27.428257
 20
83.461562
 30
0.0
  0
VERTEX
  5
EEED
  8
ALPHA
 10
27.405428
 20
83.346772
 30
0.0
  0
VERTEX
  5
EEEE
  8
ALPHA
 10
27.340408
 20
83.249457
 30
0.0
  0
VERTEX
  5
EEEF
  8
ALPHA
 10
27.243093
 20
83.184437
 30
0.0
  0
VERTEX
  5
EEF0
  8
ALPHA
 10
27.128303
 20
83.161608
 30
0.0
  0
SEQEND
  5
EEF1
  8
ALPHA
  0
POLYLINE
  5
E150
  8
ALPHA
 66
     1
 10
0.0
 20
0.0
 30
0.0
  0
VERTEX
  5
EEF2
  8
ALPHA
 10
27.066207
 20
83.223708
 30
0.0
  0
VERTEX
  5
EEF3
  8
ALPHA
 10
27.077216
 20
83.25164
 30
0.0
  0
VERTEX
  5
EEF4
  8
ALPHA
 10
27.085338
 20
83.324678
 30
0.0
  0
VERTEX
  5
EEF5
  8
ALPHA
 10
27.088444
 20
83.423673
 30
0.0
  0
SEQEND
  5
EEF6
  8
ALPHA
  0
LINE
  5
E151
  8
ALPHA
 10
27.366347
 20
81.807459
 30
0.0
 11
27.428257
 21
81.869369
 31
0.0
  0
LINE
  5
E152
  8
ALPHA
 10
27.066207
 20
82.107228
 30
0.0
 11
27.128303
 21
82.169323
 31
0.0
  0
POLYLINE
  5
E153
  8
ALPHA
 66
     1
 10
0.0
 20
0.0
 30
0.0
  0
VERTEX
  5
EEF7
  8
ALPHA
 10
27.128211
 20
86.17456
 30
0.0
  0
VERTEX
  5
EEF8
  8
ALPHA
 10
27.24304
 20
86.151721
 30
0.0
  0
VERTEX
  5
EEF9
  8
ALPHA
 10
27.34038
 20
86.086687
 30
0.0
  0
VERTEX
  5
EEFA
  8
ALPHA
 10
27.40542
 20
85.989359
 30
0.0
  0
VERTEX
  5
EEFB
  8
ALPHA
 10
27.428257
 20
85.87456
 30
0.0
  0
SEQEND
  5
EEFC
  8
ALPHA
  0
LINE
  5
E154
  8
ALPHA
 10
27.428257
 20
85.87456
 30
0.0
 11
27.186311
 21
85.87456
 31
0.0
  0
LINE
  5
E155
  8
ALPHA
 10
27.066177
 20
86.17456
 30
0.0
 11
27.077296
 21
86.147764
 31
0.0
  0
POLYLINE
  5
E156
  8
ALPHA
 66
     1
 10
0.0
 20
0.0
 30
0.0
  0
VERTEX
  5
EEFD
  8
ALPHA
 10
27.186311
 20
85.87456
 30
0.0
  0
VERTEX
  5
EEFE
  8
ALPHA
 10
27.181818
 20
85.904504
 30
0.0
  0
VERTEX
  5
EEFF
  8
ALPHA
 10
27.167687
 20
85.933239
 30
0.0
  0
VERTEX
  5
EF00
  8
ALPHA
 10
27.145088
 20
85.9561
 30
0.0
  0
VERTEX
  5
EF01
  8
ALPHA
 10
27.117265
 20
85.970115
 30
0.0
  0
VERTEX
  5
EF02
  8
ALPHA
 10
27.088414
 20
85.97456
 30
0.0
  0
SEQEND
  5
EF03
  8
ALPHA
  0
POLYLINE
  5
E157
  8
ALPHA
 66
     1
 10
0.0
 20
0.0
 30
0.0
  0
VERTEX
  5
EF04
  8
ALPHA
 10
27.366347
 20
85.87456
 30
0.0
  0
VERTEX
  5
EF05
  8
ALPHA
 10
27.352541
 20
85.964497
 30
0.0
  0
VERTEX
  5
EF06
  8
ALPHA
 10
27.309287
 20
86.05053
 30
0.0
  0
VERTEX
  5
EF07
  8
ALPHA
 10
27.24018
 20
86.119014
 30
0.0
  0
VERTEX
  5
EF08
  8
ALPHA
 10
27.15484
 20
86.161175
 30
0.0
  0
VERTEX
  5
EF09
  8
ALPHA
 10
27.126829
 20
86.165404
 30
0.0
  0
SEQEND
  5
EF0A
  8
ALPHA
  0
POLYLINE
  5
E158
  8
ALPHA
 66
     1
 10
0.0
 20
0.0
 30
0.0
  0
VERTEX
  5
EF0B
  8
ALPHA
 10
27.077296
 20
86.147764
 30
0.0
  0
VERTEX
  5
EF0C
  8
ALPHA
 10
27.085435
 20
86.074559
 30
0.0
  0
VERTEX
  5
EF0D
  8
ALPHA
 10
27.088414
 20
85.97456
 30
0.0
  0
SEQEND
  5
EF0E
  8
ALPHA
  0
LINE
  5
E15A
  8
ALPHA
 10
43.531923
 20
70.725151
 30
0.0
 11
43.531923
 21
30.02456
 31
0.0
  0
LINE
  5
E15B
  8
ALPHA
 10
34.033494
 20
43.22456
 30
0.0
 11
34.033494
 21
47.22456
 31
0.0
  0
CIRCLE
  5
E15D
  8
ALPHA
 10
37.533494
 20
27.72456
 30
0.0
 40
1.85
  0
CIRCLE
  5
E15E
  8
ALPHA
 10
37.533494
 20
27.72456
 30
0.0
 40
1.54467
  0
ARC
  5
E15F
  8
ALPHA
 10
37.533494
 20
27.72456
 30
0.0
 40
2.5
 50
110.252013
 51
249.747987
  0
ARC
  5
E160
  8
ALPHA
 10
34.533494
 20
38.72456
 30
0.0
 40
4.0
 50
270.0
 51
90.0
  0
POLYLINE
  5
E161
  8
ALPHA
 66
     1
 10
0.0
 20
0.0
 30
0.0
  0
VERTEX
  5
EF0F
  8
ALPHA
 10
36.668118
 20
25.379112
 30
0.0
  0
VERTEX
  5
EF10
  8
ALPHA
 10
36.641164
 20
25.359666
 30
0.0
  0
VERTEX
  5
EF11
  8
ALPHA
 10
36.614209
 20
25.340378
 30
0.0
  0
VERTEX
  5
EF12
  8
ALPHA
 10
36.587254
 20
25.321245
 30
0.0
  0
SEQEND
  5
EF13
  8
ALPHA
  0
POLYLINE
  5
E162
  8
ALPHA
 66
     1
 10
0.0
 20
0.0
 30
0.0
  0
VERTEX
  5
EF14
  8
ALPHA
 10
36.733494
 20
25.024545
 30
0.0
  0
VERTEX
  5
EF15
  8
ALPHA
 10
36.720099
 20
24.97455
 30
0.0
  0
VERTEX
  5
EF16
  8
ALPHA
 10
36.683503
 20
24.937954
 30
0.0
  0
VERTEX
  5
EF17
  8
ALPHA
 10
36.633509
 20
24.92456
 30
0.0
  0
SEQEND
  5
EF18
  8
ALPHA
  0
POLYLINE
  5
E163
  8
ALPHA
 66
     1
 10
0.0
 20
0.0
 30
0.0
  0
VERTEX
  5
EF19
  8
ALPHA
 10
36.069396
 20
27.874752
 30
0.0
  0
VERTEX
  5
EF1A
  8
ALPHA
 10
36.146738
 20
28.214354
 30
0.0
  0
VERTEX
  5
EF1B
  8
ALPHA
 10
36.307036
 20
28.532097
 30
0.0
  0
VERTEX
  5
EF1C
  8
ALPHA
 10
36.551285
 20
28.811298
 30
0.0
  0
VERTEX
  5
EF1D
  8
ALPHA
 10
36.869133
 20
29.024487
 30
0.0
  0
VERTEX
  5
EF1E
  8
ALPHA
 10
37.25219
 20
29.150481
 30
0.0
  0
SEQEND
  5
EF1F
  8
ALPHA
  0
POLYLINE
  5
E164
  8
ALPHA
 66
     1
 10
0.0
 20
0.0
 30
0.0
  0
VERTEX
  5
EF20
  8
ALPHA
 10
36.650609
 20
30.220908
 30
0.0
  0
VERTEX
  5
EF21
  8
ALPHA
 10
36.642767
 20
30.182107
 30
0.0
  0
VERTEX
  5
EF22
  8
ALPHA
 10
36.620484
 20
30.149387
 30
0.0
  0
VERTEX
  5
EF23
  8
ALPHA
 10
36.587254
 20
30.127874
 30
0.0
  0
SEQEND
  5
EF24
  8
ALPHA
  0
POLYLINE
  5
E165
  8
ALPHA
 66
     1
 10
0.0
 20
0.0
 30
0.0
  0
VERTEX
  5
EF25
  8
ALPHA
 10
38.950117
 20
27.72456
 30
0.0
  0
VERTEX
  5
EF26
  8
ALPHA
 10
38.925879
 20
27.460114
 30
0.0
  0
VERTEX
  5
EF27
  8
ALPHA
 10
38.848041
 20
27.189322
 30
0.0
  0
VERTEX
  5
EF28
  8
ALPHA
 10
38.718299
 20
26.937023
 30
0.0
  0
VERTEX
  5
EF29
  8
ALPHA
 10
38.541111
 20
26.71407
 30
0.0
  0
VERTEX
  5
EF2A
  8
ALPHA
 10
38.31426
 20
26.523783
 30
0.0
  0
VERTEX
  5
EF2B
  8
ALPHA
 10
38.02722
 20
26.373406
 30
0.0
  0
VERTEX
  5
EF2C
  8
ALPHA
 10
37.679279
 20
26.286391
 30
0.0
  0
VERTEX
  5
EF2D
  8
ALPHA
 10
37.295254
 20
26.291585
 30
0.0
  0
VERTEX
  5
EF2E
  8
ALPHA
 10
36.912034
 20
26.404355
 30
0.0
  0
VERTEX
  5
EF2F
  8
ALPHA
 10
36.583487
 20
26.610204
 30
0.0
  0
VERTEX
  5
EF30
  8
ALPHA
 10
36.331837
 20
26.881183
 30
0.0
  0
VERTEX
  5
EF31
  8
ALPHA
 10
36.162387
 20
27.193134
 30
0.0
  0
VERTEX
  5
EF32
  8
ALPHA
 10
36.074459
 20
27.531809
 30
0.0
  0
VERTEX
  5
EF33
  8
ALPHA
 10
36.069396
 20
27.874752
 30
0.0
  0
SEQEND
  5
EF34
  8
ALPHA
  0
POLYLINE
  5
E166
  8
ALPHA
 66
     1
 10
0.0
 20
0.0
 30
0.0
  0
VERTEX
  5
EF35
  8
ALPHA
 10
36.668118
 20
30.070008
 30
0.0
  0
VERTEX
  5
EF36
  8
ALPHA
 10
36.641164
 20
30.089454
 30
0.0
  0
VERTEX
  5
EF37
  8
ALPHA
 10
36.614209
 20
30.108742
 30
0.0
  0
VERTEX
  5
EF38
  8
ALPHA
 10
36.587258
 20
30.127871
 30
0.0
  0
SEQEND
  5
EF39
  8
ALPHA
  0
POLYLINE
  5
E167
  8
ALPHA
 66
     1
 10
0.0
 20
0.0
 30
0.0
  0
VERTEX
  5
EF3A
  8
ALPHA
 10
36.587254
 20
25.321245
 30
0.0
  0
VERTEX
  5
EF3B
  8
ALPHA
 10
36.620484
 20
25.299733
 30
0.0
  0
VERTEX
  5
EF3C
  8
ALPHA
 10
36.642767
 20
25.267013
 30
0.0
  0
VERTEX
  5
EF3D
  8
ALPHA
 10
36.650609
 20
25.228212
 30
0.0
  0
SEQEND
  5
EF3E
  8
ALPHA
  0
POLYLINE
  5
E168
  8
ALPHA
 66
     1
 10
0.0
 20
0.0
 30
0.0
  0
VERTEX
  5
EF3F
  8
ALPHA
 10
36.550625
 20
30.441676
 30
0.0
  0
VERTEX
  5
EF40
  8
ALPHA
 10
36.600608
 20
30.42827
 30
0.0
  0
VERTEX
  5
EF41
  8
ALPHA
 10
36.637204
 20
30.391674
 30
0.0
  0
VERTEX
  5
EF42
  8
ALPHA
 10
36.650609
 20
30.341691
 30
0.0
  0
SEQEND
  5
EF43
  8
ALPHA
  0
POLYLINE
  5
E169
  8
ALPHA
 66
     1
 10
0.0
 20
0.0
 30
0.0
  0
VERTEX
  5
EF44
  8
ALPHA
 10
36.633509
 20
30.52456
 30
0.0
  0
VERTEX
  5
EF45
  8
ALPHA
 10
36.683503
 20
30.511166
 30
0.0
  0
VERTEX
  5
EF46
  8
ALPHA
 10
36.720099
 20
30.474569
 30
0.0
  0
VERTEX
  5
EF47
  8
ALPHA
 10
36.733494
 20
30.424575
 30
0.0
  0
SEQEND
  5
EF48
  8
ALPHA
  0
LINE
  5
E16A
  8
ALPHA
 10
33.333494
 20
32.52456
 30
0.0
 11
37.533494
 21
32.52456
 31
0.0
  0
LINE
  5
E16B
  8
ALPHA
 10
36.650609
 20
30.341691
 30
0.0
 11
36.485608
 21
30.341691
 31
0.0
  0
LINE
  5
E16C
  8
ALPHA
 10
36.650609
 20
30.220908
 30
0.0
 11
36.485608
 21
30.220908
 31
0.0
  0
LINE
  5
E16D
  8
ALPHA
 10
36.650609
 20
25.228212
 30
0.0
 11
36.485608
 21
25.228212
 31
0.0
  0
LINE
  5
E16E
  8
ALPHA
 10
36.650609
 20
25.107429
 30
0.0
 11
36.485608
 21
25.107429
 31
0.0
  0
POLYLINE
  5
E16F
  8
ALPHA
 66
     1
 10
0.0
 20
0.0
 30
0.0
  0
VERTEX
  5
EF49
  8
ALPHA
 10
36.550625
 20
25.007444
 30
0.0
  0
VERTEX
  5
EF4A
  8
ALPHA
 10
36.600608
 20
25.02085
 30
0.0
  0
VERTEX
  5
EF4B
  8
ALPHA
 10
36.637204
 20
25.057445
 30
0.0
  0
VERTEX
  5
EF4C
  8
ALPHA
 10
36.650609
 20
25.107429
 30
0.0
  0
SEQEND
  5
EF4D
  8
ALPHA
  0
LINE
  5
E170
  8
ALPHA
 10
34.033494
 20
33.07456
 30
0.0
 11
34.033494
 21
34.22456
 31
0.0
  0
LINE
  5
E171
  8
ALPHA
 10
29.483494
 20
33.130942
 30
0.0
 11
29.408494
 21
33.322433
 31
0.0
  0
LINE
  5
E172
  8
ALPHA
 10
29.858494
 20
33.194773
 30
0.0
 11
29.708493
 21
33.513922
 31
0.0
  0
LINE
  5
E173
  8
ALPHA
 10
29.108494
 20
31.088389
 30
0.0
 11
29.483494
 21
31.279879
 31
0.0
  0
LINE
  5
E174
  8
ALPHA
 10
29.258494
 20
31.535198
 30
0.0
 11
29.033494
 21
31.407538
 31
0.0
  0
LINE
  5
E175
  8
ALPHA
 10
29.108494
 20
32.173496
 30
0.0
 11
29.558493
 21
32.428815
 31
0.0
  0
LINE
  5
E176
  8
ALPHA
 10
29.033494
 20
32.492645
 30
0.0
 11
29.258494
 21
32.620304
 31
0.0
  0
LINE
  5
E177
  8
ALPHA
 10
29.483494
 20
31.279879
 30
0.0
 11
29.708493
 21
31.535198
 31
0.0
  0
LINE
  5
E178
  8
ALPHA
 10
29.408494
 20
31.726687
 30
0.0
 11
29.258494
 21
31.535198
 31
0.0
  0
LINE
  5
E179
  8
ALPHA
 10
29.258494
 20
32.620304
 30
0.0
 11
29.408494
 21
32.811794
 31
0.0
  0
LINE
  5
E17A
  8
ALPHA
 10
29.708493
 20
31.535198
 30
0.0
 11
29.858494
 21
31.854347
 31
0.0
  0
LINE
  5
E17B
  8
ALPHA
 10
29.483494
 20
31.918177
 30
0.0
 11
29.408494
 21
31.726687
 31
0.0
  0
LINE
  5
E17C
  8
ALPHA
 10
29.408494
 20
32.811794
 30
0.0
 11
29.483494
 21
33.003284
 31
0.0
  0
LINE
  5
E17D
  8
ALPHA
 10
29.558493
 20
32.301155
 30
0.0
 11
29.483494
 21
31.918177
 31
0.0
  0
LINE
  5
E17E
  8
ALPHA
 10
29.858494
 20
31.854347
 30
0.0
 11
29.933493
 21
32.301155
 31
0.0
  0
LINE
  5
E17F
  8
ALPHA
 10
29.933493
 20
32.301155
 30
0.0
 11
29.933493
 21
32.747964
 31
0.0
  0
LINE
  5
E180
  8
ALPHA
 10
29.558493
 20
32.428815
 30
0.0
 11
29.558493
 21
32.301155
 31
0.0
  0
LINE
  5
E181
  8
ALPHA
 10
29.483494
 20
33.003284
 30
0.0
 11
29.483494
 21
33.130942
 31
0.0
  0
LINE
  5
E182
  8
ALPHA
 10
29.933493
 20
32.747964
 30
0.0
 11
29.858494
 21
33.194773
 31
0.0
  0
LINE
  5
E183
  8
ALPHA
 10
28.733493
 20
32.109666
 30
0.0
 11
29.108494
 21
32.173496
 31
0.0
  0
LINE
  5
E184
  8
ALPHA
 10
28.808493
 20
32.428815
 30
0.0
 11
29.033494
 21
32.492645
 31
0.0
  0
LINE
  5
E185
  8
ALPHA
 10
29.033494
 20
31.407538
 30
0.0
 11
28.808493
 21
31.343709
 31
0.0
  0
LINE
  5
E186
  8
ALPHA
 10
28.733493
 20
31.02456
 30
0.0
 11
29.108494
 21
31.088389
 31
0.0
  0
POLYLINE
  5
E187
  8
ALPHA
 66
     1
 10
0.0
 20
0.0
 30
0.0
  0
VERTEX
  5
EF4E
  8
ALPHA
 10
36.587258
 20
30.127871
 30
0.0
  0
VERTEX
  5
EF4F
  8
ALPHA
 10
36.405237
 20
30.044909
 30
0.0
  0
VERTEX
  5
EF50
  8
ALPHA
 10
36.211417
 20
29.936903
 30
0.0
  0
VERTEX
  5
EF51
  8
ALPHA
 10
36.011904
 20
29.801257
 30
0.0
  0
VERTEX
  5
EF52
  8
ALPHA
 10
35.813182
 20
29.636272
 30
0.0
  0
VERTEX
  5
EF53
  8
ALPHA
 10
35.622693
 20
29.442194
 30
0.0
  0
VERTEX
  5
EF54
  8
ALPHA
 10
35.448569
 20
29.222342
 30
0.0
  0
VERTEX
  5
EF55
  8
ALPHA
 10
35.298092
 20
28.983098
 30
0.0
  0
VERTEX
  5
EF56
  8
ALPHA
 10
35.175236
 20
28.730625
 30
0.0
  0
VERTEX
  5
EF57
  8
ALPHA
 10
35.077823
 20
28.457706
 30
0.0
  0
VERTEX
  5
EF58
  8
ALPHA
 10
35.005377
 20
28.13961
 30
0.0
  0
VERTEX
  5
EF59
  8
ALPHA
 10
34.97236
 20
27.773002
 30
0.0
  0
VERTEX
  5
EF5A
  8
ALPHA
 10
34.992636
 20
27.397522
 30
0.0
  0
VERTEX
  5
EF5B
  8
ALPHA
 10
35.058591
 20
27.06006
 30
0.0
  0
VERTEX
  5
EF5C
  8
ALPHA
 10
35.153277
 20
26.772291
 30
0.0
  0
VERTEX
  5
EF5D
  8
ALPHA
 10
35.277794
 20
26.503278
 30
0.0
  0
VERTEX
  5
EF5E
  8
ALPHA
 10
35.438603
 20
26.24096
 30
0.0
  0
VERTEX
  5
EF5F
  8
ALPHA
 10
35.633825
 20
25.994412
 30
0.0
  0
VERTEX
  5
EF60
  8
ALPHA
 10
35.857646
 20
25.772974
 30
0.0
  0
VERTEX
  5
EF61
  8
ALPHA
 10
36.10094
 20
25.583983
 30
0.0
  0
VERTEX
  5
EF62
  8
ALPHA
 10
36.34975
 20
25.432948
 30
0.0
  0
VERTEX
  5
EF63
  8
ALPHA
 10
36.587254
 20
25.321245
 30
0.0
  0
SEQEND
  5
EF64
  8
ALPHA
  0
POLYLINE
  5
E188
  8
ALPHA
 66
     1
 10
0.0
 20
0.0
 30
0.0
  0
VERTEX
  5
EF65
  8
ALPHA
 10
36.485608
 20
30.220965
 30
0.0
  0
VERTEX
  5
EF66
  8
ALPHA
 10
36.306466
 20
30.139122
 30
0.0
  0
VERTEX
  5
EF67
  8
ALPHA
 10
36.116259
 20
30.033866
 30
0.0
  0
VERTEX
  5
EF68
  8
ALPHA
 10
35.92021
 20
29.902653
 30
0.0
  0
VERTEX
  5
EF69
  8
ALPHA
 10
35.723907
 20
29.74369
 30
0.0
  0
VERTEX
  5
EF6A
  8
ALPHA
 10
35.534026
 20
29.556926
 30
0.0
  0
VERTEX
  5
EF6B
  8
ALPHA
 10
35.357853
 20
29.344786
 30
0.0
  0
VERTEX
  5
EF6C
  8
ALPHA
 10
35.202273
 20
29.112452
 30
0.0
  0
VERTEX
  5
EF6D
  8
ALPHA
 10
35.072866
 20
28.868112
 30
0.0
  0
VERTEX
  5
EF6E
  8
ALPHA
 10
34.96782
 20
28.608169
 30
0.0
  0
VERTEX
  5
EF6F
  8
ALPHA
 10
34.884109
 20
28.311834
 30
0.0
  0
VERTEX
  5
EF70
  8
ALPHA
 10
34.830589
 20
27.967038
 30
0.0
  0
VERTEX
  5
EF71
  8
ALPHA
 10
34.822872
 20
27.593972
 30
0.0
  0
VERTEX
  5
EF72
  8
ALPHA
 10
34.864088
 20
27.236178
 30
0.0
  0
VERTEX
  5
EF73
  8
ALPHA
 10
34.940977
 20
26.922982
 30
0.0
  0
VERTEX
  5
EF74
  8
ALPHA
 10
35.044014
 20
26.645121
 30
0.0
  0
VERTEX
  5
EF75
  8
ALPHA
 10
35.176854
 20
26.380163
 30
0.0
  0
VERTEX
  5
EF76
  8
ALPHA
 10
35.343743
 20
26.123386
 30
0.0
  0
VERTEX
  5
EF77
  8
ALPHA
 10
35.542223
 20
25.883331
 30
0.0
  0
VERTEX
  5
EF78
  8
ALPHA
 10
35.766323
 20
25.668438
 30
0.0
  0
VERTEX
  5
EF79
  8
ALPHA
 10
36.007101
 20
25.485226
 30
0.0
  0
VERTEX
  5
EF7A
  8
ALPHA
 10
36.251818
 20
25.338198
 30
0.0
  0
VERTEX
  5
EF7B
  8
ALPHA
 10
36.485608
 20
25.228212
 30
0.0
  0
SEQEND
  5
EF7C
  8
ALPHA
  0
POLYLINE
  5
E189
  8
ALPHA
 66
     1
 10
0.0
 20
0.0
 30
0.0
  0
VERTEX
  5
EF7D
  8
ALPHA
 10
36.485608
 20
25.228212
 30
0.0
  0
VERTEX
  5
EF7E
  8
ALPHA
 10
36.494389
 20
25.256719
 30
0.0
  0
VERTEX
  5
EF7F
  8
ALPHA
 10
36.513502
 20
25.287074
 30
0.0
  0
VERTEX
  5
EF80
  8
ALPHA
 10
36.538104
 20
25.310965
 30
0.0
  0
VERTEX
  5
EF81
  8
ALPHA
 10
36.56342
 20
25.322928
 30
0.0
  0
VERTEX
  5
EF82
  8
ALPHA
 10
36.587254
 20
25.321245
 30
0.0
  0
SEQEND
  5
EF83
  8
ALPHA
  0
LINE
  5
E18A
  8
ALPHA
 10
36.485608
 20
25.107429
 30
0.0
 11
36.485608
 21
25.228212
 31
0.0
  0
LINE
  5
E18B
  8
ALPHA
 10
36.550624
 20
25.007445
 30
0.0
 11
36.633509
 21
24.92456
 31
0.0
  0
POLYLINE
  5
E18C
  8
ALPHA
 66
     1
 10
0.0
 20
0.0
 30
0.0
  0
VERTEX
  5
EF84
  8
ALPHA
 10
36.550625
 20
25.007444
 30
0.0
  0
VERTEX
  5
EF85
  8
ALPHA
 10
36.528185
 20
25.013771
 30
0.0
  0
VERTEX
  5
EF86
  8
ALPHA
 10
36.510079
 20
25.030271
 30
0.0
  0
VERTEX
  5
EF87
  8
ALPHA
 10
36.495502
 20
25.055338
 30
0.0
  0
VERTEX
  5
EF88
  8
ALPHA
 10
36.486626
 20
25.083631
 30
0.0
  0
VERTEX
  5
EF89
  8
ALPHA
 10
36.485608
 20
25.107429
 30
0.0
  0
SEQEND
  5
EF8A
  8
ALPHA
  0
LINE
  5
E18D
  8
ALPHA
 10
34.033494
 20
30.87456
 30
0.0
 11
34.033494
 21
32.07456
 31
0.0
  0
LINE
  5
E18E
  8
ALPHA
 10
36.633509
 20
30.52456
 30
0.0
 11
36.550624
 21
30.441675
 31
0.0
  0
LINE
  5
E18F
  8
ALPHA
 10
36.485608
 20
30.220908
 30
0.0
 11
36.485608
 21
30.341691
 31
0.0
  0
POLYLINE
  5
E190
  8
ALPHA
 66
     1
 10
0.0
 20
0.0
 30
0.0
  0
VERTEX
  5
EF8B
  8
ALPHA
 10
36.485608
 20
30.220908
 30
0.0
  0
VERTEX
  5
EF8C
  8
ALPHA
 10
36.494423
 20
30.192382
 30
0.0
  0
VERTEX
  5
EF8D
  8
ALPHA
 10
36.513557
 20
30.162028
 30
0.0
  0
VERTEX
  5
EF8E
  8
ALPHA
 10
36.538162
 20
30.138149
 30
0.0
  0
VERTEX
  5
EF8F
  8
ALPHA
 10
36.56346
 20
30.126197
 30
0.0
  0
VERTEX
  5
EF90
  8
ALPHA
 10
36.587254
 20
30.127874
 30
0.0
  0
SEQEND
  5
EF91
  8
ALPHA
  0
POLYLINE
  5
E191
  8
ALPHA
 66
     1
 10
0.0
 20
0.0
 30
0.0
  0
VERTEX
  5
EF92
  8
ALPHA
 10
36.550625
 20
30.441676
 30
0.0
  0
VERTEX
  5
EF93
  8
ALPHA
 10
36.528183
 20
30.435348
 30
0.0
  0
VERTEX
  5
EF94
  8
ALPHA
 10
36.510075
 20
30.418848
 30
0.0
  0
VERTEX
  5
EF95
  8
ALPHA
 10
36.495499
 20
30.39378
 30
0.0
  0
VERTEX
  5
EF96
  8
ALPHA
 10
36.486624
 20
30.365488
 30
0.0
  0
VERTEX
  5
EF97
  8
ALPHA
 10
36.485608
 20
30.341691
 30
0.0
  0
SEQEND
  5
EF98
  8
ALPHA
  0
LINE
  5
E192
  8
ALPHA
 10
35.683494
 20
27.72456
 30
0.0
 11
35.033494
 21
27.72456
 31
0.0
  0
LINE
  5
E193
  8
ALPHA
 10
29.408494
 20
33.322433
 30
0.0
 11
29.258494
 21
33.513922
 31
0.0
  0
LINE
  5
E194
  8
ALPHA
 10
29.708493
 20
33.513922
 30
0.0
 11
29.483494
 21
33.76924
 31
0.0
  0
LINE
  5
E195
  8
ALPHA
 10
29.258494
 20
33.513922
 30
0.0
 11
29.033494
 21
33.641582
 31
0.0
  0
LINE
  5
E196
  8
ALPHA
 10
29.483494
 20
33.76924
 30
0.0
 11
29.108494
 21
33.96073
 31
0.0
  0
LINE
  5
E197
  8
ALPHA
 10
29.033494
 20
33.641582
 30
0.0
 11
28.808493
 21
33.705411
 31
0.0
  0
LINE
  5
E198
  8
ALPHA
 10
29.108494
 20
33.96073
 30
0.0
 11
28.733493
 21
34.02456
 31
0.0
  0
LINE
  5
E199
  8
ALPHA
 10
41.886892
 20
33.311426
 30
0.0
 11
41.742907
 21
33.234018
 31
0.0
  0
LINE
  5
E19A
  8
ALPHA
 10
39.085084
 20
31.876151
 30
0.0
 11
40.600994
 21
34.604786
 31
0.0
  0
LINE
  5
E19B
  8
ALPHA
 10
40.752584
 20
33.240469
 30
0.0
 11
40.600994
 21
32.785696
 31
0.0
  0
LINE
  5
E19C
  8
ALPHA
 10
41.406943
 20
33.117906
 30
0.0
 11
41.454937
 21
33.272722
 31
0.0
  0
LINE
  5
E19D
  8
ALPHA
 10
37.533494
 20
30.52456
 30
0.0
 11
37.533494
 21
33.52456
 31
0.0
  0
LINE
  5
E19E
  8
ALPHA
 10
42.990775
 20
33.272722
 30
0.0
 11
43.038769
 21
33.117906
 31
0.0
  0
LINE
  5
E19F
  8
ALPHA
 10
39.085084
 20
32.785696
 30
0.0
 11
38.933493
 21
33.240469
 31
0.0
  0
LINE
  5
E1A0
  8
ALPHA
 10
42.702805
 20
33.234018
 30
0.0
 11
42.55882
 21
33.311426
 31
0.0
  0
LINE
  5
E1A1
  8
ALPHA
 10
41.162935
 20
28.245466
 30
0.0
 11
40.483494
 21
27.068639
 31
0.0
  0
LINE
  5
E1A2
  8
ALPHA
 10
41.183494
 20
28.77456
 30
0.0
 11
40.483494
 21
27.562124
 31
0.0
  0
POLYLINE
  5
E1A3
  8
ALPHA
 66
     1
 10
0.0
 20
0.0
 30
0.0
  0
VERTEX
  5
EF99
  8
ALPHA
 10
41.183494
 20
25.63759
 30
0.0
  0
VERTEX
  5
EF9A
  8
ALPHA
 10
41.155094
 20
25.262756
 30
0.0
  0
VERTEX
  5
EF9B
  8
ALPHA
 10
41.069165
 20
24.869899
 30
0.0
  0
VERTEX
  5
EF9C
  8
ALPHA
 10
40.92491
 20
24.47975
 30
0.0
  0
VERTEX
  5
EF9D
  8
ALPHA
 10
40.725545
 20
24.123057
 30
0.0
  0
VERTEX
  5
EF9E
  8
ALPHA
 10
40.483494
 20
23.839518
 30
0.0
  0
SEQEND
  5
EF9F
  8
ALPHA
  0
LINE
  5
E1A4
  8
ALPHA
 10
39.076494
 20
31.55756
 30
0.0
 11
43.076494
 21
31.55756
 31
0.0
  0
LINE
  5
E1A5
  8
ALPHA
 10
43.531923
 20
30.02456
 30
0.0
 11
40.533494
 21
30.02456
 31
0.0
  0
LINE
  5
E1A6
  8
ALPHA
 10
43.466406
 20
29.069796
 30
0.0
 11
40.233494
 21
29.069796
 31
0.0
  0
LINE
  5
E1A7
  8
ALPHA
 10
40.865951
 20
28.22456
 30
0.0
 11
40.233494
 21
28.22456
 31
0.0
  0
LINE
  5
E1A8
  8
ALPHA
 10
40.483494
 20
23.62456
 30
0.0
 11
43.416734
 21
23.62456
 31
0.0
  0
LINE
  5
E1A9
  8
ALPHA
 10
40.483494
 20
23.62456
 30
0.0
 11
40.483494
 21
27.562124
 31
0.0
  0
LINE
  5
E1AA
  8
ALPHA
 10
40.233494
 20
23.72456
 30
0.0
 11
40.233494
 21
29.72456
 31
0.0
  0
ARC
  5
E1AB
  8
ALPHA
 10
38.155368
 20
24.17456
 30
0.0
 40
0.5
 50
270.0
 51
294.521028
  0
POLYLINE
  5
E1AC
  8
ALPHA
 66
     1
 10
0.0
 20
0.0
 30
0.0
  0
VERTEX
  5
EFA0
  8
ALPHA
 10
36.733494
 20
25.285308
 30
0.0
  0
VERTEX
  5
EFA1
  8
ALPHA
 10
36.678223
 20
25.247088
 30
0.0
  0
VERTEX
  5
EFA2
  8
ALPHA
 10
36.650609
 20
25.228211
 30
0.0
  0
SEQEND
  5
EFA3
  8
ALPHA
  0
LINE
  5
E1AD
  8
ALPHA
 10
36.733494
 20
25.024545
 30
0.0
 11
36.733494
 21
25.285308
 31
0.0
  0
LINE
  5
E1AE
  8
ALPHA
 10
36.650609
 20
25.107429
 30
0.0
 11
36.650609
 21
25.228211
 31
0.0
  0
LINE
  5
E1AF
  8
ALPHA
 10
36.650609
 20
25.107429
 30
0.0
 11
36.733494
 21
25.024545
 31
0.0
  0
POLYLINE
  5
E1B0
  8
ALPHA
 66
     1
 10
0.0
 20
0.0
 30
0.0
  0
VERTEX
  5
EFA4
  8
ALPHA
 10
36.668118
 20
25.379112
 30
0.0
  0
VERTEX
  5
EFA5
  8
ALPHA
 10
36.702336
 20
25.357833
 30
0.0
  0
VERTEX
  5
EFA6
  8
ALPHA
 10
36.725375
 20
25.324776
 30
0.0
  0
VERTEX
  5
EFA7
  8
ALPHA
 10
36.733494
 20
25.285308
 30
0.0
  0
SEQEND
  5
EFA8
  8
ALPHA
  0
LINE
  5
E1B1
  8
ALPHA
 10
40.233494
 20
27.32456
 30
0.0
 11
40.483494
 21
27.32456
 31
0.0
  0
LINE
  5
E1B2
  8
ALPHA
 10
40.233494
 20
26.82456
 30
0.0
 11
40.483494
 21
26.82456
 31
0.0
  0
LINE
  5
E1B3
  8
ALPHA
 10
38.230979
 20
29.00156
 30
0.0
 11
39.076494
 21
31.55756
 31
0.0
  0
POLYLINE
  5
E1B4
  8
ALPHA
 66
     1
 10
0.0
 20
0.0
 30
0.0
  0
VERTEX
  5
EFA9
  8
ALPHA
 10
38.950117
 20
27.72456
 30
0.0
  0
VERTEX
  5
EFAA
  8
ALPHA
 10
38.925202
 20
27.992642
 30
0.0
  0
VERTEX
  5
EFAB
  8
ALPHA
 10
38.845586
 20
28.265955
 30
0.0
  0
VERTEX
  5
EFAC
  8
ALPHA
 10
38.714444
 20
28.51804
 30
0.0
  0
VERTEX
  5
EFAD
  8
ALPHA
 10
38.532965
 20
28.74338
 30
0.0
  0
VERTEX
  5
EFAE
  8
ALPHA
 10
38.302164
 20
28.933438
 30
0.0
  0
VERTEX
  5
EFAF
  8
ALPHA
 10
38.015933
 20
29.080036
 30
0.0
  0
VERTEX
  5
EFB0
  8
ALPHA
 10
37.667216
 20
29.164134
 30
0.0
  0
VERTEX
  5
EFB1
  8
ALPHA
 10
37.25219
 20
29.150481
 30
0.0
  0
SEQEND
  5
EFB2
  8
ALPHA
  0
LINE
  5
E1B5
  8
ALPHA
 10
36.733494
 20
30.424575
 30
0.0
 11
36.650609
 21
30.341691
 31
0.0
  0
POLYLINE
  5
E1B6
  8
ALPHA
 66
     1
 10
0.0
 20
0.0
 30
0.0
  0
VERTEX
  5
EFB3
  8
ALPHA
 10
36.733494
 20
30.163811
 30
0.0
  0
VERTEX
  5
EFB4
  8
ALPHA
 10
36.725375
 20
30.124343
 30
0.0
  0
VERTEX
  5
EFB5
  8
ALPHA
 10
36.702336
 20
30.091287
 30
0.0
  0
VERTEX
  5
EFB6
  8
ALPHA
 10
36.668118
 20
30.070008
 30
0.0
  0
SEQEND
  5
EFB7
  8
ALPHA
  0
LINE
  5
E1B7
  8
ALPHA
 10
36.733494
 20
30.163811
 30
0.0
 11
36.733494
 21
30.424575
 31
0.0
  0
LINE
  5
E1B8
  8
ALPHA
 10
36.650609
 20
30.220908
 30
0.0
 11
36.650609
 21
30.341691
 31
0.0
  0
POLYLINE
  5
E1B9
  8
ALPHA
 66
     1
 10
0.0
 20
0.0
 30
0.0
  0
VERTEX
  5
EFB8
  8
ALPHA
 10
36.733494
 20
30.163811
 30
0.0
  0
VERTEX
  5
EFB9
  8
ALPHA
 10
36.705851
 20
30.183001
 30
0.0
  0
VERTEX
  5
EFBA
  8
ALPHA
 10
36.650609
 20
30.220908
 30
0.0
  0
SEQEND
  5
EFBB
  8
ALPHA
  0
ARC
  5
E1BA
  8
ALPHA
 10
40.533494
 20
29.72456
 30
0.0
 40
0.3
 50
90.0
 51
180.0
  0
LINE
  5
E1BB
  8
ALPHA
 10
40.297811
 20
32.482514
 30
0.0
 11
39.843039
 21
32.330923
 31
0.0
  0
LINE
  5
E1BC
  8
ALPHA
 10
40.600994
 20
32.785696
 30
0.0
 11
40.297811
 21
32.482514
 31
0.0
  0
LINE
  5
E1BD
  8
ALPHA
 10
39.388266
 20
32.482514
 30
0.0
 11
39.085084
 21
32.785696
 31
0.0
  0
LINE
  5
E1BE
  8
ALPHA
 10
39.843039
 20
32.330923
 30
0.0
 11
39.388266
 21
32.482514
 31
0.0
  0
LINE
  5
E1BF
  8
ALPHA
 10
40.721613
 20
27.97456
 30
0.0
 11
40.233494
 21
27.97456
 31
0.0
  0
LINE
  5
E1C0
  8
ALPHA
 10
40.233494
 20
27.565469
 30
0.0
 11
40.483494
 21
27.565469
 31
0.0
  0
LINE
  5
E1C1
  8
ALPHA
 10
43.464373
 20
26.233442
 30
0.0
 11
43.479017
 21
27.988738
 31
0.0
  0
LINE
  5
E1C2
  8
ALPHA
 10
43.47394
 20
27.324401
 30
0.0
 11
43.479031
 21
27.995906
 31
0.0
  0
LINE
  5
E1C3
  8
ALPHA
 10
43.378554
 20
25.63759
 30
0.0
 11
43.383028
 21
27.984984
 31
0.0
  0
LINE
  5
E1C4
  8
ALPHA
 10
43.397016
 20
27.872862
 30
0.0
 11
43.396298
 21
27.324627
 31
0.0
  0
POLYLINE
  5
E1C5
  8
ALPHA
 66
     1
 10
0.0
 20
0.0
 30
0.0
  0
VERTEX
  5
EFBC
  8
ALPHA
 10
43.465425
 20
27.97456
 30
0.0
  0
VERTEX
  5
EFBD
  8
ALPHA
 10
43.465639
 20
27.47737
 30
0.0
  0
VERTEX
  5
EFBE
  8
ALPHA
 10
43.465434
 20
27.398429
 30
0.0
  0
VERTEX
  5
EFBF
  8
ALPHA
 10
43.465071
 20
27.343969
 30
0.0
  0
SEQEND
  5
EFC0
  8
ALPHA
  0
LINE
  5
E1C6
  8
ALPHA
 10
41.183494
 20
25.63759
 30
0.0
 11
41.183494
 21
27.984984
 31
0.0
  0
LINE
  5
E1C7
  8
ALPHA
 10
41.183494
 20
25.63759
 30
0.0
 11
43.378554
 21
25.63759
 31
0.0
  0
POLYLINE
  5
E1C8
  8
ALPHA
 66
     1
 10
0.0
 20
0.0
 30
0.0
  0
VERTEX
  5
EFC1
  8
ALPHA
 10
43.416734
 20
23.62456
 30
0.0
  0
VERTEX
  5
EFC2
  8
ALPHA
 10
43.421582
 20
23.711525
 30
0.0
  0
VERTEX
  5
EFC3
  8
ALPHA
 10
43.426395
 20
23.83521
 30
0.0
  0
VERTEX
  5
EFC4
  8
ALPHA
 10
43.431174
 20
23.995366
 30
0.0
  0
SEQEND
  5
EFC5
  8
ALPHA
  0
POLYLINE
  5
E1C9
  8
ALPHA
 66
     1
 10
0.0
 20
0.0
 30
0.0
  0
VERTEX
  5
EFC6
  8
ALPHA
 10
43.416756
 20
23.624851
 30
0.0
  0
VERTEX
  5
EFC7
  8
ALPHA
 10
43.432513
 20
24.044028
 30
0.0
  0
VERTEX
  5
EFC8
  8
ALPHA
 10
43.448545
 20
24.902494
 30
0.0
  0
VERTEX
  5
EFC9
  8
ALPHA
 10
43.464373
 20
26.233442
 30
0.0
  0
SEQEND
  5
EFCA
  8
ALPHA
  0
POLYLINE
  5
E1CA
  8
ALPHA
 66
     1
 10
0.0
 20
0.0
 30
0.0
  0
VERTEX
  5
EFCB
  8
ALPHA
 10
43.431174
 20
23.995366
 30
0.0
  0
VERTEX
  5
EFCC
  8
ALPHA
 10
43.435917
 20
24.191881
 30
0.0
  0
VERTEX
  5
EFCD
  8
ALPHA
 10
43.440611
 20
24.424169
 30
0.0
  0
VERTEX
  5
EFCE
  8
ALPHA
 10
43.445234
 20
24.691103
 30
0.0
  0
SEQEND
  5
EFCF
  8
ALPHA
  0
LINE
  5
E1CB
  8
ALPHA
 10
43.465071
 20
27.343969
 30
0.0
 11
43.464621
 21
27.32456
 31
0.0
  0
LINE
  5
E1CC
  8
ALPHA
 10
43.448977
 20
24.938791
 30
0.0
 11
43.454256
 21
25.32702
 31
0.0
  0
LINE
  5
E1CD
  8
ALPHA
 10
43.445234
 20
24.691103
 30
0.0
 11
43.448977
 21
24.938791
 31
0.0
  0
POLYLINE
  5
E1CE
  8
ALPHA
 66
     1
 10
0.0
 20
0.0
 30
0.0
  0
VERTEX
  5
EFD0
  8
ALPHA
 10
43.454256
 20
25.32702
 30
0.0
  0
VERTEX
  5
EFD1
  8
ALPHA
 10
43.45864
 20
25.694629
 30
0.0
  0
VERTEX
  5
EFD2
  8
ALPHA
 10
43.462931
 20
26.094324
 30
0.0
  0
SEQEND
  5
EFD3
  8
ALPHA
  0
POLYLINE
  5
E1CF
  8
ALPHA
 66
     1
 10
0.0
 20
0.0
 30
0.0
  0
VERTEX
  5
EFD4
  8
ALPHA
 10
43.462931
 20
26.094324
 30
0.0
  0
VERTEX
  5
EFD5
  8
ALPHA
 10
43.467122
 20
26.525331
 30
0.0
  0
VERTEX
  5
EFD6
  8
ALPHA
 10
43.471094
 20
26.974012
 30
0.0
  0
SEQEND
  5
EFD7
  8
ALPHA
  0
LINE
  5
E1D0
  8
ALPHA
 10
43.471094
 20
26.974012
 30
0.0
 11
43.47394
 21
27.324401
 31
0.0
  0
POLYLINE
  5
E1D1
  8
ALPHA
 66
     1
 10
0.0
 20
0.0
 30
0.0
  0
VERTEX
  5
EFD8
  8
ALPHA
 10
43.411561
 20
27.270663
 30
0.0
  0
VERTEX
  5
EFD9
  8
ALPHA
 10
43.410988
 20
27.114622
 30
0.0
  0
VERTEX
  5
EFDA
  8
ALPHA
 10
43.41015
 20
27.010896
 30
0.0
  0
VERTEX
  5
EFDB
  8
ALPHA
 10
43.409171
 20
26.97456
 30
0.0
  0
SEQEND
  5
EFDC
  8
ALPHA
  0
LINE
  5
E1D2
  8
ALPHA
 10
43.411627
 20
27.32456
 30
0.0
 11
43.411561
 21
27.270663
 31
0.0
  0
POLYLINE
  5
E1D3
  8
ALPHA
 66
     1
 10
0.0
 20
0.0
 30
0.0
  0
VERTEX
  5
EFDD
  8
ALPHA
 10
43.378554
 20
25.63759
 30
0.0
  0
VERTEX
  5
EFDE
  8
ALPHA
 10
43.378103
 20
25.237247
 30
0.0
  0
VERTEX
  5
EFDF
  8
ALPHA
 10
43.378238
 20
24.825904
 30
0.0
  0
VERTEX
  5
EFE0
  8
ALPHA
 10
43.378942
 20
24.441556
 30
0.0
  0
VERTEX
  5
EFE1
  8
ALPHA
 10
43.380182
 20
24.103228
 30
0.0
  0
VERTEX
  5
EFE2
  8
ALPHA
 10
43.381833
 20
23.845393
 30
0.0
  0
VERTEX
  5
EFE3
  8
ALPHA
 10
43.38381
 20
23.680464
 30
0.0
  0
VERTEX
  5
EFE4
  8
ALPHA
 10
43.385935
 20
23.62456
 30
0.0
  0
SEQEND
  5
EFE5
  8
ALPHA
  0
LINE
  5
E1D4
  8
ALPHA
 10
43.396373
 20
27.156345
 30
0.0
 11
43.396298
 21
27.324627
 31
0.0
  0
POLYLINE
  5
E1D5
  8
ALPHA
 66
     1
 10
0.0
 20
0.0
 30
0.0
  0
VERTEX
  5
EFE6
  8
ALPHA
 10
43.397817
 20
26.97456
 30
0.0
  0
VERTEX
  5
EFE7
  8
ALPHA
 10
43.397223
 20
26.996846
 30
0.0
  0
VERTEX
  5
EFE8
  8
ALPHA
 10
43.396708
 20
27.062062
 30
0.0
  0
VERTEX
  5
EFE9
  8
ALPHA
 10
43.396373
 20
27.156345
 30
0.0
  0
SEQEND
  5
EFEA
  8
ALPHA
  0
LINE
  5
E1D6
  8
ALPHA
 10
43.396358
 20
27.32456
 30
0.0
 11
43.464621
 21
27.32456
 31
0.0
  0
LINE
  5
E1D7
  8
ALPHA
 10
42.94278
 20
31.91808
 30
0.0
 11
42.798795
 21
31.840672
 31
0.0
  0
LINE
  5
E1D8
  8
ALPHA
 10
42.894784
 20
32.769569
 30
0.0
 11
42.702805
 21
32.653457
 31
0.0
  0
LINE
  5
E1D9
  8
ALPHA
 10
42.798795
 20
32.072896
 30
0.0
 11
42.84679
 21
32.150304
 31
0.0
  0
LINE
  5
E1DA
  8
ALPHA
 10
42.84679
 20
32.305121
 30
0.0
 11
42.7508
 21
32.459937
 31
0.0
  0
LINE
  5
E1DB
  8
ALPHA
 10
42.702805
 20
32.653457
 30
0.0
 11
42.94278
 21
32.576049
 31
0.0
  0
LINE
  5
E1DC
  8
ALPHA
 10
41.183494
 20
28.77456
 30
0.0
 11
43.388932
 21
28.77456
 31
0.0
  0
LINE
  5
E1DD
  8
ALPHA
 10
41.183494
 20
27.984984
 30
0.0
 11
43.383028
 21
27.984984
 31
0.0
  0
LINE
  5
E1DE
  8
ALPHA
 10
42.798795
 20
31.840672
 30
0.0
 11
42.606816
 21
31.763264
 31
0.0
  0
LINE
  5
E1DF
  8
ALPHA
 10
42.606816
 20
31.956784
 30
0.0
 11
42.702805
 21
31.995488
 31
0.0
  0
LINE
  5
E1E0
  8
ALPHA
 10
42.702805
 20
31.995488
 30
0.0
 11
42.798795
 21
32.072896
 31
0.0
  0
LINE
  5
E1E1
  8
ALPHA
 10
42.606816
 20
32.808273
 30
0.0
 11
42.702805
 21
32.885682
 31
0.0
  0
LINE
  5
E1E2
  8
ALPHA
 10
41.742907
 20
33.234018
 30
0.0
 11
41.646917
 21
33.117906
 31
0.0
  0
LINE
  5
E1E3
  8
ALPHA
 10
42.702805
 20
32.885682
 30
0.0
 11
42.798795
 21
33.040498
 31
0.0
  0
POLYLINE
  5
E1E4
  8
ALPHA
 66
     1
 10
0.0
 20
0.0
 30
0.0
  0
VERTEX
  5
EFEB
  8
ALPHA
 10
41.162935
 20
28.738951
 30
0.0
  0
VERTEX
  5
EFEC
  8
ALPHA
 10
41.134575
 20
28.633582
 30
0.0
  0
VERTEX
  5
EFED
  8
ALPHA
 10
41.134575
 20
28.467067
 30
0.0
  0
VERTEX
  5
EFEE
  8
ALPHA
 10
41.162935
 20
28.245466
 30
0.0
  0
SEQEND
  5
EFEF
  8
ALPHA
  0
LINE
  5
E1E5
  8
ALPHA
 10
42.798795
 20
33.040498
 30
0.0
 11
42.798795
 21
33.117906
 31
0.0
  0
LINE
  5
E1E6
  8
ALPHA
 10
42.126866
 20
32.576049
 30
0.0
 11
42.126866
 21
32.730865
 31
0.0
  0
POLYLINE
  5
E1E7
  8
ALPHA
 66
     1
 10
0.0
 20
0.0
 30
0.0
  0
VERTEX
  5
EFF0
  8
ALPHA
 10
41.162935
 20
28.245466
 30
0.0
  0
VERTEX
  5
EFF1
  8
ALPHA
 10
41.178334
 20
28.119283
 30
0.0
  0
VERTEX
  5
EFF2
  8
ALPHA
 10
41.183494
 20
27.984984
 30
0.0
  0
SEQEND
  5
EFF3
  8
ALPHA
  0
LINE
  5
E1E8
  8
ALPHA
 10
41.406943
 20
32.034192
 30
0.0
 11
41.358947
 21
32.150304
 31
0.0
  0
LINE
  5
E1E9
  8
ALPHA
 10
41.598922
 20
32.150304
 30
0.0
 11
41.646917
 21
32.072896
 31
0.0
  0
LINE
  5
E1EA
  8
ALPHA
 10
42.798795
 20
33.117906
 30
0.0
 11
42.702805
 21
33.234018
 31
0.0
  0
LINE
  5
E1EB
  8
ALPHA
 10
41.502932
 20
31.91808
 30
0.0
 11
41.406943
 21
32.034192
 31
0.0
  0
LINE
  5
E1EC
  8
ALPHA
 10
41.646917
 20
32.072896
 30
0.0
 11
41.742907
 21
31.995488
 31
0.0
  0
LINE
  5
E1ED
  8
ALPHA
 10
42.7508
 20
32.459937
 30
0.0
 11
42.606816
 21
32.537345
 31
0.0
  0
LINE
  5
E1EE
  8
ALPHA
 10
41.646917
 20
31.840672
 30
0.0
 11
41.502932
 21
31.91808
 31
0.0
  0
LINE
  5
E1EF
  8
ALPHA
 10
41.742907
 20
31.995488
 30
0.0
 11
41.838896
 21
31.956784
 31
0.0
  0
LINE
  5
E1F0
  8
ALPHA
 10
41.838896
 20
31.763264
 30
0.0
 11
41.646917
 21
31.840672
 31
0.0
  0
LINE
  5
E1F1
  8
ALPHA
 10
42.030877
 20
31.72456
 30
0.0
 11
41.838896
 21
31.763264
 31
0.0
  0
LINE
  5
E1F2
  8
ALPHA
 10
41.838896
 20
31.956784
 30
0.0
 11
42.078871
 21
31.91808
 31
0.0
  0
LINE
  5
E1F3
  8
ALPHA
 10
42.606816
 20
32.537345
 30
0.0
 11
42.318846
 21
32.576049
 31
0.0
  0
LINE
  5
E1F4
  8
ALPHA
 10
41.646917
 20
33.117906
 30
0.0
 11
41.406943
 21
33.117906
 31
0.0
  0
LINE
  5
E1F5
  8
ALPHA
 10
42.126866
 20
32.730865
 30
0.0
 11
42.318846
 21
32.730865
 31
0.0
  0
LINE
  5
E1F6
  8
ALPHA
 10
42.318846
 20
32.576049
 30
0.0
 11
42.126866
 21
32.576049
 31
0.0
  0
LINE
  5
E1F7
  8
ALPHA
 10
41.358947
 20
32.150304
 30
0.0
 11
41.598922
 21
32.150304
 31
0.0
  0
LINE
  5
E1F8
  8
ALPHA
 10
42.078871
 20
31.91808
 30
0.0
 11
42.366841
 21
31.91808
 31
0.0
  0
LINE
  5
E1F9
  8
ALPHA
 10
42.414835
 20
31.72456
 30
0.0
 11
42.030877
 21
31.72456
 31
0.0
  0
LINE
  5
E1FA
  8
ALPHA
 10
42.366841
 20
31.91808
 30
0.0
 11
42.606816
 21
31.956784
 31
0.0
  0
LINE
  5
E1FB
  8
ALPHA
 10
42.606816
 20
31.763264
 30
0.0
 11
42.414835
 21
31.72456
 31
0.0
  0
LINE
  5
E1FC
  8
ALPHA
 10
42.318846
 20
32.730865
 30
0.0
 11
42.606816
 21
32.808273
 31
0.0
  0
LINE
  5
E1FD
  8
ALPHA
 10
43.038769
 20
32.034192
 30
0.0
 11
42.94278
 21
31.91808
 31
0.0
  0
LINE
  5
E1FE
  8
ALPHA
 10
42.990775
 20
32.885682
 30
0.0
 11
42.894784
 21
32.769569
 31
0.0
  0
LINE
  5
E1FF
  8
ALPHA
 10
43.086765
 20
32.150304
 30
0.0
 11
43.038769
 21
32.034192
 31
0.0
  0
LINE
  5
E200
  8
ALPHA
 10
43.038769
 20
33.040498
 30
0.0
 11
42.990775
 21
32.885682
 31
0.0
  0
POLYLINE
  5
E201
  8
ALPHA
 66
     1
 10
0.0
 20
0.0
 30
0.0
  0
VERTEX
  5
EFF4
  8
ALPHA
 10
43.388932
 20
28.77456
 30
0.0
  0
VERTEX
  5
EFF5
  8
ALPHA
 10
43.387043
 20
28.71902
 30
0.0
  0
VERTEX
  5
EFF6
  8
ALPHA
 10
43.385328
 20
28.557541
 30
0.0
  0
VERTEX
  5
EFF7
  8
ALPHA
 10
43.383947
 20
28.305072
 30
0.0
  0
VERTEX
  5
EFF8
  8
ALPHA
 10
43.383028
 20
27.984984
 30
0.0
  0
SEQEND
  5
EFF9
  8
ALPHA
  0
LINE
  5
E202
  8
ALPHA
 10
43.465865
 20
28.798166
 30
0.0
 11
43.468737
 21
30.02456
 31
0.0
  0
LINE
  5
E203
  8
ALPHA
 10
43.47901
 20
27.988944
 30
0.0
 11
43.479039
 21
30.02456
 31
0.0
  0
LINE
  5
E204
  8
ALPHA
 10
43.465536
 20
28.514423
 30
0.0
 11
43.465865
 21
28.798166
 31
0.0
  0
LINE
  5
E205
  8
ALPHA
 10
43.465425
 20
27.97456
 30
0.0
 11
43.465536
 21
28.514423
 31
0.0
  0
LINE
  5
E206
  8
ALPHA
 10
43.397099
 20
28.12456
 30
0.0
 11
43.397016
 21
27.872862
 31
0.0
  0
LINE
  5
E207
  8
ALPHA
 10
43.086765
 20
32.305121
 30
0.0
 11
43.086765
 21
32.150304
 31
0.0
  0
LINE
  5
E208
  8
ALPHA
 10
43.038769
 20
33.117906
 30
0.0
 11
43.038769
 21
33.040498
 31
0.0
  0
LINE
  5
E209
  8
ALPHA
 10
42.84679
 20
32.150304
 30
0.0
 11
42.84679
 21
32.305121
 31
0.0
  0
LINE
  5
E20A
  8
ALPHA
 10
43.397099
 20
28.12456
 30
0.0
 11
43.396933
 21
28.324788
 31
0.0
  0
POLYLINE
  5
E20B
  8
ALPHA
 66
     1
 10
0.0
 20
0.0
 30
0.0
  0
VERTEX
  5
EFFA
  8
ALPHA
 10
43.396933
 20
28.324788
 30
0.0
  0
VERTEX
  5
EFFB
  8
ALPHA
 10
43.396445
 20
28.507672
 30
0.0
  0
VERTEX
  5
EFFC
  8
ALPHA
 10
43.395701
 20
28.649653
 30
0.0
  0
VERTEX
  5
EFFD
  8
ALPHA
 10
43.394744
 20
28.742951
 30
0.0
  0
VERTEX
  5
EFFE
  8
ALPHA
 10
43.393695
 20
28.77456
 30
0.0
  0
SEQEND
  5
EFFF
  8
ALPHA
  0
LINE
  5
E20C
  8
ALPHA
 10
43.038769
 20
32.459937
 30
0.0
 11
43.086765
 21
32.305121
 31
0.0
  0
LINE
  5
E20D
  8
ALPHA
 10
42.94278
 20
32.576049
 30
0.0
 11
43.038769
 21
32.459937
 31
0.0
  0
LINE
  5
E20E
  8
ALPHA
 10
43.465425
 20
28.22456
 30
0.0
 11
43.397016
 21
28.22456
 31
0.0
  0
LINE
  5
E20F
  8
ALPHA
 10
43.465425
 20
27.97456
 30
0.0
 11
43.397049
 21
27.97456
 31
0.0
  0
LINE
  5
E210
  8
ALPHA
 10
43.396665
 20
27.565469
 30
0.0
 11
43.465646
 21
27.565469
 31
0.0
  0
LINE
  5
E211
  8
ALPHA
 10
40.600994
 20
33.695241
 30
0.0
 11
40.752584
 21
33.240469
 31
0.0
  0
LINE
  5
E212
  8
ALPHA
 10
39.388266
 20
33.998423
 30
0.0
 11
39.843039
 21
34.150014
 31
0.0
  0
LINE
  5
E213
  8
ALPHA
 10
39.085084
 20
33.695241
 30
0.0
 11
39.388266
 21
33.998423
 31
0.0
  0
LINE
  5
E214
  8
ALPHA
 10
38.933493
 20
33.240469
 30
0.0
 11
39.085084
 21
33.695241
 31
0.0
  0
LINE
  5
E215
  8
ALPHA
 10
40.297811
 20
33.998423
 30
0.0
 11
40.600994
 21
33.695241
 31
0.0
  0
LINE
  5
E216
  8
ALPHA
 10
39.843039
 20
34.150014
 30
0.0
 11
40.297811
 21
33.998423
 31
0.0
  0
LINE
  5
E217
  8
ALPHA
 10
42.798795
 20
33.427538
 30
0.0
 11
42.990775
 21
33.272722
 31
0.0
  0
LINE
  5
E218
  8
ALPHA
 10
41.646917
 20
33.427538
 30
0.0
 11
41.838896
 21
33.504946
 31
0.0
  0
LINE
  5
E219
  8
ALPHA
 10
41.454937
 20
33.272722
 30
0.0
 11
41.646917
 21
33.427538
 31
0.0
  0
LINE
  5
E21A
  8
ALPHA
 10
42.606816
 20
33.504946
 30
0.0
 11
42.798795
 21
33.427538
 31
0.0
  0
LINE
  5
E21B
  8
ALPHA
 10
42.55882
 20
33.311426
 30
0.0
 11
42.318846
 21
33.35013
 31
0.0
  0
LINE
  5
E21C
  8
ALPHA
 10
42.270851
 20
33.54365
 30
0.0
 11
42.606816
 21
33.504946
 31
0.0
  0
LINE
  5
E21D
  8
ALPHA
 10
42.174861
 20
33.54365
 30
0.0
 11
42.270851
 21
33.54365
 31
0.0
  0
LINE
  5
E21E
  8
ALPHA
 10
42.318846
 20
33.35013
 30
0.0
 11
42.126866
 21
33.35013
 31
0.0
  0
LINE
  5
E21F
  8
ALPHA
 10
41.838896
 20
33.504946
 30
0.0
 11
42.174861
 21
33.54365
 31
0.0
  0
LINE
  5
E220
  8
ALPHA
 10
42.126866
 20
33.35013
 30
0.0
 11
41.886892
 21
33.311426
 31
0.0
  0
LINE
  5
E221
  8
ALPHA
 10
34.033494
 20
65.22456
 30
0.0
 11
34.033494
 21
72.42456
 31
0.0
  0
LINE
  5
E222
  8
ALPHA
 10
31.533494
 20
64.72456
 30
0.0
 11
38.033494
 21
64.72456
 31
0.0
  0
LINE
  5
E223
  8
ALPHA
 10
31.533494
 20
59.72456
 30
0.0
 11
39.033494
 21
59.72456
 31
0.0
  0
LINE
  5
E224
  8
ALPHA
 10
34.033494
 20
54.12456
 30
0.0
 11
34.033494
 21
59.12456
 31
0.0
  0
LINE
  5
E225
  8
ALPHA
 10
32.597323
 20
51.624559
 30
0.0
 11
32.533494
 21
52.149559
 31
0.0
  0
LINE
  5
E226
  8
ALPHA
 10
32.533494
 20
52.299561
 30
0.0
 11
32.597323
 21
52.82456
 31
0.0
  0
LINE
  5
E227
  8
ALPHA
 10
32.852643
 20
50.124559
 30
0.0
 11
32.533494
 21
50.124559
 31
0.0
  0
LINE
  5
E228
  8
ALPHA
 10
32.533494
 20
47.57456
 30
0.0
 11
34.193068
 21
47.57456
 31
0.0
  0
LINE
  5
E229
  8
ALPHA
 10
32.533494
 20
50.124559
 30
0.0
 11
32.533494
 21
47.57456
 31
0.0
  0
LINE
  5
E22A
  8
ALPHA
 10
32.533494
 20
52.149559
 30
0.0
 11
32.533494
 21
52.299561
 31
0.0
  0
LINE
  5
E22B
  8
ALPHA
 10
34.703706
 20
50.274559
 30
0.0
 11
34.448387
 21
50.274559
 31
0.0
  0
LINE
  5
E22C
  8
ALPHA
 10
34.512217
 20
49.899559
 30
0.0
 11
34.639876
 21
49.899559
 31
0.0
  0
LINE
  5
E22D
  8
ALPHA
 10
34.320727
 20
49.82456
 30
0.0
 11
34.512217
 21
49.899559
 31
0.0
  0
LINE
  5
E22E
  8
ALPHA
 10
34.448387
 20
50.274559
 30
0.0
 11
34.129238
 21
50.124559
 31
0.0
  0
LINE
  5
E22F
  8
ALPHA
 10
34.129238
 20
49.674561
 30
0.0
 11
34.320727
 21
49.82456
 31
0.0
  0
LINE
  5
E230
  8
ALPHA
 10
34.129238
 20
50.124559
 30
0.0
 11
33.873919
 21
49.899559
 31
0.0
  0
LINE
  5
E231
  8
ALPHA
 10
34.001579
 20
49.44956
 30
0.0
 11
34.129238
 21
49.674561
 31
0.0
  0
LINE
  5
E232
  8
ALPHA
 10
33.873919
 20
49.899559
 30
0.0
 11
33.68243
 21
49.524559
 31
0.0
  0
LINE
  5
E233
  8
ALPHA
 10
33.937749
 20
49.149559
 30
0.0
 11
34.001579
 21
49.44956
 31
0.0
  0
LINE
  5
E234
  8
ALPHA
 10
33.68243
 20
49.524559
 30
0.0
 11
33.6186
 21
49.149559
 31
0.0
  0
LINE
  5
E235
  8
ALPHA
 10
34.193068
 20
47.57456
 30
0.0
 11
34.193068
 21
48.09956
 31
0.0
  0
LINE
  5
E236
  8
ALPHA
 10
33.937749
 20
48.69956
 30
0.0
 11
33.937749
 21
49.149559
 31
0.0
  0
LINE
  5
E237
  8
ALPHA
 10
33.6186
 20
49.149559
 30
0.0
 11
33.6186
 21
48.69956
 31
0.0
  0
LINE
  5
E238
  8
ALPHA
 10
33.6186
 20
48.69956
 30
0.0
 11
33.68243
 21
48.32456
 31
0.0
  0
LINE
  5
E239
  8
ALPHA
 10
34.001579
 20
48.399559
 30
0.0
 11
33.937749
 21
48.69956
 31
0.0
  0
LINE
  5
E23A
  8
ALPHA
 10
32.852643
 20
47.94956
 30
0.0
 11
32.852643
 21
50.124559
 31
0.0
  0
LINE
  5
E23B
  8
ALPHA
 10
33.68243
 20
48.32456
 30
0.0
 11
33.873919
 21
47.94956
 31
0.0
  0
LINE
  5
E23C
  8
ALPHA
 10
34.193068
 20
48.09956
 30
0.0
 11
34.001579
 21
48.399559
 31
0.0
  0
LINE
  5
E23D
  8
ALPHA
 10
33.873919
 20
47.94956
 30
0.0
 11
32.852643
 21
47.94956
 31
0.0
  0
LINE
  5
E23E
  8
ALPHA
 10
34.767536
 20
47.57456
 30
0.0
 11
35.022855
 21
47.72456
 31
0.0
  0
LINE
  5
E23F
  8
ALPHA
 10
35.022855
 20
48.174561
 30
0.0
 11
34.767536
 21
48.024559
 31
0.0
  0
LINE
  5
E240
  8
ALPHA
 10
35.022855
 20
47.72456
 30
0.0
 11
35.278174
 21
47.94956
 31
0.0
  0
LINE
  5
E241
  8
ALPHA
 10
35.150515
 20
48.399559
 30
0.0
 11
35.022855
 21
48.174561
 31
0.0
  0
LINE
  5
E242
  8
ALPHA
 10
35.278174
 20
47.94956
 30
0.0
 11
35.469664
 21
48.32456
 31
0.0
  0
LINE
  5
E243
  8
ALPHA
 10
35.214344
 20
48.69956
 30
0.0
 11
35.150515
 21
48.399559
 31
0.0
  0
LINE
  5
E244
  8
ALPHA
 10
35.469664
 20
48.32456
 30
0.0
 11
35.533494
 21
48.69956
 31
0.0
  0
LINE
  5
E245
  8
ALPHA
 10
35.533494
 20
49.149559
 30
0.0
 11
35.469664
 21
49.524559
 31
0.0
  0
LINE
  5
E246
  8
ALPHA
 10
35.533494
 20
48.69956
 30
0.0
 11
35.533494
 21
49.149559
 31
0.0
  0
LINE
  5
E247
  8
ALPHA
 10
35.214344
 20
49.149559
 30
0.0
 11
35.214344
 21
48.69956
 31
0.0
  0
LINE
  5
E248
  8
ALPHA
 10
34.767536
 20
48.024559
 30
0.0
 11
34.767536
 21
47.57456
 31
0.0
  0
LINE
  5
E249
  8
ALPHA
 10
35.150515
 20
49.44956
 30
0.0
 11
35.214344
 21
49.149559
 31
0.0
  0
LINE
  5
E24A
  8
ALPHA
 10
35.469664
 20
49.524559
 30
0.0
 11
35.278174
 21
49.899559
 31
0.0
  0
LINE
  5
E24B
  8
ALPHA
 10
35.022855
 20
49.674561
 30
0.0
 11
35.150515
 21
49.44956
 31
0.0
  0
LINE
  5
E24C
  8
ALPHA
 10
35.278174
 20
49.899559
 30
0.0
 11
35.022855
 21
50.124559
 31
0.0
  0
LINE
  5
E24D
  8
ALPHA
 10
34.831366
 20
49.82456
 30
0.0
 11
35.022855
 21
49.674561
 31
0.0
  0
LINE
  5
E24E
  8
ALPHA
 10
35.022855
 20
50.124559
 30
0.0
 11
34.703706
 21
50.274559
 31
0.0
  0
LINE
  5
E24F
  8
ALPHA
 10
34.639876
 20
49.899559
 30
0.0
 11
34.831366
 21
49.82456
 31
0.0
  0
LINE
  5
E250
  8
ALPHA
 10
34.576047
 20
53.57456
 30
0.0
 11
34.831366
 21
53.57456
 31
0.0
  0
LINE
  5
E251
  8
ALPHA
 10
34.831366
 20
53.19956
 30
0.0
 11
34.576047
 21
53.19956
 31
0.0
  0
LINE
  5
E252
  8
ALPHA
 10
34.576047
 20
53.19956
 30
0.0
 11
34.320727
 21
53.049561
 31
0.0
  0
LINE
  5
E253
  8
ALPHA
 10
34.129238
 20
53.34956
 30
0.0
 11
34.320727
 21
53.499559
 31
0.0
  0
LINE
  5
E254
  8
ALPHA
 10
33.235621
 20
53.124559
 30
0.0
 11
33.044132
 21
52.97456
 31
0.0
  0
LINE
  5
E255
  8
ALPHA
 10
32.724983
 20
53.124559
 30
0.0
 11
32.980302
 21
53.424561
 31
0.0
  0
LINE
  5
E256
  8
ALPHA
 10
34.320727
 20
53.049561
 30
0.0
 11
34.193068
 21
52.82456
 31
0.0
  0
LINE
  5
E257
  8
ALPHA
 10
33.044132
 20
52.97456
 30
0.0
 11
32.916472
 21
52.749559
 31
0.0
  0
LINE
  5
E258
  8
ALPHA
 10
32.597323
 20
52.82456
 30
0.0
 11
32.724983
 21
53.124559
 31
0.0
  0
LINE
  5
E259
  8
ALPHA
 10
34.001579
 20
52.97456
 30
0.0
 11
34.129238
 21
53.34956
 31
0.0
  0
LINE
  5
E25A
  8
ALPHA
 10
34.193068
 20
52.82456
 30
0.0
 11
34.129238
 21
52.374559
 31
0.0
  0
LINE
  5
E25B
  8
ALPHA
 10
34.129238
 20
52.374559
 30
0.0
 11
34.129238
 21
52.07456
 31
0.0
  0
LINE
  5
E25C
  8
ALPHA
 10
33.873919
 20
52.07456
 30
0.0
 11
33.873919
 21
52.374559
 31
0.0
  0
LINE
  5
E25D
  8
ALPHA
 10
32.852643
 20
52.07456
 30
0.0
 11
32.916472
 21
51.69956
 31
0.0
  0
LINE
  5
E25E
  8
ALPHA
 10
33.873919
 20
52.374559
 30
0.0
 11
33.74626
 21
52.82456
 31
0.0
  0
LINE
  5
E25F
  8
ALPHA
 10
34.320727
 20
53.499559
 30
0.0
 11
34.576047
 21
53.57456
 31
0.0
  0
LINE
  5
E260
  8
ALPHA
 10
32.980302
 20
53.424561
 30
0.0
 11
33.235621
 21
53.499559
 31
0.0
  0
LINE
  5
E261
  8
ALPHA
 10
32.916472
 20
52.749559
 30
0.0
 11
32.852643
 21
52.374559
 31
0.0
  0
LINE
  5
E262
  8
ALPHA
 10
33.235621
 20
51.32456
 30
0.0
 11
33.235621
 21
50.94956
 31
0.0
  0
LINE
  5
E263
  8
ALPHA
 10
32.852643
 20
52.374559
 30
0.0
 11
32.852643
 21
52.07456
 31
0.0
  0
LINE
  5
E264
  8
ALPHA
 10
32.724983
 20
51.32456
 30
0.0
 11
32.597323
 21
51.624559
 31
0.0
  0
LINE
  5
E265
  8
ALPHA
 10
32.916472
 20
51.69956
 30
0.0
 11
33.044132
 21
51.47456
 31
0.0
  0
LINE
  5
E266
  8
ALPHA
 10
33.810089
 20
53.274559
 30
0.0
 11
34.001579
 21
52.97456
 31
0.0
  0
LINE
  5
E267
  8
ALPHA
 10
33.74626
 20
52.82456
 30
0.0
 11
33.6186
 21
52.97456
 31
0.0
  0
LINE
  5
E268
  8
ALPHA
 10
33.6186
 20
53.424561
 30
0.0
 11
33.810089
 21
53.274559
 31
0.0
  0
LINE
  5
E269
  8
ALPHA
 10
32.980302
 20
51.024559
 30
0.0
 11
32.724983
 21
51.32456
 31
0.0
  0
LINE
  5
E26A
  8
ALPHA
 10
33.044132
 20
51.47456
 30
0.0
 11
33.235621
 21
51.32456
 31
0.0
  0
LINE
  5
E26B
  8
ALPHA
 10
33.6186
 20
52.97456
 30
0.0
 11
33.363281
 21
53.124559
 31
0.0
  0
LINE
  5
E26C
  8
ALPHA
 10
33.363281
 20
53.499559
 30
0.0
 11
33.6186
 21
53.424561
 31
0.0
  0
LINE
  5
E26D
  8
ALPHA
 10
33.235621
 20
50.94956
 30
0.0
 11
32.980302
 21
51.024559
 31
0.0
  0
LINE
  5
E26E
  8
ALPHA
 10
33.235621
 20
53.499559
 30
0.0
 11
33.363281
 21
53.499559
 31
0.0
  0
LINE
  5
E26F
  8
ALPHA
 10
33.363281
 20
53.124559
 30
0.0
 11
33.235621
 21
53.124559
 31
0.0
  0
LINE
  5
E270
  8
ALPHA
 10
34.129238
 20
52.07456
 30
0.0
 11
33.873919
 21
52.07456
 31
0.0
  0
LINE
  5
E271
  8
ALPHA
 10
35.022855
 20
50.94956
 30
0.0
 11
34.831366
 21
50.874559
 31
0.0
  0
LINE
  5
E272
  8
ALPHA
 10
34.831366
 20
51.249559
 30
0.0
 11
34.959025
 21
51.32456
 31
0.0
  0
LINE
  5
E273
  8
ALPHA
 10
35.214344
 20
51.09956
 30
0.0
 11
35.022855
 21
50.94956
 31
0.0
  0
LINE
  5
E274
  8
ALPHA
 10
34.959025
 20
51.32456
 30
0.0
 11
35.086685
 21
51.47456
 31
0.0
  0
LINE
  5
E275
  8
ALPHA
 10
35.342004
 20
51.32456
 30
0.0
 11
35.214344
 21
51.09956
 31
0.0
  0
LINE
  5
E276
  8
ALPHA
 10
35.469664
 20
51.624559
 30
0.0
 11
35.342004
 21
51.32456
 31
0.0
  0
LINE
  5
E277
  8
ALPHA
 10
35.086685
 20
51.47456
 30
0.0
 11
35.150515
 21
51.624559
 31
0.0
  0
LINE
  5
E278
  8
ALPHA
 10
35.533494
 20
51.924561
 30
0.0
 11
35.469664
 21
51.624559
 31
0.0
  0
LINE
  5
E279
  8
ALPHA
 10
35.214344
 20
52.44956
 30
0.0
 11
35.150515
 21
52.82456
 31
0.0
  0
LINE
  5
E27A
  8
ALPHA
 10
35.469664
 20
52.82456
 30
0.0
 11
35.533494
 21
52.524559
 31
0.0
  0
LINE
  5
E27B
  8
ALPHA
 10
35.150515
 20
51.624559
 30
0.0
 11
35.214344
 21
51.999559
 31
0.0
  0
LINE
  5
E27C
  8
ALPHA
 10
35.533494
 20
52.524559
 30
0.0
 11
35.533494
 21
51.924561
 31
0.0
  0
LINE
  5
E27D
  8
ALPHA
 10
35.214344
 20
51.999559
 30
0.0
 11
35.214344
 21
52.44956
 31
0.0
  0
LINE
  5
E27E
  8
ALPHA
 10
34.831366
 20
50.874559
 30
0.0
 11
34.831366
 21
51.249559
 31
0.0
  0
LINE
  5
E27F
  8
ALPHA
 10
35.342004
 20
53.124559
 30
0.0
 11
35.469664
 21
52.82456
 31
0.0
  0
LINE
  5
E280
  8
ALPHA
 10
35.150515
 20
52.82456
 30
0.0
 11
35.086685
 21
52.97456
 31
0.0
  0
LINE
  5
E281
  8
ALPHA
 10
35.214344
 20
53.34956
 30
0.0
 11
35.342004
 21
53.124559
 31
0.0
  0
LINE
  5
E282
  8
ALPHA
 10
35.086685
 20
52.97456
 30
0.0
 11
34.959025
 21
53.124559
 31
0.0
  0
LINE
  5
E283
  8
ALPHA
 10
35.022855
 20
53.499559
 30
0.0
 11
35.214344
 21
53.34956
 31
0.0
  0
LINE
  5
E284
  8
ALPHA
 10
34.959025
 20
53.124559
 30
0.0
 11
34.831366
 21
53.19956
 31
0.0
  0
LINE
  5
E285
  8
ALPHA
 10
34.831366
 20
53.57456
 30
0.0
 11
35.022855
 21
53.499559
 31
0.0
  0
LINE
  5
E286
  8
ALPHA
 10
30.583493
 20
61.02243
 30
0.0
 11
30.433494
 21
61.213921
 31
0.0
  0
LINE
  5
E287
  8
ALPHA
 10
30.358494
 20
61.660728
 30
0.0
 11
30.658494
 21
61.53307
 31
0.0
  0
LINE
  5
E288
  8
ALPHA
 10
28.933493
 20
59.043709
 30
0.0
 11
31.033494
 21
59.043709
 31
0.0
  0
LINE
  5
E289
  8
ALPHA
 10
30.808494
 20
60.447964
 30
0.0
 11
28.933493
 21
59.043709
 31
0.0
  0
LINE
  5
E28A
  8
ALPHA
 10
30.433494
 20
60.639454
 30
0.0
 11
30.583493
 21
60.894772
 31
0.0
  0
LINE
  5
E28B
  8
ALPHA
 10
30.433494
 20
61.213921
 30
0.0
 11
30.208493
 21
61.341579
 31
0.0
  0
LINE
  5
E28C
  8
ALPHA
 10
30.208493
 20
61.341579
 30
0.0
 11
29.833493
 21
61.405411
 31
0.0
  0
LINE
  5
E28D
  8
ALPHA
 10
29.908494
 20
61.72456
 30
0.0
 11
30.358494
 21
61.660728
 31
0.0
  0
LINE
  5
E28E
  8
ALPHA
 10
29.608494
 20
61.72456
 30
0.0
 11
29.908494
 21
61.72456
 31
0.0
  0
LINE
  5
E28F
  8
ALPHA
 10
29.833493
 20
61.405411
 30
0.0
 11
29.533494
 21
61.405411
 31
0.0
  0
LINE
  5
E290
  8
ALPHA
 10
29.083493
 20
61.660728
 30
0.0
 11
29.608494
 21
61.72456
 31
0.0
  0
LINE
  5
E291
  8
ALPHA
 10
29.533494
 20
61.405411
 30
0.0
 11
29.158494
 21
61.341579
 31
0.0
  0
LINE
  5
E292
  8
ALPHA
 10
28.933493
 20
61.213921
 30
0.0
 11
28.783494
 21
61.02243
 31
0.0
  0
LINE
  5
E293
  8
ALPHA
 10
28.783494
 20
61.53307
 30
0.0
 11
29.083493
 21
61.660728
 31
0.0
  0
LINE
  5
E294
  8
ALPHA
 10
29.158494
 20
61.341579
 30
0.0
 11
28.933493
 21
61.213921
 31
0.0
  0
LINE
  5
E295
  8
ALPHA
 10
28.483493
 20
61.277752
 30
0.0
 11
28.783494
 21
61.53307
 31
0.0
  0
LINE
  5
E296
  8
ALPHA
 10
30.958493
 20
61.277752
 30
0.0
 11
31.033494
 21
61.02243
 31
0.0
  0
LINE
  5
E297
  8
ALPHA
 10
30.658494
 20
61.53307
 30
0.0
 11
30.958493
 21
61.277752
 31
0.0
  0
LINE
  5
E298
  8
ALPHA
 10
31.033494
 20
59.043709
 30
0.0
 11
31.033494
 21
58.72456
 31
0.0
  0
LINE
  5
E299
  8
ALPHA
 10
31.033494
 20
61.02243
 30
0.0
 11
31.033494
 21
60.894772
 31
0.0
  0
LINE
  5
E29A
  8
ALPHA
 10
31.033494
 20
60.894772
 30
0.0
 11
30.958493
 21
60.639454
 31
0.0
  0
LINE
  5
E29B
  8
ALPHA
 10
30.583493
 20
60.894772
 30
0.0
 11
30.583493
 21
61.02243
 31
0.0
  0
LINE
  5
E29C
  8
ALPHA
 10
30.958493
 20
60.639454
 30
0.0
 11
30.808494
 21
60.447964
 31
0.0
  0
LINE
  5
E29D
  8
ALPHA
 10
30.508493
 20
66.469242
 30
0.0
 11
30.133493
 21
66.660728
 31
0.0
  0
LINE
  5
E29E
  8
ALPHA
 10
30.583493
 20
65.830944
 30
0.0
 11
30.283494
 21
66.213921
 31
0.0
  0
LINE
  5
E29F
  8
ALPHA
 10
30.283494
 20
64.235199
 30
0.0
 11
30.583493
 21
64.618176
 31
0.0
  0
LINE
  5
E2A0
  8
ALPHA
 10
30.133493
 20
63.788391
 30
0.0
 11
30.508493
 21
63.979878
 31
0.0
  0
LINE
  5
E2A1
  8
ALPHA
 10
30.283494
 20
66.213921
 30
0.0
 11
30.058494
 21
66.341579
 31
0.0
  0
LINE
  5
E2A2
  8
ALPHA
 10
30.058494
 20
66.341579
 30
0.0
 11
29.683493
 21
66.405411
 31
0.0
  0
LINE
  5
E2A3
  8
ALPHA
 10
30.133493
 20
66.660728
 30
0.0
 11
29.683493
 21
66.72456
 31
0.0
  0
LINE
  5
E2A4
  8
ALPHA
 10
29.683493
 20
66.72456
 30
0.0
 11
29.233494
 21
66.660728
 31
0.0
  0
LINE
  5
E2A5
  8
ALPHA
 10
29.683493
 20
66.405411
 30
0.0
 11
29.308493
 21
66.341579
 31
0.0
  0
LINE
  5
E2A6
  8
ALPHA
 10
28.633494
 20
64.171368
 30
0.0
 11
28.858493
 21
63.979878
 31
0.0
  0
LINE
  5
E2A7
  8
ALPHA
 10
29.083493
 20
64.235199
 30
0.0
 11
29.308493
 21
64.10754
 31
0.0
  0
LINE
  5
E2A8
  8
ALPHA
 10
28.858493
 20
63.979878
 30
0.0
 11
29.233494
 21
63.788391
 31
0.0
  0
LINE
  5
E2A9
  8
ALPHA
 10
29.308493
 20
64.10754
 30
0.0
 11
29.683493
 21
64.043709
 31
0.0
  0
LINE
  5
E2AA
  8
ALPHA
 10
29.233494
 20
63.788391
 30
0.0
 11
29.683493
 21
63.72456
 31
0.0
  0
LINE
  5
E2AB
  8
ALPHA
 10
29.683493
 20
63.72456
 30
0.0
 11
30.133493
 21
63.788391
 31
0.0
  0
LINE
  5
E2AC
  8
ALPHA
 10
29.683493
 20
64.043709
 30
0.0
 11
30.058494
 21
64.10754
 31
0.0
  0
LINE
  5
E2AD
  8
ALPHA
 10
28.483493
 20
64.426689
 30
0.0
 11
28.633494
 21
64.171368
 31
0.0
  0
LINE
  5
E2AE
  8
ALPHA
 10
28.783494
 20
64.618176
 30
0.0
 11
29.083493
 21
64.235199
 31
0.0
  0
LINE
  5
E2AF
  8
ALPHA
 10
28.708494
 20
65.001156
 30
0.0
 11
28.783494
 21
64.618176
 31
0.0
  0
LINE
  5
E2B0
  8
ALPHA
 10
28.708494
 20
65.447964
 30
0.0
 11
28.708494
 21
65.001156
 31
0.0
  0
LINE
  5
E2B1
  8
ALPHA
 10
28.783494
 20
65.830944
 30
0.0
 11
28.708494
 21
65.447964
 31
0.0
  0
LINE
  5
E2B2
  8
ALPHA
 10
29.083493
 20
66.213921
 30
0.0
 11
28.783494
 21
65.830944
 31
0.0
  0
LINE
  5
E2B3
  8
ALPHA
 10
28.633494
 20
66.277752
 30
0.0
 11
28.483493
 21
66.02243
 31
0.0
  0
LINE
  5
E2B4
  8
ALPHA
 10
30.058494
 20
64.10754
 30
0.0
 11
30.283494
 21
64.235199
 31
0.0
  0
LINE
  5
E2B5
  8
ALPHA
 10
28.858493
 20
66.469242
 30
0.0
 11
28.633494
 21
66.277752
 31
0.0
  0
LINE
  5
E2B6
  8
ALPHA
 10
29.233494
 20
66.660728
 30
0.0
 11
28.858493
 21
66.469242
 31
0.0
  0
LINE
  5
E2B7
  8
ALPHA
 10
29.308493
 20
66.341579
 30
0.0
 11
29.083493
 21
66.213921
 31
0.0
  0
LINE
  5
E2B8
  8
ALPHA
 10
30.733494
 20
66.277752
 30
0.0
 11
30.508493
 21
66.469242
 31
0.0
  0
LINE
  5
E2B9
  8
ALPHA
 10
30.958493
 20
65.830944
 30
0.0
 11
30.883493
 21
66.02243
 31
0.0
  0
LINE
  5
E2BA
  8
ALPHA
 10
30.883493
 20
66.02243
 30
0.0
 11
30.733494
 21
66.277752
 31
0.0
  0
LINE
  5
E2BB
  8
ALPHA
 10
30.658494
 20
65.447964
 30
0.0
 11
30.583493
 21
65.830944
 31
0.0
  0
LINE
  5
E2BC
  8
ALPHA
 10
31.033494
 20
65.511795
 30
0.0
 11
30.958493
 21
65.830944
 31
0.0
  0
LINE
  5
E2BD
  8
ALPHA
 10
31.033494
 20
64.937325
 30
0.0
 11
31.033494
 21
65.511795
 31
0.0
  0
LINE
  5
E2BE
  8
ALPHA
 10
30.958493
 20
64.618176
 30
0.0
 11
31.033494
 21
64.937325
 31
0.0
  0
LINE
  5
E2BF
  8
ALPHA
 10
30.583493
 20
64.618176
 30
0.0
 11
30.658494
 21
65.001156
 31
0.0
  0
LINE
  5
E2C0
  8
ALPHA
 10
30.658494
 20
65.001156
 30
0.0
 11
30.658494
 21
65.447964
 31
0.0
  0
LINE
  5
E2C1
  8
ALPHA
 10
30.733494
 20
64.171368
 30
0.0
 11
30.883493
 21
64.426689
 31
0.0
  0
LINE
  5
E2C2
  8
ALPHA
 10
30.883493
 20
64.426689
 30
0.0
 11
30.958493
 21
64.618176
 31
0.0
  0
LINE
  5
E2C3
  8
ALPHA
 10
30.508493
 20
63.979878
 30
0.0
 11
30.733494
 21
64.171368
 31
0.0
  0
LINE
  5
E2C4
  8
ALPHA
 10
34.033494
 20
60.12456
 30
0.0
 11
34.033494
 21
64.22456
 31
0.0
  0
LINE
  5
E2C5
  8
ALPHA
 10
39.033494
 20
61.72456
 30
0.0
 11
39.033494
 21
58.72456
 31
0.0
  0
LINE
  5
E2C6
  8
ALPHA
 10
38.033494
 20
66.72456
 30
0.0
 11
38.033494
 21
63.72456
 31
0.0
  0
ARC
  5
E2C7
  8
ALPHA
 10
28.033494
 20
30.37456
 30
0.0
 40
44.1
 50
71.28626
 51
79.475287
  0
ARC
  5
E2C8
  8
ALPHA
 10
28.033494
 20
30.37456
 30
0.0
 40
44.278901
 50
71.60741
 51
79.283603
  0
ARC
  5
E2C9
  8
ALPHA
 10
38.033494
 20
78.72456
 30
0.0
 40
2.1
 50
121.588136
 51
270.0
  0
ARC
  5
E2CA
  8
ALPHA
 10
28.033494
 20
29.545075
 30
0.0
 40
44.0
 50
69.373612
 51
83.475021
  0
LINE
  5
E2CB
  8
ALPHA
 10
28.938776
 20
86.17456
 30
0.0
 11
38.851682
 21
86.17456
 31
0.0
  0
LINE
  5
E2CC
  8
ALPHA
 10
35.379904
 20
85.57456
 30
0.0
 11
38.533494
 21
85.57456
 31
0.0
  0
LINE
  5
E2CD
  8
ALPHA
 10
35.362872
 20
85.539552
 30
0.0
 11
37.533494
 21
85.539552
 31
0.0
  0
LINE
  5
E2CE
  8
ALPHA
 10
33.733494
 20
84.97456
 30
0.0
 11
37.533494
 21
84.97456
 31
0.0
  0
LINE
  5
E2CF
  8
ALPHA
 10
36.445647
 20
84.907631
 30
0.0
 11
37.633494
 21
84.907631
 31
0.0
  0
LINE
  5
E2D0
  8
ALPHA
 10
37.383494
 20
84.87456
 30
0.0
 11
36.466506
 21
84.87456
 31
0.0
  0
LINE
  5
E2D1
  8
ALPHA
 10
37.383494
 20
83.37456
 30
0.0
 11
35.783494
 21
83.37456
 31
0.0
  0
LINE
  5
E2D2
  8
ALPHA
 10
35.033494
 20
83.156372
 30
0.0
 11
37.651865
 21
83.156372
 31
0.0
  0
LINE
  5
E2D3
  8
ALPHA
 10
36.933494
 20
80.72456
 30
0.0
 11
35.033494
 21
80.72456
 31
0.0
  0
LINE
  5
E2D4
  8
ALPHA
 10
36.123486
 20
75.52456
 30
0.0
 11
37.633501
 21
75.52456
 31
0.0
  0
LINE
  5
E2D5
  8
ALPHA
 10
36.302387
 20
75.345659
 30
0.0
 11
39.033494
 21
75.345659
 31
0.0
  0
LINE
  5
E2D6
  8
ALPHA
 10
35.033494
 20
74.266078
 30
0.0
 11
35.033494
 21
83.156372
 31
0.0
  0
LINE
  5
E2D7
  8
ALPHA
 10
34.912555
 20
74.406653
 30
0.0
 11
34.912555
 21
81.753667
 31
0.0
  0
LINE
  5
E2D8
  8
ALPHA
 10
34.559043
 20
74.406653
 30
0.0
 11
34.559043
 21
81.753667
 31
0.0
  0
LINE
  5
E2D9
  8
ALPHA
 10
28.880676
 20
81.807459
 30
0.0
 11
28.880676
 21
74.831143
 31
0.0
  0
LINE
  5
E2DA
  8
ALPHA
 10
28.70064
 20
81.807459
 30
0.0
 11
28.70064
 21
74.831143
 31
0.0
  0
LINE
  5
E2DB
  8
ALPHA
 10
28.63873
 20
74.770524
 30
0.0
 11
28.63873
 21
81.869369
 31
0.0
  0
ARC
  5
E2DC
  8
ALPHA
 10
28.033494
 20
30.37456
 30
0.0
 40
44.105237
 50
83.490657
 51
88.831961
  0
POLYLINE
  5
E2DD
  8
ALPHA
 66
     1
 10
0.0
 20
0.0
 30
0.0
  0
VERTEX
  5
F000
  8
ALPHA
 10
28.976414
 20
74.731359
 30
0.0
  0
VERTEX
  5
F001
  8
ALPHA
 10
30.23303
 20
74.68894
 30
0.0
  0
VERTEX
  5
F002
  8
ALPHA
 10
31.456624
 20
74.615257
 30
0.0
  0
VERTEX
  5
F003
  8
ALPHA
 10
32.603768
 20
74.517577
 30
0.0
  0
VERTEX
  5
F004
  8
ALPHA
 10
33.61502
 20
74.409211
 30
0.0
  0
VERTEX
  5
F005
  8
ALPHA
 10
34.449167
 20
74.305092
 30
0.0
  0
SEQEND
  5
F006
  8
ALPHA
  0
POLYLINE
  5
E2DE
  8
ALPHA
 66
     1
 10
0.0
 20
0.0
 30
0.0
  0
VERTEX
  5
F007
  8
ALPHA
 10
28.99425
 20
74.531437
 30
0.0
  0
VERTEX
  5
F008
  8
ALPHA
 10
30.275045
 20
74.489212
 30
0.0
  0
VERTEX
  5
F009
  8
ALPHA
 10
31.522531
 20
74.41583
 30
0.0
  0
VERTEX
  5
F00A
  8
ALPHA
 10
32.692132
 20
74.318542
 30
0.0
  0
VERTEX
  5
F00B
  8
ALPHA
 10
33.722561
 20
74.210684
 30
0.0
  0
VERTEX
  5
F00C
  8
ALPHA
 10
34.570561
 20
74.10732
 30
0.0
  0
SEQEND
  5
F00D
  8
ALPHA
  0
LINE
  5
E2DF
  8
ALPHA
 10
30.408494
 20
70.501156
 30
0.0
 11
31.033494
 21
70.501156
 31
0.0
  0
LINE
  5
E2E0
  8
ALPHA
 10
31.033494
 20
70.118176
 30
0.0
 11
30.408494
 21
70.118176
 31
0.0
  0
LINE
  5
E2E1
  8
ALPHA
 10
30.033494
 20
72.22456
 30
0.0
 11
30.408494
 21
72.22456
 31
0.0
  0
LINE
  5
E2E2
  8
ALPHA
 10
30.033494
 20
70.501156
 30
0.0
 11
28.970994
 21
70.501156
 31
0.0
  0
LINE
  5
E2E3
  8
ALPHA
 10
30.033494
 20
70.118176
 30
0.0
 11
28.533494
 21
70.118176
 31
0.0
  0
LINE
  5
E2E4
  8
ALPHA
 10
30.408494
 20
69.22456
 30
0.0
 11
30.033494
 21
69.22456
 31
0.0
  0
LINE
  5
E2E5
  8
ALPHA
 10
30.408494
 20
70.118176
 30
0.0
 11
30.408494
 21
69.22456
 31
0.0
  0
LINE
  5
E2E6
  8
ALPHA
 10
30.408494
 20
72.22456
 30
0.0
 11
30.408494
 21
70.501156
 31
0.0
  0
LINE
  5
E2E7
  8
ALPHA
 10
30.033494
 20
69.22456
 30
0.0
 11
30.033494
 21
70.118176
 31
0.0
  0
LINE
  5
E2E8
  8
ALPHA
 10
30.033494
 20
71.713921
 30
0.0
 11
30.033494
 21
70.501156
 31
0.0
  0
LINE
  5
E2E9
  8
ALPHA
 10
28.533494
 20
70.118176
 30
0.0
 11
28.533494
 21
70.501156
 31
0.0
  0
LINE
  5
E2EA
  8
ALPHA
 10
28.970994
 20
70.501156
 30
0.0
 11
30.033494
 21
71.713921
 31
0.0
  0
LINE
  5
E2EB
  8
ALPHA
 10
28.533494
 20
70.501156
 30
0.0
 11
30.033494
 21
72.22456
 31
0.0
  0
LINE
  5
E2EC
  8
ALPHA
 10
31.033494
 20
70.501156
 30
0.0
 11
31.033494
 21
70.118176
 31
0.0
  0
POLYLINE
  5
E2ED
  8
ALPHA
 66
     1
 10
0.0
 20
0.0
 30
0.0
  0
VERTEX
  5
F00E
  8
ALPHA
 10
28.932566
 20
74.470632
 30
0.0
  0
VERTEX
  5
F00F
  8
ALPHA
 10
28.819671
 20
74.495186
 30
0.0
  0
VERTEX
  5
F010
  8
ALPHA
 10
28.724428
 20
74.560592
 30
0.0
  0
VERTEX
  5
F011
  8
ALPHA
 10
28.660978
 20
74.657147
 30
0.0
  0
VERTEX
  5
F012
  8
ALPHA
 10
28.63873
 20
74.770524
 30
0.0
  0
SEQEND
  5
F013
  8
ALPHA
  0
LINE
  5
E2EE
  8
ALPHA
 10
28.70064
 20
74.831143
 30
0.0
 11
28.880676
 21
74.831143
 31
0.0
  0
POLYLINE
  5
E2EF
  8
ALPHA
 66
     1
 10
0.0
 20
0.0
 30
0.0
  0
VERTEX
  5
F014
  8
ALPHA
 10
28.99425
 20
74.531429
 30
0.0
  0
VERTEX
  5
F015
  8
ALPHA
 10
28.983892
 20
74.559509
 30
0.0
  0
VERTEX
  5
F016
  8
ALPHA
 10
28.977378
 20
74.632514
 30
0.0
  0
VERTEX
  5
F017
  8
ALPHA
 10
28.976413
 20
74.731359
 30
0.0
  0
SEQEND
  5
F018
  8
ALPHA
  0
POLYLINE
  5
E2F0
  8
ALPHA
 66
     1
 10
0.0
 20
0.0
 30
0.0
  0
VERTEX
  5
F019
  8
ALPHA
 10
28.880676
 20
74.831143
 30
0.0
  0
VERTEX
  5
F01A
  8
ALPHA
 10
28.885178
 20
74.801179
 30
0.0
  0
VERTEX
  5
F01B
  8
ALPHA
 10
28.89907
 20
74.77282
 30
0.0
  0
VERTEX
  5
F01C
  8
ALPHA
 10
28.921116
 20
74.750249
 30
0.0
  0
VERTEX
  5
F01D
  8
ALPHA
 10
28.94822
 20
74.736202
 30
0.0
  0
VERTEX
  5
F01E
  8
ALPHA
 10
28.976414
 20
74.731359
 30
0.0
  0
SEQEND
  5
F01F
  8
ALPHA
  0
POLYLINE
  5
E2F1
  8
ALPHA
 66
     1
 10
0.0
 20
0.0
 30
0.0
  0
VERTEX
  5
F020
  8
ALPHA
 10
28.700646
 20
74.831143
 30
0.0
  0
VERTEX
  5
F021
  8
ALPHA
 10
28.714521
 20
74.741072
 30
0.0
  0
VERTEX
  5
F022
  8
ALPHA
 10
28.75719
 20
74.655976
 30
0.0
  0
VERTEX
  5
F023
  8
ALPHA
 10
28.824657
 20
74.588363
 30
0.0
  0
VERTEX
  5
F024
  8
ALPHA
 10
28.907692
 20
74.546125
 30
0.0
  0
VERTEX
  5
F025
  8
ALPHA
 10
28.994251
 20
74.53144
 30
0.0
  0
SEQEND
  5
F026
  8
ALPHA
  0
LINE
  5
E2F2
  8
ALPHA
 10
28.70064
 20
74.831143
 30
0.0
 11
28.63873
 21
74.770524
 31
0.0
  0
LINE
  5
E2F3
  8
ALPHA
 10
28.99425
 20
74.531437
 30
0.0
 11
28.93257
 21
74.470632
 31
0.0
  0
POLYLINE
  5
E2F4
  8
ALPHA
 66
     1
 10
0.0
 20
0.0
 30
0.0
  0
VERTEX
  5
F027
  8
ALPHA
 10
36.088782
 20
73.732631
 30
0.0
  0
VERTEX
  5
F028
  8
ALPHA
 10
36.009102
 20
73.767724
 30
0.0
  0
VERTEX
  5
F029
  8
ALPHA
 10
35.953442
 20
73.834678
 30
0.0
  0
VERTEX
  5
F02A
  8
ALPHA
 10
35.933494
 20
73.919427
 30
0.0
  0
SEQEND
  5
F02B
  8
ALPHA
  0
LINE
  5
E2F5
  8
ALPHA
 10
33.033494
 20
74.190196
 30
0.0
 11
33.033494
 21
73.260061
 31
0.0
  0
LINE
  5
E2F6
  8
ALPHA
 10
36.267058
 20
73.88122
 30
0.0
 11
36.088782
 21
73.732631
 31
0.0
  0
ARC
  5
E2F7
  8
ALPHA
 10
28.033494
 20
30.37456
 30
0.0
 40
44.1
 50
81.320792
 51
83.489881
  0
LINE
  5
E2F8
  8
ALPHA
 10
34.688275
 20
73.969558
 30
0.0
 11
34.570561
 21
74.10732
 31
0.0
  0
POLYLINE
  5
E2F9
  8
ALPHA
 66
     1
 10
0.0
 20
0.0
 30
0.0
  0
VERTEX
  5
F02C
  8
ALPHA
 10
34.570561
 20
74.10732
 30
0.0
  0
VERTEX
  5
F02D
  8
ALPHA
 10
34.636218
 20
74.105332
 30
0.0
  0
VERTEX
  5
F02E
  8
ALPHA
 10
34.705159
 20
74.119273
 30
0.0
  0
VERTEX
  5
F02F
  8
ALPHA
 10
34.771859
 20
74.150789
 30
0.0
  0
VERTEX
  5
F030
  8
ALPHA
 10
34.830877
 20
74.199693
 30
0.0
  0
VERTEX
  5
F031
  8
ALPHA
 10
34.876531
 20
74.263398
 30
0.0
  0
VERTEX
  5
F032
  8
ALPHA
 10
34.903987
 20
74.335411
 30
0.0
  0
VERTEX
  5
F033
  8
ALPHA
 10
34.912549
 20
74.406653
 30
0.0
  0
SEQEND
  5
F034
  8
ALPHA
  0
LINE
  5
E2FA
  8
ALPHA
 10
34.912555
 20
74.406653
 30
0.0
 11
34.559043
 21
74.406653
 31
0.0
  0
POLYLINE
  5
E2FB
  8
ALPHA
 66
     1
 10
0.0
 20
0.0
 30
0.0
  0
VERTEX
  5
F035
  8
ALPHA
 10
34.570561
 20
74.10732
 30
0.0
  0
VERTEX
  5
F036
  8
ALPHA
 10
34.505058
 20
74.141272
 30
0.0
  0
VERTEX
  5
F037
  8
ALPHA
 10
34.46126
 20
74.212626
 30
0.0
  0
VERTEX
  5
F038
  8
ALPHA
 10
34.449167
 20
74.305092
 30
0.0
  0
SEQEND
  5
F039
  8
ALPHA
  0
LINE
  5
E2FC
  8
ALPHA
 10
34.558199
 20
74.033518
 30
0.0
 11
33.130636
 21
74.272643
 31
0.0
  0
POLYLINE
  5
E2FD
  8
ALPHA
 66
     1
 10
0.0
 20
0.0
 30
0.0
  0
VERTEX
  5
F03A
  8
ALPHA
 10
34.449167
 20
74.305092
 30
0.0
  0
VERTEX
  5
F03B
  8
ALPHA
 10
34.470285
 20
74.304763
 30
0.0
  0
VERTEX
  5
F03C
  8
ALPHA
 10
34.492445
 20
74.309769
 30
0.0
  0
VERTEX
  5
F03D
  8
ALPHA
 10
34.513869
 20
74.320623
 30
0.0
  0
VERTEX
  5
F03E
  8
ALPHA
 10
34.532815
 20
74.337232
 30
0.0
  0
VERTEX
  5
F03F
  8
ALPHA
 10
34.547457
 20
74.358676
 30
0.0
  0
VERTEX
  5
F040
  8
ALPHA
 10
34.556295
 20
74.382803
 30
0.0
  0
VERTEX
  5
F041
  8
ALPHA
 10
34.559043
 20
74.406653
 30
0.0
  0
SEQEND
  5
F042
  8
ALPHA
  0
LINE
  5
E2FE
  8
ALPHA
 10
36.302387
 20
75.345659
 30
0.0
 11
36.123486
 21
75.52456
 31
0.0
  0
LINE
  5
E2FF
  8
ALPHA
 10
36.112394
 20
75.155666
 30
0.0
 11
35.933494
 21
75.334567
 31
0.0
  0
POLYLINE
  5
E300
  8
ALPHA
 66
     1
 10
0.0
 20
0.0
 30
0.0
  0
VERTEX
  5
F043
  8
ALPHA
 10
36.267058
 20
73.88122
 30
0.0
  0
VERTEX
  5
F044
  8
ALPHA
 10
36.187665
 20
73.916452
 30
0.0
  0
VERTEX
  5
F045
  8
ALPHA
 10
36.132249
 20
73.983339
 30
0.0
  0
VERTEX
  5
F046
  8
ALPHA
 10
36.112394
 20
74.067899
 30
0.0
  0
SEQEND
  5
F047
  8
ALPHA
  0
LINE
  5
E301
  8
ALPHA
 10
35.033494
 20
74.266078
 30
0.0
 11
34.912555
 21
74.406653
 31
0.0
  0
LINE
  5
E302
  8
ALPHA
 10
36.112394
 20
74.067899
 30
0.0
 11
36.112394
 21
75.155666
 31
0.0
  0
LINE
  5
E303
  8
ALPHA
 10
35.933494
 20
73.919427
 30
0.0
 11
35.933494
 21
75.334567
 31
0.0
  0
POLYLINE
  5
E304
  8
ALPHA
 66
     1
 10
0.0
 20
0.0
 30
0.0
  0
VERTEX
  5
F048
  8
ALPHA
 10
35.033494
 20
74.266078
 30
0.0
  0
VERTEX
  5
F049
  8
ALPHA
 10
35.006122
 20
74.140875
 30
0.0
  0
VERTEX
  5
F04A
  8
ALPHA
 10
34.92899
 20
74.038527
 30
0.0
  0
VERTEX
  5
F04B
  8
ALPHA
 10
34.816175
 20
73.977723
 30
0.0
  0
VERTEX
  5
F04C
  8
ALPHA
 10
34.688276
 20
73.969558
 30
0.0
  0
SEQEND
  5
F04D
  8
ALPHA
  0
POLYLINE
  5
E305
  8
ALPHA
 66
     1
 10
0.0
 20
0.0
 30
0.0
  0
VERTEX
  5
F04E
  8
ALPHA
 10
36.112394
 20
75.155666
 30
0.0
  0
VERTEX
  5
F04F
  8
ALPHA
 10
36.126897
 20
75.228474
 30
0.0
  0
VERTEX
  5
F050
  8
ALPHA
 10
36.168041
 20
75.290012
 30
0.0
  0
VERTEX
  5
F051
  8
ALPHA
 10
36.22958
 20
75.331156
 30
0.0
  0
VERTEX
  5
F052
  8
ALPHA
 10
36.302387
 20
75.345659
 30
0.0
  0
SEQEND
  5
F053
  8
ALPHA
  0
POLYLINE
  5
E306
  8
ALPHA
 66
     1
 10
0.0
 20
0.0
 30
0.0
  0
VERTEX
  5
F054
  8
ALPHA
 10
35.933494
 20
75.334567
 30
0.0
  0
VERTEX
  5
F055
  8
ALPHA
 10
35.947997
 20
75.407374
 30
0.0
  0
VERTEX
  5
F056
  8
ALPHA
 10
35.98914
 20
75.468913
 30
0.0
  0
VERTEX
  5
F057
  8
ALPHA
 10
36.050679
 20
75.510057
 30
0.0
  0
VERTEX
  5
F058
  8
ALPHA
 10
36.123486
 20
75.52456
 30
0.0
  0
SEQEND
  5
F059
  8
ALPHA
  0
LINE
  5
E307
  8
ALPHA
 10
36.112394
 20
74.067899
 30
0.0
 11
35.933494
 21
73.919427
 31
0.0
  0
LINE
  5
E308
  8
ALPHA
 10
36.033537
 20
88.72456
 30
0.0
 11
29.437517
 21
88.72456
 31
0.0
  0
POLYLINE
  5
E309
  8
ALPHA
 66
     1
 10
0.0
 20
0.0
 30
0.0
  0
VERTEX
  5
F05A
  8
ALPHA
 10
32.533494
 20
85.764225
 30
0.0
  0
VERTEX
  5
F05B
  8
ALPHA
 10
32.956254
 20
85.706832
 30
0.0
  0
VERTEX
  5
F05C
  8
ALPHA
 10
33.293035
 20
85.656407
 30
0.0
  0
VERTEX
  5
F05D
  8
ALPHA
 10
33.536283
 20
85.616425
 30
0.0
  0
VERTEX
  5
F05E
  8
ALPHA
 10
33.684217
 20
85.58896
 30
0.0
  0
VERTEX
  5
F05F
  8
ALPHA
 10
33.733494
 20
85.57574
 30
0.0
  0
SEQEND
  5
F060
  8
ALPHA
  0
LINE
  5
E30A
  8
ALPHA
 10
34.442145
 20
86.02456
 30
0.0
 11
32.433494
 21
86.02456
 31
0.0
  0
POLYLINE
  5
E30B
  8
ALPHA
 66
     1
 10
0.0
 20
0.0
 30
0.0
  0
VERTEX
  5
F061
  8
ALPHA
 10
32.533494
 20
85.167209
 30
0.0
  0
VERTEX
  5
F062
  8
ALPHA
 10
32.956254
 20
85.108913
 30
0.0
  0
VERTEX
  5
F063
  8
ALPHA
 10
33.293035
 20
85.057694
 30
0.0
  0
VERTEX
  5
F064
  8
ALPHA
 10
33.536283
 20
85.017083
 30
0.0
  0
VERTEX
  5
F065
  8
ALPHA
 10
33.684217
 20
84.989187
 30
0.0
  0
VERTEX
  5
F066
  8
ALPHA
 10
33.714787
 20
84.980856
 30
0.0
  0
SEQEND
  5
F067
  8
ALPHA
  0
POLYLINE
  5
E30C
  8
ALPHA
 66
     1
 10
0.0
 20
0.0
 30
0.0
  0
VERTEX
  5
F068
  8
ALPHA
 10
32.433494
 20
84.763199
 30
0.0
  0
VERTEX
  5
F069
  8
ALPHA
 10
33.398251
 20
84.776933
 30
0.0
  0
VERTEX
  5
F06A
  8
ALPHA
 10
34.229559
 20
84.793302
 30
0.0
  0
VERTEX
  5
F06B
  8
ALPHA
 10
34.895023
 20
84.811668
 30
0.0
  0
VERTEX
  5
F06C
  8
ALPHA
 10
35.383423
 20
84.831658
 30
0.0
  0
SEQEND
  5
F06D
  8
ALPHA
  0
POLYLINE
  5
E30D
  8
ALPHA
 66
     1
 10
0.0
 20
0.0
 30
0.0
  0
VERTEX
  5
F06E
  8
ALPHA
 10
32.433494
 20
84.784291
 30
0.0
  0
VERTEX
  5
F06F
  8
ALPHA
 10
33.218118
 20
84.798028
 30
0.0
  0
VERTEX
  5
F070
  8
ALPHA
 10
33.864796
 20
84.813842
 30
0.0
  0
VERTEX
  5
F071
  8
ALPHA
 10
34.354778
 20
84.831289
 30
0.0
  0
VERTEX
  5
F072
  8
ALPHA
 10
34.674881
 20
84.849899
 30
0.0
  0
VERTEX
  5
F073
  8
ALPHA
 10
34.816476
 20
84.869173
 30
0.0
  0
VERTEX
  5
F074
  8
ALPHA
 10
34.823416
 20
84.874552
 30
0.0
  0
SEQEND
  5
F075
  8
ALPHA
  0
POLYLINE
  5
E30E
  8
ALPHA
 66
     1
 10
0.0
 20
0.0
 30
0.0
  0
VERTEX
  5
F076
  8
ALPHA
 10
34.463323
 20
81.855665
 30
0.0
  0
VERTEX
  5
F077
  8
ALPHA
 10
33.804362
 20
81.867837
 30
0.0
  0
VERTEX
  5
F078
  8
ALPHA
 10
33.151098
 20
81.877592
 30
0.0
  0
VERTEX
  5
F079
  8
ALPHA
 10
32.516382
 20
81.885363
 30
0.0
  0
VERTEX
  5
F07A
  8
ALPHA
 10
31.910254
 20
81.891486
 30
0.0
  0
VERTEX
  5
F07B
  8
ALPHA
 10
31.3389
 20
81.896248
 30
0.0
  0
VERTEX
  5
F07C
  8
ALPHA
 10
30.804241
 20
81.899906
 30
0.0
  0
VERTEX
  5
F07D
  8
ALPHA
 10
30.30513
 20
81.902677
 30
0.0
  0
VERTEX
  5
F07E
  8
ALPHA
 10
29.838143
 20
81.904738
 30
0.0
  0
VERTEX
  5
F07F
  8
ALPHA
 10
29.398241
 20
81.90623
 30
0.0
  0
VERTEX
  5
F080
  8
ALPHA
 10
28.978543
 20
81.907259
 30
0.0
  0
SEQEND
  5
F081
  8
ALPHA
  0
POLYLINE
  5
E30F
  8
ALPHA
 66
     1
 10
0.0
 20
0.0
 30
0.0
  0
VERTEX
  5
F082
  8
ALPHA
 10
34.614614
 20
82.055634
 30
0.0
  0
VERTEX
  5
F083
  8
ALPHA
 10
33.94082
 20
82.067796
 30
0.0
  0
VERTEX
  5
F084
  8
ALPHA
 10
33.272034
 20
82.077554
 30
0.0
  0
VERTEX
  5
F085
  8
ALPHA
 10
32.622236
 20
82.085329
 30
0.0
  0
VERTEX
  5
F086
  8
ALPHA
 10
32.001709
 20
82.091453
 30
0.0
  0
VERTEX
  5
F087
  8
ALPHA
 10
31.416801
 20
82.096216
 30
0.0
  0
VERTEX
  5
F088
  8
ALPHA
 10
30.869494
 20
82.099875
 30
0.0
  0
VERTEX
  5
F089
  8
ALPHA
 10
30.358593
 20
82.102646
 30
0.0
  0
VERTEX
  5
F08A
  8
ALPHA
 10
29.880579
 20
82.104708
 30
0.0
  0
VERTEX
  5
F08B
  8
ALPHA
 10
29.430292
 20
82.1062
 30
0.0
  0
VERTEX
  5
F08C
  8
ALPHA
 10
29.00078
 20
82.107228
 30
0.0
  0
SEQEND
  5
F08D
  8
ALPHA
  0
LINE
  5
E310
  8
ALPHA
 10
35.028257
 20
83.161608
 30
0.0
 11
28.938684
 21
83.161608
 31
0.0
  0
LINE
  5
E311
  8
ALPHA
 10
28.938684
 20
82.169323
 30
0.0
 11
34.728303
 21
82.169323
 31
0.0
  0
POLYLINE
  5
E312
  8
ALPHA
 66
     1
 10
0.0
 20
0.0
 30
0.0
  0
VERTEX
  5
F08E
  8
ALPHA
 10
35.783494
 20
83.37456
 30
0.0
  0
VERTEX
  5
F08F
  8
ALPHA
 10
35.683482
 20
83.352897
 30
0.0
  0
VERTEX
  5
F090
  8
ALPHA
 10
35.383423
 20
83.331658
 30
0.0
  0
VERTEX
  5
F091
  8
ALPHA
 10
34.895023
 20
83.311668
 30
0.0
  0
VERTEX
  5
F092
  8
ALPHA
 10
34.229559
 20
83.293302
 30
0.0
  0
VERTEX
  5
F093
  8
ALPHA
 10
33.398251
 20
83.276933
 30
0.0
  0
VERTEX
  5
F094
  8
ALPHA
 10
32.433494
 20
83.263199
 30
0.0
  0
SEQEND
  5
F095
  8
ALPHA
  0
LINE
  5
E313
  8
ALPHA
 10
32.533494
 20
85.764225
 30
0.0
 11
32.533494
 21
85.167209
 31
0.0
  0
LINE
  5
E314
  8
ALPHA
 10
32.433494
 20
83.243615
 30
0.0
 11
32.433494
 21
86.17456
 31
0.0
  0
LINE
  5
E315
  8
ALPHA
 10
28.880676
 20
83.523472
 30
0.0
 11
28.880676
 21
85.87456
 31
0.0
  0
LINE
  5
E316
  8
ALPHA
 10
28.70064
 20
83.523472
 30
0.0
 11
28.70064
 21
85.87456
 31
0.0
  0
LINE
  5
E317
  8
ALPHA
 10
28.63873
 20
83.461562
 30
0.0
 11
28.63873
 21
85.87456
 31
0.0
  0
POLYLINE
  5
E318
  8
ALPHA
 66
     1
 10
0.0
 20
0.0
 30
0.0
  0
VERTEX
  5
F096
  8
ALPHA
 10
32.433494
 20
83.444661
 30
0.0
  0
VERTEX
  5
F097
  8
ALPHA
 10
31.342194
 20
83.434709
 30
0.0
  0
VERTEX
  5
F098
  8
ALPHA
 10
30.182562
 20
83.427665
 30
0.0
  0
VERTEX
  5
F099
  8
ALPHA
 10
28.978543
 20
83.423673
 30
0.0
  0
SEQEND
  5
F09A
  8
ALPHA
  0
POLYLINE
  5
E319
  8
ALPHA
 66
     1
 10
0.0
 20
0.0
 30
0.0
  0
VERTEX
  5
F09B
  8
ALPHA
 10
32.433494
 20
83.243615
 30
0.0
  0
VERTEX
  5
F09C
  8
ALPHA
 10
31.346337
 20
83.234203
 30
0.0
  0
VERTEX
  5
F09D
  8
ALPHA
 10
30.194945
 20
83.227523
 30
0.0
  0
VERTEX
  5
F09E
  8
ALPHA
 10
29.00078
 20
83.223703
 30
0.0
  0
SEQEND
  5
F09F
  8
ALPHA
  0
LINE
  5
E31A
  8
ALPHA
 10
28.880676
 20
83.523472
 30
0.0
 11
28.70064
 21
83.523472
 31
0.0
  0
POLYLINE
  5
E31B
  8
ALPHA
 66
     1
 10
0.0
 20
0.0
 30
0.0
  0
VERTEX
  5
F0A0
  8
ALPHA
 10
28.938684
 20
83.161608
 30
0.0
  0
VERTEX
  5
F0A1
  8
ALPHA
 10
28.823894
 20
83.184437
 30
0.0
  0
VERTEX
  5
F0A2
  8
ALPHA
 10
28.726579
 20
83.249457
 30
0.0
  0
VERTEX
  5
F0A3
  8
ALPHA
 10
28.661559
 20
83.346772
 30
0.0
  0
VERTEX
  5
F0A4
  8
ALPHA
 10
28.63873
 20
83.461562
 30
0.0
  0
SEQEND
  5
F0A5
  8
ALPHA
  0
POLYLINE
  5
E31C
  8
ALPHA
 66
     1
 10
0.0
 20
0.0
 30
0.0
  0
VERTEX
  5
F0A6
  8
ALPHA
 10
28.978543
 20
83.423673
 30
0.0
  0
VERTEX
  5
F0A7
  8
ALPHA
 10
28.949102
 20
83.428247
 30
0.0
  0
VERTEX
  5
F0A8
  8
ALPHA
 10
28.920934
 20
83.442717
 30
0.0
  0
VERTEX
  5
F0A9
  8
ALPHA
 10
28.898503
 20
83.465967
 30
0.0
  0
VERTEX
  5
F0AA
  8
ALPHA
 10
28.884871
 20
83.494522
 30
0.0
  0
VERTEX
  5
F0AB
  8
ALPHA
 10
28.880676
 20
83.523472
 30
0.0
  0
SEQEND
  5
F0AC
  8
ALPHA
  0
POLYLINE
  5
E31D
  8
ALPHA
 66
     1
 10
0.0
 20
0.0
 30
0.0
  0
VERTEX
  5
F0AD
  8
ALPHA
 10
29.00078
 20
83.223703
 30
0.0
  0
VERTEX
  5
F0AE
  8
ALPHA
 10
28.910487
 20
83.237557
 30
0.0
  0
VERTEX
  5
F0AF
  8
ALPHA
 10
28.824097
 20
83.281101
 30
0.0
  0
VERTEX
  5
F0B0
  8
ALPHA
 10
28.755306
 20
83.350951
 30
0.0
  0
VERTEX
  5
F0B1
  8
ALPHA
 10
28.713505
 20
83.436656
 30
0.0
  0
VERTEX
  5
F0B2
  8
ALPHA
 10
28.70064
 20
83.523472
 30
0.0
  0
SEQEND
  5
F0B3
  8
ALPHA
  0
LINE
  5
E31E
  8
ALPHA
 10
28.70064
 20
81.807459
 30
0.0
 11
28.880676
 21
81.807459
 31
0.0
  0
POLYLINE
  5
E31F
  8
ALPHA
 66
     1
 10
0.0
 20
0.0
 30
0.0
  0
VERTEX
  5
F0B4
  8
ALPHA
 10
29.00078
 20
82.107228
 30
0.0
  0
VERTEX
  5
F0B5
  8
ALPHA
 10
28.9122
 20
82.093908
 30
0.0
  0
VERTEX
  5
F0B6
  8
ALPHA
 10
28.826928
 20
82.051864
 30
0.0
  0
VERTEX
  5
F0B7
  8
ALPHA
 10
28.757816
 20
81.983492
 30
0.0
  0
VERTEX
  5
F0B8
  8
ALPHA
 10
28.714496
 20
81.897483
 30
0.0
  0
VERTEX
  5
F0B9
  8
ALPHA
 10
28.70064
 20
81.807459
 30
0.0
  0
SEQEND
  5
F0BA
  8
ALPHA
  0
POLYLINE
  5
E320
  8
ALPHA
 66
     1
 10
0.0
 20
0.0
 30
0.0
  0
VERTEX
  5
F0BB
  8
ALPHA
 10
28.978543
 20
81.907259
 30
0.0
  0
VERTEX
  5
F0BC
  8
ALPHA
 10
28.94972
 20
81.902878
 30
0.0
  0
VERTEX
  5
F0BD
  8
ALPHA
 10
28.921923
 20
81.88894
 30
0.0
  0
VERTEX
  5
F0BE
  8
ALPHA
 10
28.899328
 20
81.866147
 30
0.0
  0
VERTEX
  5
F0BF
  8
ALPHA
 10
28.88518
 20
81.837434
 30
0.0
  0
VERTEX
  5
F0C0
  8
ALPHA
 10
28.880676
 20
81.807459
 30
0.0
  0
SEQEND
  5
F0C1
  8
ALPHA
  0
LINE
  5
E321
  8
ALPHA
 10
29.00078
 20
82.107228
 30
0.0
 11
28.938684
 21
82.169323
 31
0.0
  0
LINE
  5
E322
  8
ALPHA
 10
28.70064
 20
81.807459
 30
0.0
 11
28.63873
 21
81.869369
 31
0.0
  0
POLYLINE
  5
E323
  8
ALPHA
 66
     1
 10
0.0
 20
0.0
 30
0.0
  0
VERTEX
  5
F0C2
  8
ALPHA
 10
28.978543
 20
83.423673
 30
0.0
  0
VERTEX
  5
F0C3
  8
ALPHA
 10
28.981649
 20
83.324679
 30
0.0
  0
VERTEX
  5
F0C4
  8
ALPHA
 10
28.989771
 20
83.25164
 30
0.0
  0
VERTEX
  5
F0C5
  8
ALPHA
 10
29.00078
 20
83.223709
 30
0.0
  0
SEQEND
  5
F0C6
  8
ALPHA
  0
POLYLINE
  5
E324
  8
ALPHA
 66
     1
 10
0.0
 20
0.0
 30
0.0
  0
VERTEX
  5
F0C7
  8
ALPHA
 10
28.63873
 20
81.869369
 30
0.0
  0
VERTEX
  5
F0C8
  8
ALPHA
 10
28.661559
 20
81.984159
 30
0.0
  0
VERTEX
  5
F0C9
  8
ALPHA
 10
28.726579
 20
82.081474
 30
0.0
  0
VERTEX
  5
F0CA
  8
ALPHA
 10
28.823894
 20
82.146494
 30
0.0
  0
VERTEX
  5
F0CB
  8
ALPHA
 10
28.938684
 20
82.169323
 30
0.0
  0
SEQEND
  5
F0CC
  8
ALPHA
  0
POLYLINE
  5
E325
  8
ALPHA
 66
     1
 10
0.0
 20
0.0
 30
0.0
  0
VERTEX
  5
F0CD
  8
ALPHA
 10
29.00078
 20
82.107223
 30
0.0
  0
VERTEX
  5
F0CE
  8
ALPHA
 10
28.989771
 20
82.079291
 30
0.0
  0
VERTEX
  5
F0CF
  8
ALPHA
 10
28.981649
 20
82.006253
 30
0.0
  0
VERTEX
  5
F0D0
  8
ALPHA
 10
28.978543
 20
81.907259
 30
0.0
  0
SEQEND
  5
F0D1
  8
ALPHA
  0
LINE
  5
E326
  8
ALPHA
 10
29.00078
 20
83.223703
 30
0.0
 11
28.938684
 21
83.161608
 31
0.0
  0
LINE
  5
E327
  8
ALPHA
 10
28.70064
 20
83.523472
 30
0.0
 11
28.63873
 21
83.461562
 31
0.0
  0
LINE
  5
E328
  8
ALPHA
 10
32.433494
 20
85.27456
 30
0.0
 11
32.533494
 21
85.27456
 31
0.0
  0
LINE
  5
E329
  8
ALPHA
 10
28.978573
 20
85.97456
 30
0.0
 11
32.433494
 21
85.97456
 31
0.0
  0
LINE
  5
E32A
  8
ALPHA
 10
28.880676
 20
85.87456
 30
0.0
 11
28.63873
 21
85.87456
 31
0.0
  0
POLYLINE
  5
E32B
  8
ALPHA
 66
     1
 10
0.0
 20
0.0
 30
0.0
  0
VERTEX
  5
F0D2
  8
ALPHA
 10
28.978573
 20
85.97456
 30
0.0
  0
VERTEX
  5
F0D3
  8
ALPHA
 10
28.981552
 20
86.074559
 30
0.0
  0
VERTEX
  5
F0D4
  8
ALPHA
 10
28.989691
 20
86.147764
 30
0.0
  0
VERTEX
  5
F0D5
  8
ALPHA
 10
28.991698
 20
86.1526
 30
0.0
  0
SEQEND
  5
F0D6
  8
ALPHA
  0
POLYLINE
  5
E32C
  8
ALPHA
 66
     1
 10
0.0
 20
0.0
 30
0.0
  0
VERTEX
  5
F0D7
  8
ALPHA
 10
28.70064
 20
85.87456
 30
0.0
  0
VERTEX
  5
F0D8
  8
ALPHA
 10
28.715174
 20
85.966783
 30
0.0
  0
VERTEX
  5
F0D9
  8
ALPHA
 10
28.760135
 20
86.053842
 30
0.0
  0
VERTEX
  5
F0DA
  8
ALPHA
 10
28.830715
 20
86.121746
 30
0.0
  0
VERTEX
  5
F0DB
  8
ALPHA
 10
28.915672
 20
86.16224
 30
0.0
  0
VERTEX
  5
F0DC
  8
ALPHA
 10
28.940048
 20
86.165768
 30
0.0
  0
SEQEND
  5
F0DD
  8
ALPHA
  0
POLYLINE
  5
E32D
  8
ALPHA
 66
     1
 10
0.0
 20
0.0
 30
0.0
  0
VERTEX
  5
F0DE
  8
ALPHA
 10
28.880676
 20
85.87456
 30
0.0
  0
VERTEX
  5
F0DF
  8
ALPHA
 10
28.885413
 20
85.905287
 30
0.0
  0
VERTEX
  5
F0E0
  8
ALPHA
 10
28.900067
 20
85.934302
 30
0.0
  0
VERTEX
  5
F0E1
  8
ALPHA
 10
28.923081
 20
85.956942
 30
0.0
  0
VERTEX
  5
F0E2
  8
ALPHA
 10
28.950792
 20
85.970448
 30
0.0
  0
VERTEX
  5
F0E3
  8
ALPHA
 10
28.978573
 20
85.97456
 30
0.0
  0
SEQEND
  5
F0E4
  8
ALPHA
  0
POLYLINE
  5
E32E
  8
ALPHA
 66
     1
 10
0.0
 20
0.0
 30
0.0
  0
VERTEX
  5
F0E5
  8
ALPHA
 10
28.63873
 20
85.87456
 30
0.0
  0
VERTEX
  5
F0E6
  8
ALPHA
 10
28.661567
 20
85.989359
 30
0.0
  0
VERTEX
  5
F0E7
  8
ALPHA
 10
28.726607
 20
86.086687
 30
0.0
  0
VERTEX
  5
F0E8
  8
ALPHA
 10
28.823947
 20
86.151721
 30
0.0
  0
VERTEX
  5
F0E9
  8
ALPHA
 10
28.938776
 20
86.17456
 30
0.0
  0
SEQEND
  5
F0EA
  8
ALPHA
  0
LINE
  5
E32F
  8
ALPHA
 10
32.533494
 20
85.57456
 30
0.0
 11
32.433494
 21
85.57456
 31
0.0
  0
LINE
  5
E330
  8
ALPHA
 10
32.533494
 20
85.764225
 30
0.0
 11
32.533494
 21
86.02456
 31
0.0
  0
POLYLINE
  5
E331
  8
ALPHA
 66
     1
 10
0.0
 20
0.0
 30
0.0
  0
VERTEX
  5
F0EB
  8
ALPHA
 10
33.733494
 20
85.288999
 30
0.0
  0
VERTEX
  5
F0EC
  8
ALPHA
 10
34.235779
 20
85.361808
 30
0.0
  0
VERTEX
  5
F0ED
  8
ALPHA
 10
34.618346
 20
85.459047
 30
0.0
  0
VERTEX
  5
F0EE
  8
ALPHA
 10
34.879268
 20
85.583183
 30
0.0
  0
VERTEX
  5
F0EF
  8
ALPHA
 10
35.014851
 20
85.736634
 30
0.0
  0
SEQEND
  5
F0F0
  8
ALPHA
  0
LINE
  5
E332
  8
ALPHA
 10
33.733494
 20
84.97456
 30
0.0
 11
33.733494
 21
85.687811
 31
0.0
  0
POLYLINE
  5
E333
  8
ALPHA
 66
     1
 10
0.0
 20
0.0
 30
0.0
  0
VERTEX
  5
F0F1
  8
ALPHA
 10
35.359712
 20
85.53406
 30
0.0
  0
VERTEX
  5
F0F2
  8
ALPHA
 10
35.218136
 20
85.375004
 30
0.0
  0
VERTEX
  5
F0F3
  8
ALPHA
 10
34.94249
 20
85.245972
 30
0.0
  0
VERTEX
  5
F0F4
  8
ALPHA
 10
34.53884
 20
85.1467
 30
0.0
  0
VERTEX
  5
F0F5
  8
ALPHA
 10
34.016616
 20
85.074844
 30
0.0
  0
SEQEND
  5
F0F6
  8
ALPHA
  0
LINE
  5
E334
  8
ALPHA
 10
34.775729
 20
84.888593
 30
0.0
 11
34.553796
 21
84.907631
 31
0.0
  0
LINE
  5
E335
  8
ALPHA
 10
34.553796
 20
84.907631
 30
0.0
 11
35.600481
 21
84.907631
 31
0.0
  0
LINE
  5
E336
  8
ALPHA
 10
34.912555
 20
81.753667
 30
0.0
 11
34.559043
 21
81.753667
 31
0.0
  0
POLYLINE
  5
E337
  8
ALPHA
 66
     1
 10
0.0
 20
0.0
 30
0.0
  0
VERTEX
  5
F0F7
  8
ALPHA
 10
34.614614
 20
82.055634
 30
0.0
  0
VERTEX
  5
F0F8
  8
ALPHA
 10
34.539459
 20
82.028092
 30
0.0
  0
VERTEX
  5
F0F9
  8
ALPHA
 10
34.484157
 20
81.954999
 30
0.0
  0
VERTEX
  5
F0FA
  8
ALPHA
 10
34.463315
 20
81.855665
 30
0.0
  0
SEQEND
  5
F0FB
  8
ALPHA
  0
POLYLINE
  5
E338
  8
ALPHA
 66
     1
 10
0.0
 20
0.0
 30
0.0
  0
VERTEX
  5
F0FC
  8
ALPHA
 10
34.016616
 20
85.074844
 30
0.0
  0
VERTEX
  5
F0FD
  8
ALPHA
 10
33.877639
 20
85.06152
 30
0.0
  0
VERTEX
  5
F0FE
  8
ALPHA
 10
33.733494
 20
85.0495
 30
0.0
  0
SEQEND
  5
F0FF
  8
ALPHA
  0
LINE
  5
E339
  8
ALPHA
 10
34.016602
 20
85.074842
 30
0.0
 11
33.733494
 21
85.288999
 31
0.0
  0
POLYLINE
  5
E33A
  8
ALPHA
 66
     1
 10
0.0
 20
0.0
 30
0.0
  0
VERTEX
  5
F100
  8
ALPHA
 10
34.559043
 20
81.753667
 30
0.0
  0
VERTEX
  5
F101
  8
ALPHA
 10
34.55589
 20
81.779171
 30
0.0
  0
VERTEX
  5
F102
  8
ALPHA
 10
34.545858
 20
81.804593
 30
0.0
  0
VERTEX
  5
F103
  8
ALPHA
 10
34.529551
 20
81.826494
 30
0.0
  0
VERTEX
  5
F104
  8
ALPHA
 10
34.508863
 20
81.842683
 30
0.0
  0
VERTEX
  5
F105
  8
ALPHA
 10
34.486016
 20
81.852346
 30
0.0
  0
VERTEX
  5
F106
  8
ALPHA
 10
34.463323
 20
81.855665
 30
0.0
  0
SEQEND
  5
F107
  8
ALPHA
  0
LINE
  5
E33B
  8
ALPHA
 10
34.553796
 20
84.841488
 30
0.0
 11
34.553796
 21
84.907631
 31
0.0
  0
ARC
  5
E33C
  8
ALPHA
 10
36.033494
 20
84.62456
 30
0.0
 40
0.5
 50
30.0
 51
45.12891
  0
ARC
  5
E33D
  8
ALPHA
 10
36.033494
 20
84.62456
 30
0.0
 40
0.5
 50
136.334728
 51
150.0
  0
LINE
  5
E33E
  8
ALPHA
 10
34.823416
 20
84.874552
 30
0.0
 11
34.775729
 21
84.888593
 31
0.0
  0
LINE
  5
E33F
  8
ALPHA
 10
35.783494
 20
84.87456
 30
0.0
 11
35.600481
 21
84.87456
 31
0.0
  0
POLYLINE
  5
E340
  8
ALPHA
 66
     1
 10
0.0
 20
0.0
 30
0.0
  0
VERTEX
  5
F108
  8
ALPHA
 10
35.383423
 20
84.831658
 30
0.0
  0
VERTEX
  5
F109
  8
ALPHA
 10
35.683482
 20
84.852897
 30
0.0
  0
VERTEX
  5
F10A
  8
ALPHA
 10
35.783494
 20
84.87456
 30
0.0
  0
SEQEND
  5
F10B
  8
ALPHA
  0
POLYLINE
  5
E341
  8
ALPHA
 66
     1
 10
0.0
 20
0.0
 30
0.0
  0
VERTEX
  5
F10C
  8
ALPHA
 10
34.728303
 20
82.169323
 30
0.0
  0
VERTEX
  5
F10D
  8
ALPHA
 10
34.843093
 20
82.146494
 30
0.0
  0
VERTEX
  5
F10E
  8
ALPHA
 10
34.940408
 20
82.081474
 30
0.0
  0
VERTEX
  5
F10F
  8
ALPHA
 10
35.005428
 20
81.984159
 30
0.0
  0
VERTEX
  5
F110
  8
ALPHA
 10
35.028257
 20
81.869369
 30
0.0
  0
SEQEND
  5
F111
  8
ALPHA
  0
LINE
  5
E342
  8
ALPHA
 10
35.028257
 20
83.161608
 30
0.0
 11
35.033494
 21
83.156372
 31
0.0
  0
POLYLINE
  5
E343
  8
ALPHA
 66
     1
 10
0.0
 20
0.0
 30
0.0
  0
VERTEX
  5
F112
  8
ALPHA
 10
34.912555
 20
81.753667
 30
0.0
  0
VERTEX
  5
F113
  8
ALPHA
 10
34.902763
 20
81.829964
 30
0.0
  0
VERTEX
  5
F114
  8
ALPHA
 10
34.871505
 20
81.905833
 30
0.0
  0
VERTEX
  5
F115
  8
ALPHA
 10
34.820698
 20
81.970887
 30
0.0
  0
VERTEX
  5
F116
  8
ALPHA
 10
34.756268
 20
82.018593
 30
0.0
  0
VERTEX
  5
F117
  8
ALPHA
 10
34.685173
 20
82.046619
 30
0.0
  0
VERTEX
  5
F118
  8
ALPHA
 10
34.614614
 20
82.055634
 30
0.0
  0
SEQEND
  5
F119
  8
ALPHA
  0
LINE
  5
E344
  8
ALPHA
 10
35.783494
 20
84.87456
 30
0.0
 11
35.783494
 21
83.37456
 31
0.0
  0
LINE
  5
E345
  8
ALPHA
 10
35.028257
 20
83.161608
 30
0.0
 11
35.028257
 21
81.869369
 31
0.0
  0
LINE
  5
E346
  8
ALPHA
 10
34.912555
 20
81.753667
 30
0.0
 11
35.028257
 21
81.869369
 31
0.0
  0
LINE
  5
E347
  8
ALPHA
 10
34.614614
 20
82.055634
 30
0.0
 11
34.728303
 21
82.169323
 31
0.0
  0
ARC
  5
E348
  8
ALPHA
 10
34.442145
 20
86.52456
 30
0.0
 40
0.5
 50
270.0
 51
314.499973
  0
POLYLINE
  5
E349
  8
ALPHA
 66
     1
 10
0.0
 20
0.0
 30
0.0
  0
VERTEX
  5
F11A
  8
ALPHA
 10
33.733494
 20
85.687811
 30
0.0
  0
VERTEX
  5
F11B
  8
ALPHA
 10
34.233217
 20
85.75938
 30
0.0
  0
VERTEX
  5
F11C
  8
ALPHA
 10
34.618765
 20
85.856236
 30
0.0
  0
VERTEX
  5
F11D
  8
ALPHA
 10
34.880507
 20
85.979795
 30
0.0
  0
VERTEX
  5
F11E
  8
ALPHA
 10
35.014851
 20
86.1308
 30
0.0
  0
SEQEND
  5
F11F
  8
ALPHA
  0
LINE
  5
E34A
  8
ALPHA
 10
33.033494
 20
88.519507
 30
0.0
 11
33.033494
 21
86.17456
 31
0.0
  0
LINE
  5
E34B
  8
ALPHA
 10
34.743469
 20
86.1308
 30
0.0
 11
35.014851
 21
86.1308
 31
0.0
  0
LINE
  5
E34C
  8
ALPHA
 10
36.033494
 20
88.72456
 30
0.0
 11
36.638818
 21
88.119235
 31
0.0
  0
LINE
  5
E34D
  8
ALPHA
 10
35.359883
 20
85.534336
 30
0.0
 11
35.244968
 21
85.601986
 31
0.0
  0
LINE
  5
E34E
  8
ALPHA
 10
35.244968
 20
85.601986
 30
0.0
 11
35.014851
 21
85.736634
 31
0.0
  0
LINE
  5
E34F
  8
ALPHA
 10
35.379904
 20
85.57456
 30
0.0
 11
35.033494
 21
85.77456
 31
0.0
  0
LINE
  5
E351
  8
ALPHA
 10
35.859183
 20
86.17456
 30
0.0
 11
35.859183
 21
85.57456
 31
0.0
  0
LINE
  5
E352
  8
ALPHA
 10
35.233494
 20
85.65909
 30
0.0
 11
35.233494
 21
86.17456
 31
0.0
  0
LINE
  5
E353
  8
ALPHA
 10
35.033494
 20
85.77456
 30
0.0
 11
35.033494
 21
86.17456
 31
0.0
  0
LINE
  5
E354
  8
ALPHA
 10
35.014851
 20
86.1308
 30
0.0
 11
35.014851
 21
85.736634
 31
0.0
  0
POLYLINE
  5
E355
  8
ALPHA
 66
     1
 10
0.0
 20
0.0
 30
0.0
  0
VERTEX
  5
F120
  8
ALPHA
 10
35.362872
 20
85.539552
 30
0.0
  0
VERTEX
  5
F121
  8
ALPHA
 10
35.361493
 20
85.536943
 30
0.0
  0
VERTEX
  5
F122
  8
ALPHA
 10
35.359712
 20
85.53406
 30
0.0
  0
SEQEND
  5
F123
  8
ALPHA
  0
LINE
  5
E356
  8
ALPHA
 10
35.014851
 20
85.736634
 30
0.0
 11
35.033494
 21
85.77456
 31
0.0
  0
LINE
  5
E357
  8
ALPHA
 10
35.379904
 20
85.57456
 30
0.0
 11
35.362872
 21
85.539552
 31
0.0
  0
LINE
  5
E358
  8
ALPHA
 10
35.014851
 20
86.1308
 30
0.0
 11
35.033494
 21
86.17456
 31
0.0
  0
LINE
  5
E359
  8
ALPHA
 10
43.533494
 20
70.72456
 30
0.0
 11
43.533494
 21
85.948023
 31
0.0
  0
LINE
  5
E35A
  8
ALPHA
 10
41.133494
 20
80.72456
 30
0.0
 11
41.133494
 21
78.72456
 31
0.0
  0
ARC
  5
E35B
  8
ALPHA
 10
39.033494
 20
78.72456
 30
0.0
 40
3.2
 50
277.662086
 51
304.849905
  0
ARC
  5
E35C
  8
ALPHA
 10
39.033494
 20
78.72456
 30
0.0
 40
3.378901
 50
270.0
 51
304.849905
  0
ARC
  5
E35D
  8
ALPHA
 10
39.033494
 20
78.72456
 30
0.0
 40
2.1
 50
280.015601
 51
0.0
  0
LINE
  5
E35E
  8
ALPHA
 10
38.033494
 20
76.62456
 30
0.0
 11
39.033494
 21
76.62456
 31
0.0
  0
LINE
  5
E35F
  8
ALPHA
 10
39.033494
 20
75.405874
 30
0.0
 11
37.752187
 21
75.405874
 31
0.0
  0
POLYLINE
  5
E360
  8
ALPHA
 66
     1
 10
0.0
 20
0.0
 30
0.0
  0
VERTEX
  5
F124
  8
ALPHA
 10
37.776634
 20
76.640328
 30
0.0
  0
VERTEX
  5
F125
  8
ALPHA
 10
37.845436
 20
76.618754
 30
0.0
  0
VERTEX
  5
F126
  8
ALPHA
 10
37.901999
 20
76.574318
 30
0.0
  0
VERTEX
  5
F127
  8
ALPHA
 10
37.939183
 20
76.512746
 30
0.0
  0
VERTEX
  5
F128
  8
ALPHA
 10
37.952179
 20
76.441828
 30
0.0
  0
SEQEND
  5
F129
  8
ALPHA
  0
LINE
  5
E361
  8
ALPHA
 10
37.952179
 20
75.605867
 30
0.0
 11
37.833494
 21
75.724552
 31
0.0
  0
LINE
  5
E362
  8
ALPHA
 10
37.752187
 20
75.405874
 30
0.0
 11
37.633501
 21
75.52456
 31
0.0
  0
POLYLINE
  5
E363
  8
ALPHA
 66
     1
 10
0.0
 20
0.0
 30
0.0
  0
VERTEX
  5
F12A
  8
ALPHA
 10
37.952179
 20
76.441828
 30
0.0
  0
VERTEX
  5
F12B
  8
ALPHA
 10
37.892959
 20
76.449908
 30
0.0
  0
VERTEX
  5
F12C
  8
ALPHA
 10
37.833494
 20
76.459608
 30
0.0
  0
SEQEND
  5
F12D
  8
ALPHA
  0
POLYLINE
  5
E364
  8
ALPHA
 66
     1
 10
0.0
 20
0.0
 30
0.0
  0
VERTEX
  5
F12E
  8
ALPHA
 10
37.633501
 20
75.52456
 30
0.0
  0
VERTEX
  5
F12F
  8
ALPHA
 10
37.71014
 20
75.539826
 30
0.0
  0
VERTEX
  5
F130
  8
ALPHA
 10
37.774918
 20
75.583135
 30
0.0
  0
VERTEX
  5
F131
  8
ALPHA
 10
37.818227
 20
75.647913
 30
0.0
  0
VERTEX
  5
F132
  8
ALPHA
 10
37.833494
 20
75.724552
 30
0.0
  0
SEQEND
  5
F133
  8
ALPHA
  0
POLYLINE
  5
E365
  8
ALPHA
 66
     1
 10
0.0
 20
0.0
 30
0.0
  0
VERTEX
  5
F134
  8
ALPHA
 10
37.833494
 20
76.459608
 30
0.0
  0
VERTEX
  5
F135
  8
ALPHA
 10
37.812229
 20
76.549349
 30
0.0
  0
VERTEX
  5
F136
  8
ALPHA
 10
37.75295
 20
76.620013
 30
0.0
  0
VERTEX
  5
F137
  8
ALPHA
 10
37.668269
 20
76.656563
 30
0.0
  0
SEQEND
  5
F138
  8
ALPHA
  0
LINE
  5
E366
  8
ALPHA
 10
37.952179
 20
76.441828
 30
0.0
 11
37.952179
 21
75.605867
 31
0.0
  0
LINE
  5
E367
  8
ALPHA
 10
37.833494
 20
76.459608
 30
0.0
 11
37.833494
 21
75.724552
 31
0.0
  0
POLYLINE
  5
E368
  8
ALPHA
 66
     1
 10
0.0
 20
0.0
 30
0.0
  0
VERTEX
  5
F139
  8
ALPHA
 10
37.952179
 20
75.605867
 30
0.0
  0
VERTEX
  5
F13A
  8
ALPHA
 10
37.936912
 20
75.529228
 30
0.0
  0
VERTEX
  5
F13B
  8
ALPHA
 10
37.893603
 20
75.46445
 30
0.0
  0
VERTEX
  5
F13C
  8
ALPHA
 10
37.828826
 20
75.421141
 30
0.0
  0
VERTEX
  5
F13D
  8
ALPHA
 10
37.752187
 20
75.405874
 30
0.0
  0
SEQEND
  5
F13E
  8
ALPHA
  0
ARC
  5
E369
  8
ALPHA
 10
39.033494
 20
78.72456
 30
0.0
 40
3.318685
 50
270.0
 51
275.175129
  0
ARC
  5
E36A
  8
ALPHA
 10
39.033494
 20
78.72456
 30
0.0
 40
2.1
 50
270.0
 51
277.025668
  0
POLYLINE
  5
E36B
  8
ALPHA
 66
     1
 10
0.0
 20
0.0
 30
0.0
  0
VERTEX
  5
F13F
  8
ALPHA
 10
39.33284
 20
75.419403
 30
0.0
  0
VERTEX
  5
F140
  8
ALPHA
 10
39.250949
 20
75.429053
 30
0.0
  0
VERTEX
  5
F141
  8
ALPHA
 10
39.179912
 20
75.470922
 30
0.0
  0
VERTEX
  5
F142
  8
ALPHA
 10
39.131806
 20
75.537893
 30
0.0
  0
VERTEX
  5
F143
  8
ALPHA
 10
39.114808
 20
75.61858
 30
0.0
  0
SEQEND
  5
F144
  8
ALPHA
  0
POLYLINE
  5
E36C
  8
ALPHA
 66
     1
 10
0.0
 20
0.0
 30
0.0
  0
VERTEX
  5
F145
  8
ALPHA
 10
39.233494
 20
76.459608
 30
0.0
  0
VERTEX
  5
F146
  8
ALPHA
 10
39.175171
 20
76.450079
 30
0.0
  0
VERTEX
  5
F147
  8
ALPHA
 10
39.114808
 20
76.441828
 30
0.0
  0
SEQEND
  5
F148
  8
ALPHA
  0
POLYLINE
  5
E36D
  8
ALPHA
 66
     1
 10
0.0
 20
0.0
 30
0.0
  0
VERTEX
  5
F149
  8
ALPHA
 10
39.233494
 20
75.751336
 30
0.0
  0
VERTEX
  5
F14A
  8
ALPHA
 10
39.251378
 20
75.668668
 30
0.0
  0
VERTEX
  5
F14B
  8
ALPHA
 10
39.301833
 20
75.600786
 30
0.0
  0
VERTEX
  5
F14C
  8
ALPHA
 10
39.375836
 20
75.559832
 30
0.0
  0
VERTEX
  5
F14D
  8
ALPHA
 10
39.460151
 20
75.553131
 30
0.0
  0
SEQEND
  5
F14E
  8
ALPHA
  0
LINE
  5
E36E
  8
ALPHA
 10
39.233494
 20
75.751336
 30
0.0
 11
39.233494
 21
76.459608
 31
0.0
  0
LINE
  5
E36F
  8
ALPHA
 10
39.114808
 20
75.61858
 30
0.0
 11
39.114808
 21
76.441827
 31
0.0
  0
LINE
  5
E370
  8
ALPHA
 10
39.033494
 20
75.345659
 30
0.0
 11
39.033494
 21
75.405874
 31
0.0
  0
POLYLINE
  5
E371
  8
ALPHA
 66
     1
 10
0.0
 20
0.0
 30
0.0
  0
VERTEX
  5
F14F
  8
ALPHA
 10
39.114808
 20
76.441827
 30
0.0
  0
VERTEX
  5
F150
  8
ALPHA
 10
39.127804
 20
76.512746
 30
0.0
  0
VERTEX
  5
F151
  8
ALPHA
 10
39.164988
 20
76.574317
 30
0.0
  0
VERTEX
  5
F152
  8
ALPHA
 10
39.221551
 20
76.618753
 30
0.0
  0
VERTEX
  5
F153
  8
ALPHA
 10
39.290353
 20
76.640328
 30
0.0
  0
SEQEND
  5
F154
  8
ALPHA
  0
POLYLINE
  5
E372
  8
ALPHA
 66
     1
 10
0.0
 20
0.0
 30
0.0
  0
VERTEX
  5
F155
  8
ALPHA
 10
39.33284
 20
75.419403
 30
0.0
  0
VERTEX
  5
F156
  8
ALPHA
 10
39.396181
 20
75.485243
 30
0.0
  0
VERTEX
  5
F157
  8
ALPHA
 10
39.460151
 20
75.553131
 30
0.0
  0
SEQEND
  5
F158
  8
ALPHA
  0
POLYLINE
  5
E373
  8
ALPHA
 66
     1
 10
0.0
 20
0.0
 30
0.0
  0
VERTEX
  5
F159
  8
ALPHA
 10
39.114808
 20
75.61858
 30
0.0
  0
VERTEX
  5
F15A
  8
ALPHA
 10
39.173912
 20
75.683966
 30
0.0
  0
VERTEX
  5
F15B
  8
ALPHA
 10
39.233494
 20
75.751336
 30
0.0
  0
SEQEND
  5
F15C
  8
ALPHA
  0
POLYLINE
  5
E374
  8
ALPHA
 66
     1
 10
0.0
 20
0.0
 30
0.0
  0
VERTEX
  5
F15D
  8
ALPHA
 10
39.398718
 20
76.656563
 30
0.0
  0
VERTEX
  5
F15E
  8
ALPHA
 10
39.314037
 20
76.620013
 30
0.0
  0
VERTEX
  5
F15F
  8
ALPHA
 10
39.254758
 20
76.54935
 30
0.0
  0
VERTEX
  5
F160
  8
ALPHA
 10
39.233494
 20
76.459608
 30
0.0
  0
SEQEND
  5
F161
  8
ALPHA
  0
LINE
  5
E375
  8
ALPHA
 10
42.433494
 20
72.32309
 30
0.0
 11
42.433494
 21
75.277822
 31
0.0
  0
LINE
  5
E376
  8
ALPHA
 10
42.254593
 20
75.277822
 30
0.0
 11
42.254593
 21
72.571841
 31
0.0
  0
POLYLINE
  5
E377
  8
ALPHA
 66
     1
 10
0.0
 20
0.0
 30
0.0
  0
VERTEX
  5
F162
  8
ALPHA
 10
42.004652
 20
72.391554
 30
0.0
  0
VERTEX
  5
F163
  8
ALPHA
 10
42.123207
 20
72.226164
 30
0.0
  0
VERTEX
  5
F164
  8
ALPHA
 10
42.182543
 20
72.143141
 30
0.0
  0
SEQEND
  5
F165
  8
ALPHA
  0
POLYLINE
  5
E378
  8
ALPHA
 66
     1
 10
0.0
 20
0.0
 30
0.0
  0
VERTEX
  5
F166
  8
ALPHA
 10
42.254593
 20
72.571841
 30
0.0
  0
VERTEX
  5
F167
  8
ALPHA
 10
42.37382
 20
72.406226
 30
0.0
  0
VERTEX
  5
F168
  8
ALPHA
 10
42.433494
 20
72.32309
 30
0.0
  0
SEQEND
  5
F169
  8
ALPHA
  0
POLYLINE
  5
E379
  8
ALPHA
 66
     1
 10
0.0
 20
0.0
 30
0.0
  0
VERTEX
  5
F16A
  8
ALPHA
 10
42.004652
 20
72.391554
 30
0.0
  0
VERTEX
  5
F16B
  8
ALPHA
 10
42.093358
 20
72.384035
 30
0.0
  0
VERTEX
  5
F16C
  8
ALPHA
 10
42.17575
 20
72.417749
 30
0.0
  0
VERTEX
  5
F16D
  8
ALPHA
 10
42.233738
 20
72.485295
 30
0.0
  0
VERTEX
  5
F16E
  8
ALPHA
 10
42.254593
 20
72.571841
 30
0.0
  0
SEQEND
  5
F16F
  8
ALPHA
  0
POLYLINE
  5
E37A
  8
ALPHA
 66
     1
 10
0.0
 20
0.0
 30
0.0
  0
VERTEX
  5
F170
  8
ALPHA
 10
42.433494
 20
72.32309
 30
0.0
  0
VERTEX
  5
F171
  8
ALPHA
 10
42.412518
 20
72.236306
 30
0.0
  0
VERTEX
  5
F172
  8
ALPHA
 10
42.354218
 20
72.168687
 30
0.0
  0
VERTEX
  5
F173
  8
ALPHA
 10
42.271469
 20
72.135165
 30
0.0
  0
VERTEX
  5
F174
  8
ALPHA
 10
42.182543
 20
72.143141
 30
0.0
  0
SEQEND
  5
F175
  8
ALPHA
  0
ARC
  5
E37B
  8
ALPHA
 10
41.433494
 20
75.277822
 30
0.0
 40
1.0
 50
0.0
 51
124.849905
  0
ARC
  5
E37C
  8
ALPHA
 10
41.433494
 20
75.277822
 30
0.0
 40
0.821099
 50
0.0
 51
124.849905
  0
LINE
  5
E37D
  8
ALPHA
 10
40.964294
 20
75.951659
 30
0.0
 11
40.862065
 21
76.098474
 31
0.0
  0
LINE
  5
E37E
  8
ALPHA
 10
42.254593
 20
75.277822
 30
0.0
 11
42.433494
 21
75.277822
 31
0.0
  0
ARC
  5
E37F
  8
ALPHA
 10
39.033494
 20
80.72456
 30
0.0
 40
3.572299
 50
46.035064
 51
73.96494
  0
ARC
  5
E380
  8
ALPHA
 10
28.033494
 20
27.66206
 30
0.0
 40
59.2
 50
76.073419
 51
78.661235
  0
ARC
  5
E381
  8
ALPHA
 10
28.033494
 20
27.66206
 30
0.0
 40
58.793236
 50
76.384383
 51
78.175382
  0
ARC
  5
E382
  8
ALPHA
 10
28.033494
 20
27.66206
 30
0.0
 40
58.593267
 50
76.384383
 51
78.175383
  0
ARC
  5
E383
  8
ALPHA
 10
39.033494
 20
80.72456
 30
0.0
 40
3.706764
 50
44.357986
 51
75.066795
  0
ARC
  5
E384
  8
ALPHA
 10
39.033494
 20
80.72456
 30
0.0
 40
3.906733
 50
44.358723
 51
75.067752
  0
ARC
  5
E385
  8
ALPHA
 10
39.033494
 20
80.72456
 30
0.0
 40
2.1
 50
0.0
 51
180.0
  0
LINE
  5
E386
  8
ALPHA
 10
40.730332
 20
82.163571
 30
0.0
 11
41.15844
 21
82.905076
 31
0.0
  0
LINE
  5
E387
  8
ALPHA
 10
40.64071
 20
82.28062
 30
0.0
 11
41.201423
 21
83.251803
 31
0.0
  0
POLYLINE
  5
E388
  8
ALPHA
 66
     1
 10
0.0
 20
0.0
 30
0.0
  0
VERTEX
  5
F176
  8
ALPHA
 10
39.433494
 20
85.51052
 30
0.0
  0
VERTEX
  5
F177
  8
ALPHA
 10
39.568926
 20
85.344997
 30
0.0
  0
VERTEX
  5
F178
  8
ALPHA
 10
39.704514
 20
85.178807
 30
0.0
  0
VERTEX
  5
F179
  8
ALPHA
 10
39.840257
 20
85.011944
 30
0.0
  0
SEQEND
  5
F17A
  8
ALPHA
  0
POLYLINE
  5
E389
  8
ALPHA
 66
     1
 10
0.0
 20
0.0
 30
0.0
  0
VERTEX
  5
F17B
  8
ALPHA
 10
39.672779
 20
85.706586
 30
0.0
  0
VERTEX
  5
F17C
  8
ALPHA
 10
39.808762
 20
85.540952
 30
0.0
  0
VERTEX
  5
F17D
  8
ALPHA
 10
39.944904
 20
85.374649
 30
0.0
  0
VERTEX
  5
F17E
  8
ALPHA
 10
40.081204
 20
85.20767
 30
0.0
  0
SEQEND
  5
F17F
  8
ALPHA
  0
POLYLINE
  5
E38A
  8
ALPHA
 66
     1
 10
0.0
 20
0.0
 30
0.0
  0
VERTEX
  5
F180
  8
ALPHA
 10
37.533494
 20
85.451062
 30
0.0
  0
VERTEX
  5
F181
  8
ALPHA
 10
37.546991
 20
85.432689
 30
0.0
  0
VERTEX
  5
F182
  8
ALPHA
 10
37.586657
 20
85.415677
 30
0.0
  0
VERTEX
  5
F183
  8
ALPHA
 10
37.65016
 20
85.400859
 30
0.0
  0
SEQEND
  5
F184
  8
ALPHA
  0
LINE
  5
E38B
  8
ALPHA
 10
39.433494
 20
85.51052
 30
0.0
 11
39.433494
 21
84.172722
 31
0.0
  0
LINE
  5
E38C
  8
ALPHA
 10
38.851682
 20
86.17456
 30
0.0
 11
38.851682
 21
84.356189
 31
0.0
  0
LINE
  5
E38D
  8
ALPHA
 10
38.633494
 20
86.17456
 30
0.0
 11
38.633494
 21
84.87456
 31
0.0
  0
LINE
  5
E38E
  8
ALPHA
 10
37.883494
 20
85.308953
 30
0.0
 11
37.883494
 21
85.57456
 31
0.0
  0
LINE
  5
E38F
  8
ALPHA
 10
37.65016
 20
85.57456
 30
0.0
 11
37.65016
 21
85.400859
 31
0.0
  0
LINE
  5
E390
  8
ALPHA
 10
38.750489
 20
84.757565
 30
0.0
 11
38.633494
 21
84.87456
 31
0.0
  0
LINE
  5
E391
  8
ALPHA
 10
38.750489
 20
84.757565
 30
0.0
 11
37.461519
 21
84.796534
 31
0.0
  0
POLYLINE
  5
E392
  8
ALPHA
 66
     1
 10
0.0
 20
0.0
 30
0.0
  0
VERTEX
  5
F185
  8
ALPHA
 10
37.513266
 20
83.29497
 30
0.0
  0
VERTEX
  5
F186
  8
ALPHA
 10
37.749801
 20
83.309944
 30
0.0
  0
VERTEX
  5
F187
  8
ALPHA
 10
37.96222
 20
83.36316
 30
0.0
  0
VERTEX
  5
F188
  8
ALPHA
 10
38.151408
 20
83.44756
 30
0.0
  0
VERTEX
  5
F189
  8
ALPHA
 10
38.318152
 20
83.559204
 30
0.0
  0
VERTEX
  5
F18A
  8
ALPHA
 10
38.462031
 20
83.695982
 30
0.0
  0
VERTEX
  5
F18B
  8
ALPHA
 10
38.581435
 20
83.85703
 30
0.0
  0
VERTEX
  5
F18C
  8
ALPHA
 10
38.67369
 20
84.043524
 30
0.0
  0
VERTEX
  5
F18D
  8
ALPHA
 10
38.732343
 20
84.253171
 30
0.0
  0
VERTEX
  5
F18E
  8
ALPHA
 10
38.750489
 20
84.457382
 30
0.0
  0
SEQEND
  5
F18F
  8
ALPHA
  0
POLYLINE
  5
E393
  8
ALPHA
 66
     1
 10
0.0
 20
0.0
 30
0.0
  0
VERTEX
  5
F190
  8
ALPHA
 10
38.851682
 20
84.356189
 30
0.0
  0
VERTEX
  5
F191
  8
ALPHA
 10
38.811293
 20
84.047466
 30
0.0
  0
VERTEX
  5
F192
  8
ALPHA
 10
38.690013
 20
83.754634
 30
0.0
  0
VERTEX
  5
F193
  8
ALPHA
 10
38.500286
 20
83.507768
 30
0.0
  0
VERTEX
  5
F194
  8
ALPHA
 10
38.25342
 20
83.318041
 30
0.0
  0
VERTEX
  5
F195
  8
ALPHA
 10
37.960587
 20
83.196761
 30
0.0
  0
VERTEX
  5
F196
  8
ALPHA
 10
37.651865
 20
83.156372
 30
0.0
  0
SEQEND
  5
F197
  8
ALPHA
  0
POLYLINE
  5
E394
  8
ALPHA
 66
     1
 10
0.0
 20
0.0
 30
0.0
  0
VERTEX
  5
F198
  8
ALPHA
 10
37.65016
 20
85.400859
 30
0.0
  0
VERTEX
  5
F199
  8
ALPHA
 10
37.777951
 20
85.371767
 30
0.0
  0
VERTEX
  5
F19A
  8
ALPHA
 10
37.85741
 20
85.340146
 30
0.0
  0
VERTEX
  5
F19B
  8
ALPHA
 10
37.883494
 20
85.308953
 30
0.0
  0
SEQEND
  5
F19C
  8
ALPHA
  0
LINE
  5
E395
  8
ALPHA
 10
37.513266
 20
83.29497
 30
0.0
 11
37.461519
 21
83.296534
 31
0.0
  0
LINE
  5
E396
  8
ALPHA
 10
38.633494
 20
84.87456
 30
0.0
 11
37.633494
 21
84.87456
 31
0.0
  0
LINE
  5
E397
  8
ALPHA
 10
37.533494
 20
85.057888
 30
0.0
 11
37.633494
 21
85.070252
 31
0.0
  0
LINE
  5
E398
  8
ALPHA
 10
37.461519
 20
84.796534
 30
0.0
 11
37.383494
 21
84.87456
 31
0.0
  0
LINE
  5
E399
  8
ALPHA
 10
37.513266
 20
83.29497
 30
0.0
 11
37.651865
 21
83.156372
 31
0.0
  0
LINE
  5
E39A
  8
ALPHA
 10
37.461519
 20
83.296534
 30
0.0
 11
37.383494
 21
83.37456
 31
0.0
  0
POLYLINE
  5
E39B
  8
ALPHA
 66
     1
 10
0.0
 20
0.0
 30
0.0
  0
VERTEX
  5
F19D
  8
ALPHA
 10
37.650277
 20
85.228343
 30
0.0
  0
VERTEX
  5
F19E
  8
ALPHA
 10
37.586581
 20
85.217142
 30
0.0
  0
VERTEX
  5
F19F
  8
ALPHA
 10
37.546952
 20
85.204856
 30
0.0
  0
VERTEX
  5
F1A0
  8
ALPHA
 10
37.533494
 20
85.192216
 30
0.0
  0
SEQEND
  5
F1A1
  8
ALPHA
  0
LINE
  5
E39C
  8
ALPHA
 10
37.633494
 20
85.228343
 30
0.0
 11
37.633494
 21
84.87456
 31
0.0
  0
LINE
  5
E39D
  8
ALPHA
 10
37.533494
 20
85.192216
 30
0.0
 11
37.533494
 21
84.974566
 31
0.0
  0
LINE
  5
E39E
  8
ALPHA
 10
37.461519
 20
84.796534
 30
0.0
 11
37.461519
 21
83.296534
 31
0.0
  0
LINE
  5
E39F
  8
ALPHA
 10
37.383494
 20
84.87456
 30
0.0
 11
37.383494
 21
83.37456
 31
0.0
  0
LINE
  5
E3A0
  8
ALPHA
 10
36.933494
 20
80.513414
 30
0.0
 11
36.933494
 21
80.72456
 31
0.0
  0
POLYLINE
  5
E3A1
  8
ALPHA
 66
     1
 10
0.0
 20
0.0
 30
0.0
  0
VERTEX
  5
F1A2
  8
ALPHA
 10
37.883494
 20
85.308953
 30
0.0
  0
VERTEX
  5
F1A3
  8
ALPHA
 10
37.857567
 20
85.279265
 30
0.0
  0
VERTEX
  5
F1A4
  8
ALPHA
 10
37.778314
 20
85.251704
 30
0.0
  0
VERTEX
  5
F1A5
  8
ALPHA
 10
37.650277
 20
85.228343
 30
0.0
  0
SEQEND
  5
F1A6
  8
ALPHA
  0
ARC
  5
E3A2
  8
ALPHA
 10
39.033494
 20
80.72456
 30
0.0
 40
3.3
 50
77.844888
 51
80.135249
  0
POLYLINE
  5
E3A3
  8
ALPHA
 66
     1
 10
0.0
 20
0.0
 30
0.0
  0
VERTEX
  5
F1A7
  8
ALPHA
 10
40.020254
 20
84.157871
 30
0.0
  0
VERTEX
  5
F1A8
  8
ALPHA
 10
40.098893
 20
84.114227
 30
0.0
  0
VERTEX
  5
F1A9
  8
ALPHA
 10
40.150453
 20
84.040528
 30
0.0
  0
VERTEX
  5
F1AA
  8
ALPHA
 10
40.164496
 20
83.951684
 30
0.0
  0
VERTEX
  5
F1AB
  8
ALPHA
 10
40.138185
 20
83.865663
 30
0.0
  0
SEQEND
  5
F1AC
  8
ALPHA
  0
POLYLINE
  5
E3A4
  8
ALPHA
 66
     1
 10
0.0
 20
0.0
 30
0.0
  0
VERTEX
  5
F1AD
  8
ALPHA
 10
39.988696
 20
84.306136
 30
0.0
  0
VERTEX
  5
F1AE
  8
ALPHA
 10
39.91127
 20
84.34654
 30
0.0
  0
VERTEX
  5
F1AF
  8
ALPHA
 10
39.858451
 20
84.416049
 30
0.0
  0
VERTEX
  5
F1B0
  8
ALPHA
 10
39.840257
 20
84.499352
 30
0.0
  0
SEQEND
  5
F1B1
  8
ALPHA
  0
POLYLINE
  5
E3A5
  8
ALPHA
 66
     1
 10
0.0
 20
0.0
 30
0.0
  0
VERTEX
  5
F1B2
  8
ALPHA
 10
39.598873
 20
83.975846
 30
0.0
  0
VERTEX
  5
F1B3
  8
ALPHA
 10
39.514289
 20
84.012141
 30
0.0
  0
VERTEX
  5
F1B4
  8
ALPHA
 10
39.45483
 20
84.082839
 30
0.0
  0
VERTEX
  5
F1B5
  8
ALPHA
 10
39.433494
 20
84.172722
 30
0.0
  0
SEQEND
  5
F1B6
  8
ALPHA
  0
LINE
  5
E3A6
  8
ALPHA
 10
38.750489
 20
84.457382
 30
0.0
 11
38.851682
 21
84.356189
 31
0.0
  0
POLYLINE
  5
E3A7
  8
ALPHA
 66
     1
 10
0.0
 20
0.0
 30
0.0
  0
VERTEX
  5
F1B7
  8
ALPHA
 10
39.431294
 20
82.913571
 30
0.0
  0
VERTEX
  5
F1B8
  8
ALPHA
 10
39.505751
 20
82.905038
 30
0.0
  0
VERTEX
  5
F1B9
  8
ALPHA
 10
39.577472
 20
82.89448
 30
0.0
  0
SEQEND
  5
F1BA
  8
ALPHA
  0
LINE
  5
E3A8
  8
ALPHA
 10
40.040227
 20
84.499352
 30
0.0
 11
39.840257
 21
84.499352
 31
0.0
  0
POLYLINE
  5
E3A9
  8
ALPHA
 66
     1
 10
0.0
 20
0.0
 30
0.0
  0
VERTEX
  5
F1BB
  8
ALPHA
 10
40.040227
 20
85.011944
 30
0.0
  0
VERTEX
  5
F1BC
  8
ALPHA
 10
39.966869
 20
85.011794
 30
0.0
  0
VERTEX
  5
F1BD
  8
ALPHA
 10
39.902427
 20
85.012162
 30
0.0
  0
VERTEX
  5
F1BE
  8
ALPHA
 10
39.856759
 20
85.011737
 30
0.0
  0
VERTEX
  5
F1BF
  8
ALPHA
 10
39.840257
 20
85.011944
 30
0.0
  0
SEQEND
  5
F1C0
  8
ALPHA
  0
POLYLINE
  5
E3AA
  8
ALPHA
 66
     1
 10
0.0
 20
0.0
 30
0.0
  0
VERTEX
  5
F1C1
  8
ALPHA
 10
40.64071
 20
82.28062
 30
0.0
  0
VERTEX
  5
F1C2
  8
ALPHA
 10
40.685717
 20
82.223783
 30
0.0
  0
VERTEX
  5
F1C3
  8
ALPHA
 10
40.730332
 20
82.163571
 30
0.0
  0
SEQEND
  5
F1C4
  8
ALPHA
  0
POLYLINE
  5
E3AB
  8
ALPHA
 66
     1
 10
0.0
 20
0.0
 30
0.0
  0
VERTEX
  5
F1C5
  8
ALPHA
 10
39.23855
 20
82.814524
 30
0.0
  0
VERTEX
  5
F1C6
  8
ALPHA
 10
39.314098
 20
82.821573
 30
0.0
  0
VERTEX
  5
F1C7
  8
ALPHA
 10
39.381584
 20
82.856253
 30
0.0
  0
VERTEX
  5
F1C8
  8
ALPHA
 10
39.431294
 20
82.913571
 30
0.0
  0
SEQEND
  5
F1C9
  8
ALPHA
  0
POLYLINE
  5
E3AC
  8
ALPHA
 66
     1
 10
0.0
 20
0.0
 30
0.0
  0
VERTEX
  5
F1CA
  8
ALPHA
 10
40.6591
 20
82.053998
 30
0.0
  0
VERTEX
  5
F1CB
  8
ALPHA
 10
40.621843
 20
82.124869
 30
0.0
  0
VERTEX
  5
F1CC
  8
ALPHA
 10
40.615368
 20
82.204674
 30
0.0
  0
VERTEX
  5
F1CD
  8
ALPHA
 10
40.64071
 20
82.28062
 30
0.0
  0
SEQEND
  5
F1CE
  8
ALPHA
  0
LINE
  5
E3AD
  8
ALPHA
 10
40.040227
 20
84.49959
 30
0.0
 11
40.040227
 21
85.011944
 31
0.0
  0
LINE
  5
E3AE
  8
ALPHA
 10
39.840257
 20
84.499353
 30
0.0
 11
39.840257
 21
85.011944
 31
0.0
  0
LINE
  5
E3AF
  8
ALPHA
 10
38.750489
 20
84.757565
 30
0.0
 11
38.750489
 21
84.457382
 31
0.0
  0
LINE
  5
E3B0
  8
ALPHA
 10
40.040227
 20
85.011944
 30
0.0
 11
40.081204
 21
85.20767
 31
0.0
  0
POLYLINE
  5
E3B1
  8
ALPHA
 66
     1
 10
0.0
 20
0.0
 30
0.0
  0
VERTEX
  5
F1CF
  8
ALPHA
 10
40.730332
 20
82.163571
 30
0.0
  0
VERTEX
  5
F1D0
  8
ALPHA
 10
40.705549
 20
82.091861
 30
0.0
  0
VERTEX
  5
F1D1
  8
ALPHA
 10
40.709258
 20
82.016077
 30
0.0
  0
VERTEX
  5
F1D2
  8
ALPHA
 10
40.740928
 20
81.947126
 30
0.0
  0
SEQEND
  5
F1D3
  8
ALPHA
  0
POLYLINE
  5
E3B2
  8
ALPHA
 66
     1
 10
0.0
 20
0.0
 30
0.0
  0
VERTEX
  5
F1D4
  8
ALPHA
 10
39.8594
 20
83.655072
 30
0.0
  0
VERTEX
  5
F1D5
  8
ALPHA
 10
39.88592
 20
83.744472
 30
0.0
  0
VERTEX
  5
F1D6
  8
ALPHA
 10
39.86903
 20
83.836173
 30
0.0
  0
VERTEX
  5
F1D7
  8
ALPHA
 10
39.812396
 20
83.910242
 30
0.0
  0
VERTEX
  5
F1D8
  8
ALPHA
 10
39.728338
 20
83.950578
 30
0.0
  0
SEQEND
  5
F1D9
  8
ALPHA
  0
POLYLINE
  5
E3B3
  8
ALPHA
 66
     1
 10
0.0
 20
0.0
 30
0.0
  0
VERTEX
  5
F1DA
  8
ALPHA
 10
40.040227
 20
84.499352
 30
0.0
  0
VERTEX
  5
F1DB
  8
ALPHA
 10
40.020876
 20
84.427175
 30
0.0
  0
VERTEX
  5
F1DC
  8
ALPHA
 10
40.004411
 20
84.36467
 30
0.0
  0
VERTEX
  5
F1DD
  8
ALPHA
 10
39.992824
 20
84.321956
 30
0.0
  0
VERTEX
  5
F1DE
  8
ALPHA
 10
39.988696
 20
84.306136
 30
0.0
  0
SEQEND
  5
F1DF
  8
ALPHA
  0
POLYLINE
  5
E3B4
  8
ALPHA
 66
     1
 10
0.0
 20
0.0
 30
0.0
  0
VERTEX
  5
F1E0
  8
ALPHA
 10
39.840257
 20
85.011944
 30
0.0
  0
VERTEX
  5
F1E1
  8
ALPHA
 10
39.859926
 20
85.098353
 30
0.0
  0
VERTEX
  5
F1E2
  8
ALPHA
 10
39.915053
 20
85.167831
 30
0.0
  0
VERTEX
  5
F1E3
  8
ALPHA
 10
39.994761
 20
85.206644
 30
0.0
  0
VERTEX
  5
F1E4
  8
ALPHA
 10
40.081204
 20
85.20767
 30
0.0
  0
SEQEND
  5
F1E5
  8
ALPHA
  0
LINE
  5
E3B5
  8
ALPHA
 10
40.138185
 20
83.865663
 30
0.0
 11
39.577472
 21
82.89448
 31
0.0
  0
LINE
  5
E3B6
  8
ALPHA
 10
39.8594
 20
83.655072
 30
0.0
 11
39.431294
 21
82.913571
 31
0.0
  0
POLYLINE
  5
E3B7
  8
ALPHA
 66
     1
 10
0.0
 20
0.0
 30
0.0
  0
VERTEX
  5
F1E6
  8
ALPHA
 10
39.577472
 20
82.89448
 30
0.0
  0
VERTEX
  5
F1E7
  8
ALPHA
 10
39.524373
 20
82.83456
 30
0.0
  0
VERTEX
  5
F1E8
  8
ALPHA
 10
39.452022
 20
82.800265
 30
0.0
  0
VERTEX
  5
F1E9
  8
ALPHA
 10
39.372017
 20
82.797095
 30
0.0
  0
SEQEND
  5
F1EA
  8
ALPHA
  0
POLYLINE
  5
E3B8
  8
ALPHA
 66
     1
 10
0.0
 20
0.0
 30
0.0
  0
VERTEX
  5
F1EB
  8
ALPHA
 10
40.138185
 20
83.865663
 30
0.0
  0
VERTEX
  5
F1EC
  8
ALPHA
 10
39.99843
 20
83.761034
 30
0.0
  0
VERTEX
  5
F1ED
  8
ALPHA
 10
39.8594
 20
83.655072
 30
0.0
  0
SEQEND
  5
F1EE
  8
ALPHA
  0
POLYLINE
  5
E3B9
  8
ALPHA
 66
     1
 10
0.0
 20
0.0
 30
0.0
  0
VERTEX
  5
F1EF
  8
ALPHA
 10
39.433494
 20
84.172722
 30
0.0
  0
VERTEX
  5
F1F0
  8
ALPHA
 10
39.567012
 20
84.283244
 30
0.0
  0
VERTEX
  5
F1F1
  8
ALPHA
 10
39.702573
 20
84.39205
 30
0.0
  0
VERTEX
  5
F1F2
  8
ALPHA
 10
39.840257
 20
84.499353
 30
0.0
  0
SEQEND
  5
F1F3
  8
ALPHA
  0
POLYLINE
  5
E3BA
  8
ALPHA
 66
     1
 10
0.0
 20
0.0
 30
0.0
  0
VERTEX
  5
F1F4
  8
ALPHA
 10
39.599184
 20
83.975713
 30
0.0
  0
VERTEX
  5
F1F5
  8
ALPHA
 10
39.726614
 20
84.087391
 30
0.0
  0
VERTEX
  5
F1F6
  8
ALPHA
 10
39.856434
 20
84.197469
 30
0.0
  0
VERTEX
  5
F1F7
  8
ALPHA
 10
39.9887
 20
84.306135
 30
0.0
  0
SEQEND
  5
F1F8
  8
ALPHA
  0
POLYLINE
  5
E3BB
  8
ALPHA
 66
     1
 10
0.0
 20
0.0
 30
0.0
  0
VERTEX
  5
F1F9
  8
ALPHA
 10
40.020254
 20
84.157871
 30
0.0
  0
VERTEX
  5
F1FA
  8
ALPHA
 10
39.922853
 20
84.089389
 30
0.0
  0
VERTEX
  5
F1FB
  8
ALPHA
 10
39.825578
 20
84.020331
 30
0.0
  0
VERTEX
  5
F1FC
  8
ALPHA
 10
39.728338
 20
83.950578
 30
0.0
  0
SEQEND
  5
F1FD
  8
ALPHA
  0
LINE
  5
E3BC
  8
ALPHA
 10
38.533494
 20
86.17456
 30
0.0
 11
38.533494
 21
85.57456
 31
0.0
  0
LINE
  5
E3BD
  8
ALPHA
 10
37.738568
 20
86.17456
 30
0.0
 11
37.738568
 21
85.57456
 31
0.0
  0
LINE
  5
E3BE
  8
ALPHA
 10
37.533494
 20
85.451062
 30
0.0
 11
37.533494
 21
85.57456
 31
0.0
  0
POLYLINE
  5
E3BF
  8
ALPHA
 66
     1
 10
0.0
 20
0.0
 30
0.0
  0
VERTEX
  5
F1FE
  8
ALPHA
 10
39.433494
 20
85.51052
 30
0.0
  0
VERTEX
  5
F1FF
  8
ALPHA
 10
39.452722
 20
85.596092
 30
0.0
  0
VERTEX
  5
F200
  8
ALPHA
 10
39.506717
 20
85.665204
 30
0.0
  0
VERTEX
  5
F201
  8
ALPHA
 10
39.585097
 20
85.704558
 30
0.0
  0
VERTEX
  5
F202
  8
ALPHA
 10
39.672779
 20
85.706586
 30
0.0
  0
SEQEND
  5
F203
  8
ALPHA
  0
ARC
  5
E3C0
  8
ALPHA
 10
41.98016
 20
83.27939
 30
0.0
 40
0.6
 50
220.926063
 51
309.261554
  0
ARC
  5
E3C1
  8
ALPHA
 10
39.033494
 20
80.72456
 30
0.0
 40
3.3
 50
40.926063
 51
42.155142
  0
POLYLINE
  5
E3C2
  8
ALPHA
 66
     1
 10
0.0
 20
0.0
 30
0.0
  0
VERTEX
  5
F204
  8
ALPHA
 10
42.281652
 20
85.121872
 30
0.0
  0
VERTEX
  5
F205
  8
ALPHA
 10
42.360141
 20
85.082559
 30
0.0
  0
VERTEX
  5
F206
  8
ALPHA
 10
42.414227
 20
85.013423
 30
0.0
  0
VERTEX
  5
F207
  8
ALPHA
 10
42.433494
 20
84.92778
 30
0.0
  0
SEQEND
  5
F208
  8
ALPHA
  0
POLYLINE
  5
E3C3
  8
ALPHA
 66
     1
 10
0.0
 20
0.0
 30
0.0
  0
VERTEX
  5
F209
  8
ALPHA
 10
41.479883
 20
82.939323
 30
0.0
  0
VERTEX
  5
F20A
  8
ALPHA
 10
41.402926
 20
82.991955
 30
0.0
  0
VERTEX
  5
F20B
  8
ALPHA
 10
41.310462
 20
83.003966
 30
0.0
  0
VERTEX
  5
F20C
  8
ALPHA
 10
41.222603
 20
82.972743
 30
0.0
  0
VERTEX
  5
F20D
  8
ALPHA
 10
41.15844
 20
82.905076
 30
0.0
  0
SEQEND
  5
F20E
  8
ALPHA
  0
POLYLINE
  5
E3C4
  8
ALPHA
 66
     1
 10
0.0
 20
0.0
 30
0.0
  0
VERTEX
  5
F20F
  8
ALPHA
 10
41.873834
 20
84.803022
 30
0.0
  0
VERTEX
  5
F210
  8
ALPHA
 10
41.953389
 20
84.763418
 30
0.0
  0
VERTEX
  5
F211
  8
ALPHA
 10
42.007923
 20
84.693296
 30
0.0
  0
VERTEX
  5
F212
  8
ALPHA
 10
42.02673
 20
84.608672
 30
0.0
  0
SEQEND
  5
F213
  8
ALPHA
  0
POLYLINE
  5
E3C5
  8
ALPHA
 66
     1
 10
0.0
 20
0.0
 30
0.0
  0
VERTEX
  5
F214
  8
ALPHA
 10
42.433494
 20
82.969824
 30
0.0
  0
VERTEX
  5
F215
  8
ALPHA
 10
42.40088
 20
82.985681
 30
0.0
  0
VERTEX
  5
F216
  8
ALPHA
 10
42.370633
 20
83.001195
 30
0.0
  0
VERTEX
  5
F217
  8
ALPHA
 10
42.342675
 20
83.016347
 30
0.0
  0
VERTEX
  5
F218
  8
ALPHA
 10
42.316975
 20
83.031091
 30
0.0
  0
VERTEX
  5
F219
  8
ALPHA
 10
42.29349
 20
83.045374
 30
0.0
  0
VERTEX
  5
F21A
  8
ALPHA
 10
42.272063
 20
83.059212
 30
0.0
  0
VERTEX
  5
F21B
  8
ALPHA
 10
42.252476
 20
83.072671
 30
0.0
  0
VERTEX
  5
F21C
  8
ALPHA
 10
42.234503
 20
83.085842
 30
0.0
  0
VERTEX
  5
F21D
  8
ALPHA
 10
42.217913
 20
83.098851
 30
0.0
  0
VERTEX
  5
F21E
  8
ALPHA
 10
42.202525
 20
83.111818
 30
0.0
  0
VERTEX
  5
F21F
  8
ALPHA
 10
42.188299
 20
83.12477
 30
0.0
  0
VERTEX
  5
F220
  8
ALPHA
 10
42.175306
 20
83.137628
 30
0.0
  0
VERTEX
  5
F221
  8
ALPHA
 10
42.163526
 20
83.150391
 30
0.0
  0
VERTEX
  5
F222
  8
ALPHA
 10
42.152776
 20
83.163253
 30
0.0
  0
VERTEX
  5
F223
  8
ALPHA
 10
42.142854
 20
83.176549
 30
0.0
  0
VERTEX
  5
F224
  8
ALPHA
 10
42.133587
 20
83.190729
 30
0.0
  0
VERTEX
  5
F225
  8
ALPHA
 10
42.124938
 20
83.206459
 30
0.0
  0
VERTEX
  5
F226
  8
ALPHA
 10
42.117007
 20
83.224661
 30
0.0
  0
SEQEND
  5
F227
  8
ALPHA
  0
POLYLINE
  5
E3C6
  8
ALPHA
 66
     1
 10
0.0
 20
0.0
 30
0.0
  0
VERTEX
  5
F228
  8
ALPHA
 10
42.283649
 20
82.836203
 30
0.0
  0
VERTEX
  5
F229
  8
ALPHA
 10
42.213527
 20
82.855958
 30
0.0
  0
VERTEX
  5
F22A
  8
ALPHA
 10
42.180699
 20
82.865407
 30
0.0
  0
VERTEX
  5
F22B
  8
ALPHA
 10
42.149143
 20
82.874682
 30
0.0
  0
VERTEX
  5
F22C
  8
ALPHA
 10
42.118563
 20
82.883926
 30
0.0
  0
VERTEX
  5
F22D
  8
ALPHA
 10
42.088619
 20
82.893325
 30
0.0
  0
VERTEX
  5
F22E
  8
ALPHA
 10
42.058908
 20
82.903121
 30
0.0
  0
VERTEX
  5
F22F
  8
ALPHA
 10
42.029047
 20
82.91361
 30
0.0
  0
VERTEX
  5
F230
  8
ALPHA
 10
41.998882
 20
82.925078
 30
0.0
  0
VERTEX
  5
F231
  8
ALPHA
 10
41.968539
 20
82.937774
 30
0.0
  0
VERTEX
  5
F232
  8
ALPHA
 10
41.938033
 20
82.952055
 30
0.0
  0
VERTEX
  5
F233
  8
ALPHA
 10
41.906966
 20
82.968609
 30
0.0
  0
VERTEX
  5
F234
  8
ALPHA
 10
41.874741
 20
82.988544
 30
0.0
  0
VERTEX
  5
F235
  8
ALPHA
 10
41.840691
 20
83.013673
 30
0.0
  0
VERTEX
  5
F236
  8
ALPHA
 10
41.804271
 20
83.047002
 30
0.0
  0
VERTEX
  5
F237
  8
ALPHA
 10
41.76595
 20
83.093664
 30
0.0
  0
SEQEND
  5
F238
  8
ALPHA
  0
LINE
  5
E3C7
  8
ALPHA
 10
42.360177
 20
82.815076
 30
0.0
 11
42.283649
 21
82.836203
 31
0.0
  0
LINE
  5
E3C8
  8
ALPHA
 10
41.82676
 20
84.608672
 30
0.0
 11
42.02673
 21
84.608672
 31
0.0
  0
LINE
  5
E3C9
  8
ALPHA
 10
41.82676
 20
83.455902
 30
0.0
 11
42.02673
 21
83.455902
 31
0.0
  0
POLYLINE
  5
E3CA
  8
ALPHA
 66
     1
 10
0.0
 20
0.0
 30
0.0
  0
VERTEX
  5
F239
  8
ALPHA
 10
41.76595
 20
83.093664
 30
0.0
  0
VERTEX
  5
F23A
  8
ALPHA
 10
41.725227
 20
83.206405
 30
0.0
  0
VERTEX
  5
F23B
  8
ALPHA
 10
41.683776
 20
83.316104
 30
0.0
  0
SEQEND
  5
F23C
  8
ALPHA
  0
POLYLINE
  5
E3CB
  8
ALPHA
 66
     1
 10
0.0
 20
0.0
 30
0.0
  0
VERTEX
  5
F23D
  8
ALPHA
 10
42.117007
 20
83.224661
 30
0.0
  0
VERTEX
  5
F23E
  8
ALPHA
 10
42.072212
 20
83.341957
 30
0.0
  0
VERTEX
  5
F23F
  8
ALPHA
 10
42.02673
 20
83.455912
 30
0.0
  0
SEQEND
  5
F240
  8
ALPHA
  0
LINE
  5
E3CC
  8
ALPHA
 10
42.433494
 20
82.969824
 30
0.0
 11
42.433494
 21
84.92778
 31
0.0
  0
LINE
  5
E3CD
  8
ALPHA
 10
42.02673
 20
84.608672
 30
0.0
 11
42.02673
 21
83.455912
 31
0.0
  0
LINE
  5
E3CE
  8
ALPHA
 10
41.82676
 20
84.608672
 30
0.0
 11
41.82676
 21
83.455989
 31
0.0
  0
POLYLINE
  5
E3CF
  8
ALPHA
 66
     1
 10
0.0
 20
0.0
 30
0.0
  0
VERTEX
  5
F241
  8
ALPHA
 10
41.479883
 20
82.939323
 30
0.0
  0
VERTEX
  5
F242
  8
ALPHA
 10
41.497744
 20
83.122229
 30
0.0
  0
VERTEX
  5
F243
  8
ALPHA
 10
41.513448
 20
83.295775
 30
0.0
  0
SEQEND
  5
F244
  8
ALPHA
  0
POLYLINE
  5
E3D0
  8
ALPHA
 66
     1
 10
0.0
 20
0.0
 30
0.0
  0
VERTEX
  5
F245
  8
ALPHA
 10
42.02673
 20
83.455902
 30
0.0
  0
VERTEX
  5
F246
  8
ALPHA
 10
42.012053
 20
83.380899
 30
0.0
  0
VERTEX
  5
F247
  8
ALPHA
 10
41.96901
 20
83.315573
 30
0.0
  0
VERTEX
  5
F248
  8
ALPHA
 10
41.903494
 20
83.271437
 30
0.0
  0
VERTEX
  5
F249
  8
ALPHA
 10
41.826263
 20
83.256086
 30
0.0
  0
VERTEX
  5
F24A
  8
ALPHA
 10
41.748879
 20
83.271803
 30
0.0
  0
VERTEX
  5
F24B
  8
ALPHA
 10
41.683784
 20
83.316096
 30
0.0
  0
SEQEND
  5
F24C
  8
ALPHA
  0
POLYLINE
  5
E3D1
  8
ALPHA
 66
     1
 10
0.0
 20
0.0
 30
0.0
  0
VERTEX
  5
F24D
  8
ALPHA
 10
42.433494
 20
82.969824
 30
0.0
  0
VERTEX
  5
F24E
  8
ALPHA
 10
42.424857
 20
82.91169
 30
0.0
  0
VERTEX
  5
F24F
  8
ALPHA
 10
42.399694
 20
82.858579
 30
0.0
  0
VERTEX
  5
F250
  8
ALPHA
 10
42.359914
 20
82.814786
 30
0.0
  0
SEQEND
  5
F251
  8
ALPHA
  0
POLYLINE
  5
E3D2
  8
ALPHA
 66
     1
 10
0.0
 20
0.0
 30
0.0
  0
VERTEX
  5
F252
  8
ALPHA
 10
41.15844
 20
82.905076
 30
0.0
  0
VERTEX
  5
F253
  8
ALPHA
 10
41.181236
 20
83.082878
 30
0.0
  0
VERTEX
  5
F254
  8
ALPHA
 10
41.201423
 20
83.251802
 30
0.0
  0
SEQEND
  5
F255
  8
ALPHA
  0
POLYLINE
  5
E3D3
  8
ALPHA
 66
     1
 10
0.0
 20
0.0
 30
0.0
  0
VERTEX
  5
F256
  8
ALPHA
 10
42.117007
 20
83.224661
 30
0.0
  0
VERTEX
  5
F257
  8
ALPHA
 10
42.093842
 20
83.131469
 30
0.0
  0
VERTEX
  5
F258
  8
ALPHA
 10
42.029848
 20
83.059797
 30
0.0
  0
VERTEX
  5
F259
  8
ALPHA
 10
41.939803
 20
83.026197
 30
0.0
  0
VERTEX
  5
F25A
  8
ALPHA
 10
41.844501
 20
83.038427
 30
0.0
  0
VERTEX
  5
F25B
  8
ALPHA
 10
41.76595
 20
83.093664
 30
0.0
  0
SEQEND
  5
F25C
  8
ALPHA
  0
POLYLINE
  5
E3D4
  8
ALPHA
 66
     1
 10
0.0
 20
0.0
 30
0.0
  0
VERTEX
  5
F25D
  8
ALPHA
 10
41.82676
 20
84.608672
 30
0.0
  0
VERTEX
  5
F25E
  8
ALPHA
 10
41.844425
 20
84.681224
 30
0.0
  0
VERTEX
  5
F25F
  8
ALPHA
 10
41.859465
 20
84.744085
 30
0.0
  0
VERTEX
  5
F260
  8
ALPHA
 10
41.870064
 20
84.787106
 30
0.0
  0
VERTEX
  5
F261
  8
ALPHA
 10
41.873834
 20
84.803022
 30
0.0
  0
SEQEND
  5
F262
  8
ALPHA
  0
POLYLINE
  5
E3D5
  8
ALPHA
 66
     1
 10
0.0
 20
0.0
 30
0.0
  0
VERTEX
  5
F263
  8
ALPHA
 10
41.201423
 20
83.251803
 30
0.0
  0
VERTEX
  5
F264
  8
ALPHA
 10
41.262764
 20
83.3176
 30
0.0
  0
VERTEX
  5
F265
  8
ALPHA
 10
41.346727
 20
83.34986
 30
0.0
  0
VERTEX
  5
F266
  8
ALPHA
 10
41.436332
 20
83.342058
 30
0.0
  0
VERTEX
  5
F267
  8
ALPHA
 10
41.513448
 20
83.295775
 30
0.0
  0
SEQEND
  5
F268
  8
ALPHA
  0
LINE
  5
E3D6
  8
ALPHA
 10
41.526827
 20
82.886339
 30
0.0
 11
41.76595
 21
83.093664
 31
0.0
  0
POLYLINE
  5
E3D7
  8
ALPHA
 66
     1
 10
0.0
 20
0.0
 30
0.0
  0
VERTEX
  5
F269
  8
ALPHA
 10
41.82676
 20
83.455902
 30
0.0
  0
VERTEX
  5
F26A
  8
ALPHA
 10
41.78988
 20
83.422251
 30
0.0
  0
VERTEX
  5
F26B
  8
ALPHA
 10
41.758375
 20
83.389261
 30
0.0
  0
VERTEX
  5
F26C
  8
ALPHA
 10
41.731189
 20
83.360543
 30
0.0
  0
VERTEX
  5
F26D
  8
ALPHA
 10
41.708071
 20
83.339083
 30
0.0
  0
VERTEX
  5
F26E
  8
ALPHA
 10
41.691241
 20
83.326622
 30
0.0
  0
VERTEX
  5
F26F
  8
ALPHA
 10
41.683284
 20
83.320412
 30
0.0
  0
VERTEX
  5
F270
  8
ALPHA
 10
41.683784
 20
83.316096
 30
0.0
  0
SEQEND
  5
F271
  8
ALPHA
  0
POLYLINE
  5
E3D8
  8
ALPHA
 66
     1
 10
0.0
 20
0.0
 30
0.0
  0
VERTEX
  5
F272
  8
ALPHA
 10
42.281652
 20
85.121872
 30
0.0
  0
VERTEX
  5
F273
  8
ALPHA
 10
42.145871
 20
85.015909
 30
0.0
  0
VERTEX
  5
F274
  8
ALPHA
 10
42.009931
 20
84.909626
 30
0.0
  0
VERTEX
  5
F275
  8
ALPHA
 10
41.873834
 20
84.803022
 30
0.0
  0
SEQEND
  5
F276
  8
ALPHA
  0
POLYLINE
  5
E3D9
  8
ALPHA
 66
     1
 10
0.0
 20
0.0
 30
0.0
  0
VERTEX
  5
F277
  8
ALPHA
 10
42.433494
 20
84.92778
 30
0.0
  0
VERTEX
  5
F278
  8
ALPHA
 10
42.298061
 20
84.821731
 30
0.0
  0
VERTEX
  5
F279
  8
ALPHA
 10
42.162473
 20
84.715362
 30
0.0
  0
VERTEX
  5
F27A
  8
ALPHA
 10
42.02673
 20
84.608672
 30
0.0
  0
SEQEND
  5
F27B
  8
ALPHA
  0
POLYLINE
  5
E3DA
  8
ALPHA
 66
     1
 10
0.0
 20
0.0
 30
0.0
  0
VERTEX
  5
F27C
  8
ALPHA
 10
43.533494
 20
85.948023
 30
0.0
  0
VERTEX
  5
F27D
  8
ALPHA
 10
43.498641
 20
86.209727
 30
0.0
  0
VERTEX
  5
F27E
  8
ALPHA
 10
43.395293
 20
86.45527
 30
0.0
  0
VERTEX
  5
F27F
  8
ALPHA
 10
43.233784
 20
86.66188
 30
0.0
  0
VERTEX
  5
F280
  8
ALPHA
 10
43.02045
 20
86.82145
 30
0.0
  0
VERTEX
  5
F281
  8
ALPHA
 10
42.774895
 20
86.918452
 30
0.0
  0
SEQEND
  5
F282
  8
ALPHA
  0
VIEWPORT
  5
494D
 67
     1
  8
0
 10
4.995325
 20
6.556512
 30
0.0
 40
22.70986
 41
13.988421
 68
    -1
 69
     1
1001
ACAD
1000
MVIEW
1002
{
1070
    16
1010
0.0
1020
0.0
1030
0.0
1010
0.0
1020
0.0
1030
1.0
1040
0.0
1040
13.988421
1040
4.995325
1040
6.556512
1040
50.0
1040
0.0
1040
0.0
1070
     0
1070
   100
1070
     1
1070
     1
1070
     0
1070
     0
1070
     0
1070
     0
1040
0.0
1040
0.0
1040
0.0
1040
10.0
1040
10.0
1040
10.0
1040
10.0
1070
     0
1002
{
1002
}
1002
}
  0
ENDSEC
  0
EOF
