  0
SECTION
  2
HEADER
  9
$ACADVER
  1
AC1014
  9
$ACADMAINTVER
 70
     0
  9
$DWGCODEPAGE
  3
ANSI_1252
  9
$INSBASE
 10
93.894301
 20
236.06014
 30
0.0
  9
$EXTMIN
 10
-21.867121
 20
-14.672644
 30
0.0
  9
$EXTMAX
 10
80.289843
 20
83.054977
 30
0.0
  9
$LIMMIN
 10
0.0
 20
0.0
  9
$LIMMAX
 10
210.0
 20
297.0
  9
$ORTHOMODE
 70
     0
  9
$REGENMODE
 70
     1
  9
$FILLMODE
 70
     1
  9
$QTEXTMODE
 70
     0
  9
$MIRRTEXT
 70
     0
  9
$DRAGMODE
 70
     1
  9
$LTSCALE
 40
7.0
  9
$OSMODE
 70
  4095
  9
$ATTMODE
 70
     1
  9
$TEXTSIZE
 40
2.5
  9
$TRACEWID
 40
0.05
  9
$TEXTSTYLE
  7
STANDARD
  9
$CLAYER
  8
COTATION1
  9
$CELTYPE
  6
BYLAYER
  9
$CECOLOR
 62
   256
  9
$CELTSCALE
 40
1.0
  9
$DELOBJ
 70
     1
  9
$DISPSILH
 70
     0
  9
$DIMSCALE
 40
1.0
  9
$DIMASZ
 40
3.0
  9
$DIMEXO
 40
0.0625
  9
$DIMDLI
 40
0.38
  9
$DIMRND
 40
0.01
  9
$DIMDLE
 40
0.0
  9
$DIMEXE
 40
0.18
  9
$DIMTP
 40
0.0
  9
$DIMTM
 40
0.0
  9
$DIMTXT
 40
2.5
  9
$DIMCEN
 40
0.09
  9
$DIMTSZ
 40
0.0
  9
$DIMTOL
 70
     0
  9
$DIMLIM
 70
     0
  9
$DIMTIH
 70
     0
  9
$DIMTOH
 70
     0
  9
$DIMSE1
 70
     0
  9
$DIMSE2
 70
     0
  9
$DIMTAD
 70
     1
  9
$DIMZIN
 70
    12
  9
$DIMBLK
  1

  9
$DIMASO
 70
     1
  9
$DIMSHO
 70
     0
  9
$DIMPOST
  1

  9
$DIMAPOST
  1

  9
$DIMALT
 70
     0
  9
$DIMALTD
 70
     2
  9
$DIMALTF
 40
25.4
  9
$DIMLFAC
 40
1.0
  9
$DIMTOFL
 70
     1
  9
$DIMTVP
 40
0.0
  9
$DIMTIX
 70
     0
  9
$DIMSOXD
 70
     0
  9
$DIMSAH
 70
     0
  9
$DIMBLK1
  1

  9
$DIMBLK2
  1

  9
$DIMSTYLE
  2
SC_STAND
  9
$DIMCLRD
 70
     0
  9
$DIMCLRE
 70
     0
  9
$DIMCLRT
 70
     0
  9
$DIMTFAC
 40
1.0
  9
$DIMGAP
 40
1.0
  9
$DIMJUST
 70
     0
  9
$DIMSD1
 70
     0
  9
$DIMSD2
 70
     0
  9
$DIMTOLJ
 70
     1
  9
$DIMTZIN
 70
    12
  9
$DIMALTZ
 70
    12
  9
$DIMALTTZ
 70
    12
  9
$DIMFIT
 70
     5
  9
$DIMUPT
 70
     0
  9
$DIMUNIT
 70
     2
  9
$DIMDEC
 70
     3
  9
$DIMTDEC
 70
     3
  9
$DIMALTU
 70
     2
  9
$DIMALTTD
 70
     2
  9
$DIMTXSTY
  7
STANDARD
  9
$DIMAUNIT
 70
     0
  9
$LUNITS
 70
     2
  9
$LUPREC
 70
     3
  9
$SKETCHINC
 40
0.1
  9
$FILLETRAD
 40
0.0625
  9
$AUNITS
 70
     0
  9
$AUPREC
 70
     0
  9
$MENU
  1
ACAD
  9
$ELEVATION
 40
0.0
  9
$PELEVATION
 40
0.0
  9
$THICKNESS
 40
0.0
  9
$LIMCHECK
 70
     0
  9
$BLIPMODE
 70
     1
  9
$CHAMFERA
 40
0.0
  9
$CHAMFERB
 40
0.0
  9
$CHAMFERC
 40
0.0
  9
$CHAMFERD
 40
0.0
  9
$SKPOLY
 70
     0
  9
$TDCREATE
 40
2450953.590960648
  9
$TDUPDATE
 40
2453877.887057465
  9
$TDINDWG
 40
0.0059469907
  9
$TDUSRTIMER
 40
0.0059469907
  9
$USRTIMER
 70
     1
  9
$ANGBASE
 50
0.0
  9
$ANGDIR
 70
     0
  9
$PDMODE
 70
     0
  9
$PDSIZE
 40
0.0
  9
$PLINEWID
 40
0.0
  9
$COORDS
 70
     0
  9
$SPLFRAME
 70
     0
  9
$SPLINETYPE
 70
     6
  9
$SPLINESEGS
 70
     8
  9
$ATTDIA
 70
     0
  9
$ATTREQ
 70
     1
  9
$HANDLING
 70
     1
  9
$HANDSEED
  5
13F0
  9
$SURFTAB1
 70
     6
  9
$SURFTAB2
 70
     6
  9
$SURFTYPE
 70
     6
  9
$SURFU
 70
     6
  9
$SURFV
 70
     6
  9
$UCSNAME
  2

  9
$UCSORG
 10
0.0
 20
0.0
 30
0.0
  9
$UCSXDIR
 10
1.0
 20
0.0
 30
0.0
  9
$UCSYDIR
 10
0.0
 20
1.0
 30
0.0
  9
$PUCSNAME
  2

  9
$PUCSORG
 10
0.0
 20
0.0
 30
0.0
  9
$PUCSXDIR
 10
1.0
 20
0.0
 30
0.0
  9
$PUCSYDIR
 10
0.0
 20
1.0
 30
0.0
  9
$USERI1
 70
     0
  9
$USERI2
 70
     0
  9
$USERI3
 70
     0
  9
$USERI4
 70
     0
  9
$USERI5
 70
     0
  9
$USERR1
 40
0.0
  9
$USERR2
 40
0.0
  9
$USERR3
 40
0.0
  9
$USERR4
 40
0.0
  9
$USERR5
 40
0.0
  9
$WORLDVIEW
 70
     1
  9
$SHADEDGE
 70
     3
  9
$SHADEDIF
 70
    70
  9
$TILEMODE
 70
     1
  9
$MAXACTVP
 70
    32
  9
$PINSBASE
 10
0.0
 20
0.0
 30
0.0
  9
$PLIMCHECK
 70
     0
  9
$PEXTMIN
 10
-3.174999
 20
-3.175
 30
0.0
  9
$PEXTMAX
 10
203.812116
 20
370.276807
 30
0.0
  9
$PLIMMIN
 10
-3.175
 20
-3.175
  9
$PLIMMAX
 10
203.812115
 20
370.276807
  9
$UNITMODE
 70
     0
  9
$VISRETAIN
 70
     0
  9
$PLINEGEN
 70
     0
  9
$PSLTSCALE
 70
     1
  9
$TREEDEPTH
 70
  3020
  9
$PICKSTYLE
 70
     1
  9
$CMLSTYLE
  2
STANDARD
  9
$CMLJUST
 70
     0
  9
$CMLSCALE
 40
1.0
  9
$PROXYGRAPHICS
 70
     1
  9
$MEASUREMENT
 70
     0
  0
ENDSEC
  0
SECTION
  2
CLASSES
  0
CLASS
  1
DICTIONARYVAR
  2
AcDbDictionaryVar
  3
"AutoCAD"
 90
        0
280
     0
281
     0
  0
CLASS
  1
HATCH
  2
AcDbHatch
  3
"ACAD_SEDONA"
 90
        0
280
     0
281
     1
  0
ENDSEC
  0
SECTION
  2
TABLES
  0
TABLE
  2
VPORT
  5
F4
100
AcDbSymbolTable
 70
     2
  0
VPORT
  5
13EF
100
AcDbSymbolTableRecord
100
AcDbViewportTableRecord
  2
*ACTIVE
 70
     0
 10
0.0
 20
0.0
 11
1.0
 21
1.0
 12
29.211361
 22
34.191167
 13
0.0
 23
0.0
 14
1.0
 24
1.0
 15
10.0
 25
10.0
 16
0.0
 26
0.0
 36
1.0
 17
0.0
 27
0.0
 37
0.0
 40
98.875108
 41
1.966667
 42
50.0
 43
0.0
 44
0.0
 50
0.0
 51
0.0
 71
     0
 72
   100
 73
     1
 74
     1
 75
     0
 76
     1
 77
     0
 78
     0
  0
ENDTAB
  0
TABLE
  2
LTYPE
  5
F1
100
AcDbSymbolTable
 70
     5
  0
LTYPE
  5
FD
100
AcDbSymbolTableRecord
100
AcDbLinetypeTableRecord
  2
BYBLOCK
 70
     0
  3

 72
    65
 73
     0
 40
0.0
  0
LTYPE
  5
FE
100
AcDbSymbolTableRecord
100
AcDbLinetypeTableRecord
  2
BYLAYER
 70
     0
  3

 72
    65
 73
     0
 40
0.0
  0
LTYPE
  5
FF
100
AcDbSymbolTableRecord
100
AcDbLinetypeTableRecord
  2
CONTINUOUS
 70
     0
  3
Solid line
 72
    65
 73
     0
 40
0.0
  0
LTYPE
  5
112
100
AcDbSymbolTableRecord
100
AcDbLinetypeTableRecord
  2
AXES2
 70
     0
  3
___ _ ___ _ ___ _ ___ _ ___ _ ___ _ ___ _ ___ _
 72
    65
 73
     4
 40
1.125
 49
0.75
 74
     0
 49
-0.125
 74
     0
 49
0.125
 74
     0
 49
-0.125
 74
     0
  0
ENDTAB
  0
TABLE
  2
LAYER
  5
EE
100
AcDbSymbolTable
 70
     6
  0
LAYER
  5
FA
100
AcDbSymbolTableRecord
100
AcDbLayerTableRecord
  2
0
 70
     0
 62
     7
  6
CONTINUOUS
  0
LAYER
  5
12C
100
AcDbSymbolTableRecord
100
AcDbLayerTableRecord
  2
ALPHA
 70
     0
 62
   255
  6
CONTINUOUS
  0
LAYER
  5
12D
100
AcDbSymbolTableRecord
100
AcDbLayerTableRecord
  2
AXE
 70
     0
 62
    80
  6
AXES2
  0
LAYER
  5
12F
100
AcDbSymbolTableRecord
100
AcDbLayerTableRecord
  2
COTATION1
 70
     0
 62
     2
  6
CONTINUOUS
  0
LAYER
  5
13B
100
AcDbSymbolTableRecord
100
AcDbLayerTableRecord
  2
ASHADE
 70
     0
 62
     7
  6
CONTINUOUS
  0
LAYER
  5
13E
100
AcDbSymbolTableRecord
100
AcDbLayerTableRecord
  2
DEFPOINTS
 70
     0
 62
     7
  6
CONTINUOUS
  0
ENDTAB
  0
TABLE
  2
STYLE
  5
EF
100
AcDbSymbolTable
 70
     2
  0
STYLE
  5
FB
100
AcDbSymbolTableRecord
100
AcDbTextStyleTableRecord
  2
STANDARD
 70
     0
 40
0.0
 41
1.0
 50
0.0
 71
     0
 42
2.5
  3
txt
  4

  0
ENDTAB
  0
TABLE
  2
VIEW
  5
F2
100
AcDbSymbolTable
 70
     0
  0
ENDTAB
  0
TABLE
  2
UCS
  5
F3
100
AcDbSymbolTable
 70
     0
  0
ENDTAB
  0
TABLE
  2
APPID
  5
F5
100
AcDbSymbolTable
 70
     3
  0
APPID
  5
FC
100
AcDbSymbolTableRecord
100
AcDbRegAppTableRecord
  2
ACAD
 70
     0
  0
APPID
  5
127
100
AcDbSymbolTableRecord
100
AcDbRegAppTableRecord
  2
AVE_RENDER
 70
     0
  0
APPID
  5
128
100
AcDbSymbolTableRecord
100
AcDbRegAppTableRecord
  2
AVE_MATERIAL
 70
     0
  0
ENDTAB
  0
TABLE
  2
DIMSTYLE
  5
F6
100
AcDbSymbolTable
 70
     2
  0
DIMSTYLE
105
129
100
AcDbSymbolTableRecord
100
AcDbDimStyleTableRecord
  2
STANDARD
 70
     0
  3

  4

  5

  6

  7

 40
1.0
 41
0.18
 42
0.0625
 43
0.38
 44
0.18
 45
0.0
 46
0.0
 47
0.0
 48
0.0
140
0.18
141
0.09
142
0.0
143
25.4
144
1.0
145
0.0
146
1.0
147
0.09
 71
     0
 72
     0
 73
     1
 74
     1
 75
     0
 76
     0
 77
     0
 78
     0
170
     0
171
     2
172
     0
173
     0
174
     0
175
     0
176
     0
177
     0
178
     0
270
     2
271
     3
272
     3
273
     2
274
     2
340
FB
275
     0
280
     0
281
     0
282
     0
283
     1
284
    12
285
    12
286
    12
287
     5
288
     0
  0
DIMSTYLE
105
12A
102
{ACAD_REACTORS
330
1363
330
1370
330
1393
330
13B6
330
13DB
330
13E8
102
}
100
AcDbSymbolTableRecord
100
AcDbDimStyleTableRecord
  2
SC_STAND
 70
     0
  3

  4

  5

  6

  7

 40
1.0
 41
3.0
 42
0.0625
 43
0.38
 44
0.18
 45
0.01
 46
0.0
 47
0.0
 48
0.0
140
2.5
141
0.09
142
0.0
143
25.4
144
1.0
145
0.0
146
1.0
147
1.0
 71
     0
 72
     0
 73
     0
 74
     0
 75
     0
 76
     0
 77
     1
 78
    12
170
     0
171
     2
172
     1
173
     0
174
     0
175
     0
176
     0
177
     0
178
     0
270
     2
271
     3
272
     3
273
     2
274
     2
340
FB
275
     0
280
     0
281
     0
282
     0
283
     1
284
    12
285
    12
286
    12
287
     5
288
     0
  0
ENDTAB
  0
TABLE
  2
BLOCK_RECORD
  5
ED
100
AcDbSymbolTable
 70
    13
  0
BLOCK_RECORD
  5
103
100
AcDbSymbolTableRecord
100
AcDbBlockTableRecord
  2
*MODEL_SPACE
  0
BLOCK_RECORD
  5
100
100
AcDbSymbolTableRecord
100
AcDbBlockTableRecord
  2
*PAPER_SPACE
  0
BLOCK_RECORD
  5
108
100
AcDbSymbolTableRecord
100
AcDbBlockTableRecord
  2
AVE_RENDER
  0
BLOCK_RECORD
  5
109
100
AcDbSymbolTableRecord
100
AcDbBlockTableRecord
  2
AVE_GLOBAL
  0
BLOCK_RECORD
  5
10A
100
AcDbSymbolTableRecord
100
AcDbBlockTableRecord
  2
SCH_IS
  0
BLOCK_RECORD
  5
1357
100
AcDbSymbolTableRecord
100
AcDbBlockTableRecord
  2
*D7
  0
BLOCK_RECORD
  5
1364
100
AcDbSymbolTableRecord
100
AcDbBlockTableRecord
  2
*D8
  0
BLOCK_RECORD
  5
1387
100
AcDbSymbolTableRecord
100
AcDbBlockTableRecord
  2
*D9
  0
BLOCK_RECORD
  5
13AA
100
AcDbSymbolTableRecord
100
AcDbBlockTableRecord
  2
*D10
  0
BLOCK_RECORD
  5
13CF
100
AcDbSymbolTableRecord
100
AcDbBlockTableRecord
  2
*D11
  0
BLOCK_RECORD
  5
13DC
100
AcDbSymbolTableRecord
100
AcDbBlockTableRecord
  2
*D12
  0
ENDTAB
  0
ENDSEC
  0
SECTION
  2
BLOCKS
  0
BLOCK
  5
141
100
AcDbEntity
  8
0
100
AcDbBlockBegin
  2
*MODEL_SPACE
 70
     0
 10
0.0
 20
0.0
 30
0.0
  3
*MODEL_SPACE
  1

  0
ENDBLK
  5
142
100
AcDbEntity
  8
0
100
AcDbBlockEnd
  0
BLOCK
  5
13F
100
AcDbEntity
 67
     1
  8
0
100
AcDbBlockBegin
  2
*PAPER_SPACE
 70
     0
 10
0.0
 20
0.0
 30
0.0
  3
*PAPER_SPACE
  1

  0
ENDBLK
  5
140
100
AcDbEntity
 67
     1
  8
0
100
AcDbBlockEnd
  0
BLOCK
  5
8D
100
AcDbEntity
  8
0
100
AcDbBlockBegin
  2
AVE_RENDER
 70
     0
 10
0.0
 20
0.0
 30
0.0
  3
AVE_RENDER
  1
AVE_RENDER
  0
ENDBLK
  5
8E
100
AcDbEntity
  8
0
100
AcDbBlockEnd
  0
BLOCK
  5
90
100
AcDbEntity
  8
0
100
AcDbBlockBegin
  2
AVE_GLOBAL
 70
     0
 10
0.0
 20
0.0
 30
0.0
  3
AVE_GLOBAL
  1
AVE_GLOBAL
  0
ENDBLK
  5
91
100
AcDbEntity
  8
0
100
AcDbBlockEnd
  0
BLOCK
  5
C9
100
AcDbEntity
  8
0
100
AcDbBlockBegin
  2
SCH_IS
 70
     0
 10
0.0
 20
0.0
 30
0.0
  3
SCH_IS
  1

  0
INSERT
  5
C0
100
AcDbEntity
  8
ASHADE
 62
     1
100
AcDbBlockReference
  2
AVE_RENDER
 10
0.0
 20
0.0
 30
0.0
1001
AVE_RENDER
1002
{
1070
     6
1000
Pref
1070
    50
1070
    20
1070
     1
1070
     0
1000

1070
    10
1070
     1
1070
    30
1040
25.4
1070
     1
1040
0.3
1040
0.7
1040
0.0
1040
10.0
1010
-1.0
1020
-1.0
1030
-1.0
1040
0.3
1070
    49
1070
     0
1070
     0
1010
1.0
1020
1.0
1030
1.0
1040
45.0
1070
     1
1070
     0
1000
WCS
1040
0.0
1002
}
  0
INSERT
  5
C1
100
AcDbEntity
  8
ASHADE
 62
     3
100
AcDbBlockReference
  2
AVE_RENDER
 10
0.0
 20
0.0
 30
0.0
1001
AVE_RENDER
1002
{
1070
     0
1000
Full Opt
1070
     0
1070
     1
1070
     1
1070
     1
1070
     0
1070
     0
1070
     0
1070
     1
1070
     1
1040
0.0001
1040
0.0001
1002
}
  0
INSERT
  5
C2
100
AcDbEntity
  8
ASHADE
 62
     4
100
AcDbBlockReference
  2
AVE_RENDER
 10
0.0
 20
0.0
 30
0.0
1001
AVE_RENDER
1002
{
1070
     0
1000
Quick Opt
1070
     0
1070
     1
1070
     1
1070
     1
1070
     0
1070
     0
1070
     1
1002
}
  0
INSERT
  5
C3
100
AcDbEntity
  8
ASHADE
 62
     5
100
AcDbBlockReference
  2
AVE_RENDER
 10
0.0
 20
0.0
 30
0.0
1001
AVE_RENDER
1002
{
1070
     1
1000
Scanl Opt
1070
     2
1070
     0
1070
     2
1040
2.0
1040
4.0
1070
     0
1070
     1
1070
     0
1040
0.03
1002
}
  0
INSERT
  5
C4
100
AcDbEntity
  8
ASHADE
 62
     6
100
AcDbBlockReference
  2
AVE_RENDER
 10
0.0
 20
0.0
 30
0.0
1001
AVE_RENDER
1002
{
1070
     2
1000
Raytr Opt
1070
     2
1070
     0
1070
     2
1040
2.0
1040
4.0
1070
     0
1070
     1
1070
     1
1040
0.03
1070
     3
1040
0.03
1002
}
  0
INSERT
  5
C5
100
AcDbEntity
  8
ASHADE
 62
     7
100
AcDbBlockReference
  2
AVE_RENDER
 10
0.0
 20
0.0
 30
0.0
1001
AVE_RENDER
1002
{
1070
     0
1000
RFile Opt
1070
     5
1070
   640
1070
   480
1070
 10000
1070
     3
1070
    32
1070
    24
1070
     0
1070
     0
1070
     0
1070
     1
1070
     0
1070
     0
1070
     0
1002
}
  0
INSERT
  5
C6
100
AcDbEntity
  8
ASHADE
 62
     8
100
AcDbBlockReference
  2
AVE_RENDER
 10
0.0
 20
0.0
 30
0.0
1001
AVE_RENDER
1002
{
1070
     0
1000
Fog Opt
1070
     0
1070
     0
1040
0.0
1040
1.0
1040
0.0
1040
1.0
1010
0.5
1020
0.5
1030
0.5
1002
}
  0
INSERT
  5
C7
100
AcDbEntity
  8
ASHADE
 62
     9
100
AcDbBlockReference
  2
AVE_RENDER
 10
0.0
 20
0.0
 30
0.0
1001
AVE_RENDER
1002
{
1070
     0
1000
BG Opt
1070
     0
1070
     1
1010
0.0
1020
0.0
1030
0.0
1010
1.0
1020
0.0
1030
0.0
1010
0.0
1020
1.0
1030
0.0
1010
0.0
1020
0.0
1030
1.0
1040
0.5
1040
0.33
1040
0.0
1000

1070
     1
1000

1070
     1
1070
     1
1040
1.0
1040
1.0
1040
0.0
1040
0.0
1070
     0
1002
}
  0
INSERT
  5
C8
100
AcDbEntity
  8
ASHADE
 62
     1
100
AcDbBlockReference
  2
AVE_GLOBAL
 10
0.0
 20
0.0
 30
0.0
1001
AVE_MATERIAL
1002
{
1000
*GLOBAL*
1000
1
1000
Finition globale.
1002
{
1002
}
1002
{
1070
    63
1002
{
1002
{
1010
-1.0
1020
-1.0
1030
-1.0
1002
}
1040
0.1
1000

1040
0.0
1002
{
1002
}
1040
0.0
1002
{
1002
}
1040
0.0
1002
}
1002
{
1002
{
1010
-1.0
1020
-1.0
1030
-1.0
1002
}
1040
0.7
1000

1040
0.0
1002
{
1002
}
1040
0.0
1002
{
1002
}
1040
0.0
1002
}
1002
{
1002
{
1010
-1.0
1020
-1.0
1030
-1.0
1002
}
1040
0.2
1000

1040
0.0
1002
{
1002
}
1040
0.0
1002
{
1002
}
1040
0.0
1002
}
1002
{
1070
     0
1002
{
1070
     1
1002
{
1040
1.0
1040
1.0
1000

1040
0.0
1002
{
1002
}
1040
0.0
1002
{
1002
}
1040
0.0
1002
}
1002
}
1040
1.0
1040
0.0
1040
0.0
1002
}
1002
{
1040
1.0
1040
1.0
1000

1040
0.0
1002
{
1002
}
1040
0.0
1002
{
1002
}
1040
0.0
1002
}
1002
{
1040
0.5
1040
1.0
1000

1040
0.0
1002
{
1002
}
1040
0.0
1002
{
1002
}
1040
0.0
1002
}
1002
{
1070
     0
1040
0.0
1002
{
1002
}
1040
1.0
1002
{
1002
}
1040
0.0
1002
}
1002
{
1040
0.0
1002
{
1002
{
1010
0.0
1020
0.0
1030
0.0
1002
}
1040
1.0
1000

1040
0.0
1002
{
1002
}
1040
0.0
1002
{
1002
}
1040
0.0
1002
}
1002
}
1002
{
1002
{
1070
     1
1002
{
1040
0.0
1040
1.0
1000

1040
0.0
1002
{
1002
}
1040
0.0
1002
{
1002
}
1040
0.0
1002
}
1002
}
1040
0.0
1002
{
1002
}
1010
1.0
1020
0.0
1030
0.0
1010
0.0
1020
1.0
1030
0.0
1010
0.0
1020
0.0
1030
1.0
1070
     0
1002
}
1002
{
1002
{
1040
1.0
1040
1.0
1002
{
1070
     1
1002
{
1040
1.0
1040
1.0
1000

1040
0.0
1002
{
1002
}
1040
0.0
1002
{
1002
}
1040
0.0
1002
}
1002
}
1002
}
1070
     0
1040
0.0
1002
{
1002
}
1002
}
1002
{
1002
}
1002
}
1002
{
1071
        3
1070
     3
1070
     0
1002
{
1070
     2
1070
     0
1070
     0
1040
0.0
1002
}
1070
     0
1070
     2
1002
{
1002
}
1002
}
1002
{
1040
8030.0
1040
190.300003
1040
0.305
1040
228.0
1040
545.0
1040
14.0
1040
17.4
1040
0.456
1002
}
1002
}
  0
ENDBLK
  5
CA
100
AcDbEntity
  8
0
100
AcDbBlockEnd
  0
BLOCK
  5
1371
100
AcDbEntity
  8
0
100
AcDbBlockBegin
  2
*D7
 70
     1
 10
0.0
 20
0.0
 30
0.0
  3
*D7
  1

  0
LINE
  5
1372
100
AcDbEntity
  8
0
  6
BYBLOCK
 62
     0
100
AcDbLine
 10
6.13664
 20
11.857514
 30
0.0
 11
6.13664
 21
-8.747569
 31
0.0
  0
LINE
  5
1373
100
AcDbEntity
  8
0
  6
BYBLOCK
 62
     0
100
AcDbLine
 10
54.136466
 20
12.224787
 30
0.0
 11
54.136466
 21
-8.747569
 31
0.0
  0
LINE
  5
1374
100
AcDbEntity
  8
0
  6
BYBLOCK
 62
     0
100
AcDbLine
 10
9.13664
 20
-8.567569
 30
0.0
 11
51.136466
 21
-8.567569
 31
0.0
  0
SOLID
  5
1375
100
AcDbEntity
  8
0
  6
BYBLOCK
 62
     0
100
AcDbTrace
 10
9.13664
 20
-8.067569
 30
0.0
 11
9.13664
 21
-9.067569
 31
0.0
 12
6.13664
 22
-8.567569
 32
0.0
 13
6.13664
 23
-8.567569
 33
0.0
  0
SOLID
  5
1376
100
AcDbEntity
  8
0
  6
BYBLOCK
 62
     0
100
AcDbTrace
 10
51.136466
 20
-8.067569
 30
0.0
 11
51.136466
 21
-9.067569
 31
0.0
 12
54.136466
 22
-8.567569
 32
0.0
 13
54.136466
 23
-8.567569
 33
0.0
  0
MTEXT
  5
1377
100
AcDbEntity
  8
0
  6
BYBLOCK
 62
     0
100
AcDbMText
 10
30.136553
 20
-6.317569
 30
0.0
 40
2.5
 41
0.0
 71
     5
 72
     1
  1
\A1;48
  0
POINT
  5
1378
100
AcDbEntity
  8
DEFPOINTS
  6
BYBLOCK
 62
     0
100
AcDbPoint
 10
6.13664
 20
11.920014
 30
0.0
  0
POINT
  5
1379
100
AcDbEntity
  8
DEFPOINTS
  6
BYBLOCK
 62
     0
100
AcDbPoint
 10
54.136466
 20
12.287287
 30
0.0
  0
POINT
  5
137A
100
AcDbEntity
  8
DEFPOINTS
  6
BYBLOCK
 62
     0
100
AcDbPoint
 10
54.136466
 20
-8.567569
 30
0.0
  0
ENDBLK
  5
137B
100
AcDbEntity
  8
0
100
AcDbBlockEnd
  0
BLOCK
  5
137C
100
AcDbEntity
  8
0
100
AcDbBlockBegin
  2
*D8
 70
     1
 10
0.0
 20
0.0
 30
0.0
  3
*D8
  1

  0
LINE
  5
137D
100
AcDbEntity
  8
0
  6
BYBLOCK
 62
     0
100
AcDbLine
 10
59.12597
 20
64.802574
 30
0.0
 11
70.148594
 21
64.802574
 31
0.0
  0
LINE
  5
137E
100
AcDbEntity
  8
0
  6
BYBLOCK
 62
     0
100
AcDbLine
 10
59.12597
 20
16.802403
 30
0.0
 11
70.148594
 21
16.802403
 31
0.0
  0
LINE
  5
137F
100
AcDbEntity
  8
0
  6
BYBLOCK
 62
     0
100
AcDbLine
 10
69.968594
 20
61.802574
 30
0.0
 11
69.968594
 21
19.802403
 31
0.0
  0
SOLID
  5
1380
100
AcDbEntity
  8
0
  6
BYBLOCK
 62
     0
100
AcDbTrace
 10
69.468594
 20
61.802574
 30
0.0
 11
70.468594
 21
61.802574
 31
0.0
 12
69.968594
 22
64.802574
 32
0.0
 13
69.968594
 23
64.802574
 33
0.0
  0
SOLID
  5
1381
100
AcDbEntity
  8
0
  6
BYBLOCK
 62
     0
100
AcDbTrace
 10
69.468594
 20
19.802403
 30
0.0
 11
70.468594
 21
19.802403
 31
0.0
 12
69.968594
 22
16.802403
 32
0.0
 13
69.968594
 23
16.802403
 33
0.0
  0
MTEXT
  5
1382
100
AcDbEntity
  8
0
  6
BYBLOCK
 62
     0
100
AcDbMText
 10
67.718594
 20
40.802489
 30
0.0
 40
2.5
 41
0.0
 71
     5
 72
     1
  1
\A1;48
 11
0.0
 21
1.0
 31
0.0
  0
POINT
  5
1383
100
AcDbEntity
  8
DEFPOINTS
  6
BYBLOCK
 62
     0
100
AcDbPoint
 10
59.06347
 20
64.802574
 30
0.0
  0
POINT
  5
1384
100
AcDbEntity
  8
DEFPOINTS
  6
BYBLOCK
 62
     0
100
AcDbPoint
 10
59.06347
 20
16.802403
 30
0.0
  0
POINT
  5
1385
100
AcDbEntity
  8
DEFPOINTS
  6
BYBLOCK
 62
     0
100
AcDbPoint
 10
69.968594
 20
16.802403
 30
0.0
  0
ENDBLK
  5
1386
100
AcDbEntity
  8
0
100
AcDbBlockEnd
  0
BLOCK
  5
139F
100
AcDbEntity
  8
0
100
AcDbBlockBegin
  2
*D9
 70
     1
 10
0.0
 20
0.0
 30
0.0
  3
*D9
  1

  0
LINE
  5
13A0
100
AcDbEntity
  8
0
  6
BYBLOCK
 62
     0
100
AcDbLine
 10
57.749826
 20
-0.697304
 30
0.0
 11
70.148594
 21
-0.697304
 31
0.0
  0
LINE
  5
13A1
100
AcDbEntity
  8
0
  6
BYBLOCK
 62
     0
100
AcDbLine
 10
64.699782
 20
16.802403
 30
0.0
 11
70.148594
 21
16.802403
 31
0.0
  0
LINE
  5
13A2
100
AcDbEntity
  8
0
  6
BYBLOCK
 62
     0
100
AcDbLine
 10
69.968594
 20
2.302696
 30
0.0
 11
69.968594
 21
13.802403
 31
0.0
  0
SOLID
  5
13A3
100
AcDbEntity
  8
0
  6
BYBLOCK
 62
     0
100
AcDbTrace
 10
69.468594
 20
2.302696
 30
0.0
 11
70.468594
 21
2.302696
 31
0.0
 12
69.968594
 22
-0.697304
 32
0.0
 13
69.968594
 23
-0.697304
 33
0.0
  0
SOLID
  5
13A4
100
AcDbEntity
  8
0
  6
BYBLOCK
 62
     0
100
AcDbTrace
 10
69.468594
 20
13.802403
 30
0.0
 11
70.468594
 21
13.802403
 31
0.0
 12
69.968594
 22
16.802403
 32
0.0
 13
69.968594
 23
16.802403
 33
0.0
  0
MTEXT
  5
13A5
100
AcDbEntity
  8
0
  6
BYBLOCK
 62
     0
100
AcDbMText
 10
67.718594
 20
8.05255
 30
0.0
 40
2.5
 41
0.0
 71
     5
 72
     1
  1
\A1;=
 11
0.0
 21
1.0
 31
0.0
  0
POINT
  5
13A6
100
AcDbEntity
  8
DEFPOINTS
  6
BYBLOCK
 62
     0
100
AcDbPoint
 10
57.687326
 20
-0.697304
 30
0.0
  0
POINT
  5
13A7
100
AcDbEntity
  8
DEFPOINTS
  6
BYBLOCK
 62
     0
100
AcDbPoint
 10
64.637282
 20
16.802403
 30
0.0
  0
POINT
  5
13A8
100
AcDbEntity
  8
DEFPOINTS
  6
BYBLOCK
 62
     0
100
AcDbPoint
 10
69.968594
 20
16.802403
 30
0.0
  0
ENDBLK
  5
13A9
100
AcDbEntity
  8
0
100
AcDbBlockEnd
  0
BLOCK
  5
13C2
100
AcDbEntity
  8
0
100
AcDbBlockBegin
  2
*D10
 70
     1
 10
0.0
 20
0.0
 30
0.0
  3
*D10
  1

  0
LINE
  5
13C3
100
AcDbEntity
  8
0
  6
BYBLOCK
 62
     0
100
AcDbLine
 10
57.749826
 20
82.302626
 30
0.0
 11
70.148594
 21
82.302626
 31
0.0
  0
LINE
  5
13C4
100
AcDbEntity
  8
0
  6
BYBLOCK
 62
     0
100
AcDbLine
 10
64.699782
 20
64.802574
 30
0.0
 11
70.148594
 21
64.802574
 31
0.0
  0
LINE
  5
13C5
100
AcDbEntity
  8
0
  6
BYBLOCK
 62
     0
100
AcDbLine
 10
69.968594
 20
79.302626
 30
0.0
 11
69.968594
 21
67.802574
 31
0.0
  0
SOLID
  5
13C6
100
AcDbEntity
  8
0
  6
BYBLOCK
 62
     0
100
AcDbTrace
 10
69.468594
 20
79.302626
 30
0.0
 11
70.468594
 21
79.302626
 31
0.0
 12
69.968594
 22
82.302626
 32
0.0
 13
69.968594
 23
82.302626
 33
0.0
  0
SOLID
  5
13C7
100
AcDbEntity
  8
0
  6
BYBLOCK
 62
     0
100
AcDbTrace
 10
69.468594
 20
67.802574
 30
0.0
 11
70.468594
 21
67.802574
 31
0.0
 12
69.968594
 22
64.802574
 32
0.0
 13
69.968594
 23
64.802574
 33
0.0
  0
MTEXT
  5
13C8
100
AcDbEntity
  8
0
  6
BYBLOCK
 62
     0
100
AcDbMText
 10
67.718594
 20
73.5526
 30
0.0
 40
2.5
 41
0.0
 71
     5
 72
     1
  1
\A1;=
 11
0.0
 21
1.0
 31
0.0
  0
POINT
  5
13C9
100
AcDbEntity
  8
DEFPOINTS
  6
BYBLOCK
 62
     0
100
AcDbPoint
 10
57.687326
 20
82.302626
 30
0.0
  0
POINT
  5
13CA
100
AcDbEntity
  8
DEFPOINTS
  6
BYBLOCK
 62
     0
100
AcDbPoint
 10
64.637282
 20
64.802574
 30
0.0
  0
POINT
  5
13CB
100
AcDbEntity
  8
DEFPOINTS
  6
BYBLOCK
 62
     0
100
AcDbPoint
 10
69.968594
 20
64.802574
 30
0.0
  0
ENDBLK
  5
13CC
100
AcDbEntity
  8
0
100
AcDbBlockEnd
  0
BLOCK
  5
13D0
100
AcDbEntity
  8
0
100
AcDbBlockBegin
  2
*D11
 70
     1
 10
0.0
 20
0.0
 30
0.0
  3
*D11
  1

  0
LINE
  5
13D1
100
AcDbEntity
  8
0
  6
BYBLOCK
 62
     0
100
AcDbLine
 10
0.136489
 20
3.50488
 30
0.0
 11
0.136489
 21
-14.343133
 31
0.0
  0
LINE
  5
13D2
100
AcDbEntity
  8
0
  6
BYBLOCK
 62
     0
100
AcDbLine
 10
60.136617
 20
3.50488
 30
0.0
 11
60.136617
 21
-14.343133
 31
0.0
  0
LINE
  5
13D3
100
AcDbEntity
  8
0
  6
BYBLOCK
 62
     0
100
AcDbLine
 10
3.136489
 20
-14.163133
 30
0.0
 11
57.136617
 21
-14.163133
 31
0.0
  0
SOLID
  5
13D4
100
AcDbEntity
  8
0
  6
BYBLOCK
 62
     0
100
AcDbTrace
 10
3.136489
 20
-13.663133
 30
0.0
 11
3.136489
 21
-14.663133
 31
0.0
 12
0.136489
 22
-14.163133
 32
0.0
 13
0.136489
 23
-14.163133
 33
0.0
  0
SOLID
  5
13D5
100
AcDbEntity
  8
0
  6
BYBLOCK
 62
     0
100
AcDbTrace
 10
57.136617
 20
-13.663133
 30
0.0
 11
57.136617
 21
-14.663133
 31
0.0
 12
60.136617
 22
-14.163133
 32
0.0
 13
60.136617
 23
-14.163133
 33
0.0
  0
MTEXT
  5
13D6
100
AcDbEntity
  8
0
  6
BYBLOCK
 62
     0
100
AcDbMText
 10
30.136553
 20
-11.913133
 30
0.0
 40
2.5
 41
0.0
 71
     5
 72
     1
  1
\A1;60
  0
POINT
  5
13D7
100
AcDbEntity
  8
DEFPOINTS
  6
BYBLOCK
 62
     0
100
AcDbPoint
 10
0.136489
 20
3.56738
 30
0.0
  0
POINT
  5
13D8
100
AcDbEntity
  8
DEFPOINTS
  6
BYBLOCK
 62
     0
100
AcDbPoint
 10
60.136617
 20
3.56738
 30
0.0
  0
POINT
  5
13D9
100
AcDbEntity
  8
DEFPOINTS
  6
BYBLOCK
 62
     0
100
AcDbPoint
 10
60.136617
 20
-14.163133
 30
0.0
  0
ENDBLK
  5
13DA
100
AcDbEntity
  8
0
100
AcDbBlockEnd
  0
BLOCK
  5
13DD
100
AcDbEntity
  8
0
100
AcDbBlockBegin
  2
*D12
 70
     1
 10
0.0
 20
0.0
 30
0.0
  3
*D12
  1

  0
LINE
  5
13DE
100
AcDbEntity
  8
0
  6
BYBLOCK
 62
     0
100
AcDbLine
 10
64.01171
 20
-0.697304
 30
0.0
 11
79.959692
 21
-0.697304
 31
0.0
  0
LINE
  5
13DF
100
AcDbEntity
  8
0
  6
BYBLOCK
 62
     0
100
AcDbLine
 10
64.01171
 20
82.302626
 30
0.0
 11
79.959692
 21
82.302626
 31
0.0
  0
LINE
  5
13E0
100
AcDbEntity
  8
0
  6
BYBLOCK
 62
     0
100
AcDbLine
 10
79.779692
 20
2.302696
 30
0.0
 11
79.779692
 21
79.302626
 31
0.0
  0
SOLID
  5
13E1
100
AcDbEntity
  8
0
  6
BYBLOCK
 62
     0
100
AcDbTrace
 10
79.279692
 20
2.302696
 30
0.0
 11
80.279692
 21
2.302696
 31
0.0
 12
79.779692
 22
-0.697304
 32
0.0
 13
79.779692
 23
-0.697304
 33
0.0
  0
SOLID
  5
13E2
100
AcDbEntity
  8
0
  6
BYBLOCK
 62
     0
100
AcDbTrace
 10
79.279692
 20
79.302626
 30
0.0
 11
80.279692
 21
79.302626
 31
0.0
 12
79.779692
 22
82.302626
 32
0.0
 13
79.779692
 23
82.302626
 33
0.0
  0
MTEXT
  5
13E3
100
AcDbEntity
  8
0
  6
BYBLOCK
 62
     0
100
AcDbMText
 10
77.529692
 20
40.802661
 30
0.0
 40
2.5
 41
0.0
 71
     5
 72
     1
  1
\A1;83
 11
0.0
 21
1.0
 31
0.0
  0
POINT
  5
13E4
100
AcDbEntity
  8
DEFPOINTS
  6
BYBLOCK
 62
     0
100
AcDbPoint
 10
63.94921
 20
-0.697304
 30
0.0
  0
POINT
  5
13E5
100
AcDbEntity
  8
DEFPOINTS
  6
BYBLOCK
 62
     0
100
AcDbPoint
 10
63.94921
 20
82.302626
 30
0.0
  0
POINT
  5
13E6
100
AcDbEntity
  8
DEFPOINTS
  6
BYBLOCK
 62
     0
100
AcDbPoint
 10
79.779692
 20
82.302626
 30
0.0
  0
ENDBLK
  5
13E7
100
AcDbEntity
  8
0
100
AcDbBlockEnd
  0
ENDSEC
  0
SECTION
  2
ENTITIES
  0
INSERT
  5
CC
100
AcDbEntity
  8
0
100
AcDbBlockReference
  2
SCH_IS
 10
-68.718396
 20
-140.042541
 30
0.0
  0
INSERT
  5
EC
100
AcDbEntity
  8
COTATION1
100
AcDbBlockReference
  2
SCH_IS
 10
0.0
 20
0.0
 30
0.0
  0
POLYLINE
  5
1011
100
AcDbEntity
  8
AXE
100
AcDb2dPolyline
 66
     1
 10
0.0
 20
0.0
 30
0.0
  0
VERTEX
  5
1012
100
AcDbEntity
  8
AXE
100
AcDbVertex
100
AcDb2dVertex
 10
6.13664
 20
11.920014
 30
0.0
  0
VERTEX
  5
1013
100
AcDbEntity
  8
AXE
100
AcDbVertex
100
AcDb2dVertex
 10
6.13664
 20
21.552501
 30
0.0
  0
SEQEND
  5
1014
100
AcDbEntity
  8
AXE
  0
POLYLINE
  5
1015
100
AcDbEntity
  8
AXE
100
AcDb2dPolyline
 66
     1
 10
0.0
 20
0.0
 30
0.0
  0
VERTEX
  5
1016
100
AcDbEntity
  8
AXE
100
AcDbVertex
100
AcDb2dVertex
 10
54.136466
 20
11.920014
 30
0.0
  0
VERTEX
  5
1017
100
AcDbEntity
  8
AXE
100
AcDbVertex
100
AcDb2dVertex
 10
54.136466
 20
21.552501
 30
0.0
  0
SEQEND
  5
1018
100
AcDbEntity
  8
AXE
  0
POLYLINE
  5
1019
100
AcDbEntity
  8
ALPHA
100
AcDb2dPolyline
 66
     1
 10
0.0
 20
0.0
 30
0.0
  0
VERTEX
  5
101A
100
AcDbEntity
  8
ALPHA
100
AcDbVertex
100
AcDb2dVertex
 10
60.136617
 20
17.047694
 30
0.0
  0
VERTEX
  5
101B
100
AcDbEntity
  8
ALPHA
100
AcDbVertex
100
AcDb2dVertex
 10
60.136617
 20
3.56738
 30
0.0
  0
SEQEND
  5
101C
100
AcDbEntity
  8
ALPHA
  0
POLYLINE
  5
101D
100
AcDbEntity
  8
ALPHA
100
AcDb2dPolyline
 66
     1
 10
0.0
 20
0.0
 30
0.0
  0
VERTEX
  5
101E
100
AcDbEntity
  8
ALPHA
100
AcDbVertex
100
AcDb2dVertex
 10
45.442596
 20
15.323424
 30
0.0
  0
VERTEX
  5
101F
100
AcDbEntity
  8
ALPHA
100
AcDbVertex
100
AcDb2dVertex
 10
45.442596
 20
2.955531
 30
0.0
  0
SEQEND
  5
1020
100
AcDbEntity
  8
ALPHA
  0
POLYLINE
  5
1021
100
AcDbEntity
  8
ALPHA
100
AcDb2dPolyline
 66
     1
 10
0.0
 20
0.0
 30
0.0
  0
VERTEX
  5
1022
100
AcDbEntity
  8
ALPHA
100
AcDbVertex
100
AcDb2dVertex
 10
35.890552
 20
2.955531
 30
0.0
  0
VERTEX
  5
1023
100
AcDbEntity
  8
ALPHA
100
AcDbVertex
100
AcDb2dVertex
 10
35.890552
 20
15.323424
 30
0.0
  0
SEQEND
  5
1024
100
AcDbEntity
  8
ALPHA
  0
POLYLINE
  5
1025
100
AcDbEntity
  8
ALPHA
100
AcDb2dPolyline
 66
     1
 10
0.0
 20
0.0
 30
0.0
  0
VERTEX
  5
1026
100
AcDbEntity
  8
ALPHA
100
AcDbVertex
100
AcDb2dVertex
 10
24.87038
 20
15.323424
 30
0.0
  0
VERTEX
  5
1027
100
AcDbEntity
  8
ALPHA
100
AcDbVertex
100
AcDb2dVertex
 10
24.87038
 20
2.955531
 30
0.0
  0
SEQEND
  5
1028
100
AcDbEntity
  8
ALPHA
  0
POLYLINE
  5
1029
100
AcDbEntity
  8
ALPHA
100
AcDb2dPolyline
 66
     1
 10
0.0
 20
0.0
 30
0.0
  0
VERTEX
  5
102A
100
AcDbEntity
  8
ALPHA
100
AcDbVertex
100
AcDb2dVertex
 10
15.809607
 20
2.955531
 30
0.0
  0
VERTEX
  5
102B
100
AcDbEntity
  8
ALPHA
100
AcDbVertex
100
AcDb2dVertex
 10
15.809607
 20
15.323424
 30
0.0
  0
SEQEND
  5
102C
100
AcDbEntity
  8
ALPHA
  0
POLYLINE
  5
102D
100
AcDbEntity
  8
ALPHA
100
AcDb2dPolyline
 66
     1
 10
0.0
 20
0.0
 30
0.0
  0
VERTEX
  5
102E
100
AcDbEntity
  8
ALPHA
100
AcDbVertex
100
AcDb2dVertex
 10
0.136489
 20
17.047694
 30
0.0
  0
VERTEX
  5
102F
100
AcDbEntity
  8
ALPHA
100
AcDbVertex
100
AcDb2dVertex
 10
0.136489
 20
3.56738
 30
0.0
  0
SEQEND
  5
1030
100
AcDbEntity
  8
ALPHA
  0
POLYLINE
  5
1031
100
AcDbEntity
  8
ALPHA
100
AcDb2dPolyline
 66
     1
 10
0.0
 20
0.0
 30
0.0
  0
VERTEX
  5
1032
100
AcDbEntity
  8
ALPHA
100
AcDbVertex
100
AcDb2dVertex
 10
0.136489
 20
17.047694
 30
0.0
  0
VERTEX
  5
1033
100
AcDbEntity
  8
ALPHA
100
AcDbVertex
100
AcDb2dVertex
 10
0.179587
 20
16.003884
 30
0.0
  0
VERTEX
  5
1034
100
AcDbEntity
  8
ALPHA
100
AcDbVertex
100
AcDb2dVertex
 10
0.303382
 20
15.073082
 30
0.0
  0
VERTEX
  5
1035
100
AcDbEntity
  8
ALPHA
100
AcDbVertex
100
AcDb2dVertex
 10
0.499627
 20
14.250622
 30
0.0
  0
VERTEX
  5
1036
100
AcDbEntity
  8
ALPHA
100
AcDbVertex
100
AcDb2dVertex
 10
0.760076
 20
13.531834
 30
0.0
  0
VERTEX
  5
1037
100
AcDbEntity
  8
ALPHA
100
AcDbVertex
100
AcDb2dVertex
 10
1.076482
 20
12.912051
 30
0.0
  0
VERTEX
  5
1038
100
AcDbEntity
  8
ALPHA
100
AcDbVertex
100
AcDb2dVertex
 10
1.440598
 20
12.386605
 30
0.0
  0
VERTEX
  5
1039
100
AcDbEntity
  8
ALPHA
100
AcDbVertex
100
AcDb2dVertex
 10
1.844177
 20
11.950828
 30
0.0
  0
VERTEX
  5
103A
100
AcDbEntity
  8
ALPHA
100
AcDbVertex
100
AcDb2dVertex
 10
2.278973
 20
11.600051
 30
0.0
  0
VERTEX
  5
103B
100
AcDbEntity
  8
ALPHA
100
AcDbVertex
100
AcDb2dVertex
 10
2.736739
 20
11.329607
 30
0.0
  0
VERTEX
  5
103C
100
AcDbEntity
  8
ALPHA
100
AcDbVertex
100
AcDb2dVertex
 10
3.209227
 20
11.134827
 30
0.0
  0
VERTEX
  5
103D
100
AcDbEntity
  8
ALPHA
100
AcDbVertex
100
AcDb2dVertex
 10
3.688192
 20
11.011044
 30
0.0
  0
VERTEX
  5
103E
100
AcDbEntity
  8
ALPHA
100
AcDbVertex
100
AcDb2dVertex
 10
4.165386
 20
10.95359
 30
0.0
  0
VERTEX
  5
103F
100
AcDbEntity
  8
ALPHA
100
AcDbVertex
100
AcDb2dVertex
 10
4.632563
 20
10.957796
 30
0.0
  0
VERTEX
  5
1040
100
AcDbEntity
  8
ALPHA
100
AcDbVertex
100
AcDb2dVertex
 10
5.081476
 20
11.018994
 30
0.0
  0
VERTEX
  5
1041
100
AcDbEntity
  8
ALPHA
100
AcDbVertex
100
AcDb2dVertex
 10
5.503878
 20
11.132516
 30
0.0
  0
VERTEX
  5
1042
100
AcDbEntity
  8
ALPHA
100
AcDbVertex
100
AcDb2dVertex
 10
5.891521
 20
11.293695
 30
0.0
  0
VERTEX
  5
1043
100
AcDbEntity
  8
ALPHA
100
AcDbVertex
100
AcDb2dVertex
 10
6.287303
 20
11.527744
 30
0.0
  0
VERTEX
  5
1044
100
AcDbEntity
  8
ALPHA
100
AcDbVertex
100
AcDb2dVertex
 10
6.732937
 20
11.853309
 30
0.0
  0
VERTEX
  5
1045
100
AcDbEntity
  8
ALPHA
100
AcDbVertex
100
AcDb2dVertex
 10
7.732158
 20
12.720143
 30
0.0
  0
VERTEX
  5
1046
100
AcDbEntity
  8
ALPHA
100
AcDbVertex
100
AcDb2dVertex
 10
9.871145
 20
14.904715
 30
0.0
  0
VERTEX
  5
1047
100
AcDbEntity
  8
ALPHA
100
AcDbVertex
100
AcDb2dVertex
 10
11.642745
 20
16.905901
 30
0.0
  0
VERTEX
  5
1048
100
AcDbEntity
  8
ALPHA
100
AcDbVertex
100
AcDb2dVertex
 10
12.182732
 20
17.543502
 30
0.0
  0
VERTEX
  5
1049
100
AcDbEntity
  8
ALPHA
100
AcDbVertex
100
AcDb2dVertex
 10
12.329864
 20
17.720065
 30
0.0
  0
VERTEX
  5
104A
100
AcDbEntity
  8
ALPHA
100
AcDbVertex
100
AcDb2dVertex
 10
12.368164
 20
17.766351
 30
0.0
  0
VERTEX
  5
104B
100
AcDbEntity
  8
ALPHA
100
AcDbVertex
100
AcDb2dVertex
 10
12.377929
 20
17.778191
 30
0.0
  0
VERTEX
  5
104C
100
AcDbEntity
  8
ALPHA
100
AcDbVertex
100
AcDb2dVertex
 10
12.38122
 20
17.782188
 30
0.0
  0
SEQEND
  5
104D
100
AcDbEntity
  8
ALPHA
  0
POLYLINE
  5
104E
100
AcDbEntity
  8
ALPHA
100
AcDb3dPolyline
 66
     1
 10
0.0
 20
0.0
 30
0.0
 70
     8
  0
VERTEX
  5
104F
100
AcDbEntity
  8
ALPHA
100
AcDbVertex
100
AcDb3dPolylineVertex
 10
47.891886
 20
17.782188
 30
0.0
 70
    32
  0
VERTEX
  5
1050
100
AcDbEntity
  8
ALPHA
100
AcDbVertex
100
AcDb3dPolylineVertex
 10
47.895178
 20
17.778192
 30
0.0
 70
    32
  0
VERTEX
  5
1051
100
AcDbEntity
  8
ALPHA
100
AcDbVertex
100
AcDb3dPolylineVertex
 10
47.904945
 20
17.766355
 30
0.0
 70
    32
  0
VERTEX
  5
1052
100
AcDbEntity
  8
ALPHA
100
AcDbVertex
100
AcDb3dPolylineVertex
 10
47.943253
 20
17.720082
 30
0.0
 70
    32
  0
VERTEX
  5
1053
100
AcDbEntity
  8
ALPHA
100
AcDbVertex
100
AcDb3dPolylineVertex
 10
48.090414
 20
17.543567
 30
0.0
 70
    32
  0
VERTEX
  5
1054
100
AcDbEntity
  8
ALPHA
100
AcDbVertex
100
AcDb3dPolylineVertex
 10
48.630497
 20
16.906124
 30
0.0
 70
    32
  0
VERTEX
  5
1055
100
AcDbEntity
  8
ALPHA
100
AcDbVertex
100
AcDb3dPolylineVertex
 10
50.402323
 20
14.90531
 30
0.0
 70
    32
  0
VERTEX
  5
1056
100
AcDbEntity
  8
ALPHA
100
AcDbVertex
100
AcDb3dPolylineVertex
 10
52.541356
 20
12.720811
 30
0.0
 70
    32
  0
VERTEX
  5
1057
100
AcDbEntity
  8
ALPHA
100
AcDbVertex
100
AcDb3dPolylineVertex
 10
53.540446
 20
11.853764
 30
0.0
 70
    32
  0
VERTEX
  5
1058
100
AcDbEntity
  8
ALPHA
100
AcDbVertex
100
AcDb3dPolylineVertex
 10
53.985963
 20
11.528005
 30
0.0
 70
    32
  0
VERTEX
  5
1059
100
AcDbEntity
  8
ALPHA
100
AcDbVertex
100
AcDb3dPolylineVertex
 10
54.381585
 20
11.293695
 30
0.0
 70
    32
  0
VERTEX
  5
105A
100
AcDbEntity
  8
ALPHA
100
AcDbVertex
100
AcDb3dPolylineVertex
 10
54.769116
 20
11.132232
 30
0.0
 70
    32
  0
VERTEX
  5
105B
100
AcDbEntity
  8
ALPHA
100
AcDbVertex
100
AcDb3dPolylineVertex
 10
55.191433
 20
11.018499
 30
0.0
 70
    32
  0
VERTEX
  5
105C
100
AcDbEntity
  8
ALPHA
100
AcDbVertex
100
AcDb3dPolylineVertex
 10
55.640288
 20
10.957156
 30
0.0
 70
    32
  0
VERTEX
  5
105D
100
AcDbEntity
  8
ALPHA
100
AcDbVertex
100
AcDb3dPolylineVertex
 10
56.10743
 20
10.952863
 30
0.0
 70
    32
  0
VERTEX
  5
105E
100
AcDbEntity
  8
ALPHA
100
AcDbVertex
100
AcDb3dPolylineVertex
 10
56.584609
 20
11.01028
 30
0.0
 70
    32
  0
VERTEX
  5
105F
100
AcDbEntity
  8
ALPHA
100
AcDbVertex
100
AcDb3dPolylineVertex
 10
57.063577
 20
11.13407
 30
0.0
 70
    32
  0
VERTEX
  5
1060
100
AcDbEntity
  8
ALPHA
100
AcDbVertex
100
AcDb3dPolylineVertex
 10
57.536082
 20
11.328891
 30
0.0
 70
    32
  0
VERTEX
  5
1061
100
AcDbEntity
  8
ALPHA
100
AcDbVertex
100
AcDb3dPolylineVertex
 10
57.993875
 20
11.599405
 30
0.0
 70
    32
  0
VERTEX
  5
1062
100
AcDbEntity
  8
ALPHA
100
AcDbVertex
100
AcDb3dPolylineVertex
 10
58.428707
 20
11.950271
 30
0.0
 70
    32
  0
VERTEX
  5
1063
100
AcDbEntity
  8
ALPHA
100
AcDbVertex
100
AcDb3dPolylineVertex
 10
58.832327
 20
12.386151
 30
0.0
 70
    32
  0
VERTEX
  5
1064
100
AcDbEntity
  8
ALPHA
100
AcDbVertex
100
AcDb3dPolylineVertex
 10
59.196486
 20
12.911704
 30
0.0
 70
    32
  0
VERTEX
  5
1065
100
AcDbEntity
  8
ALPHA
100
AcDbVertex
100
AcDb3dPolylineVertex
 10
59.512934
 20
13.531592
 30
0.0
 70
    32
  0
VERTEX
  5
1066
100
AcDbEntity
  8
ALPHA
100
AcDbVertex
100
AcDb3dPolylineVertex
 10
59.77342
 20
14.250474
 30
0.0
 70
    32
  0
VERTEX
  5
1067
100
AcDbEntity
  8
ALPHA
100
AcDbVertex
100
AcDb3dPolylineVertex
 10
59.969696
 20
15.073012
 30
0.0
 70
    32
  0
VERTEX
  5
1068
100
AcDbEntity
  8
ALPHA
100
AcDbVertex
100
AcDb3dPolylineVertex
 10
60.093512
 20
16.003865
 30
0.0
 70
    32
  0
VERTEX
  5
1069
100
AcDbEntity
  8
ALPHA
100
AcDbVertex
100
AcDb3dPolylineVertex
 10
60.136617
 20
17.047694
 30
0.0
 70
    32
  0
VERTEX
  5
106A
100
AcDbEntity
  8
ALPHA
100
AcDbVertex
100
AcDb3dPolylineVertex
 10
60.136617
 20
64.557628
 30
0.0
 70
    32
  0
VERTEX
  5
106B
100
AcDbEntity
  8
ALPHA
100
AcDbVertex
100
AcDb3dPolylineVertex
 10
60.093507
 20
65.601937
 30
0.0
 70
    32
  0
VERTEX
  5
106C
100
AcDbEntity
  8
ALPHA
100
AcDbVertex
100
AcDb3dPolylineVertex
 10
59.969678
 20
66.533199
 30
0.0
 70
    32
  0
VERTEX
  5
106D
100
AcDbEntity
  8
ALPHA
100
AcDbVertex
100
AcDb3dPolylineVertex
 10
59.773382
 20
67.356082
 30
0.0
 70
    32
  0
VERTEX
  5
106E
100
AcDbEntity
  8
ALPHA
100
AcDbVertex
100
AcDb3dPolylineVertex
 10
59.512871
 20
68.07525
 30
0.0
 70
    32
  0
VERTEX
  5
106F
100
AcDbEntity
  8
ALPHA
100
AcDbVertex
100
AcDb3dPolylineVertex
 10
59.196396
 20
68.69537
 30
0.0
 70
    32
  0
VERTEX
  5
1070
100
AcDbEntity
  8
ALPHA
100
AcDbVertex
100
AcDb3dPolylineVertex
 10
58.832209
 20
69.221109
 30
0.0
 70
    32
  0
VERTEX
  5
1071
100
AcDbEntity
  8
ALPHA
100
AcDbVertex
100
AcDb3dPolylineVertex
 10
58.428562
 20
69.657132
 30
0.0
 70
    32
  0
VERTEX
  5
1072
100
AcDbEntity
  8
ALPHA
100
AcDbVertex
100
AcDb3dPolylineVertex
 10
57.993707
 20
70.008105
 30
0.0
 70
    32
  0
VERTEX
  5
1073
100
AcDbEntity
  8
ALPHA
100
AcDbVertex
100
AcDb3dPolylineVertex
 10
57.535896
 20
70.278694
 30
0.0
 70
    32
  0
VERTEX
  5
1074
100
AcDbEntity
  8
ALPHA
100
AcDbVertex
100
AcDb3dPolylineVertex
 10
57.06338
 20
70.473567
 30
0.0
 70
    32
  0
VERTEX
  5
1075
100
AcDbEntity
  8
ALPHA
100
AcDbVertex
100
AcDb3dPolylineVertex
 10
56.584411
 20
70.597388
 30
0.0
 70
    32
  0
VERTEX
  5
1076
100
AcDbEntity
  8
ALPHA
100
AcDbVertex
100
AcDb3dPolylineVertex
 10
56.107241
 20
70.654823
 30
0.0
 70
    32
  0
VERTEX
  5
1077
100
AcDbEntity
  8
ALPHA
100
AcDbVertex
100
AcDb3dPolylineVertex
 10
55.640121
 20
70.65054
 30
0.0
 70
    32
  0
VERTEX
  5
1078
100
AcDbEntity
  8
ALPHA
100
AcDbVertex
100
AcDb3dPolylineVertex
 10
55.191304
 20
70.589204
 30
0.0
 70
    32
  0
VERTEX
  5
1079
100
AcDbEntity
  8
ALPHA
100
AcDbVertex
100
AcDb3dPolylineVertex
 10
54.769042
 20
70.475481
 30
0.0
 70
    32
  0
VERTEX
  5
107A
100
AcDbEntity
  8
ALPHA
100
AcDbVertex
100
AcDb3dPolylineVertex
 10
54.381585
 20
70.314038
 30
0.0
 70
    32
  0
VERTEX
  5
107B
100
AcDbEntity
  8
ALPHA
100
AcDbVertex
100
AcDb3dPolylineVertex
 10
53.985832
 20
70.079622
 30
0.0
 70
    32
  0
VERTEX
  5
107C
100
AcDbEntity
  8
ALPHA
100
AcDbVertex
100
AcDb3dPolylineVertex
 10
53.540219
 20
69.753727
 30
0.0
 70
    32
  0
VERTEX
  5
107D
100
AcDbEntity
  8
ALPHA
100
AcDbVertex
100
AcDb3dPolylineVertex
 10
52.541021
 20
68.886342
 30
0.0
 70
    32
  0
VERTEX
  5
107E
100
AcDbEntity
  8
ALPHA
100
AcDbVertex
100
AcDb3dPolylineVertex
 10
50.402026
 20
66.701037
 30
0.0
 70
    32
  0
VERTEX
  5
107F
100
AcDbEntity
  8
ALPHA
100
AcDbVertex
100
AcDb3dPolylineVertex
 10
48.630386
 20
64.699507
 30
0.0
 70
    32
  0
VERTEX
  5
1080
100
AcDbEntity
  8
ALPHA
100
AcDbVertex
100
AcDb3dPolylineVertex
 10
48.090382
 20
64.061839
 30
0.0
 70
    32
  0
VERTEX
  5
1081
100
AcDbEntity
  8
ALPHA
100
AcDbVertex
100
AcDb3dPolylineVertex
 10
47.943244
 20
63.885261
 30
0.0
 70
    32
  0
VERTEX
  5
1082
100
AcDbEntity
  8
ALPHA
100
AcDbVertex
100
AcDb3dPolylineVertex
 10
47.904942
 20
63.838972
 30
0.0
 70
    32
  0
VERTEX
  5
1083
100
AcDbEntity
  8
ALPHA
100
AcDbVertex
100
AcDb3dPolylineVertex
 10
47.895177
 20
63.827131
 30
0.0
 70
    32
  0
VERTEX
  5
1084
100
AcDbEntity
  8
ALPHA
100
AcDbVertex
100
AcDb3dPolylineVertex
 10
47.891886
 20
63.823133
 30
0.0
 70
    32
  0
SEQEND
  5
1085
100
AcDbEntity
  8
ALPHA
  0
POLYLINE
  5
1086
100
AcDbEntity
  8
ALPHA
100
AcDb2dPolyline
 66
     1
 10
0.0
 20
0.0
 30
0.0
  0
VERTEX
  5
1087
100
AcDbEntity
  8
ALPHA
100
AcDbVertex
100
AcDb2dVertex
 10
2.707564
 20
0.997683
 30
0.0
  0
VERTEX
  5
1088
100
AcDbEntity
  8
ALPHA
100
AcDbVertex
100
AcDb2dVertex
 10
57.441691
 20
0.997683
 30
0.0
  0
SEQEND
  5
1089
100
AcDbEntity
  8
ALPHA
  0
POLYLINE
  5
108A
100
AcDbEntity
  8
ALPHA
100
AcDb2dPolyline
 66
     1
 10
0.0
 20
0.0
 30
0.0
  0
VERTEX
  5
108B
100
AcDbEntity
  8
ALPHA
100
AcDbVertex
100
AcDb2dVertex
 10
24.87038
 20
2.955531
 30
0.0
  0
VERTEX
  5
108C
100
AcDbEntity
  8
ALPHA
100
AcDbVertex
100
AcDb2dVertex
 10
15.809607
 20
2.955531
 30
0.0
  0
SEQEND
  5
108D
100
AcDbEntity
  8
ALPHA
  0
POLYLINE
  5
108E
100
AcDbEntity
  8
ALPHA
100
AcDb2dPolyline
 66
     1
 10
0.0
 20
0.0
 30
0.0
  0
VERTEX
  5
108F
100
AcDbEntity
  8
ALPHA
100
AcDbVertex
100
AcDb2dVertex
 10
2.585952
 20
-0.697304
 30
0.0
  0
VERTEX
  5
1090
100
AcDbEntity
  8
ALPHA
100
AcDbVertex
100
AcDb2dVertex
 10
19.238166
 20
-0.697304
 30
0.0
  0
SEQEND
  5
1091
100
AcDbEntity
  8
ALPHA
  0
POLYLINE
  5
1092
100
AcDbEntity
  8
ALPHA
100
AcDb2dPolyline
 66
     1
 10
0.0
 20
0.0
 30
0.0
  0
VERTEX
  5
1093
100
AcDbEntity
  8
ALPHA
100
AcDbVertex
100
AcDb2dVertex
 10
0.136489
 20
3.56738
 30
0.0
  0
VERTEX
  5
1094
100
AcDbEntity
  8
ALPHA
100
AcDbVertex
100
AcDb2dVertex
 10
2.707564
 20
3.56738
 30
0.0
  0
SEQEND
  5
1095
100
AcDbEntity
  8
ALPHA
  0
POLYLINE
  5
1096
100
AcDbEntity
  8
ALPHA
100
AcDb2dPolyline
 66
     1
 10
0.0
 20
0.0
 30
0.0
  0
VERTEX
  5
1097
100
AcDbEntity
  8
ALPHA
100
AcDbVertex
100
AcDb2dVertex
 10
2.585952
 20
11.159337
 30
0.0
  0
VERTEX
  5
1098
100
AcDbEntity
  8
ALPHA
100
AcDbVertex
100
AcDb2dVertex
 10
2.585952
 20
-0.697304
 30
0.0
  0
SEQEND
  5
1099
100
AcDbEntity
  8
ALPHA
  0
POLYLINE
  5
109A
100
AcDbEntity
  8
ALPHA
100
AcDb2dPolyline
 66
     1
 10
0.0
 20
0.0
 30
0.0
  0
VERTEX
  5
109B
100
AcDbEntity
  8
ALPHA
100
AcDbVertex
100
AcDb2dVertex
 10
13.519824
 20
6.435077
 30
0.0
 42
1.0
  0
VERTEX
  5
109C
100
AcDbEntity
  8
ALPHA
100
AcDbVertex
100
AcDb2dVertex
 10
5.890316
 20
6.435077
 30
0.0
 42
1.0
  0
VERTEX
  5
109D
100
AcDbEntity
  8
ALPHA
100
AcDbVertex
100
AcDb2dVertex
 10
13.519824
 20
6.435077
 30
0.0
  0
SEQEND
  5
109E
100
AcDbEntity
  8
ALPHA
  0
POLYLINE
  5
109F
100
AcDbEntity
  8
ALPHA
100
AcDb2dPolyline
 66
     1
 10
0.0
 20
0.0
 30
0.0
  0
VERTEX
  5
10A0
100
AcDbEntity
  8
ALPHA
100
AcDbVertex
100
AcDb2dVertex
 10
9.720401
 20
7.465161
 30
0.0
  0
VERTEX
  5
10A1
100
AcDbEntity
  8
ALPHA
100
AcDbVertex
100
AcDb2dVertex
 10
11.849642
 20
9.533941
 30
0.0
  0
SEQEND
  5
10A2
100
AcDbEntity
  8
ALPHA
  0
POLYLINE
  5
10A3
100
AcDbEntity
  8
ALPHA
100
AcDb2dPolyline
 66
     1
 10
0.0
 20
0.0
 30
0.0
  0
VERTEX
  5
10A4
100
AcDbEntity
  8
ALPHA
100
AcDbVertex
100
AcDb2dVertex
 10
11.29946
 20
4.054172
 30
0.0
  0
VERTEX
  5
10A5
100
AcDbEntity
  8
ALPHA
100
AcDbVertex
100
AcDb2dVertex
 10
9.781723
 20
5.509036
 30
0.0
  0
SEQEND
  5
10A6
100
AcDbEntity
  8
ALPHA
  0
POLYLINE
  5
10A7
100
AcDbEntity
  8
ALPHA
100
AcDb2dPolyline
 66
     1
 10
0.0
 20
0.0
 30
0.0
  0
VERTEX
  5
10A8
100
AcDbEntity
  8
ALPHA
100
AcDbVertex
100
AcDb2dVertex
 10
8.771966
 20
6.458848
 30
0.0
  0
VERTEX
  5
10A9
100
AcDbEntity
  8
ALPHA
100
AcDbVertex
100
AcDb2dVertex
 10
7.384454
 20
7.847566
 30
0.0
  0
SEQEND
  5
10AA
100
AcDbEntity
  8
ALPHA
  0
POLYLINE
  5
10AB
100
AcDbEntity
  8
ALPHA
100
AcDb2dPolyline
 66
     1
 10
0.0
 20
0.0
 30
0.0
  0
VERTEX
  5
10AC
100
AcDbEntity
  8
ALPHA
100
AcDbVertex
100
AcDb2dVertex
 10
6.649615
 20
4.33288
 30
0.0
  0
VERTEX
  5
10AD
100
AcDbEntity
  8
ALPHA
100
AcDbVertex
100
AcDb2dVertex
 10
8.740099
 20
6.484687
 30
0.0
  0
SEQEND
  5
10AE
100
AcDbEntity
  8
ALPHA
  0
POLYLINE
  5
10AF
100
AcDbEntity
  8
ALPHA
100
AcDb2dPolyline
 66
     1
 10
0.0
 20
0.0
 30
0.0
  0
VERTEX
  5
10B0
100
AcDbEntity
  8
ALPHA
100
AcDbVertex
100
AcDb2dVertex
 10
9.781723
 20
5.509036
 30
0.0
  0
VERTEX
  5
10B1
100
AcDbEntity
  8
ALPHA
100
AcDbVertex
100
AcDb2dVertex
 10
7.583925
 20
3.354817
 30
0.0
  0
SEQEND
  5
10B2
100
AcDbEntity
  8
ALPHA
  0
POLYLINE
  5
10B3
100
AcDbEntity
  8
ALPHA
100
AcDb2dPolyline
 66
     1
 10
0.0
 20
0.0
 30
0.0
  0
VERTEX
  5
10B4
100
AcDbEntity
  8
ALPHA
100
AcDbVertex
100
AcDb2dVertex
 10
8.740099
 20
6.484687
 30
0.0
  0
VERTEX
  5
10B5
100
AcDbEntity
  8
ALPHA
100
AcDbVertex
100
AcDb2dVertex
 10
8.771966
 20
6.458848
 30
0.0
  0
SEQEND
  5
10B6
100
AcDbEntity
  8
ALPHA
  0
POLYLINE
  5
10B7
100
AcDbEntity
  8
ALPHA
100
AcDb2dPolyline
 66
     1
 10
0.0
 20
0.0
 30
0.0
  0
VERTEX
  5
10B8
100
AcDbEntity
  8
ALPHA
100
AcDbVertex
100
AcDb2dVertex
 10
7.384454
 20
7.847566
 30
0.0
  0
VERTEX
  5
10B9
100
AcDbEntity
  8
ALPHA
100
AcDbVertex
100
AcDb2dVertex
 10
8.318591
 20
8.822873
 30
0.0
  0
SEQEND
  5
10BA
100
AcDbEntity
  8
ALPHA
  0
POLYLINE
  5
10BB
100
AcDbEntity
  8
ALPHA
100
AcDb2dPolyline
 66
     1
 10
0.0
 20
0.0
 30
0.0
  0
VERTEX
  5
10BC
100
AcDbEntity
  8
ALPHA
100
AcDbVertex
100
AcDb2dVertex
 10
8.318591
 20
8.822873
 30
0.0
  0
VERTEX
  5
10BD
100
AcDbEntity
  8
ALPHA
100
AcDbVertex
100
AcDb2dVertex
 10
9.66614
 20
7.47653
 30
0.0
  0
SEQEND
  5
10BE
100
AcDbEntity
  8
ALPHA
  0
POLYLINE
  5
10BF
100
AcDbEntity
  8
ALPHA
100
AcDb2dPolyline
 66
     1
 10
0.0
 20
0.0
 30
0.0
  0
VERTEX
  5
10C0
100
AcDbEntity
  8
ALPHA
100
AcDbVertex
100
AcDb2dVertex
 10
9.66614
 20
7.47653
 30
0.0
  0
VERTEX
  5
10C1
100
AcDbEntity
  8
ALPHA
100
AcDbVertex
100
AcDb2dVertex
 10
9.720401
 20
7.465161
 30
0.0
  0
SEQEND
  5
10C2
100
AcDbEntity
  8
ALPHA
  0
POLYLINE
  5
10C3
100
AcDbEntity
  8
ALPHA
100
AcDb2dPolyline
 66
     1
 10
0.0
 20
0.0
 30
0.0
  0
VERTEX
  5
10C4
100
AcDbEntity
  8
ALPHA
100
AcDbVertex
100
AcDb2dVertex
 10
12.723663
 20
8.678868
 30
0.0
  0
VERTEX
  5
10C5
100
AcDbEntity
  8
ALPHA
100
AcDbVertex
100
AcDb2dVertex
 10
10.645236
 20
6.558067
 30
0.0
  0
SEQEND
  5
10C6
100
AcDbEntity
  8
ALPHA
  0
POLYLINE
  5
10C7
100
AcDbEntity
  8
ALPHA
100
AcDb2dPolyline
 66
     1
 10
0.0
 20
0.0
 30
0.0
  0
VERTEX
  5
10C8
100
AcDbEntity
  8
ALPHA
100
AcDbVertex
100
AcDb2dVertex
 10
12.172275
 20
5.029823
 30
0.0
  0
VERTEX
  5
10C9
100
AcDbEntity
  8
ALPHA
100
AcDbVertex
100
AcDb2dVertex
 10
11.29946
 20
4.054172
 30
0.0
  0
SEQEND
  5
10CA
100
AcDbEntity
  8
ALPHA
  0
POLYLINE
  5
10CB
100
AcDbEntity
  8
ALPHA
100
AcDb2dPolyline
 66
     1
 10
0.0
 20
0.0
 30
0.0
  0
VERTEX
  5
10CC
100
AcDbEntity
  8
ALPHA
100
AcDbVertex
100
AcDb2dVertex
 10
10.645236
 20
6.558067
 30
0.0
  0
VERTEX
  5
10CD
100
AcDbEntity
  8
ALPHA
100
AcDbVertex
100
AcDb2dVertex
 10
12.172275
 20
5.029823
 30
0.0
  0
SEQEND
  5
10CE
100
AcDbEntity
  8
ALPHA
  0
POLYLINE
  5
10CF
100
AcDbEntity
  8
ALPHA
100
AcDb2dPolyline
 66
     1
 10
0.0
 20
0.0
 30
0.0
  0
VERTEX
  5
10D0
100
AcDbEntity
  8
ALPHA
100
AcDbVertex
100
AcDb2dVertex
 10
55.030124
 20
6.435077
 30
0.0
 42
1.0
  0
VERTEX
  5
10D1
100
AcDbEntity
  8
ALPHA
100
AcDbVertex
100
AcDb2dVertex
 10
47.400616
 20
6.435077
 30
0.0
 42
1.0
  0
VERTEX
  5
10D2
100
AcDbEntity
  8
ALPHA
100
AcDbVertex
100
AcDb2dVertex
 10
55.030124
 20
6.435077
 30
0.0
  0
SEQEND
  5
10D3
100
AcDbEntity
  8
ALPHA
  0
POLYLINE
  5
10D4
100
AcDbEntity
  8
ALPHA
100
AcDb2dPolyline
 66
     1
 10
0.0
 20
0.0
 30
0.0
  0
VERTEX
  5
10D5
100
AcDbEntity
  8
ALPHA
100
AcDbVertex
100
AcDb2dVertex
 10
51.230701
 20
7.465161
 30
0.0
  0
VERTEX
  5
10D6
100
AcDbEntity
  8
ALPHA
100
AcDbVertex
100
AcDb2dVertex
 10
53.360114
 20
9.533941
 30
0.0
  0
SEQEND
  5
10D7
100
AcDbEntity
  8
ALPHA
  0
POLYLINE
  5
10D8
100
AcDbEntity
  8
ALPHA
100
AcDb2dPolyline
 66
     1
 10
0.0
 20
0.0
 30
0.0
  0
VERTEX
  5
10D9
100
AcDbEntity
  8
ALPHA
100
AcDbVertex
100
AcDb2dVertex
 10
54.233963
 20
8.678868
 30
0.0
  0
VERTEX
  5
10DA
100
AcDbEntity
  8
ALPHA
100
AcDbVertex
100
AcDb2dVertex
 10
52.155536
 20
6.558067
 30
0.0
  0
SEQEND
  5
10DB
100
AcDbEntity
  8
ALPHA
  0
POLYLINE
  5
10DC
100
AcDbEntity
  8
ALPHA
100
AcDb2dPolyline
 66
     1
 10
0.0
 20
0.0
 30
0.0
  0
VERTEX
  5
10DD
100
AcDbEntity
  8
ALPHA
100
AcDbVertex
100
AcDb2dVertex
 10
52.155536
 20
6.558067
 30
0.0
  0
VERTEX
  5
10DE
100
AcDbEntity
  8
ALPHA
100
AcDbVertex
100
AcDb2dVertex
 10
53.682403
 20
5.029823
 30
0.0
  0
SEQEND
  5
10DF
100
AcDbEntity
  8
ALPHA
  0
POLYLINE
  5
10E0
100
AcDbEntity
  8
ALPHA
100
AcDb2dPolyline
 66
     1
 10
0.0
 20
0.0
 30
0.0
  0
VERTEX
  5
10E1
100
AcDbEntity
  8
ALPHA
100
AcDbVertex
100
AcDb2dVertex
 10
53.682403
 20
5.029823
 30
0.0
  0
VERTEX
  5
10E2
100
AcDbEntity
  8
ALPHA
100
AcDbVertex
100
AcDb2dVertex
 10
52.80976
 20
4.054172
 30
0.0
  0
SEQEND
  5
10E3
100
AcDbEntity
  8
ALPHA
  0
POLYLINE
  5
10E4
100
AcDbEntity
  8
ALPHA
100
AcDb2dPolyline
 66
     1
 10
0.0
 20
0.0
 30
0.0
  0
VERTEX
  5
10E5
100
AcDbEntity
  8
ALPHA
100
AcDbVertex
100
AcDb2dVertex
 10
57.687326
 20
-0.697304
 30
0.0
  0
VERTEX
  5
10E6
100
AcDbEntity
  8
ALPHA
100
AcDbVertex
100
AcDb2dVertex
 10
41.769779
 20
-0.697304
 30
0.0
  0
SEQEND
  5
10E7
100
AcDbEntity
  8
ALPHA
  0
POLYLINE
  5
10E8
100
AcDbEntity
  8
ALPHA
100
AcDb2dPolyline
 66
     1
 10
0.0
 20
0.0
 30
0.0
  0
VERTEX
  5
10E9
100
AcDbEntity
  8
ALPHA
100
AcDbVertex
100
AcDb2dVertex
 10
45.442596
 20
2.955531
 30
0.0
  0
VERTEX
  5
10EA
100
AcDbEntity
  8
ALPHA
100
AcDbVertex
100
AcDb2dVertex
 10
35.890552
 20
2.955531
 30
0.0
  0
SEQEND
  5
10EB
100
AcDbEntity
  8
ALPHA
  0
POLYLINE
  5
10EC
100
AcDbEntity
  8
ALPHA
100
AcDb2dPolyline
 66
     1
 10
0.0
 20
0.0
 30
0.0
  0
VERTEX
  5
10ED
100
AcDbEntity
  8
ALPHA
100
AcDbVertex
100
AcDb2dVertex
 10
21.932058
 20
-0.697304
 30
0.0
  0
VERTEX
  5
10EE
100
AcDbEntity
  8
ALPHA
100
AcDbVertex
100
AcDb2dVertex
 10
38.830079
 20
-0.697304
 30
0.0
  0
SEQEND
  5
10EF
100
AcDbEntity
  8
ALPHA
  0
POLYLINE
  5
10F0
100
AcDbEntity
  8
ALPHA
100
AcDb2dPolyline
 66
     1
 10
0.0
 20
0.0
 30
0.0
  0
VERTEX
  5
10F1
100
AcDbEntity
  8
ALPHA
100
AcDbVertex
100
AcDb2dVertex
 10
19.238166
 20
-0.697304
 30
0.0
  0
VERTEX
  5
10F2
100
AcDbEntity
  8
ALPHA
100
AcDbVertex
100
AcDb2dVertex
 10
19.238166
 20
0.936016
 30
0.0
  0
SEQEND
  5
10F3
100
AcDbEntity
  8
ALPHA
  0
POLYLINE
  5
10F4
100
AcDbEntity
  8
ALPHA
100
AcDb2dPolyline
 66
     1
 10
0.0
 20
0.0
 30
0.0
  0
VERTEX
  5
10F5
100
AcDbEntity
  8
ALPHA
100
AcDbVertex
100
AcDb2dVertex
 10
21.932058
 20
0.915001
 30
0.0
  0
VERTEX
  5
10F6
100
AcDbEntity
  8
ALPHA
100
AcDbVertex
100
AcDb2dVertex
 10
21.932058
 20
-0.697304
 30
0.0
  0
SEQEND
  5
10F7
100
AcDbEntity
  8
ALPHA
  0
POLYLINE
  5
10F8
100
AcDbEntity
  8
ALPHA
100
AcDb2dPolyline
 66
     1
 10
0.0
 20
0.0
 30
0.0
  0
VERTEX
  5
10F9
100
AcDbEntity
  8
ALPHA
100
AcDbVertex
100
AcDb2dVertex
 10
34.336297
 20
6.435077
 30
0.0
 42
1.0
  0
VERTEX
  5
10FA
100
AcDbEntity
  8
ALPHA
100
AcDbVertex
100
AcDb2dVertex
 10
26.706788
 20
6.435077
 30
0.0
 42
1.0
  0
VERTEX
  5
10FB
100
AcDbEntity
  8
ALPHA
100
AcDbVertex
100
AcDb2dVertex
 10
34.336297
 20
6.435077
 30
0.0
  0
SEQEND
  5
10FC
100
AcDbEntity
  8
ALPHA
  0
POLYLINE
  5
10FD
100
AcDbEntity
  8
ALPHA
100
AcDb2dPolyline
 66
     1
 10
0.0
 20
0.0
 30
0.0
  0
VERTEX
  5
10FE
100
AcDbEntity
  8
ALPHA
100
AcDbVertex
100
AcDb2dVertex
 10
29.588611
 20
6.458848
 30
0.0
  0
VERTEX
  5
10FF
100
AcDbEntity
  8
ALPHA
100
AcDbVertex
100
AcDb2dVertex
 10
28.200926
 20
7.847566
 30
0.0
  0
SEQEND
  5
1100
100
AcDbEntity
  8
ALPHA
  0
POLYLINE
  5
1101
100
AcDbEntity
  8
ALPHA
100
AcDb2dPolyline
 66
     1
 10
0.0
 20
0.0
 30
0.0
  0
VERTEX
  5
1102
100
AcDbEntity
  8
ALPHA
100
AcDbVertex
100
AcDb2dVertex
 10
33.540308
 20
8.678868
 30
0.0
  0
VERTEX
  5
1103
100
AcDbEntity
  8
ALPHA
100
AcDbVertex
100
AcDb2dVertex
 10
31.461709
 20
6.558067
 30
0.0
  0
SEQEND
  5
1104
100
AcDbEntity
  8
ALPHA
  0
POLYLINE
  5
1105
100
AcDbEntity
  8
ALPHA
100
AcDb2dPolyline
 66
     1
 10
0.0
 20
0.0
 30
0.0
  0
VERTEX
  5
1106
100
AcDbEntity
  8
ALPHA
100
AcDbVertex
100
AcDb2dVertex
 10
31.461709
 20
6.558067
 30
0.0
  0
VERTEX
  5
1107
100
AcDbEntity
  8
ALPHA
100
AcDbVertex
100
AcDb2dVertex
 10
32.988748
 20
5.029823
 30
0.0
  0
SEQEND
  5
1108
100
AcDbEntity
  8
ALPHA
  0
POLYLINE
  5
1109
100
AcDbEntity
  8
ALPHA
100
AcDb2dPolyline
 66
     1
 10
0.0
 20
0.0
 30
0.0
  0
VERTEX
  5
110A
100
AcDbEntity
  8
ALPHA
100
AcDbVertex
100
AcDb2dVertex
 10
32.115933
 20
4.054172
 30
0.0
  0
VERTEX
  5
110B
100
AcDbEntity
  8
ALPHA
100
AcDbVertex
100
AcDb2dVertex
 10
30.598368
 20
5.509036
 30
0.0
  0
SEQEND
  5
110C
100
AcDbEntity
  8
ALPHA
  0
POLYLINE
  5
110D
100
AcDbEntity
  8
ALPHA
100
AcDb2dPolyline
 66
     1
 10
0.0
 20
0.0
 30
0.0
  0
VERTEX
  5
110E
100
AcDbEntity
  8
ALPHA
100
AcDbVertex
100
AcDb2dVertex
 10
27.466432
 20
4.33288
 30
0.0
  0
VERTEX
  5
110F
100
AcDbEntity
  8
ALPHA
100
AcDbVertex
100
AcDb2dVertex
 10
29.557949
 20
6.484687
 30
0.0
  0
SEQEND
  5
1110
100
AcDbEntity
  8
ALPHA
  0
POLYLINE
  5
1111
100
AcDbEntity
  8
ALPHA
100
AcDb2dPolyline
 66
     1
 10
0.0
 20
0.0
 30
0.0
  0
VERTEX
  5
1112
100
AcDbEntity
  8
ALPHA
100
AcDbVertex
100
AcDb2dVertex
 10
30.598368
 20
5.509036
 30
0.0
  0
VERTEX
  5
1113
100
AcDbEntity
  8
ALPHA
100
AcDbVertex
100
AcDb2dVertex
 10
28.40057
 20
3.354817
 30
0.0
  0
SEQEND
  5
1114
100
AcDbEntity
  8
ALPHA
  0
POLYLINE
  5
1115
100
AcDbEntity
  8
ALPHA
100
AcDb2dPolyline
 66
     1
 10
0.0
 20
0.0
 30
0.0
  0
VERTEX
  5
1116
100
AcDbEntity
  8
ALPHA
100
AcDbVertex
100
AcDb2dVertex
 10
29.557949
 20
6.484687
 30
0.0
  0
VERTEX
  5
1117
100
AcDbEntity
  8
ALPHA
100
AcDbVertex
100
AcDb2dVertex
 10
29.588611
 20
6.458848
 30
0.0
  0
SEQEND
  5
1118
100
AcDbEntity
  8
ALPHA
  0
POLYLINE
  5
1119
100
AcDbEntity
  8
ALPHA
100
AcDb2dPolyline
 66
     1
 10
0.0
 20
0.0
 30
0.0
  0
VERTEX
  5
111A
100
AcDbEntity
  8
ALPHA
100
AcDbVertex
100
AcDb2dVertex
 10
32.988748
 20
5.029823
 30
0.0
  0
VERTEX
  5
111B
100
AcDbEntity
  8
ALPHA
100
AcDbVertex
100
AcDb2dVertex
 10
32.115933
 20
4.054172
 30
0.0
  0
SEQEND
  5
111C
100
AcDbEntity
  8
ALPHA
  0
POLYLINE
  5
111D
100
AcDbEntity
  8
ALPHA
100
AcDb2dPolyline
 66
     1
 10
0.0
 20
0.0
 30
0.0
  0
VERTEX
  5
111E
100
AcDbEntity
  8
ALPHA
100
AcDbVertex
100
AcDb2dVertex
 10
30.536873
 20
7.465161
 30
0.0
  0
VERTEX
  5
111F
100
AcDbEntity
  8
ALPHA
100
AcDbVertex
100
AcDb2dVertex
 10
32.666287
 20
9.533941
 30
0.0
  0
SEQEND
  5
1120
100
AcDbEntity
  8
ALPHA
  0
POLYLINE
  5
1121
100
AcDbEntity
  8
ALPHA
100
AcDb2dPolyline
 66
     1
 10
0.0
 20
0.0
 30
0.0
  0
VERTEX
  5
1122
100
AcDbEntity
  8
ALPHA
100
AcDbVertex
100
AcDb2dVertex
 10
29.135064
 20
8.822873
 30
0.0
  0
VERTEX
  5
1123
100
AcDbEntity
  8
ALPHA
100
AcDbVertex
100
AcDb2dVertex
 10
30.482613
 20
7.47653
 30
0.0
  0
SEQEND
  5
1124
100
AcDbEntity
  8
ALPHA
  0
POLYLINE
  5
1125
100
AcDbEntity
  8
ALPHA
100
AcDb2dPolyline
 66
     1
 10
0.0
 20
0.0
 30
0.0
  0
VERTEX
  5
1126
100
AcDbEntity
  8
ALPHA
100
AcDbVertex
100
AcDb2dVertex
 10
28.200926
 20
7.847566
 30
0.0
  0
VERTEX
  5
1127
100
AcDbEntity
  8
ALPHA
100
AcDbVertex
100
AcDb2dVertex
 10
29.135064
 20
8.822873
 30
0.0
  0
SEQEND
  5
1128
100
AcDbEntity
  8
ALPHA
  0
POLYLINE
  5
1129
100
AcDbEntity
  8
ALPHA
100
AcDb2dPolyline
 66
     1
 10
0.0
 20
0.0
 30
0.0
  0
VERTEX
  5
112A
100
AcDbEntity
  8
ALPHA
100
AcDbVertex
100
AcDb2dVertex
 10
30.482613
 20
7.47653
 30
0.0
  0
VERTEX
  5
112B
100
AcDbEntity
  8
ALPHA
100
AcDbVertex
100
AcDb2dVertex
 10
30.536873
 20
7.465161
 30
0.0
  0
SEQEND
  5
112C
100
AcDbEntity
  8
ALPHA
  0
POLYLINE
  5
112D
100
AcDbEntity
  8
ALPHA
100
AcDb2dPolyline
 66
     1
 10
0.0
 20
0.0
 30
0.0
  0
VERTEX
  5
112E
100
AcDbEntity
  8
ALPHA
100
AcDbVertex
100
AcDb2dVertex
 10
38.830079
 20
-0.697304
 30
0.0
  0
VERTEX
  5
112F
100
AcDbEntity
  8
ALPHA
100
AcDbVertex
100
AcDb2dVertex
 10
38.830079
 20
1.007329
 30
0.0
  0
SEQEND
  5
1130
100
AcDbEntity
  8
ALPHA
  0
POLYLINE
  5
1131
100
AcDbEntity
  8
ALPHA
100
AcDb2dPolyline
 66
     1
 10
0.0
 20
0.0
 30
0.0
  0
VERTEX
  5
1132
100
AcDbEntity
  8
ALPHA
100
AcDbVertex
100
AcDb2dVertex
 10
41.769779
 20
-0.697304
 30
0.0
  0
VERTEX
  5
1133
100
AcDbEntity
  8
ALPHA
100
AcDbVertex
100
AcDb2dVertex
 10
41.769779
 20
0.945662
 30
0.0
  0
SEQEND
  5
1134
100
AcDbEntity
  8
ALPHA
  0
POLYLINE
  5
1135
100
AcDbEntity
  8
ALPHA
100
AcDb2dPolyline
 66
     1
 10
0.0
 20
0.0
 30
0.0
  0
VERTEX
  5
1136
100
AcDbEntity
  8
ALPHA
100
AcDbVertex
100
AcDb2dVertex
 10
50.281232
 20
6.458848
 30
0.0
  0
VERTEX
  5
1137
100
AcDbEntity
  8
ALPHA
100
AcDbVertex
100
AcDb2dVertex
 10
48.894581
 20
7.847566
 30
0.0
  0
SEQEND
  5
1138
100
AcDbEntity
  8
ALPHA
  0
POLYLINE
  5
1139
100
AcDbEntity
  8
ALPHA
100
AcDb2dPolyline
 66
     1
 10
0.0
 20
0.0
 30
0.0
  0
VERTEX
  5
113A
100
AcDbEntity
  8
ALPHA
100
AcDbVertex
100
AcDb2dVertex
 10
48.160087
 20
4.33288
 30
0.0
  0
VERTEX
  5
113B
100
AcDbEntity
  8
ALPHA
100
AcDbVertex
100
AcDb2dVertex
 10
50.250571
 20
6.484687
 30
0.0
  0
SEQEND
  5
113C
100
AcDbEntity
  8
ALPHA
  0
POLYLINE
  5
113D
100
AcDbEntity
  8
ALPHA
100
AcDb2dPolyline
 66
     1
 10
0.0
 20
0.0
 30
0.0
  0
VERTEX
  5
113E
100
AcDbEntity
  8
ALPHA
100
AcDbVertex
100
AcDb2dVertex
 10
52.80976
 20
4.054172
 30
0.0
  0
VERTEX
  5
113F
100
AcDbEntity
  8
ALPHA
100
AcDbVertex
100
AcDb2dVertex
 10
51.292023
 20
5.509036
 30
0.0
  0
SEQEND
  5
1140
100
AcDbEntity
  8
ALPHA
  0
POLYLINE
  5
1141
100
AcDbEntity
  8
ALPHA
100
AcDb2dPolyline
 66
     1
 10
0.0
 20
0.0
 30
0.0
  0
VERTEX
  5
1142
100
AcDbEntity
  8
ALPHA
100
AcDbVertex
100
AcDb2dVertex
 10
51.292023
 20
5.509036
 30
0.0
  0
VERTEX
  5
1143
100
AcDbEntity
  8
ALPHA
100
AcDbVertex
100
AcDb2dVertex
 10
49.094225
 20
3.354817
 30
0.0
  0
SEQEND
  5
1144
100
AcDbEntity
  8
ALPHA
  0
POLYLINE
  5
1145
100
AcDbEntity
  8
ALPHA
100
AcDb2dPolyline
 66
     1
 10
0.0
 20
0.0
 30
0.0
  0
VERTEX
  5
1146
100
AcDbEntity
  8
ALPHA
100
AcDbVertex
100
AcDb2dVertex
 10
50.250571
 20
6.484687
 30
0.0
  0
VERTEX
  5
1147
100
AcDbEntity
  8
ALPHA
100
AcDbVertex
100
AcDb2dVertex
 10
50.281232
 20
6.458848
 30
0.0
  0
SEQEND
  5
1148
100
AcDbEntity
  8
ALPHA
  0
POLYLINE
  5
1149
100
AcDbEntity
  8
ALPHA
100
AcDb2dPolyline
 66
     1
 10
0.0
 20
0.0
 30
0.0
  0
VERTEX
  5
114A
100
AcDbEntity
  8
ALPHA
100
AcDbVertex
100
AcDb2dVertex
 10
48.894581
 20
7.847566
 30
0.0
  0
VERTEX
  5
114B
100
AcDbEntity
  8
ALPHA
100
AcDbVertex
100
AcDb2dVertex
 10
49.828719
 20
8.822873
 30
0.0
  0
SEQEND
  5
114C
100
AcDbEntity
  8
ALPHA
  0
POLYLINE
  5
114D
100
AcDbEntity
  8
ALPHA
100
AcDb2dPolyline
 66
     1
 10
0.0
 20
0.0
 30
0.0
  0
VERTEX
  5
114E
100
AcDbEntity
  8
ALPHA
100
AcDbVertex
100
AcDb2dVertex
 10
49.828719
 20
8.822873
 30
0.0
  0
VERTEX
  5
114F
100
AcDbEntity
  8
ALPHA
100
AcDbVertex
100
AcDb2dVertex
 10
51.17644
 20
7.47653
 30
0.0
  0
SEQEND
  5
1150
100
AcDbEntity
  8
ALPHA
  0
POLYLINE
  5
1151
100
AcDbEntity
  8
ALPHA
100
AcDb2dPolyline
 66
     1
 10
0.0
 20
0.0
 30
0.0
  0
VERTEX
  5
1152
100
AcDbEntity
  8
ALPHA
100
AcDbVertex
100
AcDb2dVertex
 10
51.17644
 20
7.47653
 30
0.0
  0
VERTEX
  5
1153
100
AcDbEntity
  8
ALPHA
100
AcDbVertex
100
AcDb2dVertex
 10
51.230701
 20
7.465161
 30
0.0
  0
SEQEND
  5
1154
100
AcDbEntity
  8
ALPHA
  0
POLYLINE
  5
1155
100
AcDbEntity
  8
ALPHA
100
AcDb2dPolyline
 66
     1
 10
0.0
 20
0.0
 30
0.0
  0
VERTEX
  5
1156
100
AcDbEntity
  8
ALPHA
100
AcDbVertex
100
AcDb2dVertex
 10
57.687326
 20
10.793123
 30
0.0
  0
VERTEX
  5
1157
100
AcDbEntity
  8
ALPHA
100
AcDbVertex
100
AcDb2dVertex
 10
57.687326
 20
-0.697304
 30
0.0
  0
SEQEND
  5
1158
100
AcDbEntity
  8
ALPHA
  0
POLYLINE
  5
1159
100
AcDbEntity
  8
ALPHA
100
AcDb2dPolyline
 66
     1
 10
0.0
 20
0.0
 30
0.0
  0
VERTEX
  5
115A
100
AcDbEntity
  8
ALPHA
100
AcDbVertex
100
AcDb2dVertex
 10
60.136617
 20
3.56738
 30
0.0
  0
VERTEX
  5
115B
100
AcDbEntity
  8
ALPHA
100
AcDbVertex
100
AcDb2dVertex
 10
57.564509
 20
3.56738
 30
0.0
  0
SEQEND
  5
115C
100
AcDbEntity
  8
ALPHA
  0
POLYLINE
  5
115D
100
AcDbEntity
  8
ALPHA
100
AcDb2dPolyline
 66
     1
 10
0.0
 20
0.0
 30
0.0
  0
VERTEX
  5
115E
100
AcDbEntity
  8
ALPHA
100
AcDbVertex
100
AcDb2dVertex
 10
16.054209
 20
13.129242
 30
0.0
  0
VERTEX
  5
115F
100
AcDbEntity
  8
ALPHA
100
AcDbVertex
100
AcDb2dVertex
 10
24.747735
 20
13.129242
 30
0.0
  0
SEQEND
  5
1160
100
AcDbEntity
  8
ALPHA
  0
POLYLINE
  5
1161
100
AcDbEntity
  8
ALPHA
100
AcDb2dPolyline
 66
     1
 10
0.0
 20
0.0
 30
0.0
  0
VERTEX
  5
1162
100
AcDbEntity
  8
ALPHA
100
AcDbVertex
100
AcDb2dVertex
 10
2.707564
 20
80.61005
 30
0.0
  0
VERTEX
  5
1163
100
AcDbEntity
  8
ALPHA
100
AcDbVertex
100
AcDb2dVertex
 10
57.441691
 20
80.61005
 30
0.0
  0
SEQEND
  5
1164
100
AcDbEntity
  8
ALPHA
  0
POLYLINE
  5
1165
100
AcDbEntity
  8
ALPHA
100
AcDb2dPolyline
 66
     1
 10
0.0
 20
0.0
 30
0.0
  0
VERTEX
  5
1166
100
AcDbEntity
  8
ALPHA
100
AcDbVertex
100
AcDb2dVertex
 10
16.054209
 20
68.476079
 30
0.0
  0
VERTEX
  5
1167
100
AcDbEntity
  8
ALPHA
100
AcDbVertex
100
AcDb2dVertex
 10
24.747735
 20
68.476079
 30
0.0
  0
SEQEND
  5
1168
100
AcDbEntity
  8
ALPHA
  0
POLYLINE
  5
1169
100
AcDbEntity
  8
ALPHA
100
AcDb2dPolyline
 66
     1
 10
0.0
 20
0.0
 30
0.0
  0
VERTEX
  5
116A
100
AcDbEntity
  8
ALPHA
100
AcDbVertex
100
AcDb2dVertex
 10
24.87038
 20
78.649791
 30
0.0
  0
VERTEX
  5
116B
100
AcDbEntity
  8
ALPHA
100
AcDbVertex
100
AcDb2dVertex
 10
15.809607
 20
78.649791
 30
0.0
  0
SEQEND
  5
116C
100
AcDbEntity
  8
ALPHA
  0
POLYLINE
  5
116D
100
AcDbEntity
  8
ALPHA
100
AcDb2dPolyline
 66
     1
 10
0.0
 20
0.0
 30
0.0
  0
VERTEX
  5
116E
100
AcDbEntity
  8
ALPHA
100
AcDbVertex
100
AcDb2dVertex
 10
15.809607
 20
66.282932
 30
0.0
  0
VERTEX
  5
116F
100
AcDbEntity
  8
ALPHA
100
AcDbVertex
100
AcDb2dVertex
 10
19.360984
 20
66.282932
 30
0.0
  0
SEQEND
  5
1170
100
AcDbEntity
  8
ALPHA
  0
POLYLINE
  5
1171
100
AcDbEntity
  8
ALPHA
100
AcDb2dPolyline
 66
     1
 10
0.0
 20
0.0
 30
0.0
  0
VERTEX
  5
1172
100
AcDbEntity
  8
ALPHA
100
AcDbVertex
100
AcDb2dVertex
 10
2.585952
 20
82.302626
 30
0.0
  0
VERTEX
  5
1173
100
AcDbEntity
  8
ALPHA
100
AcDbVertex
100
AcDb2dVertex
 10
19.238166
 20
82.302626
 30
0.0
  0
SEQEND
  5
1174
100
AcDbEntity
  8
ALPHA
  0
POLYLINE
  5
1175
100
AcDbEntity
  8
ALPHA
100
AcDb2dPolyline
 66
     1
 10
0.0
 20
0.0
 30
0.0
  0
VERTEX
  5
1176
100
AcDbEntity
  8
ALPHA
100
AcDbVertex
100
AcDb2dVertex
 10
15.809607
 20
15.323424
 30
0.0
  0
VERTEX
  5
1177
100
AcDbEntity
  8
ALPHA
100
AcDbVertex
100
AcDb2dVertex
 10
18.993736
 20
15.323424
 30
0.0
  0
SEQEND
  5
1178
100
AcDbEntity
  8
ALPHA
  0
POLYLINE
  5
1179
100
AcDbEntity
  8
ALPHA
100
AcDb2dPolyline
 66
     1
 10
0.0
 20
0.0
 30
0.0
  0
VERTEX
  5
117A
100
AcDbEntity
  8
ALPHA
100
AcDbVertex
100
AcDb2dVertex
 10
12.38122
 20
17.782188
 30
0.0
  0
VERTEX
  5
117B
100
AcDbEntity
  8
ALPHA
100
AcDbVertex
100
AcDb2dVertex
 10
47.646251
 20
17.782188
 30
0.0
  0
SEQEND
  5
117C
100
AcDbEntity
  8
ALPHA
  0
POLYLINE
  5
117D
100
AcDbEntity
  8
ALPHA
100
AcDb2dPolyline
 66
     1
 10
0.0
 20
0.0
 30
0.0
  0
VERTEX
  5
117E
100
AcDbEntity
  8
ALPHA
100
AcDbVertex
100
AcDb2dVertex
 10
47.646251
 20
63.823133
 30
0.0
  0
VERTEX
  5
117F
100
AcDbEntity
  8
ALPHA
100
AcDbVertex
100
AcDb2dVertex
 10
12.38122
 20
63.823133
 30
0.0
  0
SEQEND
  5
1180
100
AcDbEntity
  8
ALPHA
  0
POLYLINE
  5
1181
100
AcDbEntity
  8
ALPHA
100
AcDb3dPolyline
 66
     1
 10
0.0
 20
0.0
 30
0.0
 70
     8
  0
VERTEX
  5
1182
100
AcDbEntity
  8
ALPHA
100
AcDbVertex
100
AcDb3dPolylineVertex
 10
12.38122
 20
63.823133
 30
0.0
 70
    32
  0
VERTEX
  5
1183
100
AcDbEntity
  8
ALPHA
100
AcDbVertex
100
AcDb3dPolylineVertex
 10
12.377929
 20
63.827132
 30
0.0
 70
    32
  0
VERTEX
  5
1184
100
AcDbEntity
  8
ALPHA
100
AcDbVertex
100
AcDb3dPolylineVertex
 10
12.368166
 20
63.838974
 30
0.0
 70
    32
  0
VERTEX
  5
1185
100
AcDbEntity
  8
ALPHA
100
AcDbVertex
100
AcDb3dPolylineVertex
 10
12.329868
 20
63.88527
 30
0.0
 70
    32
  0
VERTEX
  5
1186
100
AcDbEntity
  8
ALPHA
100
AcDbVertex
100
AcDb3dPolylineVertex
 10
12.182747
 20
64.06187
 30
0.0
 70
    32
  0
VERTEX
  5
1187
100
AcDbEntity
  8
ALPHA
100
AcDbVertex
100
AcDb3dPolylineVertex
 10
11.642798
 20
64.699613
 30
0.0
 70
    32
  0
VERTEX
  5
1188
100
AcDbEntity
  8
ALPHA
100
AcDbVertex
100
AcDb3dPolylineVertex
 10
9.871287
 20
66.701321
 30
0.0
 70
    32
  0
VERTEX
  5
1189
100
AcDbEntity
  8
ALPHA
100
AcDbVertex
100
AcDb3dPolylineVertex
 10
7.732318
 20
68.886662
 30
0.0
 70
    32
  0
VERTEX
  5
118A
100
AcDbEntity
  8
ALPHA
100
AcDbVertex
100
AcDb3dPolylineVertex
 10
6.733046
 20
69.753945
 30
0.0
 70
    32
  0
VERTEX
  5
118B
100
AcDbEntity
  8
ALPHA
100
AcDbVertex
100
AcDb3dPolylineVertex
 10
6.287365
 20
70.079746
 30
0.0
 70
    32
  0
VERTEX
  5
118C
100
AcDbEntity
  8
ALPHA
100
AcDbVertex
100
AcDb3dPolylineVertex
 10
5.891521
 20
70.314038
 30
0.0
 70
    32
  0
VERTEX
  5
118D
100
AcDbEntity
  8
ALPHA
100
AcDbVertex
100
AcDb3dPolylineVertex
 10
5.504019
 20
70.475334
 30
0.0
 70
    32
  0
VERTEX
  5
118E
100
AcDbEntity
  8
ALPHA
100
AcDbVertex
100
AcDb3dPolylineVertex
 10
5.081723
 20
70.588947
 30
0.0
 70
    32
  0
VERTEX
  5
118F
100
AcDbEntity
  8
ALPHA
100
AcDbVertex
100
AcDb3dPolylineVertex
 10
4.632883
 20
70.650208
 30
0.0
 70
    32
  0
VERTEX
  5
1190
100
AcDbEntity
  8
ALPHA
100
AcDbVertex
100
AcDb3dPolylineVertex
 10
4.165749
 20
70.654446
 30
0.0
 70
    32
  0
VERTEX
  5
1191
100
AcDbEntity
  8
ALPHA
100
AcDbVertex
100
AcDb3dPolylineVertex
 10
3.688573
 20
70.596991
 30
0.0
 70
    32
  0
VERTEX
  5
1192
100
AcDbEntity
  8
ALPHA
100
AcDbVertex
100
AcDb3dPolylineVertex
 10
3.209605
 20
70.473173
 30
0.0
 70
    32
  0
VERTEX
  5
1193
100
AcDbEntity
  8
ALPHA
100
AcDbVertex
100
AcDb3dPolylineVertex
 10
2.737096
 20
70.278322
 30
0.0
 70
    32
  0
VERTEX
  5
1194
100
AcDbEntity
  8
ALPHA
100
AcDbVertex
100
AcDb3dPolylineVertex
 10
2.279296
 20
70.007769
 30
0.0
 70
    32
  0
VERTEX
  5
1195
100
AcDbEntity
  8
ALPHA
100
AcDbVertex
100
AcDb3dPolylineVertex
 10
1.844455
 20
69.656842
 30
0.0
 70
    32
  0
VERTEX
  5
1196
100
AcDbEntity
  8
ALPHA
100
AcDbVertex
100
AcDb3dPolylineVertex
 10
1.440825
 20
69.220873
 30
0.0
 70
    32
  0
VERTEX
  5
1197
100
AcDbEntity
  8
ALPHA
100
AcDbVertex
100
AcDb3dPolylineVertex
 10
1.076655
 20
68.69519
 30
0.0
 70
    32
  0
VERTEX
  5
1198
100
AcDbEntity
  8
ALPHA
100
AcDbVertex
100
AcDb3dPolylineVertex
 10
0.760197
 20
68.075124
 30
0.0
 70
    32
  0
VERTEX
  5
1199
100
AcDbEntity
  8
ALPHA
100
AcDbVertex
100
AcDb3dPolylineVertex
 10
0.499701
 20
67.356005
 30
0.0
 70
    32
  0
VERTEX
  5
119A
100
AcDbEntity
  8
ALPHA
100
AcDbVertex
100
AcDb3dPolylineVertex
 10
0.303417
 20
66.533163
 30
0.0
 70
    32
  0
VERTEX
  5
119B
100
AcDbEntity
  8
ALPHA
100
AcDbVertex
100
AcDb3dPolylineVertex
 10
0.179596
 20
65.601927
 30
0.0
 70
    32
  0
VERTEX
  5
119C
100
AcDbEntity
  8
ALPHA
100
AcDbVertex
100
AcDb3dPolylineVertex
 10
0.136489
 20
64.557628
 30
0.0
 70
    32
  0
VERTEX
  5
119D
100
AcDbEntity
  8
ALPHA
100
AcDbVertex
100
AcDb3dPolylineVertex
 10
0.136489
 20
17.047694
 30
0.0
 70
    32
  0
SEQEND
  5
119E
100
AcDbEntity
  8
ALPHA
  0
POLYLINE
  5
119F
100
AcDbEntity
  8
AXE
100
AcDb2dPolyline
 66
     1
 10
0.0
 20
0.0
 30
0.0
  0
VERTEX
  5
11A0
100
AcDbEntity
  8
AXE
100
AcDbVertex
100
AcDb2dVertex
 10
11.063127
 20
16.802403
 30
0.0
  0
VERTEX
  5
11A1
100
AcDbEntity
  8
AXE
100
AcDbVertex
100
AcDb2dVertex
 10
1.43064
 20
16.802403
 30
0.0
  0
SEQEND
  5
11A2
100
AcDbEntity
  8
AXE
  0
POLYLINE
  5
11A3
100
AcDbEntity
  8
ALPHA
100
AcDb2dPolyline
 66
     1
 10
0.0
 20
0.0
 30
0.0
  0
VERTEX
  5
11A4
100
AcDbEntity
  8
ALPHA
100
AcDbVertex
100
AcDb2dVertex
 10
8.886515
 20
16.802403
 30
0.0
 42
1.0
  0
VERTEX
  5
11A5
100
AcDbEntity
  8
ALPHA
100
AcDbVertex
100
AcDb2dVertex
 10
3.38642
 20
16.802403
 30
0.0
 42
1.0
  0
VERTEX
  5
11A6
100
AcDbEntity
  8
ALPHA
100
AcDbVertex
100
AcDb2dVertex
 10
8.886515
 20
16.802403
 30
0.0
  0
SEQEND
  5
11A7
100
AcDbEntity
  8
ALPHA
  0
POLYLINE
  5
11A8
100
AcDbEntity
  8
ALPHA
100
AcDb2dPolyline
 66
     1
 10
0.0
 20
0.0
 30
0.0
  0
VERTEX
  5
11A9
100
AcDbEntity
  8
ALPHA
100
AcDbVertex
100
AcDb2dVertex
 10
13.52103
 20
75.171795
 30
0.0
 42
1.0
  0
VERTEX
  5
11AA
100
AcDbEntity
  8
ALPHA
100
AcDbVertex
100
AcDb2dVertex
 10
5.88911
 20
75.171795
 30
0.0
 42
1.0
  0
VERTEX
  5
11AB
100
AcDbEntity
  8
ALPHA
100
AcDbVertex
100
AcDb2dVertex
 10
13.52103
 20
75.171795
 30
0.0
  0
SEQEND
  5
11AC
100
AcDbEntity
  8
ALPHA
  0
POLYLINE
  5
11AD
100
AcDbEntity
  8
ALPHA
100
AcDb2dPolyline
 66
     1
 10
0.0
 20
0.0
 30
0.0
  0
VERTEX
  5
11AE
100
AcDbEntity
  8
ALPHA
100
AcDbVertex
100
AcDb2dVertex
 10
9.781723
 20
76.096286
 30
0.0
  0
VERTEX
  5
11AF
100
AcDbEntity
  8
ALPHA
100
AcDbVertex
100
AcDb2dVertex
 10
7.583925
 20
78.250504
 30
0.0
  0
SEQEND
  5
11B0
100
AcDbEntity
  8
ALPHA
  0
POLYLINE
  5
11B1
100
AcDbEntity
  8
ALPHA
100
AcDb2dPolyline
 66
     1
 10
0.0
 20
0.0
 30
0.0
  0
VERTEX
  5
11B2
100
AcDbEntity
  8
ALPHA
100
AcDbVertex
100
AcDb2dVertex
 10
15.809607
 20
78.649791
 30
0.0
  0
VERTEX
  5
11B3
100
AcDbEntity
  8
ALPHA
100
AcDbVertex
100
AcDb2dVertex
 10
15.809607
 20
66.282932
 30
0.0
  0
SEQEND
  5
11B4
100
AcDbEntity
  8
ALPHA
  0
POLYLINE
  5
11B5
100
AcDbEntity
  8
ALPHA
100
AcDb2dPolyline
 66
     1
 10
0.0
 20
0.0
 30
0.0
  0
VERTEX
  5
11B6
100
AcDbEntity
  8
ALPHA
100
AcDbVertex
100
AcDb2dVertex
 10
0.136489
 20
67.842182
 30
0.0
  0
VERTEX
  5
11B7
100
AcDbEntity
  8
ALPHA
100
AcDbVertex
100
AcDb2dVertex
 10
0.136489
 20
78.037942
 30
0.0
  0
SEQEND
  5
11B8
100
AcDbEntity
  8
ALPHA
  0
POLYLINE
  5
11B9
100
AcDbEntity
  8
ALPHA
100
AcDb2dPolyline
 66
     1
 10
0.0
 20
0.0
 30
0.0
  0
VERTEX
  5
11BA
100
AcDbEntity
  8
ALPHA
100
AcDbVertex
100
AcDb2dVertex
 10
2.585952
 20
70.20035
 30
0.0
  0
VERTEX
  5
11BB
100
AcDbEntity
  8
ALPHA
100
AcDbVertex
100
AcDb2dVertex
 10
2.585952
 20
82.302626
 30
0.0
  0
SEQEND
  5
11BC
100
AcDbEntity
  8
ALPHA
  0
POLYLINE
  5
11BD
100
AcDbEntity
  8
AXE
100
AcDb2dPolyline
 66
     1
 10
0.0
 20
0.0
 30
0.0
  0
VERTEX
  5
11BE
100
AcDbEntity
  8
AXE
100
AcDbVertex
100
AcDb2dVertex
 10
6.13664
 20
59.91984
 30
0.0
  0
VERTEX
  5
11BF
100
AcDbEntity
  8
AXE
100
AcDbVertex
100
AcDb2dVertex
 10
6.13664
 20
69.552672
 30
0.0
  0
SEQEND
  5
11C0
100
AcDbEntity
  8
AXE
  0
POLYLINE
  5
11C1
100
AcDbEntity
  8
ALPHA
100
AcDb2dPolyline
 66
     1
 10
0.0
 20
0.0
 30
0.0
  0
VERTEX
  5
11C2
100
AcDbEntity
  8
ALPHA
100
AcDbVertex
100
AcDb2dVertex
 10
8.886515
 20
64.802574
 30
0.0
 42
1.0
  0
VERTEX
  5
11C3
100
AcDbEntity
  8
ALPHA
100
AcDbVertex
100
AcDb2dVertex
 10
3.38642
 20
64.802574
 30
0.0
 42
1.0
  0
VERTEX
  5
11C4
100
AcDbEntity
  8
ALPHA
100
AcDbVertex
100
AcDb2dVertex
 10
8.886515
 20
64.802574
 30
0.0
  0
SEQEND
  5
11C5
100
AcDbEntity
  8
ALPHA
  0
POLYLINE
  5
11C6
100
AcDbEntity
  8
AXE
100
AcDb2dPolyline
 66
     1
 10
0.0
 20
0.0
 30
0.0
  0
VERTEX
  5
11C7
100
AcDbEntity
  8
AXE
100
AcDbVertex
100
AcDb2dVertex
 10
11.063127
 20
64.802574
 30
0.0
  0
VERTEX
  5
11C8
100
AcDbEntity
  8
AXE
100
AcDbVertex
100
AcDb2dVertex
 10
1.43064
 20
64.802574
 30
0.0
  0
SEQEND
  5
11C9
100
AcDbEntity
  8
AXE
  0
POLYLINE
  5
11CA
100
AcDbEntity
  8
ALPHA
100
AcDb2dPolyline
 66
     1
 10
0.0
 20
0.0
 30
0.0
  0
VERTEX
  5
11CB
100
AcDbEntity
  8
ALPHA
100
AcDbVertex
100
AcDb2dVertex
 10
9.720401
 20
74.142917
 30
0.0
  0
VERTEX
  5
11CC
100
AcDbEntity
  8
ALPHA
100
AcDbVertex
100
AcDb2dVertex
 10
11.849642
 20
72.074137
 30
0.0
  0
SEQEND
  5
11CD
100
AcDbEntity
  8
ALPHA
  0
POLYLINE
  5
11CE
100
AcDbEntity
  8
ALPHA
100
AcDb2dPolyline
 66
     1
 10
0.0
 20
0.0
 30
0.0
  0
VERTEX
  5
11CF
100
AcDbEntity
  8
ALPHA
100
AcDbVertex
100
AcDb2dVertex
 10
11.29946
 20
77.552528
 30
0.0
  0
VERTEX
  5
11D0
100
AcDbEntity
  8
ALPHA
100
AcDbVertex
100
AcDb2dVertex
 10
9.781723
 20
76.096286
 30
0.0
  0
SEQEND
  5
11D1
100
AcDbEntity
  8
ALPHA
  0
POLYLINE
  5
11D2
100
AcDbEntity
  8
ALPHA
100
AcDb2dPolyline
 66
     1
 10
0.0
 20
0.0
 30
0.0
  0
VERTEX
  5
11D3
100
AcDbEntity
  8
ALPHA
100
AcDbVertex
100
AcDb2dVertex
 10
6.649615
 20
77.274853
 30
0.0
  0
VERTEX
  5
11D4
100
AcDbEntity
  8
ALPHA
100
AcDbVertex
100
AcDb2dVertex
 10
8.740099
 20
75.121669
 30
0.0
  0
SEQEND
  5
11D5
100
AcDbEntity
  8
ALPHA
  0
POLYLINE
  5
11D6
100
AcDbEntity
  8
ALPHA
100
AcDb2dPolyline
 66
     1
 10
0.0
 20
0.0
 30
0.0
  0
VERTEX
  5
11D7
100
AcDbEntity
  8
ALPHA
100
AcDbVertex
100
AcDb2dVertex
 10
8.771966
 20
75.146818
 30
0.0
  0
VERTEX
  5
11D8
100
AcDbEntity
  8
ALPHA
100
AcDbVertex
100
AcDb2dVertex
 10
7.384454
 20
73.760167
 30
0.0
  0
SEQEND
  5
11D9
100
AcDbEntity
  8
ALPHA
  0
POLYLINE
  5
11DA
100
AcDbEntity
  8
ALPHA
100
AcDb2dPolyline
 66
     1
 10
0.0
 20
0.0
 30
0.0
  0
VERTEX
  5
11DB
100
AcDbEntity
  8
ALPHA
100
AcDbVertex
100
AcDb2dVertex
 10
7.384454
 20
73.760167
 30
0.0
  0
VERTEX
  5
11DC
100
AcDbEntity
  8
ALPHA
100
AcDbVertex
100
AcDb2dVertex
 10
8.318591
 20
72.782449
 30
0.0
  0
SEQEND
  5
11DD
100
AcDbEntity
  8
ALPHA
  0
POLYLINE
  5
11DE
100
AcDbEntity
  8
ALPHA
100
AcDb2dPolyline
 66
     1
 10
0.0
 20
0.0
 30
0.0
  0
VERTEX
  5
11DF
100
AcDbEntity
  8
ALPHA
100
AcDbVertex
100
AcDb2dVertex
 10
8.740099
 20
75.121669
 30
0.0
  0
VERTEX
  5
11E0
100
AcDbEntity
  8
ALPHA
100
AcDbVertex
100
AcDb2dVertex
 10
8.771966
 20
75.146818
 30
0.0
  0
SEQEND
  5
11E1
100
AcDbEntity
  8
ALPHA
  0
POLYLINE
  5
11E2
100
AcDbEntity
  8
ALPHA
100
AcDb2dPolyline
 66
     1
 10
0.0
 20
0.0
 30
0.0
  0
VERTEX
  5
11E3
100
AcDbEntity
  8
ALPHA
100
AcDbVertex
100
AcDb2dVertex
 10
8.318591
 20
72.782449
 30
0.0
  0
VERTEX
  5
11E4
100
AcDbEntity
  8
ALPHA
100
AcDbVertex
100
AcDb2dVertex
 10
9.66614
 20
74.129826
 30
0.0
  0
SEQEND
  5
11E5
100
AcDbEntity
  8
ALPHA
  0
POLYLINE
  5
11E6
100
AcDbEntity
  8
ALPHA
100
AcDb2dPolyline
 66
     1
 10
0.0
 20
0.0
 30
0.0
  0
VERTEX
  5
11E7
100
AcDbEntity
  8
ALPHA
100
AcDbVertex
100
AcDb2dVertex
 10
9.66614
 20
74.129826
 30
0.0
  0
VERTEX
  5
11E8
100
AcDbEntity
  8
ALPHA
100
AcDbVertex
100
AcDb2dVertex
 10
9.720401
 20
74.142917
 30
0.0
  0
SEQEND
  5
11E9
100
AcDbEntity
  8
ALPHA
  0
POLYLINE
  5
11EA
100
AcDbEntity
  8
ALPHA
100
AcDb2dPolyline
 66
     1
 10
0.0
 20
0.0
 30
0.0
  0
VERTEX
  5
11EB
100
AcDbEntity
  8
ALPHA
100
AcDbVertex
100
AcDb2dVertex
 10
10.645236
 20
75.048977
 30
0.0
  0
VERTEX
  5
11EC
100
AcDbEntity
  8
ALPHA
100
AcDbVertex
100
AcDb2dVertex
 10
12.172275
 20
76.575843
 30
0.0
  0
SEQEND
  5
11ED
100
AcDbEntity
  8
ALPHA
  0
POLYLINE
  5
11EE
100
AcDbEntity
  8
ALPHA
100
AcDb2dPolyline
 66
     1
 10
0.0
 20
0.0
 30
0.0
  0
VERTEX
  5
11EF
100
AcDbEntity
  8
ALPHA
100
AcDbVertex
100
AcDb2dVertex
 10
12.723663
 20
72.928865
 30
0.0
  0
VERTEX
  5
11F0
100
AcDbEntity
  8
ALPHA
100
AcDbVertex
100
AcDb2dVertex
 10
10.645236
 20
75.048977
 30
0.0
  0
SEQEND
  5
11F1
100
AcDbEntity
  8
ALPHA
  0
POLYLINE
  5
11F2
100
AcDbEntity
  8
ALPHA
100
AcDb2dPolyline
 66
     1
 10
0.0
 20
0.0
 30
0.0
  0
VERTEX
  5
11F3
100
AcDbEntity
  8
ALPHA
100
AcDbVertex
100
AcDb2dVertex
 10
12.172275
 20
76.575843
 30
0.0
  0
VERTEX
  5
11F4
100
AcDbEntity
  8
ALPHA
100
AcDbVertex
100
AcDb2dVertex
 10
11.29946
 20
77.552528
 30
0.0
  0
SEQEND
  5
11F5
100
AcDbEntity
  8
ALPHA
  0
POLYLINE
  5
11F6
100
AcDbEntity
  8
ALPHA
100
AcDb2dPolyline
 66
     1
 10
0.0
 20
0.0
 30
0.0
  0
VERTEX
  5
11F7
100
AcDbEntity
  8
ALPHA
100
AcDbVertex
100
AcDb2dVertex
 10
0.136489
 20
78.037942
 30
0.0
  0
VERTEX
  5
11F8
100
AcDbEntity
  8
ALPHA
100
AcDbVertex
100
AcDb2dVertex
 10
2.585952
 20
78.037942
 30
0.0
  0
SEQEND
  5
11F9
100
AcDbEntity
  8
ALPHA
  0
POLYLINE
  5
11FA
100
AcDbEntity
  8
AXE
100
AcDb2dPolyline
 66
     1
 10
0.0
 20
0.0
 30
0.0
  0
VERTEX
  5
11FB
100
AcDbEntity
  8
AXE
100
AcDbVertex
100
AcDb2dVertex
 10
59.06347
 20
16.802403
 30
0.0
  0
VERTEX
  5
11FC
100
AcDbEntity
  8
AXE
100
AcDbVertex
100
AcDb2dVertex
 10
49.430466
 20
16.802403
 30
0.0
  0
SEQEND
  5
11FD
100
AcDbEntity
  8
AXE
  0
POLYLINE
  5
11FE
100
AcDbEntity
  8
ALPHA
100
AcDb2dPolyline
 66
     1
 10
0.0
 20
0.0
 30
0.0
  0
VERTEX
  5
11FF
100
AcDbEntity
  8
ALPHA
100
AcDbVertex
100
AcDb2dVertex
 10
56.886342
 20
16.802403
 30
0.0
 42
1.0
  0
VERTEX
  5
1200
100
AcDbEntity
  8
ALPHA
100
AcDbVertex
100
AcDb2dVertex
 10
51.386591
 20
16.802403
 30
0.0
 42
1.0
  0
VERTEX
  5
1201
100
AcDbEntity
  8
ALPHA
100
AcDbVertex
100
AcDb2dVertex
 10
56.886342
 20
16.802403
 30
0.0
  0
SEQEND
  5
1202
100
AcDbEntity
  8
ALPHA
  0
POLYLINE
  5
1203
100
AcDbEntity
  8
ALPHA
100
AcDb2dPolyline
 66
     1
 10
0.0
 20
0.0
 30
0.0
  0
VERTEX
  5
1204
100
AcDbEntity
  8
ALPHA
100
AcDbVertex
100
AcDb2dVertex
 10
39.074509
 20
40.558231
 30
0.0
 42
1.0
  0
VERTEX
  5
1205
100
AcDbEntity
  8
ALPHA
100
AcDbVertex
100
AcDb2dVertex
 10
21.93068
 20
40.558231
 30
0.0
 42
1.0
  0
VERTEX
  5
1206
100
AcDbEntity
  8
ALPHA
100
AcDbVertex
100
AcDb2dVertex
 10
39.074509
 20
40.558231
 30
0.0
  0
SEQEND
  5
1207
100
AcDbEntity
  8
ALPHA
  0
POLYLINE
  5
1208
100
AcDbEntity
  8
ALPHA
100
AcDb2dPolyline
 66
     1
 10
0.0
 20
0.0
 30
0.0
  0
VERTEX
  5
1209
100
AcDbEntity
  8
ALPHA
100
AcDbVertex
100
AcDb2dVertex
 10
35.890552
 20
15.323424
 30
0.0
  0
VERTEX
  5
120A
100
AcDbEntity
  8
ALPHA
100
AcDbVertex
100
AcDb2dVertex
 10
39.197327
 20
15.323424
 30
0.0
  0
SEQEND
  5
120B
100
AcDbEntity
  8
ALPHA
  0
POLYLINE
  5
120C
100
AcDbEntity
  8
ALPHA
100
AcDb2dPolyline
 66
     1
 10
0.0
 20
0.0
 30
0.0
  0
VERTEX
  5
120D
100
AcDbEntity
  8
ALPHA
100
AcDbVertex
100
AcDb2dVertex
 10
21.564811
 20
15.323424
 30
0.0
  0
VERTEX
  5
120E
100
AcDbEntity
  8
ALPHA
100
AcDbVertex
100
AcDb2dVertex
 10
24.87038
 20
15.323424
 30
0.0
  0
SEQEND
  5
120F
100
AcDbEntity
  8
ALPHA
  0
POLYLINE
  5
1210
100
AcDbEntity
  8
ALPHA
100
AcDb2dPolyline
 66
     1
 10
0.0
 20
0.0
 30
0.0
  0
VERTEX
  5
1211
100
AcDbEntity
  8
ALPHA
100
AcDbVertex
100
AcDb2dVertex
 10
21.564811
 20
17.527596
 30
0.0
  0
VERTEX
  5
1212
100
AcDbEntity
  8
ALPHA
100
AcDbVertex
100
AcDb2dVertex
 10
21.564811
 20
15.323424
 30
0.0
  0
SEQEND
  5
1213
100
AcDbEntity
  8
ALPHA
  0
POLYLINE
  5
1214
100
AcDbEntity
  8
ALPHA
100
AcDb2dPolyline
 66
     1
 10
0.0
 20
0.0
 30
0.0
  0
VERTEX
  5
1215
100
AcDbEntity
  8
ALPHA
100
AcDbVertex
100
AcDb2dVertex
 10
18.993736
 20
15.323424
 30
0.0
  0
VERTEX
  5
1216
100
AcDbEntity
  8
ALPHA
100
AcDbVertex
100
AcDb2dVertex
 10
18.993736
 20
17.650241
 30
0.0
  0
SEQEND
  5
1217
100
AcDbEntity
  8
ALPHA
  0
POLYLINE
  5
1218
100
AcDbEntity
  8
ALPHA
100
AcDb2dPolyline
 66
     1
 10
0.0
 20
0.0
 30
0.0
  0
VERTEX
  5
1219
100
AcDbEntity
  8
ALPHA
100
AcDbVertex
100
AcDb2dVertex
 10
36.014575
 20
13.129242
 30
0.0
  0
VERTEX
  5
121A
100
AcDbEntity
  8
ALPHA
100
AcDbVertex
100
AcDb2dVertex
 10
45.442596
 20
13.129242
 30
0.0
  0
SEQEND
  5
121B
100
AcDbEntity
  8
ALPHA
  0
POLYLINE
  5
121C
100
AcDbEntity
  8
ALPHA
100
AcDb2dPolyline
 66
     1
 10
0.0
 20
0.0
 30
0.0
  0
VERTEX
  5
121D
100
AcDbEntity
  8
ALPHA
100
AcDbVertex
100
AcDb2dVertex
 10
42.258638
 20
15.323424
 30
0.0
  0
VERTEX
  5
121E
100
AcDbEntity
  8
ALPHA
100
AcDbVertex
100
AcDb2dVertex
 10
45.442596
 20
15.323424
 30
0.0
  0
SEQEND
  5
121F
100
AcDbEntity
  8
ALPHA
  0
POLYLINE
  5
1220
100
AcDbEntity
  8
ALPHA
100
AcDb2dPolyline
 66
     1
 10
0.0
 20
0.0
 30
0.0
  0
VERTEX
  5
1221
100
AcDbEntity
  8
ALPHA
100
AcDbVertex
100
AcDb2dVertex
 10
39.197327
 20
15.323424
 30
0.0
  0
VERTEX
  5
1222
100
AcDbEntity
  8
ALPHA
100
AcDbVertex
100
AcDb2dVertex
 10
39.197327
 20
17.588918
 30
0.0
  0
SEQEND
  5
1223
100
AcDbEntity
  8
ALPHA
  0
POLYLINE
  5
1224
100
AcDbEntity
  8
ALPHA
100
AcDb2dPolyline
 66
     1
 10
0.0
 20
0.0
 30
0.0
  0
VERTEX
  5
1225
100
AcDbEntity
  8
ALPHA
100
AcDbVertex
100
AcDb2dVertex
 10
42.258638
 20
17.588918
 30
0.0
  0
VERTEX
  5
1226
100
AcDbEntity
  8
ALPHA
100
AcDbVertex
100
AcDb2dVertex
 10
42.258638
 20
15.323424
 30
0.0
  0
SEQEND
  5
1227
100
AcDbEntity
  8
ALPHA
  0
POLYLINE
  5
1228
100
AcDbEntity
  8
ALPHA
100
AcDb2dPolyline
 66
     1
 10
0.0
 20
0.0
 30
0.0
  0
VERTEX
  5
1229
100
AcDbEntity
  8
ALPHA
100
AcDbVertex
100
AcDb2dVertex
 10
47.646251
 20
17.782188
 30
0.0
  0
VERTEX
  5
122A
100
AcDbEntity
  8
ALPHA
100
AcDbVertex
100
AcDb2dVertex
 10
47.891886
 20
17.782188
 30
0.0
  0
SEQEND
  5
122B
100
AcDbEntity
  8
ALPHA
  0
POLYLINE
  5
122C
100
AcDbEntity
  8
ALPHA
100
AcDb2dPolyline
 66
     1
 10
0.0
 20
0.0
 30
0.0
  0
VERTEX
  5
122D
100
AcDbEntity
  8
ALPHA
100
AcDbVertex
100
AcDb2dVertex
 10
35.155885
 20
44.068267
 30
0.0
  0
VERTEX
  5
122E
100
AcDbEntity
  8
ALPHA
100
AcDbVertex
100
AcDb2dVertex
 10
35.14872
 20
44.210172
 30
0.0
  0
VERTEX
  5
122F
100
AcDbEntity
  8
ALPHA
100
AcDbVertex
100
AcDb2dVertex
 10
35.127691
 20
44.347973
 30
0.0
  0
VERTEX
  5
1230
100
AcDbEntity
  8
ALPHA
100
AcDbVertex
100
AcDb2dVertex
 10
35.093494
 20
44.480973
 30
0.0
  0
VERTEX
  5
1231
100
AcDbEntity
  8
ALPHA
100
AcDbVertex
100
AcDb2dVertex
 10
35.046829
 20
44.608474
 30
0.0
  0
VERTEX
  5
1232
100
AcDbEntity
  8
ALPHA
100
AcDbVertex
100
AcDb2dVertex
 10
34.988392
 20
44.72978
 30
0.0
  0
VERTEX
  5
1233
100
AcDbEntity
  8
ALPHA
100
AcDbVertex
100
AcDb2dVertex
 10
34.918881
 20
44.844195
 30
0.0
  0
VERTEX
  5
1234
100
AcDbEntity
  8
ALPHA
100
AcDbVertex
100
AcDb2dVertex
 10
34.838994
 20
44.95102
 30
0.0
  0
VERTEX
  5
1235
100
AcDbEntity
  8
ALPHA
100
AcDbVertex
100
AcDb2dVertex
 10
34.749428
 20
45.049559
 30
0.0
  0
VERTEX
  5
1236
100
AcDbEntity
  8
ALPHA
100
AcDbVertex
100
AcDb2dVertex
 10
34.650882
 20
45.139116
 30
0.0
  0
VERTEX
  5
1237
100
AcDbEntity
  8
ALPHA
100
AcDbVertex
100
AcDb2dVertex
 10
34.544053
 20
45.218993
 30
0.0
  0
VERTEX
  5
1238
100
AcDbEntity
  8
ALPHA
100
AcDbVertex
100
AcDb2dVertex
 10
34.429638
 20
45.288493
 30
0.0
  0
VERTEX
  5
1239
100
AcDbEntity
  8
ALPHA
100
AcDbVertex
100
AcDb2dVertex
 10
34.308335
 20
45.346919
 30
0.0
  0
VERTEX
  5
123A
100
AcDbEntity
  8
ALPHA
100
AcDbVertex
100
AcDb2dVertex
 10
34.180842
 20
45.393576
 30
0.0
  0
VERTEX
  5
123B
100
AcDbEntity
  8
ALPHA
100
AcDbVertex
100
AcDb2dVertex
 10
34.047857
 20
45.427764
 30
0.0
  0
VERTEX
  5
123C
100
AcDbEntity
  8
ALPHA
100
AcDbVertex
100
AcDb2dVertex
 10
33.910077
 20
45.448788
 30
0.0
  0
VERTEX
  5
123D
100
AcDbEntity
  8
ALPHA
100
AcDbVertex
100
AcDb2dVertex
 10
33.768201
 20
45.455951
 30
0.0
  0
SEQEND
  5
123E
100
AcDbEntity
  8
ALPHA
  0
POLYLINE
  5
123F
100
AcDbEntity
  8
ALPHA
100
AcDb2dPolyline
 66
     1
 10
0.0
 20
0.0
 30
0.0
  0
VERTEX
  5
1240
100
AcDbEntity
  8
ALPHA
100
AcDbVertex
100
AcDb2dVertex
 10
27.238367
 20
45.455951
 30
0.0
  0
VERTEX
  5
1241
100
AcDbEntity
  8
ALPHA
100
AcDbVertex
100
AcDb2dVertex
 10
27.09649
 20
45.448788
 30
0.0
  0
VERTEX
  5
1242
100
AcDbEntity
  8
ALPHA
100
AcDbVertex
100
AcDb2dVertex
 10
26.95871
 20
45.427764
 30
0.0
  0
VERTEX
  5
1243
100
AcDbEntity
  8
ALPHA
100
AcDbVertex
100
AcDb2dVertex
 10
26.825725
 20
45.393576
 30
0.0
  0
VERTEX
  5
1244
100
AcDbEntity
  8
ALPHA
100
AcDbVertex
100
AcDb2dVertex
 10
26.698232
 20
45.346919
 30
0.0
  0
VERTEX
  5
1245
100
AcDbEntity
  8
ALPHA
100
AcDbVertex
100
AcDb2dVertex
 10
26.57693
 20
45.288493
 30
0.0
  0
VERTEX
  5
1246
100
AcDbEntity
  8
ALPHA
100
AcDbVertex
100
AcDb2dVertex
 10
26.462515
 20
45.218993
 30
0.0
  0
VERTEX
  5
1247
100
AcDbEntity
  8
ALPHA
100
AcDbVertex
100
AcDb2dVertex
 10
26.355685
 20
45.139116
 30
0.0
  0
VERTEX
  5
1248
100
AcDbEntity
  8
ALPHA
100
AcDbVertex
100
AcDb2dVertex
 10
26.257139
 20
45.049559
 30
0.0
  0
VERTEX
  5
1249
100
AcDbEntity
  8
ALPHA
100
AcDbVertex
100
AcDb2dVertex
 10
26.167573
 20
44.95102
 30
0.0
  0
VERTEX
  5
124A
100
AcDbEntity
  8
ALPHA
100
AcDbVertex
100
AcDb2dVertex
 10
26.087686
 20
44.844195
 30
0.0
  0
VERTEX
  5
124B
100
AcDbEntity
  8
ALPHA
100
AcDbVertex
100
AcDb2dVertex
 10
26.018175
 20
44.72978
 30
0.0
  0
VERTEX
  5
124C
100
AcDbEntity
  8
ALPHA
100
AcDbVertex
100
AcDb2dVertex
 10
25.959738
 20
44.608474
 30
0.0
  0
VERTEX
  5
124D
100
AcDbEntity
  8
ALPHA
100
AcDbVertex
100
AcDb2dVertex
 10
25.913073
 20
44.480973
 30
0.0
  0
VERTEX
  5
124E
100
AcDbEntity
  8
ALPHA
100
AcDbVertex
100
AcDb2dVertex
 10
25.878876
 20
44.347973
 30
0.0
  0
VERTEX
  5
124F
100
AcDbEntity
  8
ALPHA
100
AcDbVertex
100
AcDb2dVertex
 10
25.857847
 20
44.210172
 30
0.0
  0
VERTEX
  5
1250
100
AcDbEntity
  8
ALPHA
100
AcDbVertex
100
AcDb2dVertex
 10
25.850682
 20
44.068267
 30
0.0
  0
SEQEND
  5
1251
100
AcDbEntity
  8
ALPHA
  0
POLYLINE
  5
1252
100
AcDbEntity
  8
ALPHA
100
AcDb2dPolyline
 66
     1
 10
0.0
 20
0.0
 30
0.0
  0
VERTEX
  5
1253
100
AcDbEntity
  8
ALPHA
100
AcDbVertex
100
AcDb2dVertex
 10
27.238367
 20
35.537866
 30
0.0
  0
VERTEX
  5
1254
100
AcDbEntity
  8
ALPHA
100
AcDbVertex
100
AcDb2dVertex
 10
33.768201
 20
35.537866
 30
0.0
  0
SEQEND
  5
1255
100
AcDbEntity
  8
ALPHA
  0
POLYLINE
  5
1256
100
AcDbEntity
  8
ALPHA
100
AcDb2dPolyline
 66
     1
 10
0.0
 20
0.0
 30
0.0
  0
VERTEX
  5
1257
100
AcDbEntity
  8
ALPHA
100
AcDbVertex
100
AcDb2dVertex
 10
25.850682
 20
44.068267
 30
0.0
  0
VERTEX
  5
1258
100
AcDbEntity
  8
ALPHA
100
AcDbVertex
100
AcDb2dVertex
 10
25.850682
 20
36.926584
 30
0.0
  0
SEQEND
  5
1259
100
AcDbEntity
  8
ALPHA
  0
POLYLINE
  5
125A
100
AcDbEntity
  8
ALPHA
100
AcDb2dPolyline
 66
     1
 10
0.0
 20
0.0
 30
0.0
  0
VERTEX
  5
125B
100
AcDbEntity
  8
ALPHA
100
AcDbVertex
100
AcDb2dVertex
 10
25.850682
 20
36.926584
 30
0.0
  0
VERTEX
  5
125C
100
AcDbEntity
  8
ALPHA
100
AcDbVertex
100
AcDb2dVertex
 10
25.857847
 20
36.784497
 30
0.0
  0
VERTEX
  5
125D
100
AcDbEntity
  8
ALPHA
100
AcDbVertex
100
AcDb2dVertex
 10
25.878876
 20
36.646537
 30
0.0
  0
VERTEX
  5
125E
100
AcDbEntity
  8
ALPHA
100
AcDbVertex
100
AcDb2dVertex
 10
25.913073
 20
36.513399
 30
0.0
  0
VERTEX
  5
125F
100
AcDbEntity
  8
ALPHA
100
AcDbVertex
100
AcDb2dVertex
 10
25.959738
 20
36.385779
 30
0.0
  0
VERTEX
  5
1260
100
AcDbEntity
  8
ALPHA
100
AcDbVertex
100
AcDb2dVertex
 10
26.018175
 20
36.264373
 30
0.0
  0
VERTEX
  5
1261
100
AcDbEntity
  8
ALPHA
100
AcDbVertex
100
AcDb2dVertex
 10
26.087686
 20
36.149875
 30
0.0
  0
VERTEX
  5
1262
100
AcDbEntity
  8
ALPHA
100
AcDbVertex
100
AcDb2dVertex
 10
26.167573
 20
36.042981
 30
0.0
  0
VERTEX
  5
1263
100
AcDbEntity
  8
ALPHA
100
AcDbVertex
100
AcDb2dVertex
 10
26.257139
 20
35.944387
 30
0.0
  0
VERTEX
  5
1264
100
AcDbEntity
  8
ALPHA
100
AcDbVertex
100
AcDb2dVertex
 10
26.355685
 20
35.854788
 30
0.0
  0
VERTEX
  5
1265
100
AcDbEntity
  8
ALPHA
100
AcDbVertex
100
AcDb2dVertex
 10
26.462515
 20
35.774879
 30
0.0
  0
VERTEX
  5
1266
100
AcDbEntity
  8
ALPHA
100
AcDbVertex
100
AcDb2dVertex
 10
26.57693
 20
35.705356
 30
0.0
  0
VERTEX
  5
1267
100
AcDbEntity
  8
ALPHA
100
AcDbVertex
100
AcDb2dVertex
 10
26.698232
 20
35.646914
 30
0.0
  0
VERTEX
  5
1268
100
AcDbEntity
  8
ALPHA
100
AcDbVertex
100
AcDb2dVertex
 10
26.825725
 20
35.600249
 30
0.0
  0
VERTEX
  5
1269
100
AcDbEntity
  8
ALPHA
100
AcDbVertex
100
AcDb2dVertex
 10
26.95871
 20
35.566055
 30
0.0
  0
VERTEX
  5
126A
100
AcDbEntity
  8
ALPHA
100
AcDbVertex
100
AcDb2dVertex
 10
27.09649
 20
35.545029
 30
0.0
  0
VERTEX
  5
126B
100
AcDbEntity
  8
ALPHA
100
AcDbVertex
100
AcDb2dVertex
 10
27.238367
 20
35.537866
 30
0.0
  0
SEQEND
  5
126C
100
AcDbEntity
  8
ALPHA
  0
POLYLINE
  5
126D
100
AcDbEntity
  8
ALPHA
100
AcDb2dPolyline
 66
     1
 10
0.0
 20
0.0
 30
0.0
  0
VERTEX
  5
126E
100
AcDbEntity
  8
ALPHA
100
AcDbVertex
100
AcDb2dVertex
 10
35.155885
 20
36.926584
 30
0.0
  0
VERTEX
  5
126F
100
AcDbEntity
  8
ALPHA
100
AcDbVertex
100
AcDb2dVertex
 10
35.155885
 20
44.068267
 30
0.0
  0
SEQEND
  5
1270
100
AcDbEntity
  8
ALPHA
  0
POLYLINE
  5
1271
100
AcDbEntity
  8
ALPHA
100
AcDb2dPolyline
 66
     1
 10
0.0
 20
0.0
 30
0.0
  0
VERTEX
  5
1272
100
AcDbEntity
  8
ALPHA
100
AcDbVertex
100
AcDb2dVertex
 10
33.768201
 20
35.537866
 30
0.0
  0
VERTEX
  5
1273
100
AcDbEntity
  8
ALPHA
100
AcDbVertex
100
AcDb2dVertex
 10
33.910077
 20
35.545029
 30
0.0
  0
VERTEX
  5
1274
100
AcDbEntity
  8
ALPHA
100
AcDbVertex
100
AcDb2dVertex
 10
34.047857
 20
35.566055
 30
0.0
  0
VERTEX
  5
1275
100
AcDbEntity
  8
ALPHA
100
AcDbVertex
100
AcDb2dVertex
 10
34.180842
 20
35.600249
 30
0.0
  0
VERTEX
  5
1276
100
AcDbEntity
  8
ALPHA
100
AcDbVertex
100
AcDb2dVertex
 10
34.308335
 20
35.646914
 30
0.0
  0
VERTEX
  5
1277
100
AcDbEntity
  8
ALPHA
100
AcDbVertex
100
AcDb2dVertex
 10
34.429638
 20
35.705356
 30
0.0
  0
VERTEX
  5
1278
100
AcDbEntity
  8
ALPHA
100
AcDbVertex
100
AcDb2dVertex
 10
34.544053
 20
35.774879
 30
0.0
  0
VERTEX
  5
1279
100
AcDbEntity
  8
ALPHA
100
AcDbVertex
100
AcDb2dVertex
 10
34.650882
 20
35.854788
 30
0.0
  0
VERTEX
  5
127A
100
AcDbEntity
  8
ALPHA
100
AcDbVertex
100
AcDb2dVertex
 10
34.749428
 20
35.944387
 30
0.0
  0
VERTEX
  5
127B
100
AcDbEntity
  8
ALPHA
100
AcDbVertex
100
AcDb2dVertex
 10
34.838994
 20
36.042981
 30
0.0
  0
VERTEX
  5
127C
100
AcDbEntity
  8
ALPHA
100
AcDbVertex
100
AcDb2dVertex
 10
34.918881
 20
36.149875
 30
0.0
  0
VERTEX
  5
127D
100
AcDbEntity
  8
ALPHA
100
AcDbVertex
100
AcDb2dVertex
 10
34.988392
 20
36.264373
 30
0.0
  0
VERTEX
  5
127E
100
AcDbEntity
  8
ALPHA
100
AcDbVertex
100
AcDb2dVertex
 10
35.046829
 20
36.385779
 30
0.0
  0
VERTEX
  5
127F
100
AcDbEntity
  8
ALPHA
100
AcDbVertex
100
AcDb2dVertex
 10
35.093494
 20
36.513399
 30
0.0
  0
VERTEX
  5
1280
100
AcDbEntity
  8
ALPHA
100
AcDbVertex
100
AcDb2dVertex
 10
35.127691
 20
36.646537
 30
0.0
  0
VERTEX
  5
1281
100
AcDbEntity
  8
ALPHA
100
AcDbVertex
100
AcDb2dVertex
 10
35.14872
 20
36.784497
 30
0.0
  0
VERTEX
  5
1282
100
AcDbEntity
  8
ALPHA
100
AcDbVertex
100
AcDb2dVertex
 10
35.155885
 20
36.926584
 30
0.0
  0
SEQEND
  5
1283
100
AcDbEntity
  8
ALPHA
  0
POLYLINE
  5
1284
100
AcDbEntity
  8
ALPHA
100
AcDb2dPolyline
 66
     1
 10
0.0
 20
0.0
 30
0.0
  0
VERTEX
  5
1285
100
AcDbEntity
  8
ALPHA
100
AcDbVertex
100
AcDb2dVertex
 10
33.768201
 20
45.455951
 30
0.0
  0
VERTEX
  5
1286
100
AcDbEntity
  8
ALPHA
100
AcDbVertex
100
AcDb2dVertex
 10
27.238367
 20
45.455951
 30
0.0
  0
SEQEND
  5
1287
100
AcDbEntity
  8
ALPHA
  0
POLYLINE
  5
1288
100
AcDbEntity
  8
ALPHA
100
AcDb2dPolyline
 66
     1
 10
0.0
 20
0.0
 30
0.0
  0
VERTEX
  5
1289
100
AcDbEntity
  8
ALPHA
100
AcDbVertex
100
AcDb2dVertex
 10
55.03133
 20
75.171795
 30
0.0
 42
1.0
  0
VERTEX
  5
128A
100
AcDbEntity
  8
ALPHA
100
AcDbVertex
100
AcDb2dVertex
 10
47.39941
 20
75.171795
 30
0.0
 42
1.0
  0
VERTEX
  5
128B
100
AcDbEntity
  8
ALPHA
100
AcDbVertex
100
AcDb2dVertex
 10
55.03133
 20
75.171795
 30
0.0
  0
SEQEND
  5
128C
100
AcDbEntity
  8
ALPHA
  0
POLYLINE
  5
128D
100
AcDbEntity
  8
AXE
100
AcDb2dPolyline
 66
     1
 10
0.0
 20
0.0
 30
0.0
  0
VERTEX
  5
128E
100
AcDbEntity
  8
AXE
100
AcDbVertex
100
AcDb2dVertex
 10
59.06347
 20
64.802574
 30
0.0
  0
VERTEX
  5
128F
100
AcDbEntity
  8
AXE
100
AcDbVertex
100
AcDb2dVertex
 10
49.430466
 20
64.802574
 30
0.0
  0
SEQEND
  5
1290
100
AcDbEntity
  8
AXE
  0
POLYLINE
  5
1291
100
AcDbEntity
  8
ALPHA
100
AcDb2dPolyline
 66
     1
 10
0.0
 20
0.0
 30
0.0
  0
VERTEX
  5
1292
100
AcDbEntity
  8
ALPHA
100
AcDbVertex
100
AcDb2dVertex
 10
56.886342
 20
64.802574
 30
0.0
 42
1.0
  0
VERTEX
  5
1293
100
AcDbEntity
  8
ALPHA
100
AcDbVertex
100
AcDb2dVertex
 10
51.386591
 20
64.802574
 30
0.0
 42
1.0
  0
VERTEX
  5
1294
100
AcDbEntity
  8
ALPHA
100
AcDbVertex
100
AcDb2dVertex
 10
56.886342
 20
64.802574
 30
0.0
  0
SEQEND
  5
1295
100
AcDbEntity
  8
ALPHA
  0
POLYLINE
  5
1296
100
AcDbEntity
  8
ALPHA
100
AcDb2dPolyline
 66
     1
 10
0.0
 20
0.0
 30
0.0
  0
VERTEX
  5
1297
100
AcDbEntity
  8
ALPHA
100
AcDbVertex
100
AcDb2dVertex
 10
51.230701
 20
74.142917
 30
0.0
  0
VERTEX
  5
1298
100
AcDbEntity
  8
ALPHA
100
AcDbVertex
100
AcDb2dVertex
 10
53.360114
 20
72.074137
 30
0.0
  0
SEQEND
  5
1299
100
AcDbEntity
  8
ALPHA
  0
POLYLINE
  5
129A
100
AcDbEntity
  8
ALPHA
100
AcDb2dPolyline
 66
     1
 10
0.0
 20
0.0
 30
0.0
  0
VERTEX
  5
129B
100
AcDbEntity
  8
ALPHA
100
AcDbVertex
100
AcDb2dVertex
 10
54.233963
 20
72.928865
 30
0.0
  0
VERTEX
  5
129C
100
AcDbEntity
  8
ALPHA
100
AcDbVertex
100
AcDb2dVertex
 10
52.155536
 20
75.048977
 30
0.0
  0
SEQEND
  5
129D
100
AcDbEntity
  8
ALPHA
  0
POLYLINE
  5
129E
100
AcDbEntity
  8
ALPHA
100
AcDb2dPolyline
 66
     1
 10
0.0
 20
0.0
 30
0.0
  0
VERTEX
  5
129F
100
AcDbEntity
  8
ALPHA
100
AcDbVertex
100
AcDb2dVertex
 10
52.155536
 20
75.048977
 30
0.0
  0
VERTEX
  5
12A0
100
AcDbEntity
  8
ALPHA
100
AcDbVertex
100
AcDb2dVertex
 10
53.682403
 20
76.575843
 30
0.0
  0
SEQEND
  5
12A1
100
AcDbEntity
  8
ALPHA
  0
POLYLINE
  5
12A2
100
AcDbEntity
  8
ALPHA
100
AcDb2dPolyline
 66
     1
 10
0.0
 20
0.0
 30
0.0
  0
VERTEX
  5
12A3
100
AcDbEntity
  8
ALPHA
100
AcDbVertex
100
AcDb2dVertex
 10
53.682403
 20
76.575843
 30
0.0
  0
VERTEX
  5
12A4
100
AcDbEntity
  8
ALPHA
100
AcDbVertex
100
AcDb2dVertex
 10
52.80976
 20
77.552528
 30
0.0
  0
SEQEND
  5
12A5
100
AcDbEntity
  8
ALPHA
  0
POLYLINE
  5
12A6
100
AcDbEntity
  8
ALPHA
100
AcDb2dPolyline
 66
     1
 10
0.0
 20
0.0
 30
0.0
  0
VERTEX
  5
12A7
100
AcDbEntity
  8
ALPHA
100
AcDbVertex
100
AcDb2dVertex
 10
57.687326
 20
82.302626
 30
0.0
  0
VERTEX
  5
12A8
100
AcDbEntity
  8
ALPHA
100
AcDbVertex
100
AcDb2dVertex
 10
41.769779
 20
82.302626
 30
0.0
  0
SEQEND
  5
12A9
100
AcDbEntity
  8
ALPHA
  0
POLYLINE
  5
12AA
100
AcDbEntity
  8
ALPHA
100
AcDb2dPolyline
 66
     1
 10
0.0
 20
0.0
 30
0.0
  0
VERTEX
  5
12AB
100
AcDbEntity
  8
ALPHA
100
AcDbVertex
100
AcDb2dVertex
 10
34.337503
 20
75.171795
 30
0.0
 42
1.0
  0
VERTEX
  5
12AC
100
AcDbEntity
  8
ALPHA
100
AcDbVertex
100
AcDb2dVertex
 10
26.705583
 20
75.171795
 30
0.0
 42
1.0
  0
VERTEX
  5
12AD
100
AcDbEntity
  8
ALPHA
100
AcDbVertex
100
AcDb2dVertex
 10
34.337503
 20
75.171795
 30
0.0
  0
SEQEND
  5
12AE
100
AcDbEntity
  8
ALPHA
  0
POLYLINE
  5
12AF
100
AcDbEntity
  8
ALPHA
100
AcDb2dPolyline
 66
     1
 10
0.0
 20
0.0
 30
0.0
  0
VERTEX
  5
12B0
100
AcDbEntity
  8
ALPHA
100
AcDbVertex
100
AcDb2dVertex
 10
51.292023
 20
76.096286
 30
0.0
  0
VERTEX
  5
12B1
100
AcDbEntity
  8
ALPHA
100
AcDbVertex
100
AcDb2dVertex
 10
49.094225
 20
78.250504
 30
0.0
  0
SEQEND
  5
12B2
100
AcDbEntity
  8
ALPHA
  0
POLYLINE
  5
12B3
100
AcDbEntity
  8
ALPHA
100
AcDb2dPolyline
 66
     1
 10
0.0
 20
0.0
 30
0.0
  0
VERTEX
  5
12B4
100
AcDbEntity
  8
ALPHA
100
AcDbVertex
100
AcDb2dVertex
 10
30.598368
 20
76.096286
 30
0.0
  0
VERTEX
  5
12B5
100
AcDbEntity
  8
ALPHA
100
AcDbVertex
100
AcDb2dVertex
 10
28.40057
 20
78.250504
 30
0.0
  0
SEQEND
  5
12B6
100
AcDbEntity
  8
ALPHA
  0
POLYLINE
  5
12B7
100
AcDbEntity
  8
ALPHA
100
AcDb2dPolyline
 66
     1
 10
0.0
 20
0.0
 30
0.0
  0
VERTEX
  5
12B8
100
AcDbEntity
  8
ALPHA
100
AcDbVertex
100
AcDb2dVertex
 10
45.442596
 20
66.282932
 30
0.0
  0
VERTEX
  5
12B9
100
AcDbEntity
  8
ALPHA
100
AcDbVertex
100
AcDb2dVertex
 10
45.442596
 20
78.649791
 30
0.0
  0
SEQEND
  5
12BA
100
AcDbEntity
  8
ALPHA
  0
POLYLINE
  5
12BB
100
AcDbEntity
  8
ALPHA
100
AcDb2dPolyline
 66
     1
 10
0.0
 20
0.0
 30
0.0
  0
VERTEX
  5
12BC
100
AcDbEntity
  8
ALPHA
100
AcDbVertex
100
AcDb2dVertex
 10
35.890552
 20
78.649791
 30
0.0
  0
VERTEX
  5
12BD
100
AcDbEntity
  8
ALPHA
100
AcDbVertex
100
AcDb2dVertex
 10
35.890552
 20
66.282932
 30
0.0
  0
SEQEND
  5
12BE
100
AcDbEntity
  8
ALPHA
  0
POLYLINE
  5
12BF
100
AcDbEntity
  8
ALPHA
100
AcDb2dPolyline
 66
     1
 10
0.0
 20
0.0
 30
0.0
  0
VERTEX
  5
12C0
100
AcDbEntity
  8
ALPHA
100
AcDbVertex
100
AcDb2dVertex
 10
24.87038
 20
66.282932
 30
0.0
  0
VERTEX
  5
12C1
100
AcDbEntity
  8
ALPHA
100
AcDbVertex
100
AcDb2dVertex
 10
24.87038
 20
78.649791
 30
0.0
  0
SEQEND
  5
12C2
100
AcDbEntity
  8
ALPHA
  0
POLYLINE
  5
12C3
100
AcDbEntity
  8
ALPHA
100
AcDb2dPolyline
 66
     1
 10
0.0
 20
0.0
 30
0.0
  0
VERTEX
  5
12C4
100
AcDbEntity
  8
ALPHA
100
AcDbVertex
100
AcDb2dVertex
 10
35.890552
 20
66.282932
 30
0.0
  0
VERTEX
  5
12C5
100
AcDbEntity
  8
ALPHA
100
AcDbVertex
100
AcDb2dVertex
 10
39.320144
 20
66.282932
 30
0.0
  0
SEQEND
  5
12C6
100
AcDbEntity
  8
ALPHA
  0
POLYLINE
  5
12C7
100
AcDbEntity
  8
ALPHA
100
AcDb2dPolyline
 66
     1
 10
0.0
 20
0.0
 30
0.0
  0
VERTEX
  5
12C8
100
AcDbEntity
  8
ALPHA
100
AcDbVertex
100
AcDb2dVertex
 10
21.932058
 20
66.282932
 30
0.0
  0
VERTEX
  5
12C9
100
AcDbEntity
  8
ALPHA
100
AcDbVertex
100
AcDb2dVertex
 10
24.87038
 20
66.282932
 30
0.0
  0
SEQEND
  5
12CA
100
AcDbEntity
  8
ALPHA
  0
POLYLINE
  5
12CB
100
AcDbEntity
  8
ALPHA
100
AcDb2dPolyline
 66
     1
 10
0.0
 20
0.0
 30
0.0
  0
VERTEX
  5
12CC
100
AcDbEntity
  8
ALPHA
100
AcDbVertex
100
AcDb2dVertex
 10
21.932058
 20
63.956803
 30
0.0
  0
VERTEX
  5
12CD
100
AcDbEntity
  8
ALPHA
100
AcDbVertex
100
AcDb2dVertex
 10
21.932058
 20
66.282932
 30
0.0
  0
SEQEND
  5
12CE
100
AcDbEntity
  8
ALPHA
  0
POLYLINE
  5
12CF
100
AcDbEntity
  8
ALPHA
100
AcDb2dPolyline
 66
     1
 10
0.0
 20
0.0
 30
0.0
  0
VERTEX
  5
12D0
100
AcDbEntity
  8
ALPHA
100
AcDbVertex
100
AcDb2dVertex
 10
19.360984
 20
66.282932
 30
0.0
  0
VERTEX
  5
12D1
100
AcDbEntity
  8
ALPHA
100
AcDbVertex
100
AcDb2dVertex
 10
19.360984
 20
63.956803
 30
0.0
  0
SEQEND
  5
12D2
100
AcDbEntity
  8
ALPHA
  0
POLYLINE
  5
12D3
100
AcDbEntity
  8
ALPHA
100
AcDb2dPolyline
 66
     1
 10
0.0
 20
0.0
 30
0.0
  0
VERTEX
  5
12D4
100
AcDbEntity
  8
ALPHA
100
AcDbVertex
100
AcDb2dVertex
 10
30.536873
 20
74.142917
 30
0.0
  0
VERTEX
  5
12D5
100
AcDbEntity
  8
ALPHA
100
AcDbVertex
100
AcDb2dVertex
 10
32.666287
 20
72.074137
 30
0.0
  0
SEQEND
  5
12D6
100
AcDbEntity
  8
ALPHA
  0
POLYLINE
  5
12D7
100
AcDbEntity
  8
ALPHA
100
AcDb2dPolyline
 66
     1
 10
0.0
 20
0.0
 30
0.0
  0
VERTEX
  5
12D8
100
AcDbEntity
  8
ALPHA
100
AcDbVertex
100
AcDb2dVertex
 10
33.540308
 20
72.928865
 30
0.0
  0
VERTEX
  5
12D9
100
AcDbEntity
  8
ALPHA
100
AcDbVertex
100
AcDb2dVertex
 10
31.461709
 20
75.048977
 30
0.0
  0
SEQEND
  5
12DA
100
AcDbEntity
  8
ALPHA
  0
POLYLINE
  5
12DB
100
AcDbEntity
  8
ALPHA
100
AcDb2dPolyline
 66
     1
 10
0.0
 20
0.0
 30
0.0
  0
VERTEX
  5
12DC
100
AcDbEntity
  8
ALPHA
100
AcDbVertex
100
AcDb2dVertex
 10
31.461709
 20
75.048977
 30
0.0
  0
VERTEX
  5
12DD
100
AcDbEntity
  8
ALPHA
100
AcDbVertex
100
AcDb2dVertex
 10
32.988748
 20
76.575843
 30
0.0
  0
SEQEND
  5
12DE
100
AcDbEntity
  8
ALPHA
  0
POLYLINE
  5
12DF
100
AcDbEntity
  8
ALPHA
100
AcDb2dPolyline
 66
     1
 10
0.0
 20
0.0
 30
0.0
  0
VERTEX
  5
12E0
100
AcDbEntity
  8
ALPHA
100
AcDbVertex
100
AcDb2dVertex
 10
32.115933
 20
77.552528
 30
0.0
  0
VERTEX
  5
12E1
100
AcDbEntity
  8
ALPHA
100
AcDbVertex
100
AcDb2dVertex
 10
30.598368
 20
76.096286
 30
0.0
  0
SEQEND
  5
12E2
100
AcDbEntity
  8
ALPHA
  0
POLYLINE
  5
12E3
100
AcDbEntity
  8
ALPHA
100
AcDb2dPolyline
 66
     1
 10
0.0
 20
0.0
 30
0.0
  0
VERTEX
  5
12E4
100
AcDbEntity
  8
ALPHA
100
AcDbVertex
100
AcDb2dVertex
 10
27.466432
 20
77.274853
 30
0.0
  0
VERTEX
  5
12E5
100
AcDbEntity
  8
ALPHA
100
AcDbVertex
100
AcDb2dVertex
 10
29.557949
 20
75.121669
 30
0.0
  0
SEQEND
  5
12E6
100
AcDbEntity
  8
ALPHA
  0
POLYLINE
  5
12E7
100
AcDbEntity
  8
ALPHA
100
AcDb2dPolyline
 66
     1
 10
0.0
 20
0.0
 30
0.0
  0
VERTEX
  5
12E8
100
AcDbEntity
  8
ALPHA
100
AcDbVertex
100
AcDb2dVertex
 10
29.588611
 20
75.146818
 30
0.0
  0
VERTEX
  5
12E9
100
AcDbEntity
  8
ALPHA
100
AcDbVertex
100
AcDb2dVertex
 10
28.200926
 20
73.760167
 30
0.0
  0
SEQEND
  5
12EA
100
AcDbEntity
  8
ALPHA
  0
POLYLINE
  5
12EB
100
AcDbEntity
  8
ALPHA
100
AcDb2dPolyline
 66
     1
 10
0.0
 20
0.0
 30
0.0
  0
VERTEX
  5
12EC
100
AcDbEntity
  8
ALPHA
100
AcDbVertex
100
AcDb2dVertex
 10
29.135064
 20
72.782449
 30
0.0
  0
VERTEX
  5
12ED
100
AcDbEntity
  8
ALPHA
100
AcDbVertex
100
AcDb2dVertex
 10
30.482613
 20
74.129826
 30
0.0
  0
SEQEND
  5
12EE
100
AcDbEntity
  8
ALPHA
  0
POLYLINE
  5
12EF
100
AcDbEntity
  8
ALPHA
100
AcDb2dPolyline
 66
     1
 10
0.0
 20
0.0
 30
0.0
  0
VERTEX
  5
12F0
100
AcDbEntity
  8
ALPHA
100
AcDbVertex
100
AcDb2dVertex
 10
28.200926
 20
73.760167
 30
0.0
  0
VERTEX
  5
12F1
100
AcDbEntity
  8
ALPHA
100
AcDbVertex
100
AcDb2dVertex
 10
29.135064
 20
72.782449
 30
0.0
  0
SEQEND
  5
12F2
100
AcDbEntity
  8
ALPHA
  0
POLYLINE
  5
12F3
100
AcDbEntity
  8
ALPHA
100
AcDb2dPolyline
 66
     1
 10
0.0
 20
0.0
 30
0.0
  0
VERTEX
  5
12F4
100
AcDbEntity
  8
ALPHA
100
AcDbVertex
100
AcDb2dVertex
 10
29.557949
 20
75.121669
 30
0.0
  0
VERTEX
  5
12F5
100
AcDbEntity
  8
ALPHA
100
AcDbVertex
100
AcDb2dVertex
 10
29.588611
 20
75.146818
 30
0.0
  0
SEQEND
  5
12F6
100
AcDbEntity
  8
ALPHA
  0
POLYLINE
  5
12F7
100
AcDbEntity
  8
ALPHA
100
AcDb2dPolyline
 66
     1
 10
0.0
 20
0.0
 30
0.0
  0
VERTEX
  5
12F8
100
AcDbEntity
  8
ALPHA
100
AcDbVertex
100
AcDb2dVertex
 10
30.482613
 20
74.129826
 30
0.0
  0
VERTEX
  5
12F9
100
AcDbEntity
  8
ALPHA
100
AcDbVertex
100
AcDb2dVertex
 10
30.536873
 20
74.142917
 30
0.0
  0
SEQEND
  5
12FA
100
AcDbEntity
  8
ALPHA
  0
POLYLINE
  5
12FB
100
AcDbEntity
  8
ALPHA
100
AcDb2dPolyline
 66
     1
 10
0.0
 20
0.0
 30
0.0
  0
VERTEX
  5
12FC
100
AcDbEntity
  8
ALPHA
100
AcDbVertex
100
AcDb2dVertex
 10
32.988748
 20
76.575843
 30
0.0
  0
VERTEX
  5
12FD
100
AcDbEntity
  8
ALPHA
100
AcDbVertex
100
AcDb2dVertex
 10
32.115933
 20
77.552528
 30
0.0
  0
SEQEND
  5
12FE
100
AcDbEntity
  8
ALPHA
  0
POLYLINE
  5
12FF
100
AcDbEntity
  8
ALPHA
100
AcDb2dPolyline
 66
     1
 10
0.0
 20
0.0
 30
0.0
  0
VERTEX
  5
1300
100
AcDbEntity
  8
ALPHA
100
AcDbVertex
100
AcDb2dVertex
 10
42.381284
 20
66.282932
 30
0.0
  0
VERTEX
  5
1301
100
AcDbEntity
  8
ALPHA
100
AcDbVertex
100
AcDb2dVertex
 10
45.442596
 20
66.282932
 30
0.0
  0
SEQEND
  5
1302
100
AcDbEntity
  8
ALPHA
  0
POLYLINE
  5
1303
100
AcDbEntity
  8
ALPHA
100
AcDb2dPolyline
 66
     1
 10
0.0
 20
0.0
 30
0.0
  0
VERTEX
  5
1304
100
AcDbEntity
  8
ALPHA
100
AcDbVertex
100
AcDb2dVertex
 10
39.320144
 20
66.282932
 30
0.0
  0
VERTEX
  5
1305
100
AcDbEntity
  8
ALPHA
100
AcDbVertex
100
AcDb2dVertex
 10
39.320144
 20
63.896514
 30
0.0
  0
SEQEND
  5
1306
100
AcDbEntity
  8
ALPHA
  0
POLYLINE
  5
1307
100
AcDbEntity
  8
ALPHA
100
AcDb2dPolyline
 66
     1
 10
0.0
 20
0.0
 30
0.0
  0
VERTEX
  5
1308
100
AcDbEntity
  8
ALPHA
100
AcDbVertex
100
AcDb2dVertex
 10
42.381284
 20
63.896514
 30
0.0
  0
VERTEX
  5
1309
100
AcDbEntity
  8
ALPHA
100
AcDbVertex
100
AcDb2dVertex
 10
42.381284
 20
66.282932
 30
0.0
  0
SEQEND
  5
130A
100
AcDbEntity
  8
ALPHA
  0
POLYLINE
  5
130B
100
AcDbEntity
  8
ALPHA
100
AcDb2dPolyline
 66
     1
 10
0.0
 20
0.0
 30
0.0
  0
VERTEX
  5
130C
100
AcDbEntity
  8
ALPHA
100
AcDbVertex
100
AcDb2dVertex
 10
47.891886
 20
63.823133
 30
0.0
  0
VERTEX
  5
130D
100
AcDbEntity
  8
ALPHA
100
AcDbVertex
100
AcDb2dVertex
 10
47.646251
 20
63.823133
 30
0.0
  0
SEQEND
  5
130E
100
AcDbEntity
  8
ALPHA
  0
POLYLINE
  5
130F
100
AcDbEntity
  8
ALPHA
100
AcDb2dPolyline
 66
     1
 10
0.0
 20
0.0
 30
0.0
  0
VERTEX
  5
1310
100
AcDbEntity
  8
ALPHA
100
AcDbVertex
100
AcDb2dVertex
 10
36.014575
 20
68.476079
 30
0.0
  0
VERTEX
  5
1311
100
AcDbEntity
  8
ALPHA
100
AcDbVertex
100
AcDb2dVertex
 10
45.19696
 20
68.476079
 30
0.0
  0
SEQEND
  5
1312
100
AcDbEntity
  8
ALPHA
  0
POLYLINE
  5
1313
100
AcDbEntity
  8
ALPHA
100
AcDb2dPolyline
 66
     1
 10
0.0
 20
0.0
 30
0.0
  0
VERTEX
  5
1314
100
AcDbEntity
  8
ALPHA
100
AcDbVertex
100
AcDb2dVertex
 10
48.160087
 20
77.274853
 30
0.0
  0
VERTEX
  5
1315
100
AcDbEntity
  8
ALPHA
100
AcDbVertex
100
AcDb2dVertex
 10
50.250571
 20
75.121669
 30
0.0
  0
SEQEND
  5
1316
100
AcDbEntity
  8
ALPHA
  0
POLYLINE
  5
1317
100
AcDbEntity
  8
ALPHA
100
AcDb2dPolyline
 66
     1
 10
0.0
 20
0.0
 30
0.0
  0
VERTEX
  5
1318
100
AcDbEntity
  8
ALPHA
100
AcDbVertex
100
AcDb2dVertex
 10
50.281232
 20
75.146818
 30
0.0
  0
VERTEX
  5
1319
100
AcDbEntity
  8
ALPHA
100
AcDbVertex
100
AcDb2dVertex
 10
48.894581
 20
73.760167
 30
0.0
  0
SEQEND
  5
131A
100
AcDbEntity
  8
ALPHA
  0
POLYLINE
  5
131B
100
AcDbEntity
  8
ALPHA
100
AcDb2dPolyline
 66
     1
 10
0.0
 20
0.0
 30
0.0
  0
VERTEX
  5
131C
100
AcDbEntity
  8
ALPHA
100
AcDbVertex
100
AcDb2dVertex
 10
48.894581
 20
73.760167
 30
0.0
  0
VERTEX
  5
131D
100
AcDbEntity
  8
ALPHA
100
AcDbVertex
100
AcDb2dVertex
 10
49.828719
 20
72.782449
 30
0.0
  0
SEQEND
  5
131E
100
AcDbEntity
  8
ALPHA
  0
POLYLINE
  5
131F
100
AcDbEntity
  8
ALPHA
100
AcDb2dPolyline
 66
     1
 10
0.0
 20
0.0
 30
0.0
  0
VERTEX
  5
1320
100
AcDbEntity
  8
ALPHA
100
AcDbVertex
100
AcDb2dVertex
 10
49.828719
 20
72.782449
 30
0.0
  0
VERTEX
  5
1321
100
AcDbEntity
  8
ALPHA
100
AcDbVertex
100
AcDb2dVertex
 10
51.17644
 20
74.129826
 30
0.0
  0
SEQEND
  5
1322
100
AcDbEntity
  8
ALPHA
  0
POLYLINE
  5
1323
100
AcDbEntity
  8
ALPHA
100
AcDb2dPolyline
 66
     1
 10
0.0
 20
0.0
 30
0.0
  0
VERTEX
  5
1324
100
AcDbEntity
  8
ALPHA
100
AcDbVertex
100
AcDb2dVertex
 10
50.250571
 20
75.121669
 30
0.0
  0
VERTEX
  5
1325
100
AcDbEntity
  8
ALPHA
100
AcDbVertex
100
AcDb2dVertex
 10
50.281232
 20
75.146818
 30
0.0
  0
SEQEND
  5
1326
100
AcDbEntity
  8
ALPHA
  0
POLYLINE
  5
1327
100
AcDbEntity
  8
ALPHA
100
AcDb2dPolyline
 66
     1
 10
0.0
 20
0.0
 30
0.0
  0
VERTEX
  5
1328
100
AcDbEntity
  8
ALPHA
100
AcDbVertex
100
AcDb2dVertex
 10
51.17644
 20
74.129826
 30
0.0
  0
VERTEX
  5
1329
100
AcDbEntity
  8
ALPHA
100
AcDbVertex
100
AcDb2dVertex
 10
51.230701
 20
74.142917
 30
0.0
  0
SEQEND
  5
132A
100
AcDbEntity
  8
ALPHA
  0
POLYLINE
  5
132B
100
AcDbEntity
  8
ALPHA
100
AcDb2dPolyline
 66
     1
 10
0.0
 20
0.0
 30
0.0
  0
VERTEX
  5
132C
100
AcDbEntity
  8
ALPHA
100
AcDbVertex
100
AcDb2dVertex
 10
52.80976
 20
77.552528
 30
0.0
  0
VERTEX
  5
132D
100
AcDbEntity
  8
ALPHA
100
AcDbVertex
100
AcDb2dVertex
 10
51.292023
 20
76.096286
 30
0.0
  0
SEQEND
  5
132E
100
AcDbEntity
  8
ALPHA
  0
POLYLINE
  5
132F
100
AcDbEntity
  8
ALPHA
100
AcDb2dPolyline
 66
     1
 10
0.0
 20
0.0
 30
0.0
  0
VERTEX
  5
1330
100
AcDbEntity
  8
ALPHA
100
AcDbVertex
100
AcDb2dVertex
 10
45.442596
 20
78.649791
 30
0.0
  0
VERTEX
  5
1331
100
AcDbEntity
  8
ALPHA
100
AcDbVertex
100
AcDb2dVertex
 10
35.890552
 20
78.649791
 30
0.0
  0
SEQEND
  5
1332
100
AcDbEntity
  8
ALPHA
  0
POLYLINE
  5
1333
100
AcDbEntity
  8
ALPHA
100
AcDb2dPolyline
 66
     1
 10
0.0
 20
0.0
 30
0.0
  0
VERTEX
  5
1334
100
AcDbEntity
  8
ALPHA
100
AcDbVertex
100
AcDb2dVertex
 10
21.932058
 20
82.302626
 30
0.0
  0
VERTEX
  5
1335
100
AcDbEntity
  8
ALPHA
100
AcDbVertex
100
AcDb2dVertex
 10
38.830079
 20
82.302626
 30
0.0
  0
SEQEND
  5
1336
100
AcDbEntity
  8
ALPHA
  0
POLYLINE
  5
1337
100
AcDbEntity
  8
ALPHA
100
AcDb2dPolyline
 66
     1
 10
0.0
 20
0.0
 30
0.0
  0
VERTEX
  5
1338
100
AcDbEntity
  8
ALPHA
100
AcDbVertex
100
AcDb2dVertex
 10
19.238166
 20
82.302626
 30
0.0
  0
VERTEX
  5
1339
100
AcDbEntity
  8
ALPHA
100
AcDbVertex
100
AcDb2dVertex
 10
19.238166
 20
80.670339
 30
0.0
  0
SEQEND
  5
133A
100
AcDbEntity
  8
ALPHA
  0
POLYLINE
  5
133B
100
AcDbEntity
  8
ALPHA
100
AcDb2dPolyline
 66
     1
 10
0.0
 20
0.0
 30
0.0
  0
VERTEX
  5
133C
100
AcDbEntity
  8
ALPHA
100
AcDbVertex
100
AcDb2dVertex
 10
21.932058
 20
80.691699
 30
0.0
  0
VERTEX
  5
133D
100
AcDbEntity
  8
ALPHA
100
AcDbVertex
100
AcDb2dVertex
 10
21.932058
 20
82.302626
 30
0.0
  0
SEQEND
  5
133E
100
AcDbEntity
  8
ALPHA
  0
POLYLINE
  5
133F
100
AcDbEntity
  8
ALPHA
100
AcDb2dPolyline
 66
     1
 10
0.0
 20
0.0
 30
0.0
  0
VERTEX
  5
1340
100
AcDbEntity
  8
ALPHA
100
AcDbVertex
100
AcDb2dVertex
 10
38.830079
 20
82.302626
 30
0.0
  0
VERTEX
  5
1341
100
AcDbEntity
  8
ALPHA
100
AcDbVertex
100
AcDb2dVertex
 10
38.830079
 20
80.843972
 30
0.0
  0
SEQEND
  5
1342
100
AcDbEntity
  8
ALPHA
  0
POLYLINE
  5
1343
100
AcDbEntity
  8
ALPHA
100
AcDb2dPolyline
 66
     1
 10
0.0
 20
0.0
 30
0.0
  0
VERTEX
  5
1344
100
AcDbEntity
  8
ALPHA
100
AcDbVertex
100
AcDb2dVertex
 10
41.769779
 20
82.302626
 30
0.0
  0
VERTEX
  5
1345
100
AcDbEntity
  8
ALPHA
100
AcDbVertex
100
AcDb2dVertex
 10
41.769779
 20
80.660004
 30
0.0
  0
SEQEND
  5
1346
100
AcDbEntity
  8
ALPHA
  0
POLYLINE
  5
1347
100
AcDbEntity
  8
ALPHA
100
AcDb2dPolyline
 66
     1
 10
0.0
 20
0.0
 30
0.0
  0
VERTEX
  5
1348
100
AcDbEntity
  8
ALPHA
100
AcDbVertex
100
AcDb2dVertex
 10
60.136617
 20
64.557628
 30
0.0
  0
VERTEX
  5
1349
100
AcDbEntity
  8
ALPHA
100
AcDbVertex
100
AcDb2dVertex
 10
60.136617
 20
78.037942
 30
0.0
  0
SEQEND
  5
134A
100
AcDbEntity
  8
ALPHA
  0
POLYLINE
  5
134B
100
AcDbEntity
  8
ALPHA
100
AcDb2dPolyline
 66
     1
 10
0.0
 20
0.0
 30
0.0
  0
VERTEX
  5
134C
100
AcDbEntity
  8
ALPHA
100
AcDbVertex
100
AcDb2dVertex
 10
57.687326
 20
70.188981
 30
0.0
  0
VERTEX
  5
134D
100
AcDbEntity
  8
ALPHA
100
AcDbVertex
100
AcDb2dVertex
 10
57.687326
 20
82.302626
 30
0.0
  0
SEQEND
  5
134E
100
AcDbEntity
  8
ALPHA
  0
POLYLINE
  5
134F
100
AcDbEntity
  8
AXE
100
AcDb2dPolyline
 66
     1
 10
0.0
 20
0.0
 30
0.0
  0
VERTEX
  5
1350
100
AcDbEntity
  8
AXE
100
AcDbVertex
100
AcDb2dVertex
 10
54.136466
 20
59.91984
 30
0.0
  0
VERTEX
  5
1351
100
AcDbEntity
  8
AXE
100
AcDbVertex
100
AcDb2dVertex
 10
54.136466
 20
69.552672
 30
0.0
  0
SEQEND
  5
1352
100
AcDbEntity
  8
AXE
  0
POLYLINE
  5
1353
100
AcDbEntity
  8
ALPHA
100
AcDb2dPolyline
 66
     1
 10
0.0
 20
0.0
 30
0.0
  0
VERTEX
  5
1354
100
AcDbEntity
  8
ALPHA
100
AcDbVertex
100
AcDb2dVertex
 10
60.136617
 20
78.037942
 30
0.0
  0
VERTEX
  5
1355
100
AcDbEntity
  8
ALPHA
100
AcDbVertex
100
AcDb2dVertex
 10
57.564509
 20
78.037942
 30
0.0
  0
SEQEND
  5
1356
100
AcDbEntity
  8
ALPHA
  0
DIMENSION
  5
1363
100
AcDbEntity
  8
COTATION1
100
AcDbDimension
  2
*D7
 10
54.136466
 20
-8.567569
 30
0.0
 11
30.136553
 21
-6.317569
 31
0.0
 70
    32
  3
SC_STAND
100
AcDbAlignedDimension
 13
6.13664
 23
11.920014
 33
0.0
 14
54.136466
 24
12.287287
 34
0.0
100
AcDbRotatedDimension
  0
DIMENSION
  5
1370
100
AcDbEntity
  8
COTATION1
100
AcDbDimension
  2
*D8
 10
69.968594
 20
16.802403
 30
0.0
 11
67.718594
 21
40.802489
 31
0.0
 70
    32
  3
SC_STAND
100
AcDbAlignedDimension
 13
59.06347
 23
64.802574
 33
0.0
 14
59.06347
 24
16.802403
 34
0.0
 50
90.0
100
AcDbRotatedDimension
  0
DIMENSION
  5
1393
100
AcDbEntity
  8
COTATION1
100
AcDbDimension
  2
*D9
 10
69.968594
 20
16.802403
 30
0.0
 11
67.718594
 21
8.05255
 31
0.0
 70
    32
  1
=
  3
SC_STAND
100
AcDbAlignedDimension
 13
57.687326
 23
-0.697304
 33
0.0
 14
64.637282
 24
16.802403
 34
0.0
 50
90.0
100
AcDbRotatedDimension
  0
DIMENSION
  5
13B6
100
AcDbEntity
  8
COTATION1
100
AcDbDimension
  2
*D10
 10
69.968594
 20
64.802574
 30
0.0
 11
67.718594
 21
73.5526
 31
0.0
 70
    32
  1
=
  3
SC_STAND
100
AcDbAlignedDimension
 13
57.687326
 23
82.302626
 33
0.0
 14
64.637282
 24
64.802574
 34
0.0
 50
90.0
100
AcDbRotatedDimension
  0
LEADER
  5
13CD
100
AcDbEntity
  8
COTATION1
100
AcDbLeader
  3
SC_STAND
 73
     0
 75
     1
 40
2.916667
 41
7.916667
 76
     3
 10
4.055698
 20
66.600672
 30
0.0
 10
-9.936479
 20
79.136938
 30
0.0
 10
-12.936479
 20
79.136938
 30
0.0
 77
   256
340
13CE
  0
MTEXT
  5
13CE
102
{ACAD_REACTORS
330
13CD
102
}
100
AcDbEntity
  8
COTATION1
100
AcDbMText
 10
-13.936479
 20
81.595272
 30
0.0
 40
2.5
 41
0.0
 71
     6
 72
     1
  1
\A1;%%c5,5
  0
DIMENSION
  5
13DB
100
AcDbEntity
  8
COTATION1
100
AcDbDimension
  2
*D11
 10
60.136617
 20
-14.163133
 30
0.0
 11
30.136553
 21
-11.913133
 31
0.0
 70
    32
  3
SC_STAND
100
AcDbAlignedDimension
 13
0.136489
 23
3.56738
 33
0.0
 14
60.136617
 24
3.56738
 34
0.0
100
AcDbRotatedDimension
  0
DIMENSION
  5
13E8
100
AcDbEntity
  8
COTATION1
100
AcDbDimension
  2
*D12
 10
79.779692
 20
82.302626
 30
0.0
 11
77.529692
 21
40.802661
 31
0.0
 70
    32
  3
SC_STAND
100
AcDbAlignedDimension
 13
63.94921
 23
-0.697304
 33
0.0
 14
63.94921
 24
82.302626
 34
0.0
 50
90.0
100
AcDbRotatedDimension
  0
ENDSEC
  0
SECTION
  2
OBJECTS
  0
DICTIONARY
  5
F8
100
AcDbDictionary
  3
ACAD_GROUP
350
F9
  3
ACAD_MLINESTYLE
350
106
  3
ACDBVARIABLEDICTIONARY
350
143
  0
DICTIONARY
  5
F9
102
{ACAD_REACTORS
330
F8
102
}
100
AcDbDictionary
  0
DICTIONARY
  5
106
102
{ACAD_REACTORS
330
F8
102
}
100
AcDbDictionary
  3
STANDARD
350
107
  0
DICTIONARY
  5
143
102
{ACAD_REACTORS
330
F8
102
}
100
AcDbDictionary
  3
DIMADEC
350
144
  0
MLINESTYLE
  5
107
102
{ACAD_REACTORS
330
106
102
}
100
AcDbMlineStyle
  2
STANDARD
 70
     0
  3

 62
   256
 51
90.0
 52
90.0
 71
     2
 49
0.5
 62
   256
  6
BYLAYER
 49
-0.5
 62
   256
  6
BYLAYER
  0
DICTIONARYVAR
  5
144
102
{ACAD_REACTORS
330
143
102
}
100
DictionaryVariables
280
     0
  1
0
  0
ENDSEC
  0
EOF
