  0
SECTION
  2
HEADER
  9
$ACADVER
  1
AC1014
  9
$ACADMAINTVER
 70
     8
  9
$DWGCODEPAGE
  3
ANSI_1252
  9
$INSBASE
 10
0.0
 20
0.0
 30
0.0
  9
$EXTMIN
 10
-1.0775
 20
-1.0775
 30
-2.215
  9
$EXTMAX
 10
2.90291
 20
1.420116
 30
0.815
  9
$LIMMIN
 10
0.0
 20
0.0
  9
$LIMMAX
 10
12.0
 20
9.0
  9
$ORTHOMODE
 70
     0
  9
$REGENMODE
 70
     1
  9
$FILLMODE
 70
     1
  9
$QTEXTMODE
 70
     0
  9
$MIRRTEXT
 70
     1
  9
$DRAGMODE
 70
     2
  9
$LTSCALE
 40
1.0
  9
$OSMODE
 70
    37
  9
$ATTMODE
 70
     0
  9
$TEXTSIZE
 40
0.2
  9
$TRACEWID
 40
0.05
  9
$TEXTSTYLE
  7
STANDARD
  9
$CLAYER
  8
0
  9
$CELTYPE
  6
BYLAYER
  9
$CECOLOR
 62
   256
  9
$CELTSCALE
 40
1.0
  9
$DELOBJ
 70
     1
  9
$DISPSILH
 70
     0
  9
$DIMSCALE
 40
0.0
  9
$DIMASZ
 40
0.18
  9
$DIMEXO
 40
0.0625
  9
$DIMDLI
 40
0.375
  9
$DIMRND
 40
0.0
  9
$DIMDLE
 40
0.0
  9
$DIMEXE
 40
0.18
  9
$DIMTP
 40
0.0
  9
$DIMTM
 40
0.0
  9
$DIMTXT
 40
0.09
  9
$DIMCEN
 40
0.09
  9
$DIMTSZ
 40
0.0
  9
$DIMTOL
 70
     0
  9
$DIMLIM
 70
     0
  9
$DIMTIH
 70
     0
  9
$DIMTOH
 70
     1
  9
$DIMSE1
 70
     0
  9
$DIMSE2
 70
     0
  9
$DIMTAD
 70
     0
  9
$DIMZIN
 70
     4
  9
$DIMBLK
  1

  9
$DIMASO
 70
     1
  9
$DIMSHO
 70
     1
  9
$DIMPOST
  1

  9
$DIMAPOST
  1

  9
$DIMALT
 70
     1
  9
$DIMALTD
 70
     2
  9
$DIMALTF
 40
25.4
  9
$DIMLFAC
 40
1.0
  9
$DIMTOFL
 70
     0
  9
$DIMTVP
 40
0.0
  9
$DIMTIX
 70
     0
  9
$DIMSOXD
 70
     0
  9
$DIMSAH
 70
     0
  9
$DIMBLK1
  1

  9
$DIMBLK2
  1

  9
$DIMSTYLE
  2
ABECAD_3V
  9
$DIMCLRD
 70
     0
  9
$DIMCLRE
 70
     0
  9
$DIMCLRT
 70
     0
  9
$DIMTFAC
 40
1.5
  9
$DIMGAP
 40
0.09
  9
$DIMJUST
 70
     0
  9
$DIMSD1
 70
     0
  9
$DIMSD2
 70
     0
  9
$DIMTOLJ
 70
     1
  9
$DIMTZIN
 70
     4
  9
$DIMALTZ
 70
     4
  9
$DIMALTTZ
 70
     4
  9
$DIMFIT
 70
     5
  9
$DIMUPT
 70
     1
  9
$DIMUNIT
 70
     7
  9
$DIMDEC
 70
     6
  9
$DIMTDEC
 70
     6
  9
$DIMALTU
 70
     2
  9
$DIMALTTD
 70
     2
  9
$DIMTXSTY
  7
STANDARD
  9
$DIMAUNIT
 70
     0
  9
$LUNITS
 70
     2
  9
$LUPREC
 70
     6
  9
$SKETCHINC
 40
0.1
  9
$FILLETRAD
 40
0.0
  9
$AUNITS
 70
     0
  9
$AUPREC
 70
     0
  9
$MENU
  1
acad
  9
$ELEVATION
 40
0.0
  9
$PELEVATION
 40
0.0
  9
$THICKNESS
 40
0.0
  9
$LIMCHECK
 70
     0
  9
$BLIPMODE
 70
     0
  9
$CHAMFERA
 40
0.0
  9
$CHAMFERB
 40
0.0
  9
$CHAMFERC
 40
0.0
  9
$CHAMFERD
 40
0.0
  9
$SKPOLY
 70
     0
  9
$TDCREATE
 40
2451726.480029051
  9
$TDUPDATE
 40
2452010.730088773
  9
$TDINDWG
 40
0.0145038194
  9
$TDUSRTIMER
 40
0.0145038194
  9
$USRTIMER
 70
     1
  9
$ANGBASE
 50
0.0
  9
$ANGDIR
 70
     0
  9
$PDMODE
 70
     3
  9
$PDSIZE
 40
0.18
  9
$PLINEWID
 40
0.0
  9
$COORDS
 70
     1
  9
$SPLFRAME
 70
     0
  9
$SPLINETYPE
 70
     6
  9
$SPLINESEGS
 70
     8
  9
$ATTDIA
 70
     0
  9
$ATTREQ
 70
     1
  9
$HANDLING
 70
     1
  9
$HANDSEED
  5
91E
  9
$SURFTAB1
 70
     6
  9
$SURFTAB2
 70
     6
  9
$SURFTYPE
 70
     6
  9
$SURFU
 70
     6
  9
$SURFV
 70
     6
  9
$UCSNAME
  2

  9
$UCSORG
 10
0.0
 20
0.0
 30
0.0
  9
$UCSXDIR
 10
1.0
 20
0.0
 30
0.0
  9
$UCSYDIR
 10
0.0
 20
0.0
 30
1.0
  9
$PUCSNAME
  2

  9
$PUCSORG
 10
0.0
 20
0.0
 30
0.0
  9
$PUCSXDIR
 10
1.0
 20
0.0
 30
0.0
  9
$PUCSYDIR
 10
0.0
 20
1.0
 30
0.0
  9
$USERI1
 70
     0
  9
$USERI2
 70
     0
  9
$USERI3
 70
     0
  9
$USERI4
 70
     0
  9
$USERI5
 70
     0
  9
$USERR1
 40
0.0
  9
$USERR2
 40
0.0
  9
$USERR3
 40
0.0
  9
$USERR4
 40
0.0
  9
$USERR5
 40
0.0
  9
$WORLDVIEW
 70
     1
  9
$SHADEDGE
 70
     3
  9
$SHADEDIF
 70
    70
  9
$TILEMODE
 70
     0
  9
$MAXACTVP
 70
    16
  9
$PINSBASE
 10
0.0
 20
0.0
 30
0.0
  9
$PLIMCHECK
 70
     0
  9
$PEXTMIN
 10
0.0
 20
0.0
 30
0.0
  9
$PEXTMAX
 10
10.0
 20
7.5
 30
0.0
  9
$PLIMMIN
 10
-0.187029
 20
-0.186938
  9
$PLIMMAX
 10
10.187518
 20
7.829757
  9
$UNITMODE
 70
     0
  9
$VISRETAIN
 70
     0
  9
$PLINEGEN
 70
     0
  9
$PSLTSCALE
 70
     1
  9
$TREEDEPTH
 70
  3020
  9
$PICKSTYLE
 70
     1
  9
$CMLSTYLE
  2
STANDARD
  9
$CMLJUST
 70
     0
  9
$CMLSCALE
 40
1.0
  9
$PROXYGRAPHICS
 70
     1
  9
$MEASUREMENT
 70
     0
  0
ENDSEC
  0
SECTION
  2
CLASSES
  0
CLASS
  1
DICTIONARYVAR
  2
AcDbDictionaryVar
  3
"AutoCAD"
 90
        0
280
     0
281
     0
  0
CLASS
  1
ACDBDICTIONARYWDFLT
  2
AcDbDictionaryWithDefault
  3
AutoCAD 2000
 90
        0
280
     0
281
     0
  0
CLASS
  1
ACDBPLACEHOLDER
  2
AcDbPlaceHolder
  3
AutoCAD 2000
 90
        0
280
     0
281
     0
  0
CLASS
  1
LAYOUT
  2
AcDbLayout
  3
AutoCAD 2000
 90
        0
280
     0
281
     0
  0
CLASS
  1
LONG_TRANSACTION
  2
AcDbLongTransaction
  3
AutoCAD 2000
 90
        0
280
     0
281
     0
  0
CLASS
  1
LWPOLYLINE
  2
AcDbPolyline
  3
"AutoCAD"
 90
        0
280
     0
281
     1
  0
CLASS
  1
HATCH
  2
AcDbHatch
  3
"ACAD_SEDONA"
 90
        0
280
     0
281
     1
  0
CLASS
  1
XRECORD
  2
AcDbXrecord
  3
"<Built In>"
 90
        0
280
     0
281
     0
  0
CLASS
  1
LONG_TRANSACTION
  2
AcDbLongTransaction
  3
AutoCAD 2000
 90
        0
280
     0
281
     0
  0
CLASS
  1
LWPOLYLINE
  2
AcDbPolyline
  3
"AutoCAD"
 90
        0
280
     0
281
     1
  0
CLASS
  1
HATCH
  2
AcDbHatch
  3
"ACAD_SEDONA"
 90
        0
280
     0
281
     1
  0
CLASS
  1
XRECORD
  2
AcDbXrecord
  3
"<Built In>"
 90
        0
280
     0
281
     0
  0
CLASS
  1
LONG_TRANSACTION
  2
AcDbLongTransaction
  3
AutoCAD 2000
 90
        0
280
     0
281
     0
  0
CLASS
  1
LWPOLYLINE
  2
AcDbPolyline
  3
"AutoCAD"
 90
        0
280
     0
281
     1
  0
CLASS
  1
HATCH
  2
AcDbHatch
  3
"ACAD_SEDONA"
 90
        0
280
     0
281
     1
  0
CLASS
  1
XRECORD
  2
AcDbXrecord
  3
"<Built In>"
 90
        0
280
     0
281
     0
  0
CLASS
  1
LONG_TRANSACTION
  2
AcDbLongTransaction
  3
AutoCAD 2000
 90
        0
280
     0
281
     0
  0
CLASS
  1
LWPOLYLINE
  2
AcDbPolyline
  3
"AutoCAD"
 90
        0
280
     0
281
     1
  0
CLASS
  1
HATCH
  2
AcDbHatch
  3
"ACAD_SEDONA"
 90
        0
280
     0
281
     1
  0
CLASS
  1
XRECORD
  2
AcDbXrecord
  3
"<Built In>"
 90
        0
280
     0
281
     0
  0
CLASS
  1
LONG_TRANSACTION
  2
AcDbLongTransaction
  3
AutoCAD 2000
 90
        0
280
     0
281
     0
  0
CLASS
  1
LWPOLYLINE
  2
AcDbPolyline
  3
"AutoCAD"
 90
        0
280
     0
281
     1
  0
CLASS
  1
HATCH
  2
AcDbHatch
  3
"ACAD_SEDONA"
 90
        0
280
     0
281
     1
  0
CLASS
  1
XRECORD
  2
AcDbXrecord
  3
"<Built In>"
 90
        0
280
     0
281
     0
  0
CLASS
  1
LONG_TRANSACTION
  2
AcDbLongTransaction
  3
AutoCAD 2000
 90
        0
280
     0
281
     0
  0
CLASS
  1
LWPOLYLINE
  2
AcDbPolyline
  3
"AutoCAD"
 90
        0
280
     0
281
     1
  0
CLASS
  1
HATCH
  2
AcDbHatch
  3
"ACAD_SEDONA"
 90
        0
280
     0
281
     1
  0
CLASS
  1
XRECORD
  2
AcDbXrecord
  3
"<Built In>"
 90
        0
280
     0
281
     0
  0
ENDSEC
  0
SECTION
  2
TABLES
  0
TABLE
  2
VPORT
  5
469
100
AcDbSymbolTable
 70
     1
  0
VPORT
  5
835
102
{ACAD_XDICTIONARY
360
8E6
102
}
100
AcDbSymbolTableRecord
100
AcDbViewportTableRecord
  2
*ACTIVE
 70
     0
 10
0.0
 20
0.0
 11
1.0
 21
1.0
 12
0.912705
 22
-0.7
 13
0.0
 23
0.0
 14
1.0
 24
1.0
 15
0.0
 25
0.0
 16
0.0
 26
-1.0
 36
0.0
 17
0.0
 27
0.0
 37
0.0
 40
3.061839
 41
1.826316
 42
50.0
 43
0.0
 44
0.0
 50
0.0
 51
0.0
 71
     0
 72
   100
 73
     1
 74
     1
 75
     0
 76
     0
 77
     0
 78
     0
  0
ENDTAB
  0
TABLE
  2
LTYPE
  5
466
100
AcDbSymbolTable
 70
     1
  0
LTYPE
  5
472
100
AcDbSymbolTableRecord
100
AcDbLinetypeTableRecord
  2
BYBLOCK
 70
     0
  3

 72
    65
 73
     0
 40
0.0
  0
LTYPE
  5
473
100
AcDbSymbolTableRecord
100
AcDbLinetypeTableRecord
  2
BYLAYER
 70
     0
  3

 72
    65
 73
     0
 40
0.0
  0
LTYPE
  5
474
100
AcDbSymbolTableRecord
100
AcDbLinetypeTableRecord
  2
CONTINUOUS
 70
     0
  3
Solid line
 72
    65
 73
     0
 40
0.0
  0
ENDTAB
  0
TABLE
  2
LAYER
  5
463
100
AcDbSymbolTable
 70
     8
  0
LAYER
  5
46F
100
AcDbSymbolTableRecord
100
AcDbLayerTableRecord
  2
0
 70
     0
 62
     7
  6
CONTINUOUS
  0
LAYER
  5
485
100
AcDbSymbolTableRecord
100
AcDbLayerTableRecord
  2
AREA1
 70
     0
 62
     7
  6
CONTINUOUS
  0
LAYER
  5
486
100
AcDbSymbolTableRecord
100
AcDbLayerTableRecord
  2
AREA2
 70
     0
 62
     7
  6
CONTINUOUS
  0
LAYER
  5
494
102
{ACAD_XDICTIONARY
360
913
102
}
100
AcDbSymbolTableRecord
100
AcDbLayerTableRecord
  2
DEFPOINTS
 70
     0
 62
    -7
  6
CONTINUOUS
  0
LAYER
  5
495
100
AcDbSymbolTableRecord
100
AcDbLayerTableRecord
  2
DIMS-MTG-HOLES
 70
     0
 62
    -1
  6
CONTINUOUS
  0
LAYER
  5
4E6
100
AcDbSymbolTableRecord
100
AcDbLayerTableRecord
  2
SCALE
 70
     0
 62
    -7
  6
CONTINUOUS
  0
LAYER
  5
4ED
100
AcDbSymbolTableRecord
100
AcDbLayerTableRecord
  2
SNAP_POINTS
 70
     0
 62
    -1
  6
CONTINUOUS
  0
LAYER
  5
4F1
100
AcDbSymbolTableRecord
100
AcDbLayerTableRecord
  2
ATTRIBUTES
 70
     0
 62
    -7
  6
CONTINUOUS
  0
ENDTAB
  0
TABLE
  2
STYLE
  5
464
100
AcDbSymbolTable
 70
     1
  0
STYLE
  5
470
100
AcDbSymbolTableRecord
100
AcDbTextStyleTableRecord
  2
STANDARD
 70
     0
 40
0.0
 41
1.0
 50
0.0
 71
     0
 42
0.2
  3
txt
  4

  0
ENDTAB
  0
TABLE
  2
VIEW
  5
467
100
AcDbSymbolTable
 70
     0
  0
ENDTAB
  0
TABLE
  2
UCS
  5
468
100
AcDbSymbolTable
 70
     0
  0
ENDTAB
  0
TABLE
  2
APPID
  5
46A
100
AcDbSymbolTable
 70
     2
  0
APPID
  5
471
100
AcDbSymbolTableRecord
100
AcDbRegAppTableRecord
  2
ACAD
 70
     0
  0
APPID
  5
47E
100
AcDbSymbolTableRecord
100
AcDbRegAppTableRecord
  2
AVE_RENDER
 70
     0
  0
ENDTAB
  0
TABLE
  2
DIMSTYLE
  5
46B
100
AcDbSymbolTable
 70
     2
  0
DIMSTYLE
105
49A
102
{ACAD_XDICTIONARY
360
915
102
}
102
{ACAD_REACTORS
330
827
102
}
100
AcDbSymbolTableRecord
100
AcDbDimStyleTableRecord
  2
ABECAD_3V
 70
     0
  3

  4

  5

  6

  7

 40
0.0
 41
0.18
 42
0.0625
 43
0.375
 44
0.18
 45
0.0
 46
0.0
 47
0.0
 48
0.0
140
0.09
141
0.09
142
0.0
143
25.4
144
1.0
145
0.0
146
1.5
147
0.09
 71
     0
 72
     0
 73
     0
 74
     1
 75
     0
 76
     0
 77
     0
 78
     4
170
     1
171
     2
172
     0
173
     0
174
     0
175
     0
176
     0
177
     0
178
     0
270
     7
271
     6
272
     6
273
     2
274
     2
340
470
275
     0
280
     0
281
     0
282
     0
283
     1
284
     4
285
     4
286
     4
287
     5
288
     1
  0
DIMSTYLE
105
598
102
{ACAD_XDICTIONARY
360
919
102
}
100
AcDbSymbolTableRecord
100
AcDbDimStyleTableRecord
  2
ABECAD_3D
 70
     0
  3

  4

  5

  6

  7

 40
1.0
 41
0.09
 42
0.0625
 43
0.375
 44
0.18
 45
0.0
 46
0.0
 47
0.0
 48
0.0
140
0.09
141
0.09
142
0.0
143
25.4
144
1.0
145
0.0
146
1.5
147
0.09
 71
     0
 72
     0
 73
     0
 74
     1
 75
     0
 76
     0
 77
     0
 78
     4
170
     1
171
     2
172
     0
173
     0
174
     0
175
     0
176
     0
177
     0
178
     0
270
     7
271
     6
272
     6
273
     2
274
     2
340
470
275
     0
280
     0
281
     0
282
     0
283
     1
284
     4
285
     4
286
     4
287
     5
288
     1
  0
ENDTAB
  0
TABLE
  2
BLOCK_RECORD
  5
462
100
AcDbSymbolTable
 70
     4
  0
BLOCK_RECORD
  5
478
102
{ACAD_XDICTIONARY
360
4D2
102
}
100
AcDbSymbolTableRecord
100
AcDbBlockTableRecord
  2
*MODEL_SPACE
  0
BLOCK_RECORD
  5
475
102
{ACAD_XDICTIONARY
360
4D0
102
}
100
AcDbSymbolTableRecord
100
AcDbBlockTableRecord
  2
*PAPER_SPACE
  0
BLOCK_RECORD
  5
6F8
100
AcDbSymbolTableRecord
100
AcDbBlockTableRecord
  2
*D0
  0
BLOCK_RECORD
  5
705
100
AcDbSymbolTableRecord
100
AcDbBlockTableRecord
  2
*D1
  0
BLOCK_RECORD
  5
712
102
{ACAD_XDICTIONARY
360
8E4
102
}
100
AcDbSymbolTableRecord
100
AcDbBlockTableRecord
  2
ABDSK390
  0
BLOCK_RECORD
  5
828
100
AcDbSymbolTableRecord
100
AcDbBlockTableRecord
  2
*D3
  0
ENDTAB
  0
ENDSEC
  0
SECTION
  2
BLOCKS
  0
BLOCK
  5
48B
100
AcDbEntity
  8
0
100
AcDbBlockBegin
  2
*MODEL_SPACE
 70
     0
 10
0.0
 20
0.0
 30
0.0
  3
*MODEL_SPACE
  1

  0
ENDBLK
  5
48C
100
AcDbEntity
  8
0
100
AcDbBlockEnd
  0
BLOCK
  5
489
100
AcDbEntity
 67
     1
  8
0
100
AcDbBlockBegin
  2
*PAPER_SPACE
 70
     0
 10
0.0
 20
0.0
 30
0.0
  3
*PAPER_SPACE
  1

  0
ENDBLK
  5
48A
100
AcDbEntity
 67
     1
  8
0
100
AcDbBlockEnd
  0
BLOCK
  5
703
100
AcDbEntity
  8
0
100
AcDbBlockBegin
  2
*D0
 70
     1
 10
0.0
 20
0.0
 30
0.0
  3
*D0
  1

  0
LINE
  5
6F9
100
AcDbEntity
  8
AREA1
 62
     0
100
AcDbLine
 10
-1.0775
 20
1.14
 30
0.0
 11
-1.0775
 21
1.420116
 31
0.0
1001
ACAD
1000
RTLwPs
1070
   158
  0
LINE
  5
6FA
100
AcDbEntity
  8
AREA1
 62
     0
100
AcDbLine
 10
1.0775
 20
1.14
 30
0.0
 11
1.0775
 21
1.420116
 31
0.0
1001
ACAD
1000
RTLwPs
1070
   158
  0
LINE
  5
6FB
100
AcDbEntity
  8
AREA1
 62
     0
100
AcDbLine
 10
-0.9875
 20
1.240116
 30
0.0
 11
-0.641972
 21
1.240116
 31
0.0
1001
ACAD
1000
RTLwPs
1070
   158
  0
LINE
  5
6FC
100
AcDbEntity
  8
AREA1
 62
     0
100
AcDbLine
 10
0.9875
 20
1.240116
 30
0.0
 11
0.648028
 21
1.240116
 31
0.0
1001
ACAD
1000
RTLwPs
1070
   158
  0
MTEXT
  5
6FD
100
AcDbEntity
  8
AREA1
 62
     0
100
AcDbMText
 10
0.003028
 20
1.240116
 30
0.0
 40
0.09
 41
0.0
 71
     5
 72
     1
  1
\A1;2 5/32 [54.74]
1001
ACAD
1000
MTEXTBEGIN
1070
    73
1070
     1
1070
    44
1040
1.0
1070
    74
1070
     0
1000
MTEXTEND
1000
MTEXTBEGIN
1070
    73
1070
     1
1070
    44
1040
1.0
1070
    74
1070
     0
1000
MTEXTEND
1000
MTEXTBEGIN
1070
    73
1070
     1
1070
    44
1040
1.0
1070
    74
1070
     0
1000
MTEXTEND
1000
MTEXTBEGIN
1070
    73
1070
     1
1070
    44
1040
1.0
1070
    74
1070
     0
1000
MTEXTEND
1000
MTEXTBEGIN
1070
    73
1070
     1
1070
    44
1040
1.0
1070
    74
1070
     0
1000
MTEXTEND
  0
SOLID
  5
6FE
100
AcDbEntity
  8
AREA1
 62
     0
100
AcDbTrace
 10
-0.9875
 20
1.255116
 30
0.0
 11
-0.9875
 21
1.225116
 31
0.0
 12
-1.0775
 22
1.240116
 32
0.0
 13
-1.0775
 23
1.240116
 33
0.0
  0
SOLID
  5
6FF
100
AcDbEntity
  8
AREA1
 62
     0
100
AcDbTrace
 10
0.9875
 20
1.255116
 30
0.0
 11
0.9875
 21
1.225116
 31
0.0
 12
1.0775
 22
1.240116
 32
0.0
 13
1.0775
 23
1.240116
 33
0.0
  0
POINT
  5
700
100
AcDbEntity
  8
DEFPOINTS
 62
     0
100
AcDbPoint
 10
-1.0775
 20
1.0775
 30
-0.19
  0
POINT
  5
701
100
AcDbEntity
  8
DEFPOINTS
 62
     0
100
AcDbPoint
 10
1.0775
 20
1.0775
 30
-0.19
  0
POINT
  5
702
100
AcDbEntity
  8
DEFPOINTS
 62
     0
100
AcDbPoint
 10
1.0775
 20
1.240116
 30
0.0
  0
ENDBLK
  5
704
100
AcDbEntity
  8
0
100
AcDbBlockEnd
  0
BLOCK
  5
710
100
AcDbEntity
  8
0
100
AcDbBlockBegin
  2
*D1
 70
     1
 10
0.0
 20
0.0
 30
0.0
  3
*D1
  1

  0
LINE
  5
706
100
AcDbEntity
  8
AREA1
 62
     0
100
AcDbLine
 10
1.14
 20
1.0775
 30
0.0
 11
1.479782
 21
1.0775
 31
0.0
1001
ACAD
1000
RTLwPs
1070
   158
  0
LINE
  5
707
100
AcDbEntity
  8
AREA1
 62
     0
100
AcDbLine
 10
1.14
 20
-1.0775
 30
0.0
 11
1.479782
 21
-1.0775
 31
0.0
1001
ACAD
1000
RTLwPs
1070
   158
  0
LINE
  5
708
100
AcDbEntity
  8
AREA1
 62
     0
100
AcDbLine
 10
1.299782
 20
0.9875
 30
0.0
 11
1.299782
 21
0.589389
 31
0.0
1001
ACAD
1000
RTLwPs
1070
   158
  0
LINE
  5
709
100
AcDbEntity
  8
AREA1
 62
     0
100
AcDbLine
 10
1.299782
 20
-0.9875
 30
0.0
 11
1.299782
 21
-0.700611
 31
0.0
1001
ACAD
1000
RTLwPs
1070
   158
  0
MTEXT
  5
70A
100
AcDbEntity
  8
AREA1
 62
     0
100
AcDbMText
 10
1.299782
 20
-0.055611
 30
0.0
 40
0.09
 41
0.0
 71
     5
 72
     1
  1
\A1;2 5/32 [54.74]
 11
0.0
 21
1.0
 31
0.0
1001
ACAD
1000
MTEXTBEGIN
1070
    73
1070
     1
1070
    44
1040
1.0
1070
    74
1070
     0
1000
MTEXTEND
1000
MTEXTBEGIN
1070
    73
1070
     1
1070
    44
1040
1.0
1070
    74
1070
     0
1000
MTEXTEND
1000
MTEXTBEGIN
1070
    73
1070
     1
1070
    44
1040
1.0
1070
    74
1070
     0
1000
MTEXTEND
1000
MTEXTBEGIN
1070
    73
1070
     1
1070
    44
1040
1.0
1070
    74
1070
     0
1000
MTEXTEND
1000
MTEXTBEGIN
1070
    73
1070
     1
1070
    44
1040
1.0
1070
    74
1070
     0
1000
MTEXTEND
  0
SOLID
  5
70B
100
AcDbEntity
  8
AREA1
 62
     0
100
AcDbTrace
 10
1.284782
 20
0.9875
 30
0.0
 11
1.314782
 21
0.9875
 31
0.0
 12
1.299782
 22
1.0775
 32
0.0
 13
1.299782
 23
1.0775
 33
0.0
  0
SOLID
  5
70C
100
AcDbEntity
  8
AREA1
 62
     0
100
AcDbTrace
 10
1.284782
 20
-0.9875
 30
0.0
 11
1.314782
 21
-0.9875
 31
0.0
 12
1.299782
 22
-1.0775
 32
0.0
 13
1.299782
 23
-1.0775
 33
0.0
  0
POINT
  5
70D
100
AcDbEntity
  8
DEFPOINTS
 62
     0
100
AcDbPoint
 10
1.0775
 20
1.0775
 30
0.0
  0
POINT
  5
70E
100
AcDbEntity
  8
DEFPOINTS
 62
     0
100
AcDbPoint
 10
1.0775
 20
-1.0775
 30
0.0
  0
POINT
  5
70F
100
AcDbEntity
  8
DEFPOINTS
 62
     0
100
AcDbPoint
 10
1.299782
 20
-1.0775
 30
0.0
  0
ENDBLK
  5
711
100
AcDbEntity
  8
0
100
AcDbBlockEnd
  0
BLOCK
  5
81A
100
AcDbEntity
  8
0
100
AcDbBlockBegin
  2
ABDSK390
 70
     2
 10
0.0
 20
0.0
 30
0.0
  3
ABDSK390
  1

  0
LINE
  5
713
100
AcDbEntity
  8
SCALE
100
AcDbLine
 10
1.825279
 20
-0.611753
 30
0.0
 11
2.825279
 21
-0.611753
 31
0.0
  0
LINE
  5
714
100
AcDbEntity
  8
SCALE
100
AcDbLine
 10
2.825279
 20
-0.611753
 30
0.0
 11
2.825279
 21
-0.711753
 31
0.0
  0
LINE
  5
715
100
AcDbEntity
  8
SCALE
100
AcDbLine
 10
2.825279
 20
-0.711753
 30
0.0
 11
2.825279
 21
-0.511753
 31
0.0
  0
LINE
  5
716
100
AcDbEntity
  8
SCALE
100
AcDbLine
 10
1.825279
 20
-0.711753
 30
0.0
 11
1.825279
 21
-0.511753
 31
0.0
  0
LINE
  5
717
100
AcDbEntity
  8
SCALE
100
AcDbLine
 10
1.825279
 20
-1.011753
 30
0.0
 11
1.825279
 21
-0.811753
 31
0.0
  0
LINE
  5
718
100
AcDbEntity
  8
SCALE
100
AcDbLine
 10
2.218979
 20
-1.011753
 30
0.0
 11
2.218979
 21
-0.811753
 31
0.0
  0
LINE
  5
719
100
AcDbEntity
  8
SCALE
100
AcDbLine
 10
1.825279
 20
-0.911753
 30
0.0
 11
2.218979
 21
-0.911753
 31
0.0
  0
TEXT
  5
71A
100
AcDbEntity
  8
SCALE
100
AcDbText
 10
1.884702
 20
-0.866013
 30
0.0
 40
0.0625
  1
[10mm]
100
AcDbText
  0
TEXT
  5
71B
100
AcDbEntity
  8
SCALE
100
AcDbText
 10
2.188562
 20
-0.542704
 30
0.0
 40
0.0625
  1
1 Inch
100
AcDbText
  0
TEXT
  5
71C
100
AcDbEntity
  8
SCALE
100
AcDbText
 10
1.82681
 20
-0.336876
 30
0.0
 40
0.0625
  1
SCALE:
100
AcDbText
  0
LWPOLYLINE
  5
71D
100
AcDbEntity
  8
SCALE
100
AcDbPolyline
 90
        4
 70
     1
 43
0.0
 10
1.767281
 20
-0.231674
 10
2.90291
 20
-0.231674
 10
2.90291
 20
-1.073284
 10
1.767281
 20
-1.073284
  0
ARC
  5
71E
100
AcDbEntity
  8
0
100
AcDbCircle
 39
0.485
 10
0.0
 20
0.0
 30
-0.675
 40
0.65
100
AcDbArc
 50
31.538873
 51
148.461127
  0
ARC
  5
71F
100
AcDbEntity
  8
0
100
AcDbCircle
 39
0.485
 10
0.0
 20
0.0
 30
-0.675
 40
0.65
100
AcDbArc
 50
211.538873
 51
328.461127
  0
CIRCLE
  5
720
100
AcDbEntity
  8
0
100
AcDbCircle
 39
0.815
 10
0.0
 20
0.0
 30
0.0
 40
0.1725
  0
CIRCLE
  5
721
100
AcDbEntity
  8
0
100
AcDbCircle
 10
0.0
 20
0.0
 30
0.0
 40
0.3335
  0
POLYLINE
  5
722
100
AcDbEntity
  8
0
100
AcDbPolygonMesh
 66
     1
 10
0.0
 20
0.0
 30
0.0
 70
    16
 71
     6
 72
     3
  0
VERTEX
  5
723
100
AcDbEntity
  8
0
100
AcDbVertex
100
AcDbPolygonMeshVertex
 10
0.9825
 20
0.34
 30
-0.19
 70
    64
  0
VERTEX
  5
724
100
AcDbEntity
  8
0
100
AcDbVertex
100
AcDbPolygonMeshVertex
 10
0.9825
 20
0.34
 30
-0.675
 70
    64
  0
VERTEX
  5
725
100
AcDbEntity
  8
0
100
AcDbVertex
100
AcDbPolygonMeshVertex
 10
0.9825
 20
0.34
 30
-0.675
 70
    64
  0
VERTEX
  5
726
100
AcDbEntity
  8
0
100
AcDbVertex
100
AcDbPolygonMeshVertex
 10
0.9825
 20
-0.34
 30
-0.19
 70
    64
  0
VERTEX
  5
727
100
AcDbEntity
  8
0
100
AcDbVertex
100
AcDbPolygonMeshVertex
 10
0.9825
 20
-0.34
 30
-0.675
 70
    64
  0
VERTEX
  5
728
100
AcDbEntity
  8
0
100
AcDbVertex
100
AcDbPolygonMeshVertex
 10
0.9825
 20
-0.34
 30
-0.675
 70
    64
  0
VERTEX
  5
729
100
AcDbEntity
  8
0
100
AcDbVertex
100
AcDbPolygonMeshVertex
 10
-0.9825
 20
-0.34
 30
-0.19
 70
    64
  0
VERTEX
  5
72A
100
AcDbEntity
  8
0
100
AcDbVertex
100
AcDbPolygonMeshVertex
 10
-0.9825
 20
-0.34
 30
-0.675
 70
    64
  0
VERTEX
  5
72B
100
AcDbEntity
  8
0
100
AcDbVertex
100
AcDbPolygonMeshVertex
 10
0.9825
 20
-0.34
 30
-0.675
 70
    64
  0
VERTEX
  5
72C
100
AcDbEntity
  8
0
100
AcDbVertex
100
AcDbPolygonMeshVertex
 10
-0.9825
 20
0.34
 30
-0.19
 70
    64
  0
VERTEX
  5
72D
100
AcDbEntity
  8
0
100
AcDbVertex
100
AcDbPolygonMeshVertex
 10
-0.9825
 20
0.34
 30
-0.675
 70
    64
  0
VERTEX
  5
72E
100
AcDbEntity
  8
0
100
AcDbVertex
100
AcDbPolygonMeshVertex
 10
0.9825
 20
0.34
 30
-0.675
 70
    64
  0
VERTEX
  5
72F
100
AcDbEntity
  8
0
100
AcDbVertex
100
AcDbPolygonMeshVertex
 10
-0.9825
 20
0.34
 30
-0.19
 70
    64
  0
VERTEX
  5
730
100
AcDbEntity
  8
0
100
AcDbVertex
100
AcDbPolygonMeshVertex
 10
-0.9825
 20
0.34
 30
-0.19
 70
    64
  0
VERTEX
  5
731
100
AcDbEntity
  8
0
100
AcDbVertex
100
AcDbPolygonMeshVertex
 10
0.9825
 20
0.34
 30
-0.19
 70
    64
  0
VERTEX
  5
732
100
AcDbEntity
  8
0
100
AcDbVertex
100
AcDbPolygonMeshVertex
 10
-0.9825
 20
-0.34
 30
-0.19
 70
    64
  0
VERTEX
  5
733
100
AcDbEntity
  8
0
100
AcDbVertex
100
AcDbPolygonMeshVertex
 10
-0.9825
 20
-0.34
 30
-0.19
 70
    64
  0
VERTEX
  5
734
100
AcDbEntity
  8
0
100
AcDbVertex
100
AcDbPolygonMeshVertex
 10
0.9825
 20
-0.34
 30
-0.19
 70
    64
  0
SEQEND
  5
735
100
AcDbEntity
  8
0
  0
POLYLINE
  5
736
100
AcDbEntity
  8
0
100
AcDbPolygonMesh
 66
     1
 10
0.0
 20
0.0
 30
0.0
 70
    16
 71
     6
 72
     3
  0
VERTEX
  5
737
100
AcDbEntity
  8
0
100
AcDbVertex
100
AcDbPolygonMeshVertex
 10
0.8125
 20
-1.0775
 30
-0.425
 70
    64
  0
VERTEX
  5
738
100
AcDbEntity
  8
0
100
AcDbVertex
100
AcDbPolygonMeshVertex
 10
0.8125
 20
-1.0775
 30
-0.425
 70
    64
  0
VERTEX
  5
739
100
AcDbEntity
  8
0
100
AcDbVertex
100
AcDbPolygonMeshVertex
 10
0.8125
 20
-1.0775
 30
-0.425
 70
    64
  0
VERTEX
  5
73A
100
AcDbEntity
  8
0
100
AcDbVertex
100
AcDbPolygonMeshVertex
 10
1.0775
 20
-0.8125
 30
-0.425
 70
    64
  0
VERTEX
  5
73B
100
AcDbEntity
  8
0
100
AcDbVertex
100
AcDbPolygonMeshVertex
 10
1.0775
 20
-1.0775
 30
-0.425
 70
    64
  0
VERTEX
  5
73C
100
AcDbEntity
  8
0
100
AcDbVertex
100
AcDbPolygonMeshVertex
 10
1.0775
 20
-1.0775
 30
-0.425
 70
    64
  0
VERTEX
  5
73D
100
AcDbEntity
  8
0
100
AcDbVertex
100
AcDbPolygonMeshVertex
 10
1.0775
 20
-0.8125
 30
-0.19
 70
    64
  0
VERTEX
  5
73E
100
AcDbEntity
  8
0
100
AcDbVertex
100
AcDbPolygonMeshVertex
 10
1.0775
 20
-1.0775
 30
-0.19
 70
    64
  0
VERTEX
  5
73F
100
AcDbEntity
  8
0
100
AcDbVertex
100
AcDbPolygonMeshVertex
 10
1.0775
 20
-1.0775
 30
-0.425
 70
    64
  0
VERTEX
  5
740
100
AcDbEntity
  8
0
100
AcDbVertex
100
AcDbPolygonMeshVertex
 10
0.8125
 20
-1.0775
 30
-0.19
 70
    64
  0
VERTEX
  5
741
100
AcDbEntity
  8
0
100
AcDbVertex
100
AcDbPolygonMeshVertex
 10
0.8125
 20
-1.0775
 30
-0.19
 70
    64
  0
VERTEX
  5
742
100
AcDbEntity
  8
0
100
AcDbVertex
100
AcDbPolygonMeshVertex
 10
0.8125
 20
-1.0775
 30
-0.425
 70
    64
  0
VERTEX
  5
743
100
AcDbEntity
  8
0
100
AcDbVertex
100
AcDbPolygonMeshVertex
 10
0.8125
 20
-1.0775
 30
-0.19
 70
    64
  0
VERTEX
  5
744
100
AcDbEntity
  8
0
100
AcDbVertex
100
AcDbPolygonMeshVertex
 10
0.8125
 20
-1.0775
 30
-0.19
 70
    64
  0
VERTEX
  5
745
100
AcDbEntity
  8
0
100
AcDbVertex
100
AcDbPolygonMeshVertex
 10
0.8125
 20
-1.0775
 30
-0.425
 70
    64
  0
VERTEX
  5
746
100
AcDbEntity
  8
0
100
AcDbVertex
100
AcDbPolygonMeshVertex
 10
1.0775
 20
-0.8125
 30
-0.19
 70
    64
  0
VERTEX
  5
747
100
AcDbEntity
  8
0
100
AcDbVertex
100
AcDbPolygonMeshVertex
 10
1.0775
 20
-0.8125
 30
-0.19
 70
    64
  0
VERTEX
  5
748
100
AcDbEntity
  8
0
100
AcDbVertex
100
AcDbPolygonMeshVertex
 10
1.0775
 20
-0.8125
 30
-0.425
 70
    64
  0
SEQEND
  5
749
100
AcDbEntity
  8
0
  0
POLYLINE
  5
74A
100
AcDbEntity
  8
0
100
AcDbPolygonMesh
 66
     1
 10
0.0
 20
0.0
 30
0.0
 70
    16
 71
     6
 72
     3
  0
VERTEX
  5
74B
100
AcDbEntity
  8
0
100
AcDbVertex
100
AcDbPolygonMeshVertex
 10
0.34
 20
-0.605
 30
-0.19
 70
    64
  0
VERTEX
  5
74C
100
AcDbEntity
  8
0
100
AcDbVertex
100
AcDbPolygonMeshVertex
 10
0.34
 20
-0.605
 30
-0.425
 70
    64
  0
VERTEX
  5
74D
100
AcDbEntity
  8
0
100
AcDbVertex
100
AcDbPolygonMeshVertex
 10
0.34
 20
-0.605
 30
-0.425
 70
    64
  0
VERTEX
  5
74E
100
AcDbEntity
  8
0
100
AcDbVertex
100
AcDbPolygonMeshVertex
 10
0.605
 20
-0.34
 30
-0.19
 70
    64
  0
VERTEX
  5
74F
100
AcDbEntity
  8
0
100
AcDbVertex
100
AcDbPolygonMeshVertex
 10
0.605
 20
-0.34
 30
-0.425
 70
    64
  0
VERTEX
  5
750
100
AcDbEntity
  8
0
100
AcDbVertex
100
AcDbPolygonMeshVertex
 10
0.605
 20
-0.34
 30
-0.425
 70
    64
  0
VERTEX
  5
751
100
AcDbEntity
  8
0
100
AcDbVertex
100
AcDbPolygonMeshVertex
 10
1.0775
 20
-0.8125
 30
-0.19
 70
    64
  0
VERTEX
  5
752
100
AcDbEntity
  8
0
100
AcDbVertex
100
AcDbPolygonMeshVertex
 10
1.0775
 20
-0.8125
 30
-0.425
 70
    64
  0
VERTEX
  5
753
100
AcDbEntity
  8
0
100
AcDbVertex
100
AcDbPolygonMeshVertex
 10
0.605
 20
-0.34
 30
-0.425
 70
    64
  0
VERTEX
  5
754
100
AcDbEntity
  8
0
100
AcDbVertex
100
AcDbPolygonMeshVertex
 10
0.8125
 20
-1.0775
 30
-0.19
 70
    64
  0
VERTEX
  5
755
100
AcDbEntity
  8
0
100
AcDbVertex
100
AcDbPolygonMeshVertex
 10
0.8125
 20
-1.0775
 30
-0.425
 70
    64
  0
VERTEX
  5
756
100
AcDbEntity
  8
0
100
AcDbVertex
100
AcDbPolygonMeshVertex
 10
0.34
 20
-0.605
 30
-0.425
 70
    64
  0
VERTEX
  5
757
100
AcDbEntity
  8
0
100
AcDbVertex
100
AcDbPolygonMeshVertex
 10
0.8125
 20
-1.0775
 30
-0.19
 70
    64
  0
VERTEX
  5
758
100
AcDbEntity
  8
0
100
AcDbVertex
100
AcDbPolygonMeshVertex
 10
0.8125
 20
-1.0775
 30
-0.19
 70
    64
  0
VERTEX
  5
759
100
AcDbEntity
  8
0
100
AcDbVertex
100
AcDbPolygonMeshVertex
 10
0.34
 20
-0.605
 30
-0.19
 70
    64
  0
VERTEX
  5
75A
100
AcDbEntity
  8
0
100
AcDbVertex
100
AcDbPolygonMeshVertex
 10
1.0775
 20
-0.8125
 30
-0.19
 70
    64
  0
VERTEX
  5
75B
100
AcDbEntity
  8
0
100
AcDbVertex
100
AcDbPolygonMeshVertex
 10
1.0775
 20
-0.8125
 30
-0.19
 70
    64
  0
VERTEX
  5
75C
100
AcDbEntity
  8
0
100
AcDbVertex
100
AcDbPolygonMeshVertex
 10
0.605
 20
-0.34
 30
-0.19
 70
    64
  0
SEQEND
  5
75D
100
AcDbEntity
  8
0
  0
POLYLINE
  5
75E
100
AcDbEntity
  8
0
100
AcDbPolygonMesh
 66
     1
 10
0.0
 20
0.0
 30
0.0
 70
    16
 71
     6
 72
     3
  0
VERTEX
  5
75F
100
AcDbEntity
  8
0
100
AcDbVertex
100
AcDbPolygonMeshVertex
 10
1.0775
 20
0.8125
 30
-0.425
 70
    64
  0
VERTEX
  5
760
100
AcDbEntity
  8
0
100
AcDbVertex
100
AcDbPolygonMeshVertex
 10
1.0775
 20
0.8125
 30
-0.425
 70
    64
  0
VERTEX
  5
761
100
AcDbEntity
  8
0
100
AcDbVertex
100
AcDbPolygonMeshVertex
 10
1.0775
 20
0.8125
 30
-0.425
 70
    64
  0
VERTEX
  5
762
100
AcDbEntity
  8
0
100
AcDbVertex
100
AcDbPolygonMeshVertex
 10
0.8125
 20
1.0775
 30
-0.425
 70
    64
  0
VERTEX
  5
763
100
AcDbEntity
  8
0
100
AcDbVertex
100
AcDbPolygonMeshVertex
 10
1.0775
 20
1.0775
 30
-0.425
 70
    64
  0
VERTEX
  5
764
100
AcDbEntity
  8
0
100
AcDbVertex
100
AcDbPolygonMeshVertex
 10
1.0775
 20
1.0775
 30
-0.425
 70
    64
  0
VERTEX
  5
765
100
AcDbEntity
  8
0
100
AcDbVertex
100
AcDbPolygonMeshVertex
 10
0.8125
 20
1.0775
 30
-0.19
 70
    64
  0
VERTEX
  5
766
100
AcDbEntity
  8
0
100
AcDbVertex
100
AcDbPolygonMeshVertex
 10
1.0775
 20
1.0775
 30
-0.19
 70
    64
  0
VERTEX
  5
767
100
AcDbEntity
  8
0
100
AcDbVertex
100
AcDbPolygonMeshVertex
 10
1.0775
 20
1.0775
 30
-0.425
 70
    64
  0
VERTEX
  5
768
100
AcDbEntity
  8
0
100
AcDbVertex
100
AcDbPolygonMeshVertex
 10
1.0775
 20
0.8125
 30
-0.19
 70
    64
  0
VERTEX
  5
769
100
AcDbEntity
  8
0
100
AcDbVertex
100
AcDbPolygonMeshVertex
 10
1.0775
 20
0.8125
 30
-0.19
 70
    64
  0
VERTEX
  5
76A
100
AcDbEntity
  8
0
100
AcDbVertex
100
AcDbPolygonMeshVertex
 10
1.0775
 20
0.8125
 30
-0.425
 70
    64
  0
VERTEX
  5
76B
100
AcDbEntity
  8
0
100
AcDbVertex
100
AcDbPolygonMeshVertex
 10
1.0775
 20
0.8125
 30
-0.19
 70
    64
  0
VERTEX
  5
76C
100
AcDbEntity
  8
0
100
AcDbVertex
100
AcDbPolygonMeshVertex
 10
1.0775
 20
0.8125
 30
-0.19
 70
    64
  0
VERTEX
  5
76D
100
AcDbEntity
  8
0
100
AcDbVertex
100
AcDbPolygonMeshVertex
 10
1.0775
 20
0.8125
 30
-0.425
 70
    64
  0
VERTEX
  5
76E
100
AcDbEntity
  8
0
100
AcDbVertex
100
AcDbPolygonMeshVertex
 10
0.8125
 20
1.0775
 30
-0.19
 70
    64
  0
VERTEX
  5
76F
100
AcDbEntity
  8
0
100
AcDbVertex
100
AcDbPolygonMeshVertex
 10
0.8125
 20
1.0775
 30
-0.19
 70
    64
  0
VERTEX
  5
770
100
AcDbEntity
  8
0
100
AcDbVertex
100
AcDbPolygonMeshVertex
 10
0.8125
 20
1.0775
 30
-0.425
 70
    64
  0
SEQEND
  5
771
100
AcDbEntity
  8
0
  0
POLYLINE
  5
772
100
AcDbEntity
  8
0
100
AcDbPolygonMesh
 66
     1
 10
0.0
 20
0.0
 30
0.0
 70
    16
 71
     6
 72
     3
  0
VERTEX
  5
773
100
AcDbEntity
  8
0
100
AcDbVertex
100
AcDbPolygonMeshVertex
 10
-1.0775
 20
-0.8125
 30
-0.425
 70
    64
  0
VERTEX
  5
774
100
AcDbEntity
  8
0
100
AcDbVertex
100
AcDbPolygonMeshVertex
 10
-1.0775
 20
-0.8125
 30
-0.425
 70
    64
  0
VERTEX
  5
775
100
AcDbEntity
  8
0
100
AcDbVertex
100
AcDbPolygonMeshVertex
 10
-1.0775
 20
-0.8125
 30
-0.425
 70
    64
  0
VERTEX
  5
776
100
AcDbEntity
  8
0
100
AcDbVertex
100
AcDbPolygonMeshVertex
 10
-0.8125
 20
-1.0775
 30
-0.425
 70
    64
  0
VERTEX
  5
777
100
AcDbEntity
  8
0
100
AcDbVertex
100
AcDbPolygonMeshVertex
 10
-1.0775
 20
-1.0775
 30
-0.425
 70
    64
  0
VERTEX
  5
778
100
AcDbEntity
  8
0
100
AcDbVertex
100
AcDbPolygonMeshVertex
 10
-1.0775
 20
-1.0775
 30
-0.425
 70
    64
  0
VERTEX
  5
779
100
AcDbEntity
  8
0
100
AcDbVertex
100
AcDbPolygonMeshVertex
 10
-0.8125
 20
-1.0775
 30
-0.19
 70
    64
  0
VERTEX
  5
77A
100
AcDbEntity
  8
0
100
AcDbVertex
100
AcDbPolygonMeshVertex
 10
-1.0775
 20
-1.0775
 30
-0.19
 70
    64
  0
VERTEX
  5
77B
100
AcDbEntity
  8
0
100
AcDbVertex
100
AcDbPolygonMeshVertex
 10
-1.0775
 20
-1.0775
 30
-0.425
 70
    64
  0
VERTEX
  5
77C
100
AcDbEntity
  8
0
100
AcDbVertex
100
AcDbPolygonMeshVertex
 10
-1.0775
 20
-0.8125
 30
-0.19
 70
    64
  0
VERTEX
  5
77D
100
AcDbEntity
  8
0
100
AcDbVertex
100
AcDbPolygonMeshVertex
 10
-1.0775
 20
-0.8125
 30
-0.19
 70
    64
  0
VERTEX
  5
77E
100
AcDbEntity
  8
0
100
AcDbVertex
100
AcDbPolygonMeshVertex
 10
-1.0775
 20
-0.8125
 30
-0.425
 70
    64
  0
VERTEX
  5
77F
100
AcDbEntity
  8
0
100
AcDbVertex
100
AcDbPolygonMeshVertex
 10
-1.0775
 20
-0.8125
 30
-0.19
 70
    64
  0
VERTEX
  5
780
100
AcDbEntity
  8
0
100
AcDbVertex
100
AcDbPolygonMeshVertex
 10
-1.0775
 20
-0.8125
 30
-0.19
 70
    64
  0
VERTEX
  5
781
100
AcDbEntity
  8
0
100
AcDbVertex
100
AcDbPolygonMeshVertex
 10
-1.0775
 20
-0.8125
 30
-0.425
 70
    64
  0
VERTEX
  5
782
100
AcDbEntity
  8
0
100
AcDbVertex
100
AcDbPolygonMeshVertex
 10
-0.8125
 20
-1.0775
 30
-0.19
 70
    64
  0
VERTEX
  5
783
100
AcDbEntity
  8
0
100
AcDbVertex
100
AcDbPolygonMeshVertex
 10
-0.8125
 20
-1.0775
 30
-0.19
 70
    64
  0
VERTEX
  5
784
100
AcDbEntity
  8
0
100
AcDbVertex
100
AcDbPolygonMeshVertex
 10
-0.8125
 20
-1.0775
 30
-0.425
 70
    64
  0
SEQEND
  5
785
100
AcDbEntity
  8
0
  0
POLYLINE
  5
786
100
AcDbEntity
  8
0
100
AcDbPolygonMesh
 66
     1
 10
0.0
 20
0.0
 30
0.0
 70
    16
 71
     6
 72
     3
  0
VERTEX
  5
787
100
AcDbEntity
  8
0
100
AcDbVertex
100
AcDbPolygonMeshVertex
 10
-0.8125
 20
1.0775
 30
-0.425
 70
    64
  0
VERTEX
  5
788
100
AcDbEntity
  8
0
100
AcDbVertex
100
AcDbPolygonMeshVertex
 10
-0.8125
 20
1.0775
 30
-0.425
 70
    64
  0
VERTEX
  5
789
100
AcDbEntity
  8
0
100
AcDbVertex
100
AcDbPolygonMeshVertex
 10
-0.8125
 20
1.0775
 30
-0.425
 70
    64
  0
VERTEX
  5
78A
100
AcDbEntity
  8
0
100
AcDbVertex
100
AcDbPolygonMeshVertex
 10
-1.0775
 20
0.8125
 30
-0.425
 70
    64
  0
VERTEX
  5
78B
100
AcDbEntity
  8
0
100
AcDbVertex
100
AcDbPolygonMeshVertex
 10
-1.0775
 20
1.0775
 30
-0.425
 70
    64
  0
VERTEX
  5
78C
100
AcDbEntity
  8
0
100
AcDbVertex
100
AcDbPolygonMeshVertex
 10
-1.0775
 20
1.0775
 30
-0.425
 70
    64
  0
VERTEX
  5
78D
100
AcDbEntity
  8
0
100
AcDbVertex
100
AcDbPolygonMeshVertex
 10
-1.0775
 20
0.8125
 30
-0.19
 70
    64
  0
VERTEX
  5
78E
100
AcDbEntity
  8
0
100
AcDbVertex
100
AcDbPolygonMeshVertex
 10
-1.0775
 20
1.0775
 30
-0.19
 70
    64
  0
VERTEX
  5
78F
100
AcDbEntity
  8
0
100
AcDbVertex
100
AcDbPolygonMeshVertex
 10
-1.0775
 20
1.0775
 30
-0.425
 70
    64
  0
VERTEX
  5
790
100
AcDbEntity
  8
0
100
AcDbVertex
100
AcDbPolygonMeshVertex
 10
-0.8125
 20
1.0775
 30
-0.19
 70
    64
  0
VERTEX
  5
791
100
AcDbEntity
  8
0
100
AcDbVertex
100
AcDbPolygonMeshVertex
 10
-0.8125
 20
1.0775
 30
-0.19
 70
    64
  0
VERTEX
  5
792
100
AcDbEntity
  8
0
100
AcDbVertex
100
AcDbPolygonMeshVertex
 10
-0.8125
 20
1.0775
 30
-0.425
 70
    64
  0
VERTEX
  5
793
100
AcDbEntity
  8
0
100
AcDbVertex
100
AcDbPolygonMeshVertex
 10
-0.8125
 20
1.0775
 30
-0.19
 70
    64
  0
VERTEX
  5
794
100
AcDbEntity
  8
0
100
AcDbVertex
100
AcDbPolygonMeshVertex
 10
-0.8125
 20
1.0775
 30
-0.19
 70
    64
  0
VERTEX
  5
795
100
AcDbEntity
  8
0
100
AcDbVertex
100
AcDbPolygonMeshVertex
 10
-0.8125
 20
1.0775
 30
-0.425
 70
    64
  0
VERTEX
  5
796
100
AcDbEntity
  8
0
100
AcDbVertex
100
AcDbPolygonMeshVertex
 10
-1.0775
 20
0.8125
 30
-0.19
 70
    64
  0
VERTEX
  5
797
100
AcDbEntity
  8
0
100
AcDbVertex
100
AcDbPolygonMeshVertex
 10
-1.0775
 20
0.8125
 30
-0.19
 70
    64
  0
VERTEX
  5
798
100
AcDbEntity
  8
0
100
AcDbVertex
100
AcDbPolygonMeshVertex
 10
-1.0775
 20
0.8125
 30
-0.425
 70
    64
  0
SEQEND
  5
799
100
AcDbEntity
  8
0
  0
POLYLINE
  5
79A
100
AcDbEntity
  8
0
100
AcDbPolygonMesh
 66
     1
 10
0.0
 20
0.0
 30
0.0
 70
    16
 71
     6
 72
     3
  0
VERTEX
  5
79B
100
AcDbEntity
  8
0
100
AcDbVertex
100
AcDbPolygonMeshVertex
 10
-1.0775
 20
0.8125
 30
-0.19
 70
    64
  0
VERTEX
  5
79C
100
AcDbEntity
  8
0
100
AcDbVertex
100
AcDbPolygonMeshVertex
 10
-1.0775
 20
0.8125
 30
-0.425
 70
    64
  0
VERTEX
  5
79D
100
AcDbEntity
  8
0
100
AcDbVertex
100
AcDbPolygonMeshVertex
 10
-1.0775
 20
0.8125
 30
-0.425
 70
    64
  0
VERTEX
  5
79E
100
AcDbEntity
  8
0
100
AcDbVertex
100
AcDbPolygonMeshVertex
 10
-0.8125
 20
1.0775
 30
-0.19
 70
    64
  0
VERTEX
  5
79F
100
AcDbEntity
  8
0
100
AcDbVertex
100
AcDbPolygonMeshVertex
 10
-0.8125
 20
1.0775
 30
-0.425
 70
    64
  0
VERTEX
  5
7A0
100
AcDbEntity
  8
0
100
AcDbVertex
100
AcDbPolygonMeshVertex
 10
-0.8125
 20
1.0775
 30
-0.425
 70
    64
  0
VERTEX
  5
7A1
100
AcDbEntity
  8
0
100
AcDbVertex
100
AcDbPolygonMeshVertex
 10
-0.34
 20
0.605
 30
-0.19
 70
    64
  0
VERTEX
  5
7A2
100
AcDbEntity
  8
0
100
AcDbVertex
100
AcDbPolygonMeshVertex
 10
-0.34
 20
0.605
 30
-0.425
 70
    64
  0
VERTEX
  5
7A3
100
AcDbEntity
  8
0
100
AcDbVertex
100
AcDbPolygonMeshVertex
 10
-0.8125
 20
1.0775
 30
-0.425
 70
    64
  0
VERTEX
  5
7A4
100
AcDbEntity
  8
0
100
AcDbVertex
100
AcDbPolygonMeshVertex
 10
-0.605
 20
0.34
 30
-0.19
 70
    64
  0
VERTEX
  5
7A5
100
AcDbEntity
  8
0
100
AcDbVertex
100
AcDbPolygonMeshVertex
 10
-0.605
 20
0.34
 30
-0.425
 70
    64
  0
VERTEX
  5
7A6
100
AcDbEntity
  8
0
100
AcDbVertex
100
AcDbPolygonMeshVertex
 10
-1.0775
 20
0.8125
 30
-0.425
 70
    64
  0
VERTEX
  5
7A7
100
AcDbEntity
  8
0
100
AcDbVertex
100
AcDbPolygonMeshVertex
 10
-0.605
 20
0.34
 30
-0.19
 70
    64
  0
VERTEX
  5
7A8
100
AcDbEntity
  8
0
100
AcDbVertex
100
AcDbPolygonMeshVertex
 10
-0.605
 20
0.34
 30
-0.19
 70
    64
  0
VERTEX
  5
7A9
100
AcDbEntity
  8
0
100
AcDbVertex
100
AcDbPolygonMeshVertex
 10
-1.0775
 20
0.8125
 30
-0.19
 70
    64
  0
VERTEX
  5
7AA
100
AcDbEntity
  8
0
100
AcDbVertex
100
AcDbPolygonMeshVertex
 10
-0.34
 20
0.605
 30
-0.19
 70
    64
  0
VERTEX
  5
7AB
100
AcDbEntity
  8
0
100
AcDbVertex
100
AcDbPolygonMeshVertex
 10
-0.34
 20
0.605
 30
-0.19
 70
    64
  0
VERTEX
  5
7AC
100
AcDbEntity
  8
0
100
AcDbVertex
100
AcDbPolygonMeshVertex
 10
-0.8125
 20
1.0775
 30
-0.19
 70
    64
  0
SEQEND
  5
7AD
100
AcDbEntity
  8
0
  0
POLYLINE
  5
7AE
100
AcDbEntity
  8
0
100
AcDbPolygonMesh
 66
     1
 10
0.0
 20
0.0
 30
0.0
 70
    16
 71
     6
 72
     3
  0
VERTEX
  5
7AF
100
AcDbEntity
  8
0
100
AcDbVertex
100
AcDbPolygonMeshVertex
 10
-0.8125
 20
-1.0775
 30
-0.19
 70
    64
  0
VERTEX
  5
7B0
100
AcDbEntity
  8
0
100
AcDbVertex
100
AcDbPolygonMeshVertex
 10
-0.8125
 20
-1.0775
 30
-0.425
 70
    64
  0
VERTEX
  5
7B1
100
AcDbEntity
  8
0
100
AcDbVertex
100
AcDbPolygonMeshVertex
 10
-0.8125
 20
-1.0775
 30
-0.425
 70
    64
  0
VERTEX
  5
7B2
100
AcDbEntity
  8
0
100
AcDbVertex
100
AcDbPolygonMeshVertex
 10
-1.0775
 20
-0.8125
 30
-0.19
 70
    64
  0
VERTEX
  5
7B3
100
AcDbEntity
  8
0
100
AcDbVertex
100
AcDbPolygonMeshVertex
 10
-1.0775
 20
-0.8125
 30
-0.425
 70
    64
  0
VERTEX
  5
7B4
100
AcDbEntity
  8
0
100
AcDbVertex
100
AcDbPolygonMeshVertex
 10
-1.0775
 20
-0.8125
 30
-0.425
 70
    64
  0
VERTEX
  5
7B5
100
AcDbEntity
  8
0
100
AcDbVertex
100
AcDbPolygonMeshVertex
 10
-0.605
 20
-0.34
 30
-0.19
 70
    64
  0
VERTEX
  5
7B6
100
AcDbEntity
  8
0
100
AcDbVertex
100
AcDbPolygonMeshVertex
 10
-0.605
 20
-0.34
 30
-0.425
 70
    64
  0
VERTEX
  5
7B7
100
AcDbEntity
  8
0
100
AcDbVertex
100
AcDbPolygonMeshVertex
 10
-1.0775
 20
-0.8125
 30
-0.425
 70
    64
  0
VERTEX
  5
7B8
100
AcDbEntity
  8
0
100
AcDbVertex
100
AcDbPolygonMeshVertex
 10
-0.34
 20
-0.605
 30
-0.19
 70
    64
  0
VERTEX
  5
7B9
100
AcDbEntity
  8
0
100
AcDbVertex
100
AcDbPolygonMeshVertex
 10
-0.34
 20
-0.605
 30
-0.425
 70
    64
  0
VERTEX
  5
7BA
100
AcDbEntity
  8
0
100
AcDbVertex
100
AcDbPolygonMeshVertex
 10
-0.8125
 20
-1.0775
 30
-0.425
 70
    64
  0
VERTEX
  5
7BB
100
AcDbEntity
  8
0
100
AcDbVertex
100
AcDbPolygonMeshVertex
 10
-0.34
 20
-0.605
 30
-0.19
 70
    64
  0
VERTEX
  5
7BC
100
AcDbEntity
  8
0
100
AcDbVertex
100
AcDbPolygonMeshVertex
 10
-0.34
 20
-0.605
 30
-0.19
 70
    64
  0
VERTEX
  5
7BD
100
AcDbEntity
  8
0
100
AcDbVertex
100
AcDbPolygonMeshVertex
 10
-0.8125
 20
-1.0775
 30
-0.19
 70
    64
  0
VERTEX
  5
7BE
100
AcDbEntity
  8
0
100
AcDbVertex
100
AcDbPolygonMeshVertex
 10
-0.605
 20
-0.34
 30
-0.19
 70
    64
  0
VERTEX
  5
7BF
100
AcDbEntity
  8
0
100
AcDbVertex
100
AcDbPolygonMeshVertex
 10
-0.605
 20
-0.34
 30
-0.19
 70
    64
  0
VERTEX
  5
7C0
100
AcDbEntity
  8
0
100
AcDbVertex
100
AcDbPolygonMeshVertex
 10
-1.0775
 20
-0.8125
 30
-0.19
 70
    64
  0
SEQEND
  5
7C1
100
AcDbEntity
  8
0
  0
POLYLINE
  5
7C2
100
AcDbEntity
  8
0
100
AcDbPolygonMesh
 66
     1
 10
0.0
 20
0.0
 30
0.0
 70
    16
 71
     6
 72
     3
  0
VERTEX
  5
7C3
100
AcDbEntity
  8
0
100
AcDbVertex
100
AcDbPolygonMeshVertex
 10
0.605
 20
0.34
 30
-0.19
 70
    64
  0
VERTEX
  5
7C4
100
AcDbEntity
  8
0
100
AcDbVertex
100
AcDbPolygonMeshVertex
 10
0.605
 20
0.34
 30
-0.425
 70
    64
  0
VERTEX
  5
7C5
100
AcDbEntity
  8
0
100
AcDbVertex
100
AcDbPolygonMeshVertex
 10
0.605
 20
0.34
 30
-0.425
 70
    64
  0
VERTEX
  5
7C6
100
AcDbEntity
  8
0
100
AcDbVertex
100
AcDbPolygonMeshVertex
 10
0.34
 20
0.605
 30
-0.19
 70
    64
  0
VERTEX
  5
7C7
100
AcDbEntity
  8
0
100
AcDbVertex
100
AcDbPolygonMeshVertex
 10
0.34
 20
0.605
 30
-0.425
 70
    64
  0
VERTEX
  5
7C8
100
AcDbEntity
  8
0
100
AcDbVertex
100
AcDbPolygonMeshVertex
 10
0.34
 20
0.605
 30
-0.425
 70
    64
  0
VERTEX
  5
7C9
100
AcDbEntity
  8
0
100
AcDbVertex
100
AcDbPolygonMeshVertex
 10
0.8125
 20
1.0775
 30
-0.19
 70
    64
  0
VERTEX
  5
7CA
100
AcDbEntity
  8
0
100
AcDbVertex
100
AcDbPolygonMeshVertex
 10
0.8125
 20
1.0775
 30
-0.425
 70
    64
  0
VERTEX
  5
7CB
100
AcDbEntity
  8
0
100
AcDbVertex
100
AcDbPolygonMeshVertex
 10
0.34
 20
0.605
 30
-0.425
 70
    64
  0
VERTEX
  5
7CC
100
AcDbEntity
  8
0
100
AcDbVertex
100
AcDbPolygonMeshVertex
 10
1.0775
 20
0.8125
 30
-0.19
 70
    64
  0
VERTEX
  5
7CD
100
AcDbEntity
  8
0
100
AcDbVertex
100
AcDbPolygonMeshVertex
 10
1.0775
 20
0.8125
 30
-0.425
 70
    64
  0
VERTEX
  5
7CE
100
AcDbEntity
  8
0
100
AcDbVertex
100
AcDbPolygonMeshVertex
 10
0.605
 20
0.34
 30
-0.425
 70
    64
  0
VERTEX
  5
7CF
100
AcDbEntity
  8
0
100
AcDbVertex
100
AcDbPolygonMeshVertex
 10
1.0775
 20
0.8125
 30
-0.19
 70
    64
  0
VERTEX
  5
7D0
100
AcDbEntity
  8
0
100
AcDbVertex
100
AcDbPolygonMeshVertex
 10
1.0775
 20
0.8125
 30
-0.19
 70
    64
  0
VERTEX
  5
7D1
100
AcDbEntity
  8
0
100
AcDbVertex
100
AcDbPolygonMeshVertex
 10
0.605
 20
0.34
 30
-0.19
 70
    64
  0
VERTEX
  5
7D2
100
AcDbEntity
  8
0
100
AcDbVertex
100
AcDbPolygonMeshVertex
 10
0.8125
 20
1.0775
 30
-0.19
 70
    64
  0
VERTEX
  5
7D3
100
AcDbEntity
  8
0
100
AcDbVertex
100
AcDbPolygonMeshVertex
 10
0.8125
 20
1.0775
 30
-0.19
 70
    64
  0
VERTEX
  5
7D4
100
AcDbEntity
  8
0
100
AcDbVertex
100
AcDbPolygonMeshVertex
 10
0.34
 20
0.605
 30
-0.19
 70
    64
  0
SEQEND
  5
7D5
100
AcDbEntity
  8
0
  0
LWPOLYLINE
  5
7D6
100
AcDbEntity
  8
0
100
AcDbPolyline
 90
        8
 70
     1
 43
0.0
 38
-0.97
 10
0.86
 20
-1.8
 10
0.86
 20
-1.575
 10
0.8375
 20
-1.575
 10
0.8375
 20
-1.075
 10
0.5025
 20
-1.075
 10
0.5025
 20
-1.575
 10
0.48
 20
-1.575
 10
0.48
 20
-1.8
210
0.0
220
-1.0
230
0.0
  0
LWPOLYLINE
  5
7D7
100
AcDbEntity
  8
0
100
AcDbPolyline
 90
        8
 70
     1
 43
0.0
 38
-0.97
 10
-0.37
 20
-1.075
 10
-0.37
 20
-1.575
 10
-0.3925
 20
-1.575
 10
-0.3925
 20
-1.8
 10
-0.0125
 20
-1.8
 10
-0.0125
 20
-1.575
 10
-0.035
 20
-1.575
 10
-0.035
 20
-1.075
210
0.0
220
-1.0
230
0.0
  0
LWPOLYLINE
  5
7D8
100
AcDbEntity
  8
0
100
AcDbPolyline
 90
        8
 70
     1
 43
0.0
 38
0.97
 10
-0.37
 20
-1.075
 10
-0.37
 20
-1.575
 10
-0.3925
 20
-1.575
 10
-0.3925
 20
-1.8
 10
-0.0125
 20
-1.8
 10
-0.0125
 20
-1.575
 10
-0.035
 20
-1.575
 10
-0.035
 20
-1.075
210
0.0
220
-1.0
230
0.0
  0
LWPOLYLINE
  5
7D9
100
AcDbEntity
  8
0
100
AcDbPolyline
 90
        8
 70
     1
 43
0.0
 38
0.97
 10
0.86
 20
-1.8
 10
0.86
 20
-1.575
 10
0.8375
 20
-1.575
 10
0.8375
 20
-1.075
 10
0.5025
 20
-1.075
 10
0.5025
 20
-1.575
 10
0.48
 20
-1.575
 10
0.48
 20
-1.8
210
0.0
220
-1.0
230
0.0
  0
LWPOLYLINE
  5
7DA
100
AcDbEntity
  8
0
100
AcDbPolyline
 90
        4
 70
     1
 43
0.0
 38
0.97
 10
0.055
 20
-1.575
 10
0.055
 20
-2.075
 10
0.39
 20
-2.075
 10
0.39
 20
-1.575
210
0.0
220
-1.0
230
0.0
  0
LWPOLYLINE
  5
7DB
100
AcDbEntity
  8
0
100
AcDbPolyline
 90
        4
 70
     1
 43
0.0
 38
0.97
 10
-0.4825
 20
-2.075
 10
-0.4825
 20
-1.575
 10
-0.8175
 20
-1.575
 10
-0.8175
 20
-2.075
210
0.0
220
-1.0
230
0.0
  0
LWPOLYLINE
  5
7DC
100
AcDbEntity
  8
0
100
AcDbPolyline
 90
        4
 70
     1
 43
0.0
 38
-0.97
 10
0.055
 20
-1.575
 10
0.055
 20
-2.075
 10
0.39
 20
-2.075
 10
0.39
 20
-1.575
210
0.0
220
-1.0
230
0.0
  0
LWPOLYLINE
  5
7DD
100
AcDbEntity
  8
0
100
AcDbPolyline
 90
        4
 70
     1
 43
0.0
 38
-0.97
 10
-0.4825
 20
-2.075
 10
-0.4825
 20
-1.575
 10
-0.8175
 20
-1.575
 10
-0.8175
 20
-2.075
210
0.0
220
-1.0
230
0.0
  0
POLYLINE
  5
7DE
100
AcDbEntity
  8
0
100
AcDbPolygonMesh
 66
     1
 10
0.0
 20
0.0
 30
0.0
 70
    16
 71
     6
 72
     3
  0
VERTEX
  5
7DF
100
AcDbEntity
  8
0
100
AcDbVertex
100
AcDbPolygonMeshVertex
 10
1.0775
 20
-1.0775
 30
0.0
 70
    64
  0
VERTEX
  5
7E0
100
AcDbEntity
  8
0
100
AcDbVertex
100
AcDbPolygonMeshVertex
 10
1.0775
 20
-1.0775
 30
-0.19
 70
    64
  0
VERTEX
  5
7E1
100
AcDbEntity
  8
0
100
AcDbVertex
100
AcDbPolygonMeshVertex
 10
1.0775
 20
-1.0775
 30
-0.19
 70
    64
  0
VERTEX
  5
7E2
100
AcDbEntity
  8
0
100
AcDbVertex
100
AcDbPolygonMeshVertex
 10
-1.0775
 20
-1.0775
 30
0.0
 70
    64
  0
VERTEX
  5
7E3
100
AcDbEntity
  8
0
100
AcDbVertex
100
AcDbPolygonMeshVertex
 10
-1.0775
 20
-1.0775
 30
-0.19
 70
    64
  0
VERTEX
  5
7E4
100
AcDbEntity
  8
0
100
AcDbVertex
100
AcDbPolygonMeshVertex
 10
-1.0775
 20
-1.0775
 30
-0.19
 70
    64
  0
VERTEX
  5
7E5
100
AcDbEntity
  8
0
100
AcDbVertex
100
AcDbPolygonMeshVertex
 10
-1.0775
 20
1.0775
 30
0.0
 70
    64
  0
VERTEX
  5
7E6
100
AcDbEntity
  8
0
100
AcDbVertex
100
AcDbPolygonMeshVertex
 10
-1.0775
 20
1.0775
 30
-0.19
 70
    64
  0
VERTEX
  5
7E7
100
AcDbEntity
  8
0
100
AcDbVertex
100
AcDbPolygonMeshVertex
 10
-1.0775
 20
-1.0775
 30
-0.19
 70
    64
  0
VERTEX
  5
7E8
100
AcDbEntity
  8
0
100
AcDbVertex
100
AcDbPolygonMeshVertex
 10
1.0775
 20
1.0775
 30
0.0
 70
    64
  0
VERTEX
  5
7E9
100
AcDbEntity
  8
0
100
AcDbVertex
100
AcDbPolygonMeshVertex
 10
1.0775
 20
1.0775
 30
-0.19
 70
    64
  0
VERTEX
  5
7EA
100
AcDbEntity
  8
0
100
AcDbVertex
100
AcDbPolygonMeshVertex
 10
1.0775
 20
-1.0775
 30
-0.19
 70
    64
  0
VERTEX
  5
7EB
100
AcDbEntity
  8
0
100
AcDbVertex
100
AcDbPolygonMeshVertex
 10
1.0775
 20
1.0775
 30
0.0
 70
    64
  0
VERTEX
  5
7EC
100
AcDbEntity
  8
0
100
AcDbVertex
100
AcDbPolygonMeshVertex
 10
1.0775
 20
1.0775
 30
0.0
 70
    64
  0
VERTEX
  5
7ED
100
AcDbEntity
  8
0
100
AcDbVertex
100
AcDbPolygonMeshVertex
 10
1.0775
 20
-1.0775
 30
0.0
 70
    64
  0
VERTEX
  5
7EE
100
AcDbEntity
  8
0
100
AcDbVertex
100
AcDbPolygonMeshVertex
 10
-1.0775
 20
1.0775
 30
0.0
 70
    64
  0
VERTEX
  5
7EF
100
AcDbEntity
  8
0
100
AcDbVertex
100
AcDbPolygonMeshVertex
 10
-1.0775
 20
1.0775
 30
0.0
 70
    64
  0
VERTEX
  5
7F0
100
AcDbEntity
  8
0
100
AcDbVertex
100
AcDbPolygonMeshVertex
 10
-1.0775
 20
-1.0775
 30
0.0
 70
    64
  0
SEQEND
  5
7F1
100
AcDbEntity
  8
0
  0
POLYLINE
  5
7F2
100
AcDbEntity
  8
0
100
AcDbPolygonMesh
 66
     1
 10
0.0
 20
0.0
 30
0.0
 70
    16
 71
     6
 72
     3
  0
VERTEX
  5
7F3
100
AcDbEntity
  8
0
100
AcDbVertex
100
AcDbPolygonMeshVertex
 10
0.9825
 20
-0.97
 30
-0.675
 70
    64
  0
VERTEX
  5
7F4
100
AcDbEntity
  8
0
100
AcDbVertex
100
AcDbPolygonMeshVertex
 10
0.9825
 20
-0.97
 30
-2.215
 70
    64
  0
VERTEX
  5
7F5
100
AcDbEntity
  8
0
100
AcDbVertex
100
AcDbPolygonMeshVertex
 10
0.9825
 20
-0.97
 30
-2.215
 70
    64
  0
VERTEX
  5
7F6
100
AcDbEntity
  8
0
100
AcDbVertex
100
AcDbPolygonMeshVertex
 10
-0.9825
 20
-0.97
 30
-0.675
 70
    64
  0
VERTEX
  5
7F7
100
AcDbEntity
  8
0
100
AcDbVertex
100
AcDbPolygonMeshVertex
 10
-0.9825
 20
-0.97
 30
-2.215
 70
    64
  0
VERTEX
  5
7F8
100
AcDbEntity
  8
0
100
AcDbVertex
100
AcDbPolygonMeshVertex
 10
-0.9825
 20
-0.97
 30
-2.215
 70
    64
  0
VERTEX
  5
7F9
100
AcDbEntity
  8
0
100
AcDbVertex
100
AcDbPolygonMeshVertex
 10
-0.9825
 20
0.97
 30
-0.675
 70
    64
  0
VERTEX
  5
7FA
100
AcDbEntity
  8
0
100
AcDbVertex
100
AcDbPolygonMeshVertex
 10
-0.9825
 20
0.97
 30
-2.215
 70
    64
  0
VERTEX
  5
7FB
100
AcDbEntity
  8
0
100
AcDbVertex
100
AcDbPolygonMeshVertex
 10
-0.9825
 20
-0.97
 30
-2.215
 70
    64
  0
VERTEX
  5
7FC
100
AcDbEntity
  8
0
100
AcDbVertex
100
AcDbPolygonMeshVertex
 10
0.9825
 20
0.97
 30
-0.675
 70
    64
  0
VERTEX
  5
7FD
100
AcDbEntity
  8
0
100
AcDbVertex
100
AcDbPolygonMeshVertex
 10
0.9825
 20
0.97
 30
-2.215
 70
    64
  0
VERTEX
  5
7FE
100
AcDbEntity
  8
0
100
AcDbVertex
100
AcDbPolygonMeshVertex
 10
0.9825
 20
-0.97
 30
-2.215
 70
    64
  0
VERTEX
  5
7FF
100
AcDbEntity
  8
0
100
AcDbVertex
100
AcDbPolygonMeshVertex
 10
0.9825
 20
0.97
 30
-0.675
 70
    64
  0
VERTEX
  5
800
100
AcDbEntity
  8
0
100
AcDbVertex
100
AcDbPolygonMeshVertex
 10
0.9825
 20
0.97
 30
-0.675
 70
    64
  0
VERTEX
  5
801
100
AcDbEntity
  8
0
100
AcDbVertex
100
AcDbPolygonMeshVertex
 10
0.9825
 20
-0.97
 30
-0.675
 70
    64
  0
VERTEX
  5
802
100
AcDbEntity
  8
0
100
AcDbVertex
100
AcDbPolygonMeshVertex
 10
-0.9825
 20
0.97
 30
-0.675
 70
    64
  0
VERTEX
  5
803
100
AcDbEntity
  8
0
100
AcDbVertex
100
AcDbPolygonMeshVertex
 10
-0.9825
 20
0.97
 30
-0.675
 70
    64
  0
VERTEX
  5
804
100
AcDbEntity
  8
0
100
AcDbVertex
100
AcDbPolygonMeshVertex
 10
-0.9825
 20
-0.97
 30
-0.675
 70
    64
  0
SEQEND
  5
805
100
AcDbEntity
  8
0
  0
POINT
  5
806
100
AcDbEntity
  8
SNAP_POINTS
100
AcDbPoint
 10
0.0
 20
0.0
 30
0.0
  0
ATTDEF
  5
807
100
AcDbEntity
  8
ATTRIBUTES
100
AcDbText
 10
-0.9151
 20
-0.109635
 30
-2.215
 40
0.051578
  1
ALLEN-BRADLEY
100
AcDbAttributeDefinition
  3
MANUFACTURER NAME?
  2
AC_VND_LABEL
 70
     1
  0
ATTDEF
  5
808
100
AcDbEntity
  8
ATTRIBUTES
100
AcDbText
 10
-0.9151
 20
-0.21709
 30
-2.215
 40
0.051578
  1
194L-E20/E25 W/ 2 CARRIERS
100
AcDbAttributeDefinition
  3
CATALOG NUMBER?
  2
AC_PART_NO
 70
     1
  0
ATTDEF
  5
809
100
AcDbEntity
  8
ATTRIBUTES
100
AcDbText
 10
-0.9151
 20
-0.324544
 30
-2.215
 40
0.051578
  1
CONTROL & LOAD SWITCH BODY, 20A/25A W/ 2 CARRIERS
100
AcDbAttributeDefinition
  3
PART DESCRIPTION?
  2
AC_DESCRIPTION
 70
     1
  0
ATTDEF
  5
80A
100
AcDbEntity
  8
ATTRIBUTES
100
AcDbText
 10
-0.9151
 20
-0.431999
 30
-2.215
 40
0.051578
  1

100
AcDbAttributeDefinition
  3
DEVICE ID?
  2
DEVICE_ID
 70
     1
  0
ATTDEF
  5
80B
100
AcDbEntity
  8
ATTRIBUTES
100
AcDbText
 10
-0.9151
 20
-0.539454
 30
-2.215
 40
0.051578
  1

100
AcDbAttributeDefinition
  3
CUSTOMER PART NUMBER?
  2
AC_CPART_NO
 70
     1
  0
ATTDEF
  5
80C
100
AcDbEntity
  8
ATTRIBUTES
100
AcDbText
 10
-0.9151
 20
-0.646909
 30
-2.215
 40
0.051578
  1

100
AcDbAttributeDefinition
  3
CUSTOMER NOTE?
  2
AC_NOTE
 70
     1
  0
ATTDEF
  5
80D
100
AcDbEntity
  8
ATTRIBUTES
100
AcDbText
 10
-0.9151
 20
-0.754364
 30
-2.215
 40
0.051578
  1

100
AcDbAttributeDefinition
  3
FASTENER DATA?
  2
FASTENER
 70
     1
  0
ATTDEF
  5
80E
100
AcDbEntity
  8
ATTRIBUTES
100
AcDbText
 10
-0.9151
 20
-0.861819
 30
-2.215
 40
0.051578
  1

100
AcDbAttributeDefinition
  3
UNIT OF SCALE?
  2
AC_SCALE_UNIT
 70
     1
  0
ATTDEF
  5
80F
100
AcDbEntity
  8
ATTRIBUTES
100
AcDbText
 10
-0.9151
 20
-0.969274
 30
-2.215
 40
0.051578
  1

100
AcDbAttributeDefinition
  3
VIEW CODE?
  2
AC_VIEW_CODE
 70
     1
  0
TEXT
  5
810
100
AcDbEntity
  8
0
100
AcDbText
 10
0.5525
 20
-1.075
 30
0.97
 40
0.2
  1
1
210
0.0
220
-1.0
230
0.0
100
AcDbText
  0
TEXT
  5
811
100
AcDbEntity
  8
0
100
AcDbText
 10
-0.1725
 20
-1.075
 30
0.97
 40
0.2
  1
3
210
0.0
220
-1.0
230
0.0
100
AcDbText
  0
TEXT
  5
812
100
AcDbEntity
  8
0
100
AcDbText
 10
0.105
 20
-1.575
 30
0.97
 40
0.2
  1
5
210
0.0
220
-1.0
230
0.0
100
AcDbText
  0
TEXT
  5
813
100
AcDbEntity
  8
0
100
AcDbText
 10
-0.62
 20
-1.575
 30
0.97
 40
0.2
  1
7
210
0.0
220
-1.0
230
0.0
100
AcDbText
  0
TEXT
  5
814
100
AcDbEntity
  8
0
100
AcDbText
 10
-0.7925
 20
-1.075
 30
0.97
 40
0.2
  1
2
210
0.0
220
1.0
230
0.0
100
AcDbText
  0
TEXT
  5
815
100
AcDbEntity
  8
0
100
AcDbText
 10
-0.0675
 20
-1.075
 30
0.97
 40
0.2
  1
4
210
0.0
220
1.0
230
0.0
100
AcDbText
  0
TEXT
  5
816
100
AcDbEntity
  8
0
100
AcDbText
 10
-0.1375
 20
-1.575
 30
0.97
 40
0.2
  1
6
210
0.0
220
1.0
230
0.0
100
AcDbText
  0
TEXT
  5
817
100
AcDbEntity
  8
0
100
AcDbText
 10
0.5875
 20
-1.575
 30
0.97
 40
0.2
  1
8
210
0.0
220
1.0
230
0.0
100
AcDbText
  0
DIMENSION
  5
818
100
AcDbEntity
  8
AREA1
100
AcDbDimension
  2
*D0
 10
1.0775
 20
1.240116
 30
0.0
 11
0.003028
 21
1.240116
 31
0.0
 70
   160
  3
ABECAD_3D
100
AcDbAlignedDimension
 13
-1.0775
 23
1.0775
 33
-0.19
 14
1.0775
 24
1.0775
 34
-0.19
100
AcDbRotatedDimension
  0
DIMENSION
  5
819
100
AcDbEntity
  8
AREA1
100
AcDbDimension
  2
*D1
 10
1.299782
 20
-1.0775
 30
0.0
 11
1.299782
 21
-0.055611
 31
0.0
 70
   160
  3
ABECAD_3D
100
AcDbAlignedDimension
 13
1.0775
 23
1.0775
 33
0.0
 14
1.0775
 24
-1.0775
 34
0.0
 50
90.0
100
AcDbRotatedDimension
  0
ENDBLK
  5
81B
100
AcDbEntity
  8
0
100
AcDbBlockEnd
  0
BLOCK
  5
833
100
AcDbEntity
  8
0
100
AcDbBlockBegin
  2
*D3
 70
     1
 10
0.0
 20
0.0
 30
0.0
  3
*D3
  1

  0
LINE
  5
829
100
AcDbEntity
  8
AREA2
 62
     0
100
AcDbLine
 10
0.0625
 20
0.815
 30
0.0
 11
1.524707
 21
0.815
 31
0.0
1001
ACAD
1000
RTLwPs
1070
   158
  0
LINE
  5
82A
100
AcDbEntity
  8
AREA2
 62
     0
100
AcDbLine
 10
1.045
 20
-2.215
 30
0.0
 11
1.524707
 21
-2.215
 31
0.0
1001
ACAD
1000
RTLwPs
1070
   158
  0
LINE
  5
82B
100
AcDbEntity
  8
AREA2
 62
     0
100
AcDbLine
 10
1.344707
 20
0.635
 30
0.0
 11
1.344707
 21
-0.128985
 31
0.0
1001
ACAD
1000
RTLwPs
1070
   158
  0
LINE
  5
82C
100
AcDbEntity
  8
AREA2
 62
     0
100
AcDbLine
 10
1.344707
 20
-2.035
 30
0.0
 11
1.344707
 21
-1.388985
 31
0.0
1001
ACAD
1000
RTLwPs
1070
   158
  0
MTEXT
  5
82D
100
AcDbEntity
  8
AREA2
 62
     0
100
AcDbMText
 10
1.344707
 20
-0.758985
 30
0.0
 40
0.09
 41
0.0
 71
     5
 72
     1
  1
\A1;3 1/32 [76.96]
 11
0.0
 21
1.0
 31
0.0
1001
ACAD
1000
MTEXTBEGIN
1070
    73
1070
     1
1070
    44
1040
1.0
1070
    74
1070
     0
1000
MTEXTEND
1000
MTEXTBEGIN
1070
    73
1070
     1
1070
    44
1040
1.0
1070
    74
1070
     0
1000
MTEXTEND
1000
MTEXTBEGIN
1070
    73
1070
     1
1070
    44
1040
1.0
1070
    74
1070
     0
1000
MTEXTEND
1000
MTEXTBEGIN
1070
    73
1070
     1
1070
    44
1040
1.0
1070
    74
1070
     0
1000
MTEXTEND
  0
SOLID
  5
82E
100
AcDbEntity
  8
AREA2
 62
     0
100
AcDbTrace
 10
1.314707
 20
0.635
 30
0.0
 11
1.374707
 21
0.635
 31
0.0
 12
1.344707
 22
0.815
 32
0.0
 13
1.344707
 23
0.815
 33
0.0
  0
SOLID
  5
82F
100
AcDbEntity
  8
AREA2
 62
     0
100
AcDbTrace
 10
1.314707
 20
-2.035
 30
0.0
 11
1.374707
 21
-2.035
 31
0.0
 12
1.344707
 22
-2.215
 32
0.0
 13
1.344707
 23
-2.215
 33
0.0
  0
POINT
  5
830
100
AcDbEntity
  8
DEFPOINTS
 62
     0
100
AcDbPoint
 10
0.0
 20
0.815
 30
0.0
  0
POINT
  5
831
100
AcDbEntity
  8
DEFPOINTS
 62
     0
100
AcDbPoint
 10
0.9825
 20
-2.215
 30
-0.97
  0
POINT
  5
832
100
AcDbEntity
  8
DEFPOINTS
 62
     0
100
AcDbPoint
 10
1.344707
 20
-2.215
 30
0.0
  0
ENDBLK
  5
834
100
AcDbEntity
  8
0
100
AcDbBlockEnd
  0
ENDSEC
  0
SECTION
  2
ENTITIES
  0
INSERT
  5
81C
100
AcDbEntity
  8
0
100
AcDbBlockReference
 66
     1
  2
ABDSK390
 10
0.0
 20
0.0
 30
0.0
  0
ATTRIB
  5
81E
100
AcDbEntity
  8
ATTRIBUTES
100
AcDbText
 10
-0.9151
 20
-0.109635
 30
-2.215
 40
0.051578
  1
ALLEN-BRADLEY
100
AcDbAttribute
  2
AC_VND_LABEL
 70
     1
  0
ATTRIB
  5
81F
100
AcDbEntity
  8
ATTRIBUTES
100
AcDbText
 10
-0.9151
 20
-0.21709
 30
-2.215
 40
0.051578
  1
194L-E20/E25 W/ 2 CARRIERS
100
AcDbAttribute
  2
AC_PART_NO
 70
     1
  0
ATTRIB
  5
820
100
AcDbEntity
  8
ATTRIBUTES
100
AcDbText
 10
-0.9151
 20
-0.324544
 30
-2.215
 40
0.051578
  1
CONTROL & LOAD SWITCH BODY, 20A/25A W/ 2 CARRIERS
100
AcDbAttribute
  2
AC_DESCRIPTION
 70
     1
  0
ATTRIB
  5
821
100
AcDbEntity
  8
ATTRIBUTES
100
AcDbText
 10
-0.9151
 20
-0.431999
 30
-2.215
 40
0.051578
  1

100
AcDbAttribute
  2
DEVICE_ID
 70
     1
  0
ATTRIB
  5
822
100
AcDbEntity
  8
ATTRIBUTES
100
AcDbText
 10
-0.9151
 20
-0.539454
 30
-2.215
 40
0.051578
  1

100
AcDbAttribute
  2
AC_CPART_NO
 70
     1
  0
ATTRIB
  5
823
100
AcDbEntity
  8
ATTRIBUTES
100
AcDbText
 10
-0.9151
 20
-0.646909
 30
-2.215
 40
0.051578
  1

100
AcDbAttribute
  2
AC_NOTE
 70
     1
  0
ATTRIB
  5
824
100
AcDbEntity
  8
ATTRIBUTES
100
AcDbText
 10
-0.9151
 20
-0.754364
 30
-2.215
 40
0.051578
  1

100
AcDbAttribute
  2
FASTENER
 70
     1
  0
ATTRIB
  5
825
100
AcDbEntity
  8
ATTRIBUTES
100
AcDbText
 10
-0.9151
 20
-0.861819
 30
-2.215
 40
0.051578
  1

100
AcDbAttribute
  2
AC_SCALE_UNIT
 70
     1
  0
ATTRIB
  5
826
100
AcDbEntity
  8
ATTRIBUTES
100
AcDbText
 10
-0.9151
 20
-0.969274
 30
-2.215
 40
0.051578
  1

100
AcDbAttribute
  2
AC_VIEW_CODE
 70
     1
  0
SEQEND
  5
81D
100
AcDbEntity
  8
0
  0
DIMENSION
  5
827
100
AcDbEntity
  8
AREA2
100
AcDbDimension
  2
*D3
 10
1.344707
 20
0.0
 30
-2.215
 11
1.344707
 21
-0.758985
 31
0.0
 70
   160
210
0.0
220
-1.0
230
0.0
  3
ABECAD_3V
100
AcDbAlignedDimension
 13
0.0
 23
0.0
 33
0.815
 14
0.9825
 24
0.97
 34
-2.215
 50
90.0
100
AcDbRotatedDimension
1001
ACAD
1000
DSTYLE
1002
{
1070
    40
1040
1.0
1002
}
  0
VIEWPORT
  5
2C
102
{ACAD_XDICTIONARY
360
909
102
}
100
AcDbEntity
 67
     1
  8
0
100
AcDbViewport
 10
4.999849
 20
3.750155
 30
0.0
 40
13.933522
 41
7.595705
 68
     1
 69
     1
1001
ACAD
1000
MVIEW
1002
{
1070
    16
1010
0.0
1020
0.0
1030
0.0
1010
0.0
1020
0.0
1030
1.0
1040
0.0
1040
7.595705
1040
4.999849
1040
3.750155
1040
50.0
1040
0.0
1040
0.0
1070
     0
1070
   100
1070
     1
1070
     1
1070
     0
1070
     0
1070
     0
1070
     0
1040
0.0
1040
0.0
1040
0.0
1040
1.0
1040
1.0
1040
0.0
1040
0.0
1070
     0
1002
{
1002
}
1002
}
  0
VIEWPORT
  5
2D
102
{ACAD_XDICTIONARY
360
90B
102
}
100
AcDbEntity
 67
     1
  8
0
100
AcDbViewport
 10
2.5
 20
5.625
 30
0.0
 40
5.0
 41
3.75
 68
     4
 69
     2
1001
ACAD
1000
MVIEW
1002
{
1070
    16
1010
0.0
1020
0.0
1030
0.0
1010
0.0
1020
0.0
1030
1.0
1040
0.0
1040
3.142625
1040
0.21824
1040
0.174338
1040
50.0
1040
0.0
1040
0.0
1070
     0
1070
   100
1070
     1
1070
     0
1070
     0
1070
     0
1070
     0
1070
     0
1040
0.0
1040
0.0
1040
0.0
1040
1.0
1040
1.0
1040
0.0
1040
0.0
1070
     0
1002
{
1003
AREA2
1002
}
1002
}
  0
VIEWPORT
  5
2E
102
{ACAD_XDICTIONARY
360
90D
102
}
100
AcDbEntity
 67
     1
  8
0
100
AcDbViewport
 10
2.5
 20
1.875
 30
0.0
 40
5.0
 41
3.75
 68
     2
 69
     3
1001
ACAD
1000
MVIEW
1002
{
1070
    16
1010
0.0
1020
0.0
1030
0.0
1010
0.0
1020
-1.0
1030
0.0
1040
0.0
1040
3.394035
1040
0.21633
1040
-0.688913
1040
50.0
1040
0.0
1040
0.0
1070
     0
1070
   100
1070
     1
1070
     0
1070
     0
1070
     0
1070
     0
1070
     0
1040
0.0
1040
0.0
1040
0.0
1040
1.0
1040
1.0
1040
0.0
1040
0.0
1070
     0
1002
{
1003
AREA1
1002
}
1002
}
  0
VIEWPORT
  5
2F
102
{ACAD_XDICTIONARY
360
90F
102
}
100
AcDbEntity
 67
     1
  8
0
100
AcDbViewport
 10
7.5
 20
3.75
 30
0.0
 40
5.0
 41
7.5
 68
     3
 69
     4
1001
ACAD
1000
MVIEW
1002
{
1070
    16
1010
0.0
1020
0.0
1030
0.0
1010
-1.0
1020
-1.0
1030
1.0
1040
0.0
1040
7.147975
1040
0.124547
1040
0.748456
1040
50.0
1040
0.0
1040
0.0
1070
     0
1070
   100
1070
     1
1070
     0
1070
     0
1070
     0
1070
     0
1070
     0
1040
0.0
1040
0.0
1040
0.0
1040
1.0
1040
1.0
1040
0.0
1040
0.0
1070
     0
1002
{
1003
AREA1
1003
AREA2
1002
}
1002
}
  0
TEXT
  5
42D
100
AcDbEntity
 67
     1
  8
0
100
AcDbText
 10
5.253785
 20
7.092701
 30
0.0
 40
0.2
  1
194L-E20/E25-*
100
AcDbText
  0
TEXT
  5
431
100
AcDbEntity
 67
     1
  8
0
100
AcDbText
 10
5.253785
 20
6.759368
 30
0.0
 40
0.2
  1
CONTROL & LOAD SWITCH,
100
AcDbText
1001
ACAD
1000
R13OBJECT
1002
{
1005
42D
1002
}
  0
TEXT
  5
6A7
100
AcDbEntity
 67
     1
  8
0
100
AcDbText
 10
5.253785
 20
6.447247
 30
0.0
 40
0.2
  1
20A/25A, 2 CARRIERS, 
100
AcDbText
1001
ACAD
1000
R13OBJECT
1002
{
1005
42D
1002
}
  0
TEXT
  5
6A8
100
AcDbEntity
 67
     1
  8
0
100
AcDbText
 10
5.253785
 20
6.135127
 30
0.0
 40
0.2
  1
FRONT/DOOR MOUNTING
100
AcDbText
1001
ACAD
1000
R13OBJECT
1002
{
1005
42D
1002
}
  0
ENDSEC
  0
SECTION
  2
OBJECTS
  0
DICTIONARY
  5
46D
100
AcDbDictionary
  3
ACAD_GROUP
350
46E
  3
ACAD_LAYOUT
350
49E
  3
ACAD_MLINESTYLE
350
47B
  3
ACAD_PLOTSETTINGS
350
49F
  3
ACAD_PLOTSTYLENAME
350
49C
  3
ACDBHEADERROUNDTRIPXREC
350
8E8
  3
ACDBVARIABLEDICTIONARY
350
48D
  0
DICTIONARY
  5
8E6
100
AcDbDictionary
280
     1
  3
ACAD_XREC_ROUNDTRIP
360
8E7
  0
DICTIONARY
  5
913
100
AcDbDictionary
280
     1
  3
ACAD_XREC_ROUNDTRIP
360
914
  0
DICTIONARY
  5
915
100
AcDbDictionary
280
     1
  3
ACAD_XREC_ROUNDTRIP
360
916
  0
DICTIONARY
  5
919
100
AcDbDictionary
280
     1
  3
ACAD_XREC_ROUNDTRIP
360
91A
  0
DICTIONARY
  5
4D2
100
AcDbDictionary
280
     1
  3
ACAD_LAYOUTSELFREF
360
912
  0
DICTIONARY
  5
4D0
100
AcDbDictionary
280
     1
  3
ACAD_LAYOUTSELFREF
360
911
  0
DICTIONARY
  5
8E4
100
AcDbDictionary
280
     1
  3
ACAD_XREC_ROUNDTRIP
360
8E5
  0
DICTIONARY
  5
909
100
AcDbDictionary
280
     1
  3
ACAD_XREC_ROUNDTRIP
360
90A
  0
DICTIONARY
  5
90B
100
AcDbDictionary
280
     1
  3
ACAD_XREC_ROUNDTRIP
360
90C
  0
DICTIONARY
  5
90D
100
AcDbDictionary
280
     1
  3
ACAD_XREC_ROUNDTRIP
360
90E
  0
DICTIONARY
  5
90F
100
AcDbDictionary
280
     1
  3
ACAD_XREC_ROUNDTRIP
360
910
  0
DICTIONARY
  5
46E
102
{ACAD_REACTORS
330
46D
102
}
100
AcDbDictionary
  0
DICTIONARY
  5
49E
102
{ACAD_XDICTIONARY
360
917
102
}
102
{ACAD_REACTORS
330
46D
102
}
100
AcDbDictionary
  3
LAYOUT1
350
4A1
  3
MODEL
350
4A0
  0
DICTIONARY
  5
47B
102
{ACAD_REACTORS
330
46D
102
}
100
AcDbDictionary
  3
STANDARD
350
47C
  0
DICTIONARY
  5
49F
102
{ACAD_REACTORS
330
46D
102
}
100
AcDbDictionary
  0
ACAD_PROXY_OBJECT
  5
49C
102
{ACAD_REACTORS
330
46D
102
}
100
AcDbProxyObject
 90
      499
 91
      501
 93
       86
310
405010041939BDC9B585B0
350
49D
340
49D
 94
        0
  0
DICTIONARY
  5
8E8
102
{ACAD_REACTORS
330
46D
102
}
100
AcDbDictionary
  3
CEPSNTYPE
350
8F2
  3
DIMSTYLEDATA
350
8F6
  3
FINGERPRINTGUID
350
8F3
  3
HYPERLINKBASE
350
8EB
  3
INSUNITS
350
8F1
  3
LAYOUTDICT
350
8ED
  3
LWETCUNION
350
8F0
  3
PLOTSETDICT
350
8EE
  3
PLOTSTYLNAMDICT
350
8EF
  3
PSVPSCALE
350
8F5
  3
PUCSBASE
350
8F9
  3
PUCSORGBACK
350
8FF
  3
PUCSORGBOTTOM
350
8FB
  3
PUCSORGFRONT
350
8FE
  3
PUCSORGLEFT
350
8FC
  3
PUCSORGRIGHT
350
8FD
  3
PUCSORGTOP
350
8FA
  3
PUCSORTHOREF
350
8F7
  3
PUCSORTHOVIEW
350
8F8
  3
STYLESHEET
350
8EC
  3
TSTACKALIGN
350
8E9
  3
TSTACKSIZE
350
8EA
  3
UCSBASE
350
902
  3
UCSORGBACK
350
908
  3
UCSORGBOTTOM
350
904
  3
UCSORGFRONT
350
907
  3
UCSORGLEFT
350
905
  3
UCSORGRIGHT
350
906
  3
UCSORGTOP
350
903
  3
UCSORTHOREF
350
900
  3
UCSORTHOVIEW
350
901
  3
VERSIONGUID
350
8F4
  0
DICTIONARY
  5
48D
102
{ACAD_REACTORS
330
46D
102
}
100
AcDbDictionary
  3
DIMADEC
350
48E
  0
XRECORD
  5
8E7
102
{ACAD_REACTORS
330
8E6
102
}
100
AcDbXrecord
102
EXTNAMES
  1
*ACTIVE
  2
*Active
102
UCS
 74
     0
 71
     1
 10
0.0
 20
0.0
 30
0.0
 10
1.0
 20
0.0
 30
0.0
 10
0.0
 20
0.0
 30
1.0
146
0.0
 79
     3
102
VIEW
281
     0
  0
XRECORD
  5
914
102
{ACAD_REACTORS
330
913
102
}
100
AcDbXrecord
102
PLOTBIT
280
     0
  0
XRECORD
  5
916
102
{ACAD_REACTORS
330
915
102
}
100
AcDbXrecord
102
ACADR14ROUNDTRIP
1000
DSTYLE
1002
{
1070
   276
 70
     2
1070
   277
 70
     5
1070
   279
 70
     2
1070
   289
 70
     2
1002
}
  0
XRECORD
  5
91A
102
{ACAD_REACTORS
330
919
102
}
100
AcDbXrecord
102
ACADR14ROUNDTRIP
1000
DSTYLE
1002
{
1070
   276
 70
     2
1070
   277
 70
     5
1070
   279
 70
     2
1070
   289
 70
     2
1002
}
  0
XRECORD
  5
912
102
{ACAD_REACTORS
330
4D2
102
}
100
AcDbXrecord
340
478
  0
XRECORD
  5
911
102
{ACAD_REACTORS
330
4D0
102
}
100
AcDbXrecord
340
475
  0
XRECORD
  5
8E5
102
{ACAD_REACTORS
330
8E4
102
}
100
AcDbXrecord
102
EXTNAMES
  1
ABDSK390
  2
abdsk390
  0
XRECORD
  5
90A
102
{ACAD_REACTORS
330
909
102
}
100
AcDbXrecord
102
UCS
 74
     0
 71
     1
 10
0.0
 20
0.0
 30
0.0
 10
1.0
 20
0.0
 30
0.0
 10
0.0
 20
1.0
 30
0.0
146
0.0
 79
     0
102
VIEW
281
     0
102
NEWVIEWCONTROL
280
     4
  0
XRECORD
  5
90C
102
{ACAD_REACTORS
330
90B
102
}
100
AcDbXrecord
102
UCS
 74
     0
 71
     1
 10
0.0
 20
0.0
 30
0.0
 10
1.0
 20
0.0
 30
0.0
 10
0.0
 20
1.0
 30
0.0
146
0.0
 79
     1
102
VIEW
281
     0
102
NEWVIEWCONTROL
280
     4
  0
XRECORD
  5
90E
102
{ACAD_REACTORS
330
90D
102
}
100
AcDbXrecord
102
UCS
 74
     0
 71
     1
 10
0.0
 20
0.0
 30
0.0
 10
1.0
 20
0.0
 30
0.0
 10
0.0
 20
0.0
 30
1.0
146
0.0
 79
     3
102
VIEW
281
     0
102
NEWVIEWCONTROL
280
     4
  0
XRECORD
  5
910
102
{ACAD_REACTORS
330
90F
102
}
100
AcDbXrecord
102
UCS
 74
     0
 71
     1
 10
0.0
 20
0.0
 30
0.0
 10
1.0
 20
0.0
 30
0.0
 10
0.0
 20
1.0
 30
0.0
146
0.0
 79
     0
102
VIEW
281
     0
102
NEWVIEWCONTROL
280
     4
  0
DICTIONARY
  5
917
100
AcDbDictionary
280
     1
  3
ACAD_XREC_ROUNDTRIP
360
918
  0
ACAD_PROXY_OBJECT
  5
4A1
102
{ACAD_REACTORS
330
49E
102
}
100
AcDbProxyObject
 90
      499
 91
      503
 93
     2044
310
91D4850204C617365724A65742035303030205365726965732050434C20362C008000000C0BB1B1440000000102F06C510000000000BC1B1440000000002E06C5100000000C0CCFC6A4000000018199D9C501064C6574746572A901406AA427D84144352EEE3F47D11959985D5B1D08148C4D081C195B88185CDCDA59DB9B5
310
95B9D1CCB98DD18A30EDE3B1BBFDBC0FC1D572C8D6D0C833F1A2B3054E9249F0FD074C61796F75743140501A97D7DB4AA43C31EFF91E46EBA53B71EFD1B32A15809809100B2537F8EAD447D02A6A6A00200C0093BD106FC0000F06EE366FABE0000032E846F6A2F44424FF2920002440160B7F435600079000000D00CEECC5
310
43D0
330
475
330
2C
340
0
340
0
 94
        0
  0
ACAD_PROXY_OBJECT
  5
4A0
102
{ACAD_REACTORS
330
49E
102
}
100
AcDbProxyObject
 90
      499
 91
      503
 93
      924
310
91D4850204C617365724A65742035303030205365726965732050434C20362C01AAAAAAAAA547D11959985D5B1D08148C4D081C195B88185CDCDA59DB9B595B9D1CCB98DD18A69054D6F64656C901A800000000000000000000000000000000000000000000A1000000000000008902A6A6AAAA0
330
478
330
0
340
0
340
0
 94
        0
  0
MLINESTYLE
  5
47C
102
{ACAD_REACTORS
330
47B
102
}
100
AcDbMlineStyle
  2
STANDARD
 70
     0
  3

 62
   256
 51
90.0
 52
90.0
 71
     2
 49
0.5
 62
   256
  6
BYLAYER
 49
-0.5
 62
   256
  6
BYLAYER
  0
ACAD_PROXY_OBJECT
  5
49D
102
{ACAD_REACTORS
330
49C
102
}
100
AcDbProxyObject
 90
      499
 91
      502
 93
        0
 94
        0
  0
XRECORD
  5
8F2
102
{ACAD_REACTORS
330
8E8
102
}
100
AcDbXrecord
 90
        0
  0
XRECORD
  5
8F6
102
{ACAD_REACTORS
330
8E8
102
}
100
AcDbXrecord
1000
DSTYLE
1002
{
1070
   276
 70
     2
1070
   277
 70
     5
1070
   279
 70
     2
1070
   289
 70
     2
1002
}
  0
XRECORD
  5
8F3
102
{ACAD_REACTORS
330
8E8
102
}
100
AcDbXrecord
  1
{6E0CF4B5-225E-11D4-A150-00A0CC3303EC}
  0
XRECORD
  5
8EB
102
{ACAD_REACTORS
330
8E8
102
}
100
AcDbXrecord
  1

  0
XRECORD
  5
8F1
102
{ACAD_REACTORS
330
8E8
102
}
100
AcDbXrecord
 90
        0
  0
XRECORD
  5
8ED
102
{ACAD_REACTORS
330
8E8
102
}
100
AcDbXrecord
340
49E
  0
XRECORD
  5
8F0
102
{ACAD_REACTORS
330
8E8
102
}
100
AcDbXrecord
 90
    14877
  0
XRECORD
  5
8EE
102
{ACAD_REACTORS
330
8E8
102
}
100
AcDbXrecord
340
49F
  0
XRECORD
  5
8EF
102
{ACAD_REACTORS
330
8E8
102
}
100
AcDbXrecord
340
49C
  0
XRECORD
  5
8F5
102
{ACAD_REACTORS
330
8E8
102
}
100
AcDbXrecord
 40
0.0
  0
XRECORD
  5
8F9
102
{ACAD_REACTORS
330
8E8
102
}
100
AcDbXrecord
340
0
  0
XRECORD
  5
8FF
102
{ACAD_REACTORS
330
8E8
102
}
100
AcDbXrecord
 10
0.0
 20
0.0
 30
0.0
  0
XRECORD
  5
8FB
102
{ACAD_REACTORS
330
8E8
102
}
100
AcDbXrecord
 10
0.0
 20
0.0
 30
0.0
  0
XRECORD
  5
8FE
102
{ACAD_REACTORS
330
8E8
102
}
100
AcDbXrecord
 10
0.0
 20
0.0
 30
0.0
  0
XRECORD
  5
8FC
102
{ACAD_REACTORS
330
8E8
102
}
100
AcDbXrecord
 10
0.0
 20
0.0
 30
0.0
  0
XRECORD
  5
8FD
102
{ACAD_REACTORS
330
8E8
102
}
100
AcDbXrecord
 10
0.0
 20
0.0
 30
0.0
  0
XRECORD
  5
8FA
102
{ACAD_REACTORS
330
8E8
102
}
100
AcDbXrecord
 10
0.0
 20
0.0
 30
0.0
  0
XRECORD
  5
8F7
102
{ACAD_REACTORS
330
8E8
102
}
100
AcDbXrecord
340
0
  0
XRECORD
  5
8F8
102
{ACAD_REACTORS
330
8E8
102
}
100
AcDbXrecord
 70
     0
  0
XRECORD
  5
8EC
102
{ACAD_REACTORS
330
8E8
102
}
100
AcDbXrecord
  1

  0
XRECORD
  5
8E9
102
{ACAD_REACTORS
330
8E8
102
}
100
AcDbXrecord
 90
        1
  0
XRECORD
  5
8EA
102
{ACAD_REACTORS
330
8E8
102
}
100
AcDbXrecord
 90
       70
  0
XRECORD
  5
902
102
{ACAD_REACTORS
330
8E8
102
}
100
AcDbXrecord
340
0
  0
XRECORD
  5
908
102
{ACAD_REACTORS
330
8E8
102
}
100
AcDbXrecord
 10
0.0
 20
0.0
 30
0.0
  0
XRECORD
  5
904
102
{ACAD_REACTORS
330
8E8
102
}
100
AcDbXrecord
 10
0.0
 20
0.0
 30
0.0
  0
XRECORD
  5
907
102
{ACAD_REACTORS
330
8E8
102
}
100
AcDbXrecord
 10
0.0
 20
0.0
 30
0.0
  0
XRECORD
  5
905
102
{ACAD_REACTORS
330
8E8
102
}
100
AcDbXrecord
 10
0.0
 20
0.0
 30
0.0
  0
XRECORD
  5
906
102
{ACAD_REACTORS
330
8E8
102
}
100
AcDbXrecord
 10
0.0
 20
0.0
 30
0.0
  0
XRECORD
  5
903
102
{ACAD_REACTORS
330
8E8
102
}
100
AcDbXrecord
 10
0.0
 20
0.0
 30
0.0
  0
XRECORD
  5
900
102
{ACAD_REACTORS
330
8E8
102
}
100
AcDbXrecord
340
0
  0
XRECORD
  5
901
102
{ACAD_REACTORS
330
8E8
102
}
100
AcDbXrecord
 70
     3
  0
XRECORD
  5
8F4
102
{ACAD_REACTORS
330
8E8
102
}
100
AcDbXrecord
  1
{08DA22D7-0411-4484-894D-2589E812D918}
  0
DICTIONARYVAR
  5
48E
102
{ACAD_REACTORS
330
48D
102
}
100
DictionaryVariables
280
     0
  1
0
  0
XRECORD
  5
918
102
{ACAD_REACTORS
330
917
102
}
100
AcDbXrecord
102
EXTNAMES
  1
LAYOUT1
  2
Layout1
  1
MODEL
  2
Model
  0
ENDSEC
  0
EOF
